osu file format v14

[General]
AudioFilename: audio.mp3
AudioLeadIn: 0
PreviewTime: 3184
Countdown: 0
SampleSet: Soft
StackLeniency: 0.5
Mode: 0
LetterboxInBreaks: 0
WidescreenStoryboard: 1

[Editor]
DistanceSpacing: 1.3
BeatDivisor: 4
GridSize: 32
TimelineZoom: 1.2

[Metadata]
Title:28-sai no Uta
TitleUnicode:28歳の唄
Artist:Abe Mao
ArtistUnicode:阿部真央
Creator:NeKroMan4ik
Version:Hard
Source:
Tags:j-rock japanese rock jrock acoustic bazz_b -mikan mikan
BeatmapID:3542542
BeatmapSetID:1725859

[Difficulty]
HPDrainRate:4
CircleSize:4
OverallDifficulty:6
ApproachRate:8
SliderMultiplier:1.4
SliderTickRate:1

[Events]
//Background and Video events
0,0,"FMzJo9DVcAIJR6k_waifu2x_photo_scale_tta_1.jpg",0,0
//Break Periods
//Storyboard Layer 0 (Background)
//Storyboard Layer 1 (Fail)
//Storyboard Layer 2 (Pass)
//Storyboard Layer 3 (Foreground)
//Storyboard Layer 4 (Overlay)
//Storyboard Sound Samples

[TimingPoints]
3320,361.44578313253,4,2,0,60,1,0
9091,361.44578313253,4,2,0,70,1,0
14886,361.44578313253,4,2,0,70,1,0
20669,-100,4,2,0,60,0,0
26452,-100,4,2,0,70,0,0
32235,-100,4,2,0,60,0,0
35126,-100,4,2,0,70,0,0
40910,-100,4,2,0,60,0,0
46693,-100,4,2,0,70,0,0
52476,-100,4,2,0,75,0,0
64765,-100,4,2,0,65,0,0
65488,-100,4,2,0,75,0,0
78500,-100,4,2,0,60,0,0

[Colours]
Combo1 : 253,147,187
Combo2 : 213,253,245
Combo3 : 254,197,169
Combo4 : 202,202,255

[HitObjects]
219,243,3320,5,2,1:3:0:0:
355,206,4042,1,2,1:3:0:0:
391,341,4765,1,2,1:3:0:0:
256,378,5488,1,2,1:3:0:0:
223,235,6211,5,2,1:3:0:0:
362,210,6933,1,2,1:3:0:0:
386,348,7656,1,2,1:3:0:0:
248,373,8379,1,2,1:3:0:0:
98,300,9091,6,0,L|114:210,1,70,2|0,1:3|0:0,0:0:0:0:
50,161,9452,2,0,P|15:169|-18:175,1,70,10|0,0:0|1:0,0:0:0:0:
113,74,9813,2,0,P|146:108|217:105,1,105,2|2,1:2|0:0,0:0:0:0:
207,105,10175,2,0,P|199:69|191:15,1,70,10|0,0:0|0:0,0:0:0:0:
295,157,10536,6,0,P|330:158|361:142,1,70,2|0,1:3|0:0,0:0:0:0:
506,189,10898,2,0,P|473:194|437:199,1,70,10|2,0:0|0:0,0:0:0:0:
380,274,11259,2,0,B|363:308|363:308|390:384,1,105,2|0,1:2|0:0,0:0:0:0:
395,378,11621,2,0,L|489:363,1,70,8|2,0:0|0:0,0:0:0:0:
276,318,11982,6,0,P|212:356|172:343,2,105,2|2|2,1:0|0:1|1:0,0:0:0:0:
360,283,12705,2,0,P|342:225|354:123,1,140,2|10,1:0|0:0,0:0:0:0:
497,22,13428,6,0,P|515:52|501:105,1,70,2|0,1:3|0:0,0:0:0:0:
437,137,13789,2,0,L|357:123,1,70,10|0,0:3|0:0,0:0:0:0:
286,166,14151,1,6,0:3:0:0:
286,166,14886,6,0,P|271:128|279:99,1,70,2|2,1:3|0:0,0:0:0:0:
253,22,15247,1,10,0:0:0:0:
253,22,15337,1,2,0:0:0:0:
253,22,15428,1,2,1:2:0:0:
182,79,15608,2,0,L|95:67,1,70,2|0,1:3|1:0,0:0:0:0:
28,33,15970,2,0,P|25:12|19:-7,2,35,10|2|2,0:0|0:0|0:0,0:0:0:0:
30,143,16331,6,0,P|15:172|21:215,1,70,2|2,1:3|0:0,0:0:0:0:
71,289,16693,2,0,L|64:336,3,35,8|2|2|2,0:0|0:0|0:0|0:0,0:0:0:0:
75,338,17054,6,0,B|44:326|17:333|17:333|-4:347|-36:335,2,105,2|2|2,1:0|0:1|0:1,0:0:0:0:
179,384,17777,6,0,P|199:346|188:311,1,70,2|2,1:3|0:0,0:0:0:0:
144,256,18139,1,10,0:0:0:0:
144,256,18229,1,2,0:0:0:0:
144,256,18319,1,2,1:2:0:0:
229,225,18500,2,0,P|265:222|301:258,1,70,2|2,1:3|1:2,0:0:0:0:
354,306,18861,2,0,L|359:340,2,35,10|2|2,0:0|0:0|0:0,0:0:0:0:
433,219,19223,6,0,P|437:174|444:131,1,70,2|2,1:3|0:0,0:0:0:0:
499,79,19584,2,0,L|490:45,3,35,10|2|2|0,0:0|0:0|1:2|0:0,0:0:0:0:
481,36,19946,1,2,1:0:0:0:
481,36,20669,5,2,1:3:0:0:
339,126,21392,1,2,1:3:0:0:
173,126,22114,1,2,1:3:0:0:
31,36,22837,1,2,1:3:0:0:
37,32,23560,5,2,1:3:0:0:
123,176,24283,1,2,1:3:0:0:
35,320,25006,1,2,1:3:0:0:
192,262,25729,1,2,1:3:0:0:
192,262,26452,5,2,1:3:0:0:
271,218,26632,2,0,P|335:224|354:316,1,140,2|2,0:0|1:2,0:0:0:0:
461,384,27175,2,0,P|447:352|451:317,1,70,2|2,1:2|0:0,0:0:0:0:
486,234,27536,2,0,L|528:244,2,35,10|0|0,0:0|0:0|0:0,0:0:0:0:
443,151,27898,5,2,1:2:0:0:
443,151,28078,1,2,0:0:0:0:
475,48,28260,1,10,0:0:0:0:
475,48,28440,1,2,1:2:0:0:
367,67,28620,6,0,P|327:72|251:0,1,140,2|8,1:2|0:0,0:0:0:0:
257,5,29343,1,2,1:2:0:0:
183,67,29524,2,0,L|66:47,1,105,2|0,0:0|0:0,0:0:0:0:
70,42,29885,6,0,P|75:76|63:108,1,70,2|2,1:2|1:2,0:0:0:0:
4,178,30247,1,2,1:2:0:0:
60,319,30428,2,0,P|48:287|54:253,1,70,10|2,0:0|0:0,0:0:0:0:
121,191,30789,6,0,L|201:204,1,70,2|2,1:0|1:0,0:0:0:0:
275,265,31151,1,2,1:0:0:0:
383,248,31331,1,2,1:0:0:0:
347,349,31512,1,2,1:0:0:0:
345,356,31873,1,0,3:0:0:0:
512,253,32235,5,2,1:3:0:0:
359,98,32958,1,2,1:3:0:0:
512,30,33681,1,2,1:3:0:0:
404,206,34404,1,2,1:3:0:0:
404,206,35126,6,0,P|388:252|404:303,1,70,2|2,1:3|0:0,0:0:0:0:
464,341,35488,1,10,0:0:0:0:
464,341,35578,1,2,0:0:0:0:
464,341,35669,1,2,1:2:0:0:
379,372,35849,2,0,P|344:376|301:387,1,70,2|0,1:3|1:0,0:0:0:0:
225,349,36211,2,0,L|217:387,2,35,10|2|2,0:0|0:0|0:2,0:0:0:0:
149,266,36572,6,0,P|144:228|138:195,1,70,2|2,1:3|0:0,0:0:0:0:
205,134,36934,2,0,L|246:143,2,35,8|2|2,0:0|0:2|1:2,0:0:0:0:
132,59,37295,6,0,B|59:80|59:80|81:62,2,105,2|2|2,1:0|0:1|0:1,0:0:0:0:
215,21,38018,6,0,P|250:29|276:51,1,70,2|2,1:3|0:0,0:0:0:0:
348,103,38379,1,10,0:0:0:0:
348,103,38470,1,2,0:0:0:0:
348,103,38560,1,2,1:2:0:0:
288,193,38741,2,0,P|253:201|227:223,1,70,2|2,1:3|1:2,0:0:0:0:
155,274,39102,2,0,L|109:268,2,35,10|2|2,0:0|0:0|0:0,0:0:0:0:
222,363,39464,6,0,P|257:366|290:379,1,70,2|2,1:3|0:0,0:0:0:0:
368,330,39825,2,0,L|362:284,3,35,10|2|2|2,0:0|0:0|1:2|0:0,0:0:0:0:
367,287,40187,1,2,1:0:0:0:
268,72,40910,5,2,1:3:0:0:
387,1,41632,1,2,1:3:0:0:
295,156,42355,1,2,1:3:0:0:
138,64,43078,1,2,1:3:0:0:
39,206,43801,5,2,1:3:0:0:
179,243,44524,1,2,1:3:0:0:
141,384,45247,1,2,1:3:0:0:
0,346,45970,1,2,1:3:0:0:
0,346,46693,6,0,P|42:351|81:383,1,70,2|0,1:3|0:0,0:0:0:0:
171,298,47054,1,10,0:0:0:0:
236,365,47235,1,0,1:0:0:0:
318,319,47416,2,0,P|358:317|400:301,1,70,2|2,1:2|1:2,0:0:0:0:
463,219,47777,5,10,0:0:0:0:
503,125,47958,1,2,0:0:0:0:
445,44,48139,1,2,1:2:0:0:
445,44,48319,6,0,P|385:85|312:70,1,140,2|2,0:0|1:2,0:0:0:0:
218,35,48861,2,0,L|232:104,1,70,10|2,0:0|1:2,0:0:0:0:
168,172,49223,2,0,P|132:161|97:164,1,70,10|0,0:0|0:0,0:0:0:0:
34,245,49584,5,2,1:3:0:0:
92,314,49765,1,2,0:0:0:0:
32,370,49946,2,0,B|-23:379|-23:379|-1:357,1,70,10|2,0:0|1:2,0:0:0:0:
92,314,50307,5,2,1:2:0:0:
165,368,50488,1,0,1:0:0:0:
238,314,50669,2,0,P|271:319|310:323,1,70,10|0,0:2|0:0,0:0:0:0:
412,304,51030,5,2,1:0:0:0:
457,225,51210,1,2,1:0:0:0:
412,146,51391,1,2,1:0:0:0:
321,146,51572,1,2,1:0:0:0:
275,225,51753,1,2,1:0:0:0:
279,231,52114,1,2,0:0:0:0:
100,360,52476,6,0,P|61:345|20:348,1,70,6|0,1:2|1:0,0:0:0:0:
17,334,52747,1,2,0:0:0:0:
8,329,52837,2,0,P|-6:288|5:249,1,70,10|0,0:0|1:0,0:0:0:0:
120,156,53199,2,0,P|114:190|109:225,1,70,10|0,0:0|1:0,0:0:0:0:
201,327,53560,2,0,P|204:292|209:257,1,70,10|0,0:0|1:0,0:0:0:0:
225,242,53831,1,2,0:0:0:0:
234,234,53922,6,0,P|283:256|320:234,1,70,10|0,0:0|1:0,0:0:0:0:
372,325,54283,2,0,P|423:305|434:264,1,70,10|2,0:0|1:2,0:0:0:0:
512,228,54645,2,0,P|493:153|506:77,1,140,10|8,0:0|0:0,0:0:0:0:
278,74,55367,6,0,P|242:61|229:-5,2,105,2|2|2,1:0|0:1|0:1,0:0:0:0:
351,0,56090,6,0,P|406:11|458:14,2,105,2|2|2,1:0|0:1|0:1,0:0:0:0:
369,102,56813,6,0,P|384:142|374:181,1,70,2|0,1:0|0:0,0:0:0:0:
373,178,57084,2,0,L|297:167,1,70,2|0,0:1|0:0,0:0:0:0:
293,177,57355,1,2,0:1:0:0:
211,243,57536,6,0,P|222:308|231:403,1,140,2|2,1:0|0:2,0:0:0:0:
29,314,58259,5,2,1:2:0:0:
84,241,58440,2,0,P|91:183|33:119,1,140,2|2,0:0|1:2,0:0:0:0:
0,15,58982,2,0,P|30:32|65:35,1,70,2|2,1:2|1:2,0:0:0:0:
202,0,59343,1,10,0:0:0:0:
167,84,59524,1,2,0:0:0:0:
243,133,59705,6,0,P|282:118|332:123,1,70,2|2,1:2|0:0,0:0:0:0:
392,82,60066,2,0,P|409:51|410:16,1,70,10|2,0:2|1:2,0:0:0:0:
463,140,60428,2,0,B|483:149|483:149|516:203|465:278,1,140,2|10,1:2|0:0,0:0:0:0:
397,308,60970,1,2,0:0:0:0:
447,384,61151,6,0,P|411:354|311:348,1,140,2|8,1:2|0:2,0:0:0:0:
244,295,61693,1,2,1:2:0:0:
178,357,61873,2,0,P|143:360|108:366,1,70,2|0,1:2|1:0,0:0:0:0:
13,266,62235,2,0,P|47:271|82:275,1,70,10|2,0:2|0:0,0:0:0:0:
168,214,62596,6,0,P|156:179|162:141,1,70,2|2,1:0|1:0,0:0:0:0:
256,38,62958,2,0,P|261:72|265:107,1,70,2|2,1:0|1:0,0:0:0:0:
347,171,63319,5,2,1:0:0:0:
434,153,63500,1,2,1:0:0:0:
452,242,63681,1,2,1:0:0:0:
363,258,63861,1,2,1:0:0:0:
293,346,64042,6,0,P|257:351|226:368,1,70,2|2,1:2|1:2,0:0:0:0:
149,307,64404,2,0,L|157:236,1,70,2|2,1:2|1:2,0:0:0:0:
66,359,64765,1,2,0:0:0:0:
66,359,65488,6,0,P|62:323|56:286,1,70,10|0,0:0|1:0,0:0:0:0:
144,182,65849,2,0,P|148:218|154:255,1,70,10|0,0:0|1:0,0:0:0:0:
246,316,66211,2,0,P|301:276|390:297,1,140,10|8,0:0|0:0,0:0:0:0:
441,339,66753,1,2,1:2:0:0:
501,270,66934,6,0,B|481:193|507:211|487:110,1,140,10|8,0:0|0:0,0:0:0:0:
423,70,67476,1,0,1:0:0:0:
469,0,67657,2,0,P|414:37|325:17,1,140,10|8,0:0|0:0,0:0:0:0:
256,0,68199,1,2,1:2:0:0:
201,87,68379,5,10,0:0:0:0:
201,87,68560,1,2,1:2:0:0:
247,171,68741,1,10,0:0:0:0:
247,171,68922,1,2,1:2:0:0:
193,244,69102,2,0,L|177:338,1,70,10|2,0:0|1:2,0:0:0:0:
245,377,69464,2,0,P|282:364|316:364,1,70,10|0,0:0|1:2,0:0:0:0:
94,271,69825,6,0,B|47:265|0:293|0:293|21:282|35:256,1,140,10|8,0:0|0:0,0:0:0:0:
91,181,70367,1,0,1:2:0:0:
40,50,70548,2,0,P|24:80|28:115,1,70,10|0,0:0|1:0,0:0:0:0:
95,187,70910,5,10,0:0:0:0:
178,152,71090,1,0,1:2:0:0:
245,215,71271,2,0,P|239:250|228:312,1,70,10|0,0:0|1:2,0:0:0:0:
329,384,71632,2,0,P|341:344|330:312,1,70,10|2,0:0|1:2,0:0:0:0:
402,247,71994,2,0,P|477:251|525:191,1,140,10|8,0:0|0:0,0:0:0:0:
458,141,72536,1,2,1:2:0:0:
512,68,72717,6,0,P|502:28|494:-10,1,70,10|0,0:0|0:0,0:0:0:0:
397,61,73078,1,10,0:0:0:0:
317,16,73259,1,2,1:2:0:0:
245,71,73440,2,0,P|210:69|178:55,1,70,10|0,0:0|1:0,0:0:0:0:
45,10,73801,5,10,0:0:0:0:
10,94,73982,1,2,1:2:0:0:
61,169,74163,2,0,P|74:201|76:235,1,70,10|0,0:0|1:0,0:0:0:0:
4,359,74524,2,0,P|36:345|70:343,1,70,10|0,0:0|1:0,0:0:0:0:
156,298,74885,2,0,P|191:306|236:312,1,70,10|0,0:0|1:0,0:0:0:0:
302,377,75247,2,0,L|384:365,1,70,10|0,0:0|1:0,0:0:0:0:
467,298,75608,5,2,1:2:0:0:
512,219,75789,1,2,1:2:0:0:
479,133,75970,1,2,1:2:0:0:
392,107,76150,1,2,1:2:0:0:
317,157,76331,6,0,L|327:237,1,70,2|2,1:2|1:2,0:0:0:0:
209,146,76693,2,0,L|217:76,1,70,2|2,1:0|1:0,0:0:0:0:
125,205,77054,5,2,1:0:0:0:
125,205,77235,1,2,1:0:0:0:
36,157,77416,1,2,1:0:0:0:
36,157,77596,1,2,1:0:0:0:
65,286,77777,1,2,0:0:0:0:
272,71,78500,5,2,1:3:0:0:
429,12,79223,1,2,1:3:0:0:
407,178,79946,1,2,1:3:0:0:
480,328,80669,1,2,1:3:0:0:
288,237,81392,5,6,1:2:0:0:
256,192,81482,12,2,82837,0:0:0:0:
