osu file format v14

[General]
AudioFilename: audio.mp3
AudioLeadIn: 0
PreviewTime: 57867
Countdown: 0
SampleSet: Soft
StackLeniency: 0.7
Mode: 0
LetterboxInBreaks: 0
WidescreenStoryboard: 1

[Editor]
Bookmarks: 15435,30863,44577,58292,72006,85721
DistanceSpacing: 1
BeatDivisor: 4
GridSize: 32
TimelineZoom: 1.9

[Metadata]
Title:Aspanga qaraimyn (Cut Ver.)
TitleUnicode:Аспанға қараймын (Cut Ver.)
Artist:Abai Begei
ArtistUnicode:Абай Бегей
Creator:tadahitotsu
Version:_Hornet's Mahabbat
Source:
Tags:_hornet pop kazakh Қазақ аспанга караймын Ай мүсін мусин ARIDAI казахский other Abay Begey Aspangha qaraymyn qazaq short version
BeatmapID:2559296
BeatmapSetID:1200909

[Difficulty]
HPDrainRate:5.5
CircleSize:3.8
OverallDifficulty:8
ApproachRate:9
SliderMultiplier:1.8
SliderTickRate:1

[Events]
//Background and Video events
0,0,"gg.jpg",0,0
//Break Periods
//Storyboard Layer 0 (Background)
//Storyboard Layer 1 (Fail)
//Storyboard Layer 2 (Pass)
//Storyboard Layer 3 (Foreground)
//Storyboard Layer 4 (Overlay)
//Storyboard Sound Samples

[TimingPoints]
1715,428.571428571429,4,2,1,70,1,0
15429,-100,4,2,1,70,0,0
15641,-55.5555555555556,4,2,1,70,0,0
18856,-100,4,2,1,70,0,0
19070,-55.5555555555556,4,2,1,70,0,0
22285,-100,4,2,1,70,0,0
22499,-55.5555555555556,4,2,1,70,0,0
25713,-100,4,2,1,70,0,0
25928,-55.5555555555556,4,2,1,70,0,0
30856,-100,4,2,1,60,0,0
44570,-71.4285714285714,4,2,1,70,0,0
44999,-55.5555555555556,4,2,1,70,0,0
47999,-71.4285714285714,4,2,1,70,0,0
48428,-41.6666666666667,4,2,1,70,0,0
48856,-55.5555555555556,4,2,1,70,0,0
49285,-55.5555555555556,4,2,1,70,0,0
51428,-45.4545454545455,4,2,1,70,0,0
51856,-55.5555555555556,4,2,1,70,0,0
55285,-45.4545454545455,4,2,1,70,0,0
55713,-55.5555555555556,4,2,1,70,0,0
56570,-41.6666666666667,4,2,1,70,0,0
58286,-50,4,2,1,80,0,1
65143,-50,4,2,1,80,0,1
85715,-45.4545454545455,4,2,1,70,0,0

[Colours]
Combo1 : 153,153,204
Combo2 : 255,176,138
Combo3 : 192,192,192

[HitObjects]
151,342,15429,6,0,L|171:268,1,45,4|0,1:2|0:0,0:0:0:0:
58,186,15643,2,0,P|85:215|125:221,1,80.9999975280763
144,35,15857,1,10,0:0:0:0:
291,250,16072,2,0,P|252:258|217:240,1,80.9999975280763,2|0,0:0|0:0,0:0:0:0:
221,15,16286,6,0,B|233:58|217:92|186:83|165:125|192:184,1,161.999995056153,2|0,1:2|0:0,0:0:0:0:
347,318,16715,2,0,P|373:288|375:248,1,80.9999975280763,10|0,0:0|0:0,0:0:0:0:
265,140,16929,2,0,P|347:138|440:99,1,161.999995056153,2|0,0:0|1:2,0:0:0:0:
291,250,17357,6,0,P|252:258|217:240,1,80.9999975280763,2|0,0:0|0:0,0:0:0:0:
184,118,17572,2,0,P|171:155|138:177,1,80.9999975280763,10|0,0:0|0:0,0:0:0:0:
72,251,17786,2,0,P|59:213|26:191,1,80.9999975280763,2|0,0:0|0:0,0:0:0:0:
190,36,18000,6,0,P|150:38|120:64,1,80.9999975280763,0|0,1:2|0:0,0:0:0:0:
73,130,18215,1,2,0:0:0:0:
184,118,18429,6,0,P|165:153|173:192,1,80.9999975280763,10|0,0:0|0:0,0:0:0:0:
206,266,18643,1,2,0:0:0:0:
442,83,18857,6,0,L|378:90,1,45,0|0,1:2|0:0,0:0:0:0:
383,213,19072,2,0,P|355:184|342:147,1,80.9999975280763
425,292,19286,2,0,P|453:263|466:225,1,80.9999975280763,10|0,0:0|0:0,0:0:0:0:
329,43,19500,1,2,0:0:0:0:
125,66,19715,6,0,B|168:54|202:70|193:101|235:122|294:95,1,161.999995056153,2|0,1:2|0:0,0:0:0:0:
140,148,20143,2,0,P|168:176|206:189,1,80.9999975280763,10|0,0:0|0:0,0:0:0:0:
383,213,20357,2,0,B|364:175|364:175|319:224|348:288,1,161.999995056153,2|0,0:0|1:2,0:0:0:0:
453,71,20786,6,0,L|441:166,1,80.9999975280763,2|0,0:0|0:0,0:0:0:0:
339,19,21000,2,0,L|350:114,1,80.9999975280763,10|0,0:0|0:0,0:0:0:0:
240,106,21215,2,0,P|253:143|282:171,1,80.9999975280763,2|0,0:0|0:0,0:0:0:0:
358,370,21429,6,0,P|395:356|423:327,1,80.9999975280763,2|0,1:2|0:0,0:0:0:0:
462,247,21643,1,0,0:0:0:0:
347,285,21857,6,0,P|354:245|343:206,1,80.9999975280763,10|0,0:0|0:0,0:0:0:0:
292,133,22072,1,2,0:0:0:0:
221,376,22286,6,0,L|284:368,1,45,0|0,1:2|0:0,0:0:0:0:
265,285,22500,1,0,0:0:0:0:
135,222,22715,2,0,P|139:261|164:292,1,80.9999975280763,10|0,0:0|0:0,0:0:0:0:
243,153,22929,2,0,P|238:192|213:223,1,80.9999975280763,2|0,0:0|0:0,0:0:0:0:
49,47,23143,6,0,B|92:56|115:86|92:109|119:148|184:151,1,161.999995056153,2|0,1:2|0:0,0:0:0:0:
6,243,23572,2,0,P|26:208|62:191,1,80.9999975280763,10|0,0:0|0:0,0:0:0:0:
235,65,23786,2,0,P|199:17|208:77,1,161.999995056153,2|0,0:0|1:2,0:0:0:0:
315,191,24215,6,0,P|327:153|317:114,1,80.9999975280763,2|0,0:0|0:0,0:0:0:0:
434,78,24429,2,0,P|407:48|369:37,1,80.9999975280763,10|0,0:0|0:0,0:0:0:0:
243,153,24643,2,0,L|231:248,1,80.9999975280763,2|0,0:0|0:0,0:0:0:0:
391,220,24857,6,0,P|370:255|335:273,1,80.9999975280763,0|0,1:2|0:0,0:0:0:0:
258,317,25072,1,2,0:0:0:0:
471,370,25286,6,0,P|450:335|414:317,1,80.9999975280763,10|0,0:0|0:0,0:0:0:0:
336,273,25500,1,2,0:0:0:0:
89,359,25715,6,0,L|81:295,1,45,0|0,1:2|0:0,0:0:0:0:
180,208,25929,2,0,L|171:289,1,80.9999975280763,2|0,0:0|0:0,0:0:0:0:
336,273,26143,1,10,0:0:0:0:
262,124,26357,2,0,L|271:204,1,80.9999975280763,2|0,0:0|0:0,0:0:0:0:
491,118,26572,6,0,B|467:155|431:166|417:137|371:149|346:209,1,161.999995056153,0|0,1:2|0:0,0:0:0:0:
367,357,27000,2,0,P|401:336|419:300,1,80.9999975280763,10|0,0:0|0:0,0:0:0:0:
428,69,27215,2,0,P|353:33|266:48,1,161.999995056153,2|0,0:0|1:2,0:0:0:0:
184,151,27643,6,0,P|204:185|240:203,1,80.9999975280763,2|0,0:0|0:0,0:0:0:0:
355,191,27857,2,0,L|332:289,1,80.9999975280763,10|0,0:0|0:0,0:0:0:0:
242,367,28072,2,0,P|236:327|252:291,1,80.9999975280763,2|0,0:0|0:0,0:0:0:0:
240,43,28286,6,0,L|259:122,1,80.9999975280763,2|0,1:2|0:0,0:0:0:0:
355,191,28500,1,0,0:0:0:0:
240,203,28715,6,0,P|204:185|184:151,1,80.9999975280763,10|0,0:0|0:0,0:0:0:0:
334,63,28929,1,0,0:0:0:0:
259,122,29143,5,8,1:3:0:0:
259,122,29572,5,8,1:3:0:0:
259,122,30000,5,8,1:3:0:0:
300,105,30107,1,8,1:3:0:0:
344,109,30215,1,0,1:2:0:0:
382,132,30322,1,8,1:3:0:0:
401,172,30429,1,0,1:2:0:0:
443,184,30536,1,8,1:3:0:0:
483,163,30643,1,0,1:2:0:0:
471,72,30857,5,2,1:2:0:0:
462,87,31072,1,2,0:0:0:0:
401,172,31286,5,2,1:2:0:0:
410,187,31500,1,2,0:0:0:0:
479,279,31715,5,2,1:2:0:0:
470,294,31929,1,0,0:0:0:0:
410,187,32143,5,2,1:2:0:0:
401,172,32357,1,2,0:0:0:0:
253,312,32572,6,0,L|347:295,1,90,2|0,1:2|0:0,0:0:0:0:
212,236,33000,2,0,L|306:219,1,90,0|0,1:2|0:0,0:0:0:0:
112,34,33429,6,0,L|206:50,1,90,0|0,1:2|0:0,0:0:0:0:
71,110,33857,2,0,L|165:126,1,90,0|0,1:2|0:0,0:0:0:0:
212,236,34286,5,2,1:2:0:0:
197,245,34500,1,2,0:0:0:0:
253,312,34715,5,2,1:2:0:0:
268,321,34929,1,2,0:0:0:0:
346,361,35143,5,2,1:2:0:0:
362,356,35357,1,0,0:0:0:0:
268,321,35572,5,2,1:2:0:0:
253,312,35786,1,2,0:0:0:0:
402,278,36000,6,0,P|434:309|449:365,1,90,2|0,1:2|0:0,0:0:0:0:
451,205,36429,2,0,P|486:232|506:286,1,90,0|0,1:2|0:0,0:0:0:0:
348,86,36857,6,0,P|316:117|301:173,1,90,0|0,1:2|0:0,0:0:0:0:
299,13,37286,2,0,P|263:40|243:94,1,90,0|0,1:2|0:0,0:0:0:0:
316,254,37715,5,2,1:2:0:0:
331,245,37929,1,2,0:0:0:0:
161,156,38143,5,2,1:2:0:0:
169,140,38357,1,2,0:0:0:0:
245,195,38572,5,2,1:2:0:0:
257,182,38786,1,0,0:0:0:0:
169,140,39000,5,2,1:2:0:0:
161,156,39215,1,2,0:0:0:0:
102,346,39429,6,0,P|144:321|162:270,1,90,2|0,1:2|0:0,0:0:0:0:
238,325,39857,2,0,P|250:277|226:228,1,90,0|0,1:2|0:0,0:0:0:0:
82,43,40286,6,0,P|69:90|93:139,1,90,0|0,1:2|0:0,0:0:0:0:
0,154,40715,2,0,P|25:196|76:213,1,90,0|0,1:2|0:0,0:0:0:0:
174,71,41143,5,2,1:2:0:0:
159,80,41357,1,2,0:0:0:0:
221,249,41572,5,2,1:2:0:0:
236,240,41786,1,2,0:0:0:0:
320,259,42000,5,2,1:2:0:0:
324,242,42215,1,0,0:0:0:0:
236,240,42429,5,2,1:2:0:0:
221,249,42643,1,2,0:0:0:0:
298,347,42857,6,0,L|421:313,1,90,2|0,1:2|0:0,0:0:0:0:
443,207,43286,2,0,L|476:330,1,90,0|0,1:2|0:0,0:0:0:0:
373,68,43715,5,8,1:3:0:0:
360,111,43822,1,0,1:2:0:0:
348,154,43929,1,0,1:2:0:0:
336,197,44036,1,0,1:2:0:0:
323,241,44143,1,0,1:2:0:0:
485,29,44357,1,0,1:2:0:0:
348,154,44572,6,0,L|277:137,1,62.9999980773926,6|0,1:2|0:0,0:0:0:0:
373,68,44786,1,2,0:2:0:0:
409,294,45000,2,0,B|385:198|455:229|430:124,1,161.999995056153,10|2,0:0|0:0,0:0:0:0:
325,295,45429,6,0,P|336:338|365:371,1,80.9999975280763,2|0,1:2|0:0,0:0:0:0:
249,210,45643,2,0,P|238:253|209:286,1,80.9999975280763,0|0,0:2|0:0,0:0:0:0:
9,233,45857,2,0,P|82:207|173:216,1,161.999995056153,10|2,0:0|0:0,0:0:0:0:
358,366,46286,6,0,P|334:334|325:295,1,80.9999975280763,2|0,1:2|0:0,0:0:0:0:
215,281,46500,2,0,P|239:249|249:210,1,80.9999975280763,0|0,0:2|0:0,0:0:0:0:
209,122,46715,5,8,0:0:0:0:
209,122,46929,1,0,0:0:0:0:
52,73,47143,6,0,L|147:81,1,80.9999975280763,0|0,1:2|0:0,0:0:0:0:
43,154,47357,2,0,L|138:162,1,80.9999975280763,0|0,0:2|0:0,0:0:0:0:
209,122,47572,5,8,0:0:0:0:
209,122,47786,1,0,0:0:0:0:
215,281,48000,6,0,L|244:213,1,62.9999980773926,2|0,1:2|0:0,0:0:0:0:
209,122,48215,1,2,0:2:0:0:
401,291,48429,2,0,B|354:258|329:206|329:206|323:264|290:310,1,215.999993408203,10|2,0:0|0:0,0:0:0:0:
454,111,48857,6,0,P|449:157|415:195,1,80.9999975280763,2|0,1:2|0:0,0:0:0:0:
177,148,49072,2,0,P|198:182|233:201,1,80.9999975280763,2|0,0:2|0:0,0:0:0:0:
308,52,49286,2,0,B|281:147|352:117|325:222,1,161.999995056153,8|2,0:0|0:0,0:0:0:0:
212,5,49715,6,0,L|227:91,1,80.9999975280763,2|0,1:2|0:0,0:0:0:0:
112,52,49929,2,0,L|96:138,1,80.9999975280763,0|0,0:2|0:0,0:0:0:0:
177,227,50143,5,8,0:0:0:0:
177,227,50357,1,0,0:0:0:0:
22,158,50572,6,0,P|41:192|82:211,1,80.9999975280763,0|0,1:2|0:0,0:0:0:0:
33,302,50786,2,0,P|70:312|112:297,1,80.9999975280763,0|0,0:2|0:0,0:0:0:0:
177,227,51000,5,8,0:0:0:0:
177,227,51215,1,0,0:0:0:0:
289,313,51429,6,0,B|254:349|254:349|231:305,1,99.0000030212403,2|0,1:2|0:0,0:0:0:0:
271,229,51643,1,2,0:2:0:0:
251,68,51857,2,0,L|272:242,1,161.999995056153,10|2,0:0|0:0,0:0:0:0:
346,24,52286,6,0,L|332:135,1,80.9999975280763,2|0,1:2|0:0,0:0:0:0:
417,123,52500,2,0,L|430:234,1,80.9999975280763,0|0,0:2|0:0,0:0:0:0:
202,148,52715,2,0,P|262:194|347:184,1,161.999995056153,10|2,0:0|0:0,0:0:0:0:
244,1,53143,6,0,L|257:112,1,80.9999975280763,2|0,1:2|0:0,0:0:0:0:
144,212,53357,2,0,P|119:166|127:109,1,80.9999975280763,0|0,0:2|0:0,0:0:0:0:
150,40,53572,5,8,0:0:0:0:
150,40,53786,1,0,0:0:0:0:
202,148,54000,6,0,L|282:157,1,80.9999975280763,0|0,1:2|0:0,0:0:0:0:
67,69,54215,2,0,P|41:100|33:140,1,80.9999975280763,0|0,0:2|0:0,0:0:0:0:
144,212,54429,5,8,0:0:0:0:
144,212,54643,1,0,0:0:0:0:
43,322,54857,6,0,L|52:241,1,80.9999975280763,2|0,1:2|0:0,0:0:0:0:
118,138,55072,1,2,0:2:0:0:
224,256,55286,2,0,B|263:304|263:304|100:293,1,198.000006042481,10|2,0:0|0:0,0:0:0:0:
314,369,55715,6,0,P|340:338|348:298,1,80.9999975280763,2|0,1:2|0:0,0:0:0:0:
435,311,55929,2,0,P|431:270|408:236,1,80.9999975280763,0|0,0:2|0:0,0:0:0:0:
224,256,56143,6,0,P|213:216|223:177,1,80.9999975280763,10|0,0:0|0:0,0:0:0:0:
138,152,56357,2,0,P|158:116|193:95,1,80.9999975280763,2|0,0:0|0:0,0:0:0:0:
307,0,56572,6,0,P|330:95|324:215,1,215.999993408203,2|0,1:2|0:2,0:0:0:0:
118,70,57000,2,0,P|177:146|223:258,1,215.999993408203,10|0,0:0|0:0,0:0:0:0:
473,97,57429,5,8,1:3:0:0:
469,139,57536,1,8,1:3:0:0:
458,180,57643,1,0,1:2:0:0:
444,220,57750,1,8,1:3:0:0:
425,258,57857,1,8,1:2:0:0:
396,303,57965,1,8,1:3:0:0:
350,331,58072,1,2,1:2:0:0:
276,350,58179,1,0,1:2:0:0:
204,327,58286,6,0,L|216:223,1,90,6|0,1:2|0:0,0:0:0:0:
316,202,58500,2,0,L|303:98,1,90,2|0,0:0|0:0,0:0:0:0:
138,158,58715,1,10,0:0:0:0:
304,292,58929,2,0,P|348:286|384:260,1,90,2|0,0:0|0:0,0:0:0:0:
453,50,59143,6,0,P|354:70|180:94,1,270,2|0,1:2|0:0,0:0:0:0:
186,93,59572,2,0,L|302:104,1,90,10|0,0:0|0:0,0:0:0:0:
474,202,59786,6,0,B|490:136|403:83|327:198|450:301,1,270,2|0,0:0|0:0,0:0:0:0:
435,288,60215,2,0,P|395:256|336:267,1,90,2|0,0:0|0:0,0:0:0:0:
308,177,60429,2,0,P|260:195|240:252,1,90,10|0,0:0|0:0,0:0:0:0:
370,338,60643,1,2,0:0:0:0:
111,163,60857,6,0,P|141:274|289:307,1,270,2|0,1:2|0:0,0:0:0:0:
278,310,61286,2,0,L|235:212,1,90,10|0,0:0|0:0,0:0:0:0:
71,95,61500,6,0,B|114:152|195:132|180:86|227:25|332:78,1,270,2|0,0:0|0:0,0:0:0:0:
310,68,61929,2,0,P|300:115|253:151,1,90,2|0,0:0|0:0,0:0:0:0:
151,238,62143,2,0,P|120:206|111:163,1,90,10|0,0:0|0:0,0:0:0:0:
234,24,62357,1,2,0:0:0:0:
371,279,62572,2,0,P|283:263|220:201,2,180,2|2|10,1:2|0:0|0:0,0:0:0:0:
484,26,63215,6,0,P|444:145|462:292,1,270,2|0,0:0|0:0,0:0:0:0:
459,286,63643,2,0,P|435:235|398:211,1,90,2|0,0:0|0:0,0:0:0:0:
220,201,63857,2,0,P|271:176|295:139,1,90,10|0,0:0|0:0,0:0:0:0:
402,76,64072,1,2,0:0:0:0:
322,358,64286,6,0,L|312:269,1,90,2|0,1:2|0:0,0:0:0:0:
313,158,64500,1,0,0:0:0:0:
149,363,64715,2,0,L|161:266,1,90,10|0,0:0|0:0,0:0:0:0:
118,175,64929,1,0,0:0:0:0:
475,193,65143,6,0,P|438:159|394:155,1,90,6|0,1:2|0:0,0:0:0:0:
436,269,65357,2,0,P|392:261|360:230,1,90,2|0,0:0|0:0,0:0:0:0:
313,158,65572,1,10,0:0:0:0:
436,34,65786,2,0,L|448:137,1,90,2|0,0:0|0:0,0:0:0:0:
306,332,66000,6,0,P|225:217|225:62,1,270,2|0,1:2|0:0,0:0:0:0:
217,91,66429,2,0,P|200:143|158:172,1,90,10|0,0:0|0:0,0:0:0:0:
87,323,66643,6,0,B|32:298|19:243|46:188|97:179|97:179|101:217|145:242,1,270,2|0,0:0|0:0,0:0:0:0:
139,238,67072,2,0,P|171:209|171:155,1,90,2|0,0:0|0:0,0:0:0:0:
263,159,67286,2,0,P|252:116|206:89,1,90,10|0,0:0|0:0,0:0:0:0:
133,95,67500,1,2,0:0:0:0:
256,246,67715,6,0,P|352:247|450:185,1,180,2|0,1:2|0:0,0:0:0:0:
199,0,68143,2,0,P|214:94|292:180,1,180,10|0,0:0|0:0,0:0:0:0:
511,200,68572,6,0,P|490:157|458:132,1,90,2|0,1:2|0:0,0:0:0:0:
370,51,68786,2,0,P|343:90|337:130,1,90,2|0,0:0|0:0,0:0:0:0:
311,247,69000,2,0,P|358:250|396:235,1,90,10|0,0:0|0:0,0:0:0:0:
447,81,69215,2,0,P|489:95|520:126,1,90,2|0,0:0|0:0,0:0:0:0:
323,362,69429,6,0,P|212:286|243:147,1,270,2|0,1:2|0:0,0:0:0:0:
226,164,69857,2,0,P|262:191|327:177,1,90,10|0,0:0|0:0,0:0:0:0:
457,118,70072,6,0,B|345:54|244:84|244:84|276:91|292:121,1,270,2|0,0:0|0:0,0:0:0:0:
200,202,70500,2,0,B|201:176|185:158|185:158|207:168|231:163,1,90,2|0,0:0|0:0,0:0:0:0:
291,299,70715,2,0,B|290:273|305:255|305:255|283:265|260:260,1,90,10|0,0:0|0:0,0:0:0:0:
140,357,70929,1,2,1:2:0:0:
121,352,71036,1,8,1:3:0:0:
106,338,71143,5,2,1:2:0:0:
126,312,71250,1,0,0:0:0:0:
132,277,71357,1,0,1:2:0:0:
120,248,71465,1,0,0:0:0:0:
49,184,71572,5,10,1:2:0:0:
37,105,71679,1,8,1:3:0:0:
84,38,71786,1,0,1:2:0:0:
168,18,71893,1,8,1:3:0:0:
218,114,72000,6,0,P|257:137|301:130,1,90,6|0,1:2|0:0,0:0:0:0:
331,211,72215,2,0,P|370:188|386:147,1,90,2|0,0:0|0:0,0:0:0:0:
356,58,72429,1,10,0:0:0:0:
504,40,72643,2,0,L|492:151,1,90,2|0,0:0|0:0,0:0:0:0:
397,331,72857,6,0,B|322:352|297:270|337:220|425:207|490:297,1,270,2|0,1:2|0:0,0:0:0:0:
471,275,73286,2,0,P|470:222|441:179,1,90,10|0,0:0|0:0,0:0:0:0:
271,56,73500,6,0,P|252:180|222:325,1,270,2|0,0:0|0:0,0:0:0:0:
222,321,73929,2,0,P|213:267|187:233,1,90,2|0,0:0|0:0,0:0:0:0:
35,224,74143,2,0,P|44:169|70:135,1,90,10|0,0:0|0:0,0:0:0:0:
136,302,74357,1,2,0:0:0:0:
158,52,74572,6,0,B|189:121|153:186|118:163|85:242|141:309,1,270,2|0,1:2|0:0,0:0:0:0:
136,302,75000,2,0,P|104:262|111:218,1,90,10|0,0:0|0:0,0:0:0:0:
26,105,75215,6,0,P|143:120|292:145,1,270,2|0,0:0|0:0,0:0:0:0:
380,119,75643,2,0,P|378:176|341:227,1,90,2|0,0:0|0:0,0:0:0:0:
225,82,75857,2,0,P|203:136|215:198,1,90,10|0,0:0|0:0,0:0:0:0:
276,247,76072,1,2,0:0:0:0:
311,47,76286,2,0,P|294:139|278:240,2,180,2|2|10,1:2|0:0|0:0,0:0:0:0:
436,322,76929,6,0,P|311:340|287:211,1,270,2|0,0:0|0:0,0:0:0:0:
279,223,77357,2,0,P|301:262|351:278,1,90,2|0,0:0|0:0,0:0:0:0:
378,116,77572,2,0,P|378:160|343:199,1,90,10|0,0:0|0:0,0:0:0:0:
335,39,77786,1,2,0:0:0:0:
200,25,78000,6,0,L|226:119,1,90,2|0,1:2|0:0,0:0:0:0:
378,116,78215,1,0,0:0:0:0:
245,192,78429,2,0,L|219:286,1,90,10|0,0:0|0:0,0:0:0:0:
104,240,78643,1,0,0:0:0:0:
123,0,78857,6,0,L|97:94,1,90,6|0,1:2|0:0,0:0:0:0:
2,103,79072,2,0,L|50:187,1,90,2|0,0:0|0:0,0:0:0:0:
203,57,79286,1,10,0:0:0:0:
104,240,79500,2,0,P|65:264|10:258,1,90,2|0,0:0|0:0,0:0:0:0:
266,357,79715,6,0,P|259:220|165:129,1,270,2|0,1:2|0:0,0:0:0:0:
203,57,80143,2,0,P|144:54|108:78,1,90,10|0,0:0|0:0,0:0:0:0:
104,240,80357,6,0,P|228:261|381:289,1,270,2|0,0:0|0:0,0:0:0:0:
419,216,80786,2,0,P|449:248|458:291,1,90,2|0,0:0|0:0,0:0:0:0:
344,104,81000,2,0,L|334:194,1,90,10|0,0:0|0:0,0:0:0:0:
472,97,81215,1,2,0:0:0:0:
369,286,81429,6,0,P|265:271|233:192,1,180,2|0,1:2|0:0,0:0:0:0:
146,256,81857,2,0,P|151:151|227:112,1,180,10|0,0:0|0:0,0:0:0:0:
399,177,82286,6,0,P|354:195|299:183,1,90,2|0,1:2|0:0,0:0:0:0:
356,27,82500,2,0,P|362:74|336:125,1,90,2|0,0:0|0:0,0:0:0:0:
196,30,82715,2,0,P|244:36|286:74,1,90,10|0,0:0|0:0,0:0:0:0:
219,203,82929,2,0,L|206:99,1,90,2|0,0:0|0:0,0:0:0:0:
330,219,83143,6,0,P|236:308|115:241,1,270,2|0,1:2|0:0,0:0:0:0:
122,255,83572,2,0,P|170:248|213:198,1,90,10|0,0:0|0:0,0:0:0:0:
122,30,83786,6,0,P|33:98|132:173,1,270,2|0,0:0|0:0,0:0:0:0:
246,154,84215,2,0,B|220:155|202:139|202:139|212:161|207:185,1,90,2|0,0:0|0:0,0:0:0:0:
122,255,84429,2,0,B|147:259|167:245|167:245|154:266|156:290,1,90,10|0,0:0|0:0,0:0:0:0:
110,103,84643,1,2,0:0:0:0:
88,330,84857,5,2,1:2:0:0:
195,340,85072,5,0,1:2:0:0:
316,305,85286,5,2,1:2:0:0:
423,209,85500,5,0,1:2:0:0:
446,49,85715,6,0,B|297:62|354:194|173:192,1,297.000009063721,6|0,1:2|0:0,0:0:0:0:
127,152,86143,2,0,P|163:120|211:112,1,99.0000030212403,10|0,0:0|0:0,0:0:0:0:
358,247,86357,1,2,0:0:0:0:
156,267,86572,5,2,1:2:0:0:
161,285,86643,1,2,0:0:0:0:
166,303,86715,1,2,0:0:0:0:
171,322,86786,1,2,0:0:0:0:
133,84,87000,6,0,B|141:142|97:125|119:203,1,99.0000030212403,10|0,0:0|0:0,0:0:0:0:
304,108,87215,2,0,B|271:157|318:160|266:222,1,99.0000030212403,2|0,0:0|0:0,0:0:0:0:
226,39,87429,1,2,1:2:0:0:
226,39,87643,1,0,0:0:0:0:
471,258,87857,6,0,P|448:162|445:64,2,198.000006042481,10|2|2,0:0|0:0|1:2,0:0:0:0:
445,368,88500,1,2,0:0:0:0:
362,295,88715,2,0,P|342:198|303:107,2,198.000006042481,10|2|2,0:0|0:0|1:2,0:0:0:0:
423,159,89357,1,0,0:0:0:0:
307,357,89572,6,0,P|255:344|201:359,1,99.0000030212403,10|0,0:0|0:0,0:0:0:0:
248,233,89786,2,0,P|201:259|145:258,1,99.0000030212403,2|0,0:0|0:0,0:0:0:0:
50,332,90000,5,2,1:2:0:0:
55,313,90072,1,2,0:0:0:0:
60,295,90143,1,2,0:0:0:0:
66,277,90215,1,2,0:0:0:0:
174,140,90429,2,0,P|108:66|29:6,2,198.000006042481,10|2|2,0:0|0:0|1:2,0:0:0:0:
200,347,91072,6,0,P|185:289|207:241,1,99.0000030212403,2|0,0:0|0:0,0:0:0:0:
75,224,91286,2,0,P|117:182|170:177,1,99.0000030212403,10|0,0:0|0:0,0:0:0:0:
119,54,91500,2,0,P|176:70|207:113,1,99.0000030212403,2|0,0:0|0:0,0:0:0:0:
274,296,91715,5,2,1:2:0:0:
301,306,91822,1,2,0:0:0:0:
340,305,91929,1,2,0:0:0:0:
384,283,92036,1,2,0:0:0:0:
406,227,92143,1,10,1:2:0:0:
397,158,92250,1,2,0:0:0:0:
354,91,92357,1,2,0:0:0:0:
266,75,92465,1,2,0:0:0:0:
185,132,92572,6,0,B|363:157|276:17|480:45,1,297.000009063721,6|0,1:2|0:0,0:0:0:0:
511,100,93000,2,0,P|470:124|416:115,1,99.0000030212403,10|0,0:0|0:0,0:0:0:0:
325,207,93215,1,2,0:0:0:0:
443,331,93429,5,2,1:2:0:0:
447,312,93500,1,2,0:0:0:0:
456,295,93572,1,2,0:0:0:0:
469,281,93643,1,2,0:0:0:0:
303,355,93857,6,0,B|245:364|262:320|184:342,1,99.0000030212403,10|0,0:0|0:0,0:0:0:0:
326,188,94072,2,0,B|277:156|274:203|212:151,1,99.0000030212403,2|0,0:0|0:0,0:0:0:0:
174,245,94286,1,2,1:2:0:0:
174,245,94500,1,0,0:0:0:0:
87,103,94715,6,0,B|131:207|45:196|88:295,2,198.000006042481,10|2|2,0:0|0:0|1:2,0:0:0:0:
171,16,95357,1,2,0:0:0:0:
266,87,95572,2,0,B|223:191|309:180|267:278,2,198.000006042481,10|2|2,0:0|0:0|1:2,0:0:0:0:
193,232,96215,1,0,0:0:0:0:
412,84,96429,6,0,P|381:127|337:138,1,99.0000030212403,10|0,0:0|0:0,0:0:0:0:
287,69,96643,2,0,P|318:26|362:15,1,99.0000030212403,2|0,0:0|0:0,0:0:0:0:
307,266,96857,5,2,1:2:0:0:
303,247,96929,1,2,0:0:0:0:
294,230,97000,1,2,0:0:0:0:
281,216,97072,1,2,0:0:0:0:
464,288,97286,2,0,B|357:281|397:358|285:353,2,198.000006042481,10|2|2,0:0|0:0|1:2,0:0:0:0:
201,373,97929,6,0,P|206:313|243:275,1,99.0000030212403,2|0,0:0|0:0,0:0:0:0:
125,214,98143,2,0,P|179:189|230:202,1,99.0000030212403,10|0,0:0|0:0,0:0:0:0:
225,69,98357,2,0,P|273:103|287:154,1,99.0000030212403,2|0,0:0|1:2,0:0:0:0:
323,252,98572,5,2,1:2:0:0:
342,294,98679,1,2,0:0:0:0:
378,319,98786,1,2,0:0:0:0:
423,326,98893,1,2,0:0:0:0:
468,318,99000,5,10,1:2:0:0:
436,243,99107,1,2,1:2:0:0:
488,180,99215,1,2,1:2:0:0:
427,117,99322,1,2,1:2:0:0:
475,36,99429,5,6,1:2:0:0:
