osu file format v14

[General]
AudioFilename: audio.mp3
AudioLeadIn: 0
PreviewTime: 57867
Countdown: 0
SampleSet: Soft
StackLeniency: 0.7
Mode: 0
LetterboxInBreaks: 0
WidescreenStoryboard: 1

[Editor]
Bookmarks: 15435,30863,44577,58292,72006,85721
DistanceSpacing: 1
BeatDivisor: 4
GridSize: 4
TimelineZoom: 1.9

[Metadata]
Title:Aspanga qaraimyn (Cut Ver.)
TitleUnicode:Аспанға қараймын (Cut Ver.)
Artist:Abai Begei
ArtistUnicode:Абай Бегей
Creator:tadahitotsu
Version:Hard
Source:
Tags:_hornet pop kazakh Қазақ аспанга караймын Ай мүсін мусин ARIDAI казахский other Abay Begey Aspangha qaraymyn qazaq short version
BeatmapID:3474426
BeatmapSetID:1200909

[Difficulty]
HPDrainRate:4.5
CircleSize:3.5
OverallDifficulty:5.5
ApproachRate:7
SliderMultiplier:1.5
SliderTickRate:1

[Events]
//Background and Video events
0,0,"gg.jpg",0,0
//Break Periods
//Storyboard Layer 0 (Background)
//Storyboard Layer 1 (Fail)
//Storyboard Layer 2 (Pass)
//Storyboard Layer 3 (Foreground)
//Storyboard Layer 4 (Overlay)
//Storyboard Sound Samples

[TimingPoints]
1715,428.571428571429,4,2,1,70,1,0
15429,-100,4,2,1,70,0,0
30857,-105.263157894737,4,2,1,60,0,0
44572,-105.263157894737,4,2,1,70,0,0
58286,-100,4,2,1,80,0,1
64715,-100,4,2,1,80,0,1
65143,-100,4,2,1,80,0,1
78429,-100,4,2,1,80,0,1
78857,-100,4,2,1,80,0,1
85715,-100,4,2,1,70,0,0

[Colours]
Combo1 : 153,153,204
Combo2 : 255,176,138
Combo3 : 192,192,192

[HitObjects]
57,57,15429,6,0,P|109:44|143:54,1,75,4|0,1:2|0:0,0:0:0:0:
204,96,15857,1,10,0:0:0:0:
204,96,16072,1,2,0:0:0:0:
137,156,16286,2,0,L|115:309,1,150,2|10,1:2|0:0,0:0:0:0:
245,354,16929,6,0,P|317:377|387:344,1,150,2|2,0:0|0:0,0:0:0:0:
348,265,17572,2,0,P|378:242|431:247,1,75,10|2,0:0|0:0,0:0:0:0:
479,302,18000,1,0,1:2:0:0:
511,222,18215,2,0,L|491:146,2,75,2|10|2,0:0|0:0|0:0,0:0:0:0:
420,103,18857,6,0,L|259:80,1,150,0|10,1:2|0:0,0:0:0:0:
197,133,19500,1,2,0:0:0:0:
197,133,19715,2,0,P|209:184|208:219,1,75,2|0,1:2|0:0,0:0:0:0:
266,275,20143,1,10,0:0:0:0:
162,354,20357,6,0,P|102:363|26:308,1,150,2|2,0:0|0:0,0:0:0:0:
21,226,21000,2,0,L|30:143,1,75,10|2,0:0|0:0,0:0:0:0:
105,98,21429,2,0,P|149:98|199:120,1,75,2|0,1:2|0:0,0:0:0:0:
245,48,21857,2,0,P|280:58|318:57,1,75,10|2,0:0|0:0,0:0:0:0:
468,108,22286,6,0,P|489:179|481:206,1,75,0|0,1:2|0:0,0:0:0:0:
429,245,22715,1,10,0:0:0:0:
429,245,22929,1,2,0:0:0:0:
444,333,23143,2,0,L|285:351,1,150,2|10,1:2|0:0,0:0:0:0:
180,282,23786,6,0,P|171:230|211:143,1,150,2|2,0:0|0:0,0:0:0:0:
289,101,24429,2,0,L|276:19,1,75,10|2,0:0|0:0,0:0:0:0:
187,17,24857,1,0,1:2:0:0:
126,84,25072,2,0,P|75:103|38:98,2,75,2|10|2,0:0|0:0|0:0,0:0:0:0:
12,197,25715,6,0,P|63:194|166:210,1,150,0|10,1:2|0:0,0:0:0:0:
219,275,26357,1,2,0:0:0:0:
219,275,26572,2,0,P|260:259|288:226,1,75,0|0,1:2|0:0,0:0:0:0:
269,148,27000,1,10,0:0:0:0:
302,24,27215,6,0,P|369:7|457:39,1,150,2|2,0:0|0:0,0:0:0:0:
474,114,27857,2,0,L|465:194,1,75,10|2,0:0|0:0,0:0:0:0:
381,222,28286,2,0,L|402:373,1,150,2|10,1:2|0:0,0:0:0:0:
255,192,29143,5,8,1:3:0:0:
255,196,30857,6,0,L|234:43,2,142.49999619484,2|2|2,1:2|1:2|1:2,0:0:0:0:
159,337,32143,1,2,1:2:0:0:
159,337,32357,1,2,0:0:0:0:
237,303,32572,6,0,P|384:318|406:312,1,142.49999619484,2|0,1:2|1:2,0:0:0:0:
250,204,33429,2,0,P|397:219|419:213,1,142.49999619484,0|0,1:2|1:2,0:0:0:0:
385,49,34286,6,0,P|446:58|464:153,2,142.49999619484,2|2|2,1:2|1:2|1:2,0:0:0:0:
220,95,35572,1,2,1:2:0:0:
220,95,35786,1,2,0:0:0:0:
163,30,36000,6,0,L|26:69,1,142.49999619484,2|0,1:2|1:2,0:0:0:0:
163,170,36857,2,0,L|26:209,1,142.49999619484,0|0,1:2|1:2,0:0:0:0:
186,269,37715,6,0,P|201:335|285:348,2,142.49999619484,2|2|2,1:2|1:2|1:2,0:0:0:0:
340,195,39000,1,2,1:2:0:0:
340,195,39215,1,2,0:0:0:0:
400,254,39429,6,0,P|424:194|382:121,1,142.49999619484,2|0,1:2|1:2,0:0:0:0:
277,255,40286,2,0,P|253:195|295:122,1,142.49999619484,0|0,1:2|1:2,0:0:0:0:
139,39,41143,6,0,P|223:42|300:33,2,142.49999619484,2|2|2,1:2|1:2|1:2,0:0:0:0:
39,178,42429,1,2,1:2:0:0:
39,178,42643,1,2,0:0:0:0:
115,216,42857,6,0,L|98:361,1,142.49999619484,2|0,1:2|1:2,0:0:0:0:
269,353,43715,2,0,L|260:298,4,35.6249990487099,8|0|0|0|0,1:3|1:2|1:2|1:2|1:2,0:0:0:0:
354,347,44357,1,0,1:2:0:0:
439,340,44572,6,0,L|425:191,1,142.49999619484,6|10,1:2|0:0,0:0:0:0:
474,127,45215,1,2,0:0:0:0:
474,127,45429,2,0,P|434:87|338:97,1,142.49999619484,2|10,1:2|0:0,0:0:0:0:
303,158,46072,1,2,0:0:0:0:
244,219,46286,6,0,L|256:371,1,142.49999619484,2|8,1:2|0:0,0:0:0:0:
143,231,47143,2,0,L|155:383,1,142.49999619484,0|8,1:2|0:0,0:0:0:0:
12,277,48000,6,0,P|19:196|90:168,1,142.49999619484,2|10,1:2|0:0,0:0:0:0:
104,90,48643,1,2,0:0:0:0:
180,35,48857,1,2,1:2:0:0:
180,35,49072,2,0,P|255:41|324:43,1,142.49999619484,2|2,0:2|0:0,0:0:0:0:
396,85,49715,6,0,P|416:148|402:237,1,142.49999619484,2|8,1:2|0:0,0:0:0:0:
269,122,50572,2,0,P|249:185|263:274,1,142.49999619484,0|8,1:2|0:0,0:0:0:0:
393,363,51429,6,0,P|346:352|240:339,1,142.49999619484,2|10,1:2|0:0,0:0:0:0:
170,364,52072,1,2,0:0:0:0:
170,364,52286,2,0,P|129:333|125:235,1,142.49999619484,2|10,1:2|0:0,0:0:0:0:
198,278,52929,1,2,0:0:0:0:
186,194,53143,6,0,B|156:129|156:129|159:38,1,142.49999619484,2|8,1:2|0:0,0:0:0:0:
291,166,54000,2,0,B|261:101|261:101|264:10,1,142.49999619484,0|8,1:2|0:0,0:0:0:0:
417,105,54857,6,0,P|445:164|408:236,1,142.49999619484,2|10,1:2|0:0,0:0:0:0:
334,259,55500,1,2,0:0:0:0:
334,259,55715,2,0,L|189:277,1,142.49999619484,2|10,1:2|0:0,0:0:0:0:
126,330,56357,1,2,0:0:0:0:
56,279,56572,6,0,L|46:202,1,71.2499980974198,2|0,1:2|0:2,0:0:0:0:
99,141,57000,2,0,L|108:70,1,71.2499980974198,10|0,0:0|0:0,0:0:0:0:
187,38,57429,2,0,L|230:33,4,35.6249990487099,8|8|0|8|8,1:3|1:3|1:2|1:3|1:2,0:0:0:0:
199,122,58072,1,2,1:2:0:0:
212,210,58286,5,6,1:2:0:0:
212,210,58500,1,2,0:0:0:0:
298,234,58715,2,0,P|342:228|379:217,1,75,10|2,0:0|0:0,0:0:0:0:
454,252,59143,2,0,P|488:202|450:115,1,150,2|10,1:2|0:0,0:0:0:0:
400,19,59786,6,0,L|232:35,1,150,2|2,0:0|0:0,0:0:0:0:
163,11,60429,1,10,0:0:0:0:
130,94,60643,1,2,0:0:0:0:
44,64,60857,2,0,P|49:112|50:151,1,75,2|0,1:2|0:0,0:0:0:0:
120,194,61286,1,10,0:0:0:0:
36,311,61500,6,0,B|72:327|72:327|192:290,1,150,2|2,0:0|0:0,0:0:0:0:
264,316,62143,2,0,P|276:272|264:232,1,75,10|2,0:0|0:0,0:0:0:0:
201,185,62572,1,2,1:2:0:0:
230,100,62786,1,2,0:0:0:0:
230,100,63000,1,10,0:0:0:0:
337,23,63215,6,0,P|412:32|485:70,1,150,2|2,0:0|0:0,0:0:0:0:
455,151,63857,1,10,0:0:0:0:
395,219,64072,1,2,0:0:0:0:
467,272,64286,2,0,P|419:306|326:278,1,150,2|10,1:2|0:0,0:0:0:0:
93,351,65143,6,0,L|81:250,1,75,6|2,1:2|0:0,0:0:0:0:
27,206,65572,2,0,L|39:105,1,75,10|2,0:0|0:0,0:0:0:0:
102,71,66000,2,0,P|134:49|242:77,1,150,2|10,1:2|0:0,0:0:0:0:
279,196,66643,6,0,P|276:247|265:349,1,150,2|2,0:0|0:0,0:0:0:0:
358,363,67286,2,0,L|437:373,1,75,10|2,0:0|0:0,0:0:0:0:
488,299,67715,2,0,P|502:255|489:218,1,75,2|0,1:2|0:0,0:0:0:0:
430,165,68143,1,10,0:0:0:0:
161,31,68572,6,0,P|167:87|170:136,1,75,2|2,1:2|0:0,0:0:0:0:
81,130,69000,2,0,P|75:186|72:235,1,75,10|2,0:0|0:0,0:0:0:0:
18,276,69429,2,0,P|56:326|152:305,1,150,2|10,1:2|0:0,0:0:0:0:
271,333,70072,6,0,L|298:171,1,150,2|2,0:0|0:0,0:0:0:0:
221,134,70715,1,10,0:0:0:0:
280,66,70929,1,2,1:2:0:0:
280,66,71036,1,8,1:3:0:0:
280,66,71143,1,2,1:2:0:0:
359,107,71357,1,0,1:2:0:0:
406,29,71572,2,0,P|455:24|491:13,1,75,10|0,1:2|1:2,0:0:0:0:
491,176,72000,5,6,1:2:0:0:
491,176,72215,1,2,0:0:0:0:
417,227,72429,2,0,P|425:289|426:318,1,75,10|2,0:0|0:0,0:0:0:0:
352,353,72857,2,0,P|288:367|208:346,1,150,2|10,1:2|0:0,0:0:0:0:
258,214,73500,6,0,L|280:62,1,150,2|2,0:0|0:0,0:0:0:0:
200,28,74143,1,10,0:0:0:0:
111,45,74357,1,2,0:0:0:0:
62,121,74572,2,0,P|105:130|146:142,1,75,2|0,1:2|0:0,0:0:0:0:
119,226,75000,1,10,0:0:0:0:
249,314,75215,6,0,P|239:233|239:146,1,150,2|2,0:0|0:0,0:0:0:0:
276,88,75857,2,0,P|319:75|355:88,1,75,10|2,0:0|0:0,0:0:0:0:
389,162,76286,1,2,1:2:0:0:
461,220,76500,1,2,0:0:0:0:
461,220,76715,1,10,0:0:0:0:
347,283,76929,6,0,L|354:377,1,75,2|0,0:0|1:2,0:0:0:0:
265,337,77357,1,2,0:0:0:0:
265,337,77572,1,10,0:0:0:0:
176,354,77786,1,2,0:0:0:0:
88,372,78000,2,0,P|59:322|56:227,1,150,2|10,1:2|0:0,0:0:0:0:
286,184,78857,6,0,P|316:155|322:93,1,75,6|2,1:2|0:0,0:0:0:0:
260,56,79286,2,0,L|185:46,1,75,10|2,0:0|0:0,0:0:0:0:
94,56,79715,2,0,P|62:94|46:196,1,150,2|10,1:2|0:0,0:0:0:0:
37,340,80357,6,0,P|95:324|213:301,1,150,2|2,0:0|0:0,0:0:0:0:
267,337,81000,2,0,L|344:357,1,75,10|2,0:0|0:0,0:0:0:0:
397,286,81429,2,0,P|415:243|391:189,1,75,2|0,1:2|0:0,0:0:0:0:
350,148,81857,1,10,0:0:0:0:
162,61,82286,6,0,L|61:40,1,75,2|2,1:2|0:0,0:0:0:0:
25,109,82715,2,0,L|40:183,1,75,10|2,0:0|0:0,0:0:0:0:
37,272,83143,2,0,P|107:288|175:241,1,150,2|10,1:2|0:0,0:0:0:0:
333,236,83786,6,0,L|312:82,1,150,2|2,0:0|0:0,0:0:0:0:
245,26,84429,2,0,P|205:33|178:68,1,75,10|2,0:0|0:0,0:0:0:0:
217,140,84857,1,2,1:2:0:0:
149,199,85072,1,0,1:2:0:0:
218,255,85286,1,2,1:2:0:0:
182,337,85500,1,0,1:2:0:0:
308,376,85715,6,0,L|469:340,1,150,6|10,1:2|0:0,0:0:0:0:
472,254,86357,1,2,0:0:0:0:
416,182,86572,1,2,1:2:0:0:
416,182,86679,1,2,0:0:0:0:
416,182,86786,1,2,0:0:0:0:
481,119,87000,2,0,P|440:98|384:100,1,75,10|2,0:0|0:0,0:0:0:0:
324,130,87429,5,2,1:2:0:0:
173,31,87857,2,0,P|115:40|83:52,1,75,10|2,0:0|0:0,0:0:0:0:
40,113,88286,2,0,P|24:169|30:197,1,75,2|2,1:2|0:0,0:0:0:0:
103,231,88715,1,10,0:0:0:0:
103,231,88929,1,2,0:0:0:0:
181,187,89143,5,2,1:2:0:0:
86,340,89572,2,0,P|128:337|165:349,1,75,10|2,0:0|0:0,0:0:0:0:
237,302,90000,1,2,1:2:0:0:
237,302,90107,1,2,0:0:0:0:
237,302,90215,1,2,0:0:0:0:
312,350,90429,2,0,P|329:308|315:263,1,75,10|2,0:0|0:0,0:0:0:0:
355,200,90857,6,0,L|346:118,1,75,2|2,1:2|0:0,0:0:0:0:
369,37,91286,2,0,P|405:12|466:15,1,75,10|2,0:0|0:0,0:0:0:0:
443,105,91715,1,2,1:2:0:0:
443,105,91822,1,2,0:0:0:0:
443,105,91929,1,2,0:0:0:0:
443,105,92036,1,2,0:0:0:0:
443,105,92143,2,0,L|437:160,2,37.5,10|2|2,1:2|0:0|0:0,0:0:0:0:
369,37,92572,6,0,P|329:40|262:119,1,150,6|10,1:2|0:0,0:0:0:0:
324,189,93215,1,2,0:0:0:0:
282,273,93429,1,2,1:2:0:0:
282,273,93536,1,2,0:0:0:0:
282,273,93643,1,2,0:0:0:0:
341,340,93857,2,0,P|293:360|250:359,1,75,10|2,0:0|0:0,0:0:0:0:
193,319,94286,5,2,1:2:0:0:
41,221,94715,2,0,L|33:131,1,75,10|2,0:0|0:0,0:0:0:0:
91,76,95143,2,0,L|165:69,1,75,2|2,1:2|0:0,0:0:0:0:
235,126,95572,1,10,0:0:0:0:
235,126,95786,1,2,0:0:0:0:
301,65,96000,5,2,1:2:0:0:
439,179,96429,2,0,P|434:225|430:259,1,75,10|2,0:0|0:0,0:0:0:0:
358,307,96857,1,2,1:2:0:0:
358,307,96965,1,2,0:0:0:0:
358,307,97072,1,2,0:0:0:0:
276,345,97286,2,0,L|194:333,1,75,10|2,0:0|0:0,0:0:0:0:
145,263,97715,6,0,P|143:214|166:170,1,75,2|2,1:2|0:0,0:0:0:0:
231,149,98143,2,0,P|274:164|315:166,1,75,10|2,0:0|0:0,0:0:0:0:
358,95,98572,1,2,1:2:0:0:
358,95,98679,1,2,0:0:0:0:
358,95,98786,1,2,0:0:0:0:
358,95,98893,1,2,0:0:0:0:
358,95,99000,2,0,L|345:44,2,37.5,10|2|2,1:2|1:2|1:2,0:0:0:0:
443,125,99429,5,6,1:2:0:0:
