osu file format v14

[General]
AudioFilename: audio.mp3
AudioLeadIn: 0
PreviewTime: 62650
Countdown: 0
SampleSet: Soft
StackLeniency: 0.4
Mode: 0
LetterboxInBreaks: 0
WidescreenStoryboard: 1

[Editor]
Bookmarks: 16150,32150,48150,64150,80150,96150,112150,128150,144150,160150,176150,192150
DistanceSpacing: 0.7
BeatDivisor: 4
GridSize: 8
TimelineZoom: 2.400016

[Metadata]
Title:Dancin (KRONO Remix)
TitleUnicode:Dancin (KRONO Remix)
Artist:Aaron Smith feat. Luvli
ArtistUnicode:Aaron Smith feat. Luvli
Creator:Frakturehawkens
Version:Huge Plyukhan Collab
Source:
Tags:tiktok meme dancing house dance pop smozit atix174 Frakturehawkens benqbenq Karanos Snackillzz Twiggykun makisokk Dragonarx Daycore colicen
BeatmapID:1963235
BeatmapSetID:939966

[Difficulty]
HPDrainRate:4
CircleSize:4
OverallDifficulty:8
ApproachRate:9
SliderMultiplier:2
SliderTickRate:1

[Events]
//Background and Video events
0,0,"QEWEWEEQWEW.jpg",0,0
//Break Periods
//Storyboard Layer 0 (Background)
//Storyboard Layer 1 (Fail)
//Storyboard Layer 2 (Pass)
//Storyboard Layer 3 (Foreground)
//Storyboard Sound Samples

[TimingPoints]
150,500,4,2,0,30,1,0
150,-133.333333333333,4,2,0,30,0,0
275,-133.333333333333,4,2,0,30,0,0
900,-133.333333333333,4,2,0,30,0,0
1400,-133.333333333333,4,2,0,30,0,0
1525,-133.333333333333,4,2,0,30,0,0
1900,-133.333333333333,4,2,0,30,0,0
2150,-133.333333333333,4,2,0,30,0,0
3150,-133.333333333333,4,2,0,30,0,0
3400,-133.333333333333,4,2,0,30,0,0
4275,-133.333333333333,4,2,0,30,0,0
4900,-133.333333333333,4,2,0,30,0,0
5400,-133.333333333333,4,2,0,30,0,0
5525,-133.333333333333,4,2,0,30,0,0
5900,-133.333333333333,4,2,0,30,0,0
6150,-200,4,2,0,30,0,0
6275,-200,4,2,0,30,0,0
6900,-133.333333333333,4,2,0,30,0,0
8275,-133.333333333333,4,2,0,30,0,0
8900,-133.333333333333,4,2,0,30,0,0
9525,-133.333333333333,4,2,0,30,0,0
9900,-133.333333333333,4,2,0,30,0,0
10150,-133.333333333333,4,2,0,30,0,0
12275,-133.333333333333,4,2,0,30,0,0
12900,-133.333333333333,4,2,0,30,0,0
13566,-133.333333333333,4,2,0,30,0,0
14150,-133.333333333333,4,2,0,30,0,0
14243,-133.333333333333,4,2,0,30,0,0
14931,-133.333333333333,4,2,0,30,0,0
15275,-133.333333333333,4,2,0,30,0,0
16150,-166.666666666667,4,2,0,30,0,0
32150,-100,4,2,0,50,0,0
32587,-100,4,2,0,5,0,0
32650,-100,4,2,0,50,0,0
33400,-58.8235294117647,4,2,0,50,0,0
33900,-133.333333333333,4,2,0,50,0,0
34087,-133.333333333333,4,2,0,5,0,0
34150,-133.333333333333,4,2,0,50,0,0
34400,-100,4,2,0,50,0,0
35400,-66.6666666666667,4,2,0,50,0,0
35900,-133.333333333333,4,2,0,50,0,0
36087,-133.333333333333,4,2,0,5,0,0
36150,-58.8235294117647,4,2,0,50,0,0
36587,-58.8235294117647,4,2,0,5,0,0
36650,-58.8235294117647,4,2,0,50,0,0
36900,-133.333333333333,4,2,0,50,0,0
37087,-133.333333333333,4,2,0,5,0,0
37150,-133.333333333333,4,2,0,50,0,0
37587,-133.333333333333,4,2,0,5,0,0
37650,-133.333333333333,4,2,0,50,0,0
38650,-66.6666666666667,4,2,0,50,0,0
40900,-100,4,2,0,50,0,0
42900,-133.333333333333,4,2,0,50,0,0
43650,-50,4,2,0,50,0,0
44087,-50,4,2,0,5,0,0
44150,-100,4,2,0,50,0,0
45400,-133.333333333333,4,2,0,50,0,0
45587,-133.333333333333,4,2,0,5,0,0
45650,-66.6666666666667,4,2,0,50,0,0
47150,-133.333333333333,4,2,0,50,0,0
48150,-83.3333333333333,4,2,0,50,0,0
51087,-83.3333333333333,4,2,0,5,0,0
51150,-83.3333333333333,4,2,0,50,0,0
51587,-83.3333333333333,4,2,0,5,0,0
51650,-83.3333333333333,4,2,0,50,0,0
63650,-83.3333333333333,4,2,0,50,0,0
64150,-44.6428571428571,4,2,0,60,0,1
65587,-44.6428571428571,4,2,0,5,0,1
65650,-44.6428571428571,4,2,0,60,0,1
66087,-44.6428571428571,4,2,0,5,0,1
66150,-44.6428571428571,4,2,0,60,0,1
67087,-44.6428571428571,4,2,0,5,0,1
67150,-44.6428571428571,4,2,0,60,0,1
68087,-44.6428571428571,4,2,0,5,0,1
68150,-44.6428571428571,4,2,0,60,0,1
69087,-44.6428571428571,4,2,0,5,0,1
69150,-44.6428571428571,4,2,0,60,0,1
69712,-44.6428571428571,4,2,0,5,0,1
69775,-44.6428571428571,4,2,0,60,0,1
69837,-44.6428571428571,4,2,0,5,0,1
69900,-44.6428571428571,4,2,0,60,0,1
71712,-44.6428571428571,4,2,0,5,0,1
71775,-44.6428571428571,4,2,0,60,0,1
71837,-44.6428571428571,4,2,0,5,0,1
71900,-44.6428571428571,4,2,0,60,0,1
73087,-44.6428571428571,4,2,0,5,0,1
73150,-44.6428571428571,4,2,0,60,0,1
74087,-44.6428571428571,4,2,0,5,0,1
74150,-44.6428571428571,4,2,0,60,0,1
75087,-44.6428571428571,4,2,0,5,0,1
75150,-44.6428571428571,4,2,0,60,0,1
76087,-44.6428571428571,4,2,0,5,0,1
76150,-44.6428571428571,4,2,0,60,0,1
77087,-44.6428571428571,4,2,0,5,0,1
77150,-44.6428571428571,4,2,0,60,0,1
77712,-44.6428571428571,4,2,0,5,0,1
77775,-44.6428571428571,4,2,0,60,0,1
77837,-44.6428571428571,4,2,0,5,0,1
77900,-44.6428571428571,4,2,0,60,0,1
78087,-44.6428571428571,4,2,0,5,0,1
78150,-44.6428571428571,4,2,0,60,0,1
79087,-44.6428571428571,4,2,0,5,0,1
79150,-44.6428571428571,4,2,0,60,0,1
79712,-44.6428571428571,4,2,0,5,0,1
79775,-44.6428571428571,4,2,0,60,0,1
79837,-44.6428571428571,4,2,0,5,0,1
79900,-44.6428571428571,4,2,0,60,0,1
80087,-44.6428571428571,4,2,0,5,0,1
80150,-100,4,2,0,45,0,0
81650,-66.6666666666667,4,2,0,45,0,0
82150,-100,4,2,0,45,0,0
83400,-55.5555555555556,4,2,0,45,0,0
83650,-66.6666666666667,4,2,0,45,0,0
83900,-83.3333333333333,4,2,0,45,0,0
84150,-222.222222222221,4,2,0,45,0,0
84900,-100,4,2,0,45,0,0
88150,-200,4,2,0,45,0,0
89150,-100,4,2,0,45,0,0
96150,-66.6666666666667,4,2,0,45,0,0
96650,-66.6666666666667,4,2,0,45,0,0
110150,-200,4,2,0,45,0,0
111233,-125,4,2,0,45,0,0
111733,-100,4,2,0,45,0,0
112066,-100,4,2,0,5,0,0
112150,-57.1428571428571,4,2,0,60,0,0
128150,-100,4,2,0,30,0,0
129150,-66.6666666666667,4,2,0,30,0,0
129400,-100,4,2,0,30,0,0
129650,-50,4,2,0,30,0,0
129900,-100,4,2,0,30,0,0
130150,-40,4,2,0,30,0,0
130650,-100,4,2,0,30,0,0
131150,-66.6666666666667,4,2,0,30,0,0
131400,-100,4,2,0,30,0,0
131650,-50,4,2,0,30,0,0
131900,-100,4,2,0,30,0,0
132150,-40,4,2,0,30,0,0
132650,-100,4,2,0,30,0,0
133150,-66.6666666666667,4,2,0,30,0,0
133400,-100,4,2,0,30,0,0
133650,-50,4,2,0,30,0,0
133900,-100,4,2,0,30,0,0
134150,-40,4,2,0,30,0,0
134650,-100,4,2,0,30,0,0
135150,-66.6666666666667,4,2,0,30,0,0
135400,-100,4,2,0,30,0,0
135650,-50,4,2,0,30,0,0
135900,-100,4,2,0,30,0,0
136150,-40,4,2,0,30,0,0
136650,-100,4,2,0,30,0,0
137150,-66.6666666666667,4,2,0,30,0,0
137400,-100,4,2,0,30,0,0
137650,-50,4,2,0,30,0,0
137900,-100,4,2,0,30,0,0
138150,-40,4,2,0,30,0,0
138650,-100,4,2,0,30,0,0
139150,-66.6666666666667,4,2,0,30,0,0
139400,-100,4,2,0,30,0,0
139650,-50,4,2,0,30,0,0
139900,-100,4,2,0,30,0,0
140150,-40,4,2,0,30,0,0
140650,-100,4,2,0,30,0,0
141150,-66.6666666666667,4,2,0,30,0,0
141400,-100,4,2,0,30,0,0
141650,-50,4,2,0,30,0,0
141900,-100,4,2,0,30,0,0
142150,-40,4,2,0,30,0,0
142650,-100,4,2,0,30,0,0
143150,-40,4,2,0,30,0,0
144150,-121.951219512195,4,2,0,30,0,0
146150,-89.2857142857143,4,2,0,30,0,0
146900,-71.4285714285714,4,2,0,30,0,0
156650,-83.3333333333333,4,2,0,30,0,0
157400,-100,4,2,0,30,0,0
158150,-86.9565217391304,4,2,0,30,0,0
159150,-133.333333333333,4,2,0,30,0,0
160150,-35.7142857142857,4,2,0,60,0,1
161400,-32.258064516129,4,2,0,60,0,1
161900,-29.4117647058824,4,2,0,60,0,1
162900,-29.4117647058824,4,2,0,60,0,1
163400,-27.0270270270271,4,2,0,60,0,1
163462,-27.0270270270271,4,2,0,5,0,1
163525,-27.0270270270271,4,2,0,60,0,1
163587,-27.0270270270271,4,2,0,5,0,1
163650,-27.0270270270271,4,2,0,60,0,1
164150,-25,4,2,0,60,0,1
164650,-25,4,2,0,60,0,1
165962,-25,4,2,0,5,0,1
166150,-35.7142857142857,4,2,0,60,0,1
166650,-25,4,2,0,60,0,1
168150,-35.7142857142857,4,2,0,60,0,1
169400,-32.258064516129,4,2,0,60,0,1
169900,-29.4117647058824,4,2,0,60,0,1
170900,-27.027027027027,4,2,0,60,0,1
171462,-27.027027027027,4,2,0,5,0,1
171525,-27.027027027027,4,2,0,60,0,1
171587,-27.027027027027,4,2,0,5,0,1
171650,-27.027027027027,4,2,0,60,0,1
172150,-25,4,2,0,60,0,1
174150,-133.333333333333,4,2,0,60,0,0
176150,-26.3157894736842,4,2,0,60,0,0
176525,-58.8235294117647,4,2,0,60,0,0
177150,-35.7142857142857,4,2,0,60,0,0
177525,-40,4,2,0,60,0,0
178150,-25.6410256410256,4,2,0,60,0,0
178650,-90.9090909090909,4,2,0,60,0,0
178900,-45.4545454545455,4,2,0,60,0,0
179275,-34.4827586206897,4,2,0,60,0,0
179650,-27.7777777777778,4,2,0,60,0,0
179900,-26.3157894736842,4,2,0,60,0,0
180400,-142.857142857143,4,2,0,60,0,0
180650,-55.5555555555556,4,2,0,60,0,0
181025,-40,4,2,0,60,0,0
181650,-25.6410256410256,4,2,0,60,0,0
182650,-55.5555555555556,4,2,0,60,0,0
182900,-40,4,2,0,60,0,0
183275,-31.25,4,2,0,60,0,0
184150,-31.25,4,2,0,60,0,0
184525,-31.25,4,2,0,60,0,0
185275,-55.5555555555556,4,2,0,60,0,0
185650,-40,4,2,0,60,0,0
187150,-40,4,2,0,60,0,0
187900,-35.7142857142857,4,2,0,60,0,0
188150,-40,4,2,0,60,0,0
188900,-33.3333333333333,4,2,0,60,0,0
189650,-40,4,2,0,60,0,0
189900,-33.3333333333333,4,2,0,60,0,0
190150,-66.6666666666667,4,2,0,60,0,0
190525,-50,4,2,0,60,0,0
190900,-40,4,2,0,60,0,0
192150,-80,4,2,0,5,0,0

[Colours]
Combo1 : 90,237,116
Combo2 : 243,39,172
Combo3 : 33,181,243
Combo4 : 245,69,69

[HitObjects]
464,56,150,6,0,B|344:58|384:153|270:156,1,225.000008583069,2|2,0:0|0:0,0:0:0:0:
172,47,1150,1,0,0:0:0:0:
172,47,1400,2,0,P|239:23|288:83,1,150.000005722046,0|0,0:0|0:0,0:0:0:0:
273,155,2150,5,2,0:0:0:0:
255,243,2400,1,2,0:0:0:0:
323,301,2650,1,2,0:0:0:0:
419,209,2900,6,0,L|329:208,1,75.0000028610231,2|0,0:0|0:0,0:0:0:0:
255,243,3400,2,0,L|98:246,1,150.000005722046,0|0,0:0|0:0,0:0:0:0:
33,309,4150,6,0,B|-3:253|25:191|25:191|57:132|17:78,1,225.000008583069,2|2,0:0|0:0,0:0:0:0:
123,55,5150,1,0,0:0:0:0:
123,55,5400,2,0,P|173:78|246:14,1,150.000005722046,0|2,0:0|0:0,0:0:0:0:
303,110,6150,6,0,P|271:227|267:278,1,150.000005722046,2|0,0:0|0:0,0:0:0:0:
351,337,7150,1,0,0:0:0:0:
351,337,7400,2,0,L|411:339,1,37.5000014305115,0|0,0:0|0:0,0:0:0:0:
466,292,7650,1,0,0:0:0:0:
317,225,7900,1,0,0:0:0:0:
224,356,8150,6,0,L|-2:371,1,225.000008583069,2|2,0:0|0:0,0:0:0:0:
106,288,9150,5,0,0:0:0:0:
106,288,9400,2,0,L|92:125,1,150.000005722046,0|0,0:0|0:0,0:0:0:0:
155,73,10150,5,2,0:0:0:0:
245,87,10400,1,2,0:0:0:0:
322,31,10650,1,2,0:0:0:0:
374,154,10900,6,0,L|369:249,1,75.0000028610231,2|0,0:0|0:0,0:0:0:0:
464,307,11400,2,0,L|461:263,1,37.5000014305115,0|0,0:0|0:0,0:0:0:0:
393,353,11650,1,0,0:0:0:0:
309,312,11900,1,0,0:0:0:0:
218,363,12150,6,0,B|218:325|203:283|203:283|219:225|219:225|206:183|205:138,1,225.000008583069,2|2,0:0|0:0,0:0:0:0:
255,53,13150,1,0,0:0:0:0:
255,53,13400,2,0,L|407:45,1,150.000005722046,0|2,0:0|0:0,0:0:0:0:
476,132,14150,6,0,B|507:187|454:219|430:283|473:352,1,225.000008583069,2|0,0:0|0:0,0:0:0:0:
351,239,15233,2,0,L|186:248,1,150.000005722046,0|0,0:0|0:0,0:0:0:0:
35,360,16150,1,2,0:0:0:0:
10,371,16650,6,0,P|5:331|17:297,1,59.9999981689454,0|2,0:0|0:0,0:0:0:0:
40,275,17150,1,0,0:0:0:0:
40,275,17400,2,0,L|28:152,1,119.999996337891,0|0,0:0|0:0,0:0:0:0:
100,31,18150,6,0,P|133:27|168:34,1,59.9999981689454,2|2,0:0|0:0,0:0:0:0:
215,93,18650,2,0,P|244:97|274:92,1,59.9999981689454,2|2,0:0|0:0,0:0:0:0:
351,58,19150,1,0,0:0:0:0:
351,58,19400,2,0,P|406:39|384:93,1,119.999996337891,0|0,0:0|0:0,0:0:0:0:
318,195,20150,6,0,L|234:202,1,59.9999981689454,2|0,0:0|0:0,0:0:0:0:
181,166,20650,2,0,L|97:159,1,59.9999981689454,0|2,0:0|0:0,0:0:0:0:
37,156,21150,1,0,0:0:0:0:
37,156,21400,2,0,B|20:210|20:210|24:280,1,119.999996337891,0|2,0:0|0:0,0:0:0:0:
144,350,22150,6,0,B|175:341|175:341|207:348,1,59.9999981689454,2|0,0:0|0:0,0:0:0:0:
281,373,22650,1,0,0:0:0:0:
355,333,22900,1,2,0:0:0:0:
283,288,23150,1,0,0:0:0:0:
283,288,23400,2,0,L|277:143,1,119.999996337891,0|0,0:0|0:0,0:0:0:0:
300,13,24150,1,2,0:0:0:0:
378,43,24650,6,0,P|413:40|455:45,1,59.9999981689454,0|2,0:0|0:0,0:0:0:0:
493,105,25150,1,0,0:0:0:0:
493,105,25400,2,0,P|484:165|493:237,1,119.999996337891,0|0,0:0|0:0,0:0:0:0:
406,342,26150,6,0,L|344:373,1,59.9999981689454,2|2,0:0|0:0,0:0:0:0:
282,321,26650,2,0,L|215:339,1,59.9999981689454,2|0,0:0|0:0,0:0:0:0:
145,366,27150,1,0,0:0:0:0:
145,366,27400,2,0,B|78:327|86:387|4:347,1,119.999996337891,0|0,0:0|0:0,0:0:0:0:
5,215,28150,1,2,0:0:0:0:
5,215,28900,6,0,P|-4:159|4:93,1,119.999996337891,2|0,0:0|0:0,0:0:0:0:
47,24,29650,1,2,0:0:0:0:
177,129,30150,1,2,0:0:0:0:
309,26,30650,2,0,P|399:12|344:96,1,239.999992675781,0|0,0:0|0:0,0:0:0:0:
29,357,32150,6,0,P|99:317|199:310,1,175,6|0,1:0|0:0,0:0:0:0:
204,317,32650,1,8,1:0:0:0:
346,96,32900,2,0,P|333:128|321:200,1,100,2|0,0:0|1:0,0:0:0:0:
208,46,33400,2,0,P|205:130|226:213,1,170.000003242493,0|8,0:0|1:0,0:0:0:0:
399,241,33900,2,0,P|418:239|445:205,1,56.2500021457673,0|0,0:0|0:0,0:0:0:0:
438,206,34150,5,2,1:0:0:0:
400,349,34400,2,0,P|352:332|304:320,2,100,2|10|2,0:0|1:0|0:0,0:0:0:0:
204,317,35150,1,0,1:0:0:0:
148,384,35400,6,0,P|161:308|172:208,1,150.000005722046,0|8,0:0|1:0,0:0:0:0:
39,18,35900,2,0,P|44:44|52:90,1,56.2500021457673,0|0,0:0|0:0,0:0:0:0:
59,79,36150,6,0,B|106:123|147:78|184:26|238:62|293:108|340:52,1,297.500005674362,2|0,1:0|0:0,0:0:0:0:
341,42,36650,1,8,1:0:0:0:
155,0,36900,2,0,P|145:18|139:61,1,56.2500021457673,2|0,0:0|0:0,0:0:0:0:
145,61,37150,1,0,1:0:0:0:
282,120,37400,2,0,P|264:131|238:165,1,56.2500021457673,0|0,0:0|0:0,0:0:0:0:
242,167,37650,1,10,1:0:0:0:
158,141,37900,1,2,0:0:0:0:
204,317,38150,5,2,1:0:0:0:
211,325,38400,1,0,0:0:0:0:
313,313,38650,6,0,B|353:285|318:383|284:377|140:213|107:207|72:305|112:278,3,300.000011444092,8|0|8|2,1:0|1:0|1:0|1:0,0:0:0:0:
410,372,40650,1,8,1:0:0:0:
432,172,40900,2,0,P|417:220|410:270,1,100,2|0,0:0|1:0,0:0:0:0:
355,133,41400,1,0,0:0:0:0:
494,107,41650,1,8,1:0:0:0:
502,115,41900,1,0,0:0:0:0:
286,77,42150,5,2,1:0:0:0:
346,141,42400,1,2,0:0:0:0:
304,266,42650,1,10,1:0:0:0:
297,274,42900,2,0,P|282:221|284:174,2,75.0000028610231,2|0|0,0:0|1:0|0:0,0:0:0:0:
204,281,43650,2,0,B|92:293|116:411|189:379|242:265|172:287|150:188|217:123,1,350,8|0,1:0|0:0,0:0:0:0:
204,124,44150,6,0,B|201:60|170:96|169:34,1,100,2|0,1:0|0:0,0:0:0:0:
99,233,44650,1,8,1:0:0:0:
92,240,44900,2,0,B|72:178|51:221|34:162,1,100,2|0,0:0|1:0,0:0:0:0:
40,32,45400,2,0,P|66:42|72:68,1,56.2500021457673,0|0,0:0|0:0,0:0:0:0:
72,67,45650,2,0,P|166:84|267:112,1,150.000005722046,10|2,1:0|0:0,0:0:0:0:
281,201,46150,5,2,0:0:0:0:
283,194,46400,1,0,0:0:0:0:
288,200,46650,1,0,0:0:0:0:
348,382,47150,6,0,P|357:294|369:216,1,150.000005722046,0|0,0:0|0:0,0:0:0:0:
481,49,48150,6,0,B|507:74|507:74|459:78|459:78|451:83|451:83|416:86|416:86|407:83|407:83|324:90,1,179.999994506836,6|0,1:0|0:0,0:0:0:0:
338,89,48650,1,8,1:0:0:0:
338,89,48900,5,2,0:0:0:0:
430,224,49150,1,0,1:0:0:0:
245,188,49400,1,0,0:0:0:0:
334,224,49650,1,8,1:0:0:0:
258,283,49900,1,0,0:0:0:0:
258,283,50150,6,0,B|213:311|160:291|189:291|128:258|71:298,1,179.999994506836,2|0,1:0|0:0,0:0:0:0:
60,311,50650,1,10,1:0:0:0:
297,353,50900,6,0,P|328:322|333:272,1,89.9999972534181,2|0,0:0|0:0,0:0:0:0:
326,246,51150,1,0,1:0:0:0:
236,109,51400,6,0,P|204:139|199:189,1,89.9999972534181,0|0,0:0|0:0,0:0:0:0:
207,216,51650,1,8,1:0:0:0:
477,178,51900,5,0,0:0:0:0:
477,178,52150,6,0,B|405:171|405:171|387:159|387:159|277:149,1,179.999994506836,2|0,1:0|0:0,0:0:0:0:
267,148,52650,1,8,1:0:0:0:
267,148,52900,5,2,0:0:0:0:
368,311,53150,1,0,1:0:0:0:
395,109,53400,1,0,0:0:0:0:
318,230,53650,1,10,1:0:0:0:
216,66,53900,1,2,0:0:0:0:
216,66,54150,6,0,B|159:32|93:50|93:50|128:56|145:81,1,179.999994506836,2|0,1:0|0:0,0:0:0:0:
80,120,54650,1,8,1:0:0:0:
80,120,54900,5,2,0:0:0:0:
266,174,55150,1,0,1:0:0:0:
80,228,55400,1,0,0:0:0:0:
56,235,55525,1,0,0:0:0:0:
33,241,55650,1,8,1:0:0:0:
181,284,55900,1,0,0:0:0:0:
181,284,56150,6,0,B|209:258|209:258|214:202|214:202|223:187|223:187|231:96,1,179.999994506836,6|0,1:0|0:0,0:0:0:0:
232,80,56650,1,8,1:0:0:0:
232,80,56900,5,2,0:0:0:0:
305,251,57150,1,0,1:0:0:0:
319,144,57400,1,0,0:0:0:0:
207,295,57650,1,10,1:0:0:0:
133,122,57900,1,0,0:0:0:0:
133,122,58150,6,0,B|111:151|111:151|159:147|159:147|167:151|167:151|203:147|203:147|211:143|211:143|294:135,1,179.999994506836,2|0,1:0|0:0,0:0:0:0:
280,137,58650,1,10,1:0:0:0:
280,137,58900,5,2,0:0:0:0:
188,32,59150,1,0,1:0:0:0:
116,152,59400,1,0,0:0:0:0:
86,156,59525,1,0,0:0:0:0:
57,148,59650,1,10,1:0:0:0:
144,268,59900,1,0,0:0:0:0:
144,268,60150,6,0,B|185:255|224:270|224:270|245:260|245:260|284:272|330:252,1,179.999994506836,2|0,1:0|0:0,0:0:0:0:
352,248,60650,1,8,1:0:0:0:
352,248,60900,5,2,0:0:0:0:
176,344,61150,2,0,B|152:328|152:328|132:240,1,119.999996337891,0|0,1:0|0:0,0:0:0:0:
232,80,61650,2,0,B|256:96|256:96|276:184,1,119.999996337891,10|0,1:0|0:0,0:0:0:0:
108,80,62150,5,2,0:0:0:0:
256,192,62400,12,0,63775,0:0:0:0:
425,305,64150,6,0,B|338:253|269:276|263:314|279:344|324:352|360:283,2,224.000002734375,6|8|8,1:0|0:0|1:0,0:0:0:0:
311,200,64900,2,0,P|439:223|465:239,1,112.000001367188,8|0,0:0|0:0,0:0:0:0:
219,248,65150,2,0,P|91:271|65:287,1,112.000001367188,0|0,1:0|0:0,0:0:0:0:
272,100,65400,6,0,B|287:64|287:64|336:60|336:60|330:100|330:100|274:127,1,168.000002050781,8|0,0:0|0:0,0:0:0:0:
262,130,65650,1,10,1:0:0:0:
158,99,65900,2,0,B|156:66|156:66|137:136|68:195,1,168.000002050781,8|0,0:0|0:0,0:0:0:0:
19,273,66150,6,0,B|35:234|72:236|89:264|63:347|133:372|161:365|184:345|168:294,2,224.000002734375,2|8|8,1:0|0:0|1:0,0:0:0:0:
352,209,66900,2,0,P|277:208|164:236,1,168.000002050781,8|0,0:0|0:0,0:0:0:0:
171,246,67150,2,0,P|235:256|296:283,1,112.000001367188,0|0,1:0|0:0,0:0:0:0:
384,349,67400,1,8,0:0:0:0:
401,344,67462,1,0,0:0:0:0:
386,330,67525,1,0,0:0:0:0:
480,166,67650,2,0,L|449:273,1,112.000001367188,10|0,1:0|0:0,0:0:0:0:
383,46,67900,2,0,B|365:111|365:111|370:142|370:142|347:226,1,168.000002050781,8|0,0:0|0:0,0:0:0:0:
304,288,68150,6,0,B|233:244|271:152|271:152|240:178|192:167,2,224.000002734375,2|8|8,1:0|0:0|1:0,0:0:0:0:
104,205,68900,2,0,B|91:277|122:309|122:309|160:295|172:262,1,168.000002050781,8|0,0:0|0:0,0:0:0:0:
179,258,69150,2,0,P|200:311|213:364,1,112.000001367188,0|0,1:0|0:0,0:0:0:0:
3,196,69400,2,0,L|143:177,1,112.000001367188,8|0,0:0|0:0,0:0:0:0:
45,43,69650,2,0,P|53:86|59:135,1,56.0000006835938,10|0,1:0|0:0,0:0:0:0:
138,109,69775,2,0,P|142:81|147:53,1,56.0000006835938,0|0,0:0|0:0,0:0:0:0:
225,112,69900,2,0,P|246:178|257:236,1,112.000001367188,8|0,0:0|0:0,0:0:0:0:
342,359,70150,6,0,B|359:297|342:239|342:239|406:228|406:228|373:272,2,224.000002734375,2|8|8,1:0|0:0|1:0,0:0:0:0:
147,309,70900,2,0,P|208:294|261:299,1,112.000001367188,8|0,0:0|0:0,0:0:0:0:
59,184,71150,2,0,L|30:307,1,112.000001367188,0|0,1:0|0:0,0:0:0:0:
198,215,71400,2,0,L|169:92,1,112.000001367188,8|0,0:0|0:0,0:0:0:0:
382,156,71650,2,0,L|288:175,1,56.0000006835938,8|0,1:0|0:0,0:0:0:0:
408,68,71775,2,0,L|462:56,1,56.0000006835938,0|0,0:0|0:0,0:0:0:0:
470,164,71900,2,0,P|448:217|378:240,1,112.000001367188,8|0,0:0|0:0,0:0:0:0:
262,86,72150,6,0,B|264:113|246:139|246:139|252:152|252:152|232:186|249:226|249:226|242:242|242:242|264:263|251:345,2,224.000002734375,2|8|8,1:0|0:0|1:0,0:0:0:0:
39,205,72900,2,0,P|108:213|141:307,1,168.000002050781,8|0,0:0|0:0,0:0:0:0:
146,319,73150,2,0,B|106:331|106:331|15:309,1,112.000001367188,0|0,1:0|0:0,0:0:0:0:
175,164,73400,2,0,P|118:131|24:126,1,112.000001367188,8|0,0:0|0:0,0:0:0:0:
290,103,73650,2,0,L|259:260,1,112.000001367188,10|0,1:0|0:0,0:0:0:0:
417,206,73900,2,0,B|401:159|401:159|428:28,1,168.000002050781,8|0,0:0|0:0,0:0:0:0:
435,23,74150,6,0,B|397:30|366:13|366:13|307:83|203:63,2,224.000002734375,2|8|8,1:0|0:0|1:0,0:0:0:0:
175,164,74900,2,0,B|132:109|132:109|129:80|129:80|76:2,1,168.000002050781,8|0,0:0|0:0,0:0:0:0:
75,8,75150,2,0,P|76:62|64:136,1,112.000001367188,0|0,1:0|0:0,0:0:0:0:
28,249,75400,1,8,0:0:0:0:
24,262,75462,1,0,0:0:0:0:
29,274,75525,1,0,0:0:0:0:
126,361,75650,2,0,P|125:305|132:249,1,112.000001367188,10|0,1:0|0:0,0:0:0:0:
237,384,75900,2,0,B|241:329|241:329|219:273|249:207,1,168.000002050781,8|0,0:0|0:0,0:0:0:0:
259,205,76150,6,0,B|325:232|346:298|346:298|386:330|434:309,2,224.000002734375,2|8|8,1:0|0:0|1:0,0:0:0:0:
432,206,76900,2,0,B|456:231|425:257|357:207|416:106,1,168.000002050781,8|0,0:0|0:0,0:0:0:0:
422,97,77150,2,0,P|356:120|299:117,1,112.000001367188,0|0,1:0|0:0,0:0:0:0:
160,42,77400,2,0,L|278:27,1,112.000001367188,8|0,0:0|0:0,0:0:0:0:
117,169,77650,2,0,L|103:103,1,56.0000006835938,10|0,1:0|0:0,0:0:0:0:
35,36,77775,2,0,L|23:90,1,56.0000006835938,0|0,0:0|0:0,0:0:0:0:
41,208,77900,2,0,P|91:258|187:201,1,168.000002050781,8|0,0:0|0:0,0:0:0:0:
188,218,78150,6,0,B|156:285|189:340|189:340|308:360,2,224.000002734375,2|8|8,1:0|0:0|1:0,0:0:0:0:
389,273,78900,2,0,B|287:256|287:256|288:225|304:188,1,168.000002050781,8|0,0:0|0:0,0:0:0:0:
311,177,79150,2,0,P|359:169|422:175,1,112.000001367188,0|0,1:0|0:0,0:0:0:0:
186,328,79400,2,0,P|179:272|187:217,1,112.000001367188,8|0,0:0|0:0,0:0:0:0:
449,103,79650,6,0,L|375:91,1,56.0000006835938,8|0,1:0|0:0,0:0:0:0:
307,20,79775,2,0,L|362:11,1,56.0000006835938,0|0,0:0|0:0,0:0:0:0:
252,109,79900,2,0,B|161:88|201:57|92:30,1,168.000002050781,8|0,0:0|0:0,0:0:0:0:
86,32,80150,5,6,1:0:0:0:
450,57,80650,5,0,1:0:0:0:
450,57,80900,2,0,P|423:60|397:75,1,50,2|0,0:0|0:0,0:0:0:0:
329,56,81150,2,0,P|317:86|315:108,1,50,0|0,1:0|0:0,0:0:0:0:
247,142,81400,2,0,P|257:174|277:195,1,50,0|0,0:0|0:0,0:0:0:0:
496,249,81650,6,0,B|505:183|450:133|450:133|426:191|348:189,1,225.000008583069,0|0,1:0|0:0,0:0:0:0:
322,344,82150,6,0,L|338:278,1,50,2|0,1:0|0:0,0:0:0:0:
237,354,82400,2,0,L|251:295,1,50,2|0,0:0|0:0,0:0:0:0:
178,209,82650,1,2,1:0:0:0:
363,280,82900,1,2,0:0:0:0:
158,368,83150,2,0,L|175:296,1,50,0|0,1:0|0:0,0:0:0:0:
93,188,83400,6,0,P|143:190|183:214,1,89.9999972534181,0|0,0:0|0:0,0:0:0:0:
281,113,83650,6,0,P|229:122|202:149,1,75.0000028610231,0|0,1:0|0:0,0:0:0:0:
104,46,83900,6,0,P|142:48|164:61,1,59.9999981689454,0|0,0:0|0:0,0:0:0:0:
282,0,84150,6,0,P|250:3|222:18,1,44.999998626709,2|0,1:0|0:0,0:0:0:0:
104,46,84650,5,0,1:0:0:0:
104,46,84900,2,0,P|117:67|126:95,1,50,2|0,0:0|0:0,0:0:0:0:
39,175,85150,2,0,P|37:145|45:121,1,50,0|0,1:0|0:0,0:0:0:0:
154,242,85400,1,0,0:0:0:0:
154,242,85650,2,0,P|84:247|39:327,1,150,2|0,1:0|0:0,0:0:0:0:
53,324,86150,6,0,P|80:335|96:351,1,50,2|0,1:0|0:0,0:0:0:0:
225,342,86400,2,0,P|200:344|176:351,1,50,0|0,0:0|0:0,0:0:0:0:
312,375,86650,6,0,L|444:356,2,100,0|2|0,1:0|0:0|1:0,0:0:0:0:
348,235,87400,6,0,L|354:293,1,50,0|0,0:0|0:0,0:0:0:0:
426,202,87650,2,0,L|433:265,1,50,0|0,1:0|0:0,0:0:0:0:
286,117,87900,6,0,L|281:178,1,50,0|0,0:0|0:0,0:0:0:0:
216,72,88150,2,0,L|209:130,1,50,2|0,1:0|0:0,0:0:0:0:
469,47,88650,5,0,1:0:0:0:
469,47,89150,2,0,B|430:92|430:92|274:63,1,200,0|0,1:0|1:0,0:0:0:0:
214,52,89900,1,0,0:0:0:0:
148,178,90150,2,0,B|187:133|187:133|343:162,1,200,2|2,1:0|1:0,0:0:0:0:
293,276,90900,6,0,L|222:258,1,50,2|0,0:0|0:0,0:0:0:0:
105,297,91150,2,0,L|158:313,1,50,0|0,1:0|0:0,0:0:0:0:
417,320,91400,6,0,L|346:302,1,50,0|0,0:0|0:0,0:0:0:0:
229,341,91650,2,0,L|282:357,1,50,0|0,1:0|0:0,0:0:0:0:
428,319,91900,2,0,L|365:297,1,50,0|0,0:0|0:0,0:0:0:0:
303,272,92150,1,2,1:0:0:0:
455,209,92650,5,0,1:0:0:0:
296,111,92900,5,2,0:0:0:0:
452,189,93150,1,0,1:0:0:0:
232,28,93400,1,0,0:0:0:0:
471,82,93650,1,2,1:0:0:0:
139,134,93900,1,2,0:0:0:0:
392,33,94150,1,2,0:0:0:0:
172,268,94400,1,0,0:0:0:0:
317,49,94650,1,0,0:0:0:0:
222,365,94900,1,2,0:0:0:0:
245,94,95150,1,0,0:0:0:0:
420,326,95400,1,0,0:0:0:0:
281,236,95650,1,0,0:0:0:0:
512,119,96150,6,0,B|386:78|421:159|287:116,1,225.000008583069,6|0,1:0|0:0,0:0:0:0:
264,105,96650,2,0,P|231:68|223:19,1,75.0000028610231,8|0,1:0|0:0,0:0:0:0:
165,259,96900,2,0,P|198:222|206:173,1,75.0000028610231,2|0,0:0|0:0,0:0:0:0:
160,112,97150,2,0,P|111:101|65:119,1,75.0000028610231,0|0,1:0|0:0,0:0:0:0:
35,189,97400,2,0,P|50:236|88:267,1,75.0000028610231,0|0,0:0|0:0,0:0:0:0:
256,294,97650,1,8,1:0:0:0:
48,218,97900,1,0,0:0:0:0:
285,302,98150,6,0,B|433:319|376:258|505:270,1,225.000008583069,2|0,1:0|0:0,0:0:0:0:
461,362,98650,2,0,P|412:293|408:269,1,75.0000028610231,10|0,1:0|0:0,0:0:0:0:
440,111,98900,1,2,0:0:0:0:
412,267,99150,1,0,1:0:0:0:
257,240,99400,1,0,0:0:0:0:
284,84,99650,1,8,1:0:0:0:
319,334,99900,1,0,0:0:0:0:
78,244,100150,6,0,B|46:120|106:143|79:20,1,225.000008583069,2|0,1:0|0:0,0:0:0:0:
180,83,100650,2,0,P|262:92|296:77,1,75.0000028610231,8|0,1:0|0:0,0:0:0:0:
360,57,100900,2,0,P|397:56|432:67,1,75.0000028610231,2|0,0:0|0:0,0:0:0:0:
358,209,101150,2,0,P|320:209|285:198,1,75.0000028610231,0|0,1:0|0:0,0:0:0:0:
340,27,101400,2,0,P|377:26|412:37,1,75.0000028610231,0|0,0:0|0:0,0:0:0:0:
384,226,101650,1,10,1:0:0:0:
179,55,101900,1,2,0:0:0:0:
126,276,102150,6,0,B|112:301|125:307|112:338|112:338|94:245|48:187,1,225.000008583069,2|0,1:0|0:0,0:0:0:0:
41,85,102650,2,0,P|86:15|103:8,1,75.0000028610231,8|0,1:0|0:0,0:0:0:0:
209,33,102900,1,2,0:0:0:0:
172,193,103150,1,0,1:0:0:0:
292,39,103400,2,0,L|309:120,1,75.0000028610231,0|0,0:0|0:0,0:0:0:0:
331,210,103650,1,8,1:0:0:0:
464,60,103900,1,0,0:0:0:0:
415,246,104150,6,0,P|349:302|240:226,1,225.000008583069,2|0,1:0|0:0,0:0:0:0:
257,152,104650,2,0,P|248:75|235:59,1,75.0000028610231,8|0,1:0|0:0,0:0:0:0:
108,92,104900,2,0,P|117:169|130:185,1,75.0000028610231,2|0,0:0|0:0,0:0:0:0:
208,256,105150,2,0,P|198:336|185:352,1,75.0000028610231,0|0,1:0|0:0,0:0:0:0:
58,319,105400,2,0,P|67:242|80:226,1,75.0000028610231,0|0,0:0|0:0,0:0:0:0:
282,138,105650,1,10,1:0:0:0:
85,303,105900,1,0,0:0:0:0:
286,281,106150,6,0,B|420:256|377:325|508:296,1,225.000008583069,2|0,1:0|0:0,0:0:0:0:
426,143,106650,2,0,P|391:221|394:245,1,75.0000028610231,10|0,1:0|0:0,0:0:0:0:
354,357,106900,1,2,0:0:0:0:
299,98,107150,1,0,1:0:0:0:
182,357,107400,2,0,L|198:260,1,75.0000028610231,0|0,0:0|0:0,0:0:0:0:
215,110,107650,1,10,1:0:0:0:
25,307,107900,1,0,0:0:0:0:
128,76,108150,6,0,B|149:211|110:170|129:306,1,225.000008583069,2|0,1:0|0:0,0:0:0:0:
226,351,108650,2,0,P|226:262|219:239,1,75.0000028610231,8|0,1:0|0:0,0:0:0:0:
314,173,108900,2,0,P|314:262|321:285,1,75.0000028610231,2|0,0:0|0:0,0:0:0:0:
391,343,109150,1,0,1:0:0:0:
444,71,109400,1,0,0:0:0:0:
171,18,109650,1,10,1:0:0:0:
119,291,109900,1,2,0:0:0:0:
422,52,110150,6,0,B|311:33|350:100|252:82,1,175,2|0,0:0|0:0,0:0:0:0:
146,32,111233,2,0,P|151:100|144:151,1,106.666666666667,0|0,0:0|0:0,0:0:0:0:
237,300,111733,2,0,P|232:232|238:141,1,133.333333333333,0|0,0:0|0:0,0:0:0:0:
234,166,112150,6,0,B|270:201|333:182|310:180|353:151|421:175,2,175.00000166893,4|8|8,1:0|0:0|1:0,0:0:0:0:
476,131,112900,2,0,P|481:184|456:239,1,87.500000834465,10|0,0:0|0:0,0:0:0:0:
234,166,113150,1,2,1:0:0:0:
476,131,113400,2,0,P|453:82|404:47,1,87.500000834465,10|0,0:0|0:0,0:0:0:0:
225,167,113650,1,10,1:0:0:0:
476,131,113900,1,10,0:0:0:0:
309,297,114150,6,0,B|270:337|270:337|188:328|188:328|175:315|175:315|41:299,1,262.500002503395,2|0,1:0|0:0,0:0:0:0:
69,302,114650,1,8,1:0:0:0:
240,80,114900,2,0,B|250:142|250:142|237:164,1,87.500000834465,10|0,0:0|0:0,0:0:0:0:
233,247,115150,2,0,B|224:186|224:186|237:164,1,87.500000834465,2|0,1:0|0:0,0:0:0:0:
403,170,115400,1,10,0:0:0:0:
403,170,115525,1,0,0:0:0:0:
403,170,115650,2,0,B|341:179|341:179|319:166,1,87.500000834465,10|0,1:0|0:0,0:0:0:0:
152,158,115900,2,0,B|130:145|130:145|69:155,1,87.500000834465,10|0,0:0|0:0,0:0:0:0:
233,247,116150,6,0,B|224:186|224:186|250:142|250:142|238:59,2,175.00000166893,2|8|8,1:0|0:0|1:0,0:0:0:0:
154,68,116900,6,0,L|253:82,1,87.500000834465,10|0,0:0|0:0,0:0:0:0:
326,92,117150,2,0,L|425:106,1,87.500000834465,2|0,1:0|0:0,0:0:0:0:
231,194,117400,2,0,L|330:179,1,87.500000834465,10|0,0:0|0:0,0:0:0:0:
498,116,117650,1,10,1:0:0:0:
326,92,117900,1,10,0:0:0:0:
380,277,118150,6,0,P|470:371|447:243,1,350.00000333786,2|8,1:0|1:0,0:0:0:0:
227,246,118900,2,0,P|218:286|270:313,1,87.500000834465,10|0,0:0|0:0,0:0:0:0:
368,272,119150,2,0,P|376:231|324:204,1,87.500000834465,2|0,1:0|0:0,0:0:0:0:
249,313,119400,2,0,P|279:340|329:308,1,87.500000834465,10|0,0:0|0:0,0:0:0:0:
344,204,119650,2,0,P|313:176|263:208,1,87.500000834465,10|0,1:0|0:0,0:0:0:0:
320,327,119900,2,0,P|359:314|356:255,1,87.500000834465,10|0,0:0|0:0,0:0:0:0:
227,246,120150,6,0,P|135:283|48:343,2,175.00000166893,2|8|8,1:0|0:0|1:0,0:0:0:0:
448,65,120900,6,0,L|437:173,1,87.500000834465,10|0,0:0|0:0,0:0:0:0:
430,239,121150,2,0,L|441:131,1,87.500000834465,2|0,1:0|0:0,0:0:0:0:
304,21,121400,2,0,L|315:129,1,87.500000834465,10|0,0:0|0:0,0:0:0:0:
322,195,121650,2,0,L|311:87,1,87.500000834465,10|0,1:0|0:0,0:0:0:0:
387,0,121900,1,10,0:0:0:0:
323,208,122150,6,0,B|255:258|189:213|235:218|132:87|25:246|115:325|185:272,1,350.00000333786,2|8,1:0|1:0,0:0:0:0:
239,89,122900,2,0,P|206:60|138:48,1,87.500000834465,10|0,0:0|0:0,0:0:0:0:
110,109,123150,2,0,P|123:68|152:36,1,87.500000834465,2|0,1:0|0:0,0:0:0:0:
378,146,123400,1,10,0:0:0:0:
378,146,123525,1,0,0:0:0:0:
378,146,123650,2,0,P|364:187|336:219,1,87.500000834465,10|0,1:0|0:0,0:0:0:0:
249,166,123900,2,0,P|281:194|322:207,1,87.500000834465,10|0,0:0|0:0,0:0:0:0:
463,267,124150,6,0,P|388:232|232:334,1,262.500002503395,2|0,1:0|0:0,0:0:0:0:
240,310,124650,1,8,1:0:0:0:
53,252,124900,2,0,L|46:340,1,87.500000834465,10|0,0:0|0:0,0:0:0:0:
61,165,125150,2,0,L|54:253,1,87.500000834465,2|0,1:0|0:0,0:0:0:0:
68,77,125400,2,0,L|61:165,1,87.500000834465,10|0,0:0|0:0,0:0:0:0:
46,340,125650,1,8,1:0:0:0:
164,179,125900,1,8,0:0:0:0:
291,259,126150,6,0,B|362:319|447:242|379:193|360:253,2,175.00000166893,2|8|8,1:0|0:0|1:0,0:0:0:0:
359,116,126900,2,0,P|405:108|465:138,1,87.500000834465,10|0,0:0|0:0,0:0:0:0:
310,35,127150,2,0,P|279:65|265:106,1,87.500000834465,2|0,1:0|0:0,0:0:0:0:
209,182,127400,2,0,P|179:146|175:79,1,87.500000834465,10|0,0:0|0:0,0:0:0:0:
246,268,127650,1,10,1:0:0:0:
265,106,127900,1,10,0:0:0:0:
328,312,128150,5,2,0:0:0:0:
394,290,128275,1,0,0:0:0:0:
451,330,128400,2,0,P|445:300|444:280,1,50,0|0,0:0|0:0,0:0:0:0:
478,131,128650,5,8,0:0:0:0:
422,181,128775,1,0,0:0:0:0:
347,187,128900,2,0,P|321:181|294:167,1,50,0|0,0:0|0:0,0:0:0:0:
206,64,129150,6,0,P|224:97|229:157,1,75.0000028610231,0|0,0:0|0:0,0:0:0:0:
230,262,129400,2,0,P|229:235|235:205,1,50,0|0,0:0|0:0,0:0:0:0:
401,296,129650,6,0,L|295:293,1,100,8|0,0:0|0:0,0:0:0:0:
182,351,129900,2,0,L|239:344,1,50,0|0,0:0|0:0,0:0:0:0:
292,213,130150,2,0,B|235:218|190:237|190:237|172:225|172:225|121:257|42:246|42:246|21:169|97:124,1,375,0|0,0:0|0:0,0:0:0:0:
222,21,130650,5,8,0:0:0:0:
186,92,130775,1,0,0:0:0:0:
120,138,130900,2,0,P|95:144|63:140,1,50,0|0,0:0|0:0,0:0:0:0:
222,21,131150,6,0,P|250:44|268:77,1,75.0000028610231,0|0,0:0|0:0,0:0:0:0:
308,242,131400,2,0,P|306:213|311:179,1,50,0|0,0:0|0:0,0:0:0:0:
486,88,131650,6,0,L|374:101,1,100,8|0,0:0|0:0,0:0:0:0:
258,190,131900,2,0,L|321:192,1,50,0|0,0:0|0:0,0:0:0:0:
427,311,132150,6,0,P|433:186|315:301,1,375,0|0,0:0|0:0,0:0:0:0:
390,335,132650,5,8,0:0:0:0:
350,265,132775,1,0,0:0:0:0:
277,230,132900,2,0,P|243:230|197:235,1,50,0|0,0:0|0:0,0:0:0:0:
142,353,133150,6,0,P|151:309|150:266,1,75.0000028610231,0|0,0:0|0:0,0:0:0:0:
134,147,133400,2,0,P|143:178|157:205,1,50,0|0,0:0|0:0,0:0:0:0:
323,118,133650,6,0,L|216:153,1,100,8|0,0:0|0:0,0:0:0:0:
135,41,133900,2,0,L|196:73,1,50,0|0,0:0|0:0,0:0:0:0:
80,198,134150,6,0,B|185:202|185:202|201:193|201:193|311:200|311:200|327:211|327:211|474:219,1,375,0|0,0:0|0:0,0:0:0:0:
321,376,134650,5,8,0:0:0:0:
341,293,134775,1,0,0:0:0:0:
402,235,134900,2,0,P|436:219|479:215,1,50,0|0,0:0|0:0,0:0:0:0:
488,356,135150,6,0,P|449:342|420:313,1,75.0000028610231,0|0,0:0|0:0,0:0:0:0:
422,153,135400,1,0,0:0:0:0:
402,235,135525,1,0,0:0:0:0:
341,293,135650,6,0,L|241:280,1,100,8|0,0:0|0:0,0:0:0:0:
92,336,135900,2,0,L|159:316,1,50,0|0,0:0|0:0,0:0:0:0:
341,293,136150,6,0,B|238:295|238:295|221:280|221:280|100:271|100:271|240:249,1,375,0|0,0:0|0:0,0:0:0:0:
382,198,136650,5,8,0:0:0:0:
311,244,136775,1,0,0:0:0:0:
226,251,136900,2,0,P|196:243|171:232,1,50,0|0,0:0|0:0,0:0:0:0:
108,87,137150,6,0,P|132:120|153:172,1,75.0000028610231,0|0,0:0|0:0,0:0:0:0:
92,271,137400,2,0,P|90:239|108:205,1,50,0|0,0:0|0:0,0:0:0:0:
276,214,137650,6,0,L|138:244,1,100,8|0,0:0|0:0,0:0:0:0:
120,341,137900,2,0,L|181:355,1,50,0|0,0:0|0:0,0:0:0:0:
276,214,138150,6,0,P|219:287|359:232,1,375,0|0,0:0|0:0,0:0:0:0:
291,98,138650,5,8,0:0:0:0:
293,187,138775,1,0,0:0:0:0:
341,262,138900,2,0,P|370:280|421:287,1,50,0|0,0:0|0:0,0:0:0:0:
500,187,139150,6,0,P|460:195|419:212,1,75.0000028610231,0|0,0:0|0:0,0:0:0:0:
504,370,139400,1,0,0:0:0:0:
477,284,139525,1,0,0:0:0:0:
398,239,139650,6,0,L|286:246,1,100,8|0,0:0|0:0,0:0:0:0:
181,146,139900,2,0,L|244:157,1,50,0|0,0:0|0:0,0:0:0:0:
120,298,140150,6,0,B|89:230|99:175|99:175|154:131|228:154|228:154|241:219|205:292,1,375,0|0,0:0|0:0,0:0:0:0:
0,312,140650,5,8,0:0:0:0:
77,257,140775,1,0,0:0:0:0:
171,247,140900,2,0,P|204:257|238:279,1,50,0|0,0:0|0:0,0:0:0:0:
346,351,141150,6,0,P|305:350|260:336,1,75.0000028610231,0|0,0:0|0:0,0:0:0:0:
188,224,141400,2,0,P|210:251|227:288,1,50,0|0,0:0|0:0,0:0:0:0:
82,350,141650,6,0,L|181:346,1,100,8|0,0:0|0:0,0:0:0:0:
355,259,141900,2,0,L|298:252,1,50,0|0,0:0|0:0,0:0:0:0:
134,149,142150,2,0,B|257:114|257:200|377:144|377:144|388:76|266:80,1,375,0|0,0:0|0:0,0:0:0:0:
134,149,142650,5,8,0:0:0:0:
91,239,142775,1,0,0:0:0:0:
105,337,142900,2,0,P|119:366|140:386,1,50,0|0,0:0|0:0,0:0:0:0:
353,240,143150,6,0,B|256:225|176:283|176:283|262:360|373:317,1,375,0|0,0:0|0:0,0:0:0:0:
407,141,143650,6,0,P|301:89|370:232,1,375,8|0,0:0|0:0,0:0:0:0:
364,153,144150,2,2,P|298:147|334:202,1,164.000002502441,2|8,0:0|0:0,0:0:0:0:
418,252,144900,1,0,0:0:0:0:
477,155,145150,1,0,0:0:0:0:
421,55,145400,1,0,0:0:0:0:
334,53,145650,1,8,0:0:0:0:
299,108,145900,2,0,P|304:127|304:148,1,41.0000006256104,0|0,0:0|0:0,0:0:0:0:
187,224,146150,6,0,B|256:197|282:264|365:218,1,168.000002050781,0|0,0:0|0:0,0:0:0:0:
406,320,146650,2,0,P|400:293|402:265,1,56.0000006835938,8|0,0:0|0:0,0:0:0:0:
267,366,146900,1,0,0:0:0:0:
187,224,147150,2,0,P|193:196|188:154,1,69.9999978637696,0|0,0:0|0:0,0:0:0:0:
326,269,147400,1,0,0:0:0:0:
202,295,147650,1,8,0:0:0:0:
78,321,147900,1,0,0:0:0:0:
54,314,148150,6,0,B|116:313|137:253|137:253|159:188|96:166|131:79,1,279.999991455078,0|8,0:0|0:0,0:0:0:0:
146,82,148900,2,0,P|140:154|189:223,1,139.999995727539,0|0,0:0|0:0,0:0:0:0:
270,122,149400,1,0,0:0:0:0:
48,169,149650,1,8,0:0:0:0:
148,243,149900,2,0,P|200:229|229:234,1,69.9999978637696,0|0,0:0|0:0,0:0:0:0:
326,354,150150,2,0,B|295:368|295:368|315:291|254:237|215:230,1,209.999993591309,0|0,0:0|0:0,0:0:0:0:
187,339,150650,5,8,0:0:0:0:
148,243,150900,1,0,0:0:0:0:
352,79,151150,5,0,0:0:0:0:
313,175,151400,1,0,0:0:0:0:
269,305,151650,5,8,0:0:0:0:
230,209,151900,1,0,0:0:0:0:
434,45,152150,6,0,B|482:59|482:59|422:121|452:219,1,209.999993591309,0|0,0:0|0:0,0:0:0:0:
371,337,152650,2,0,P|364:302|351:270,1,69.9999978637696,8|0,0:0|0:0,0:0:0:0:
438,353,152900,1,0,0:0:0:0:
269,305,153150,6,0,P|204:290|132:308,1,139.999995727539,0|0,0:0|0:0,0:0:0:0:
269,305,153650,6,0,P|259:273|233:246,1,69.9999978637696,8|0,0:0|0:0,0:0:0:0:
138,323,153900,1,0,0:0:0:0:
81,255,154150,2,0,P|100:191|152:137,1,139.999995727539,2|0,0:0|0:0,0:0:0:0:
51,339,154650,2,0,P|9:318|-24:318,1,69.9999978637696,8|0,0:0|0:0,0:0:0:0:
168,238,154900,5,0,0:0:0:0:
81,255,155150,2,0,P|78:208|61:179,1,69.9999978637696,0|0,0:0|0:0,0:0:0:0:
197,155,155400,5,0,0:0:0:0:
284,172,155650,2,0,P|286:125|303:96,1,69.9999978637696,10|0,0:0|0:0,0:0:0:0:
354,38,155900,2,0,P|354:72|341:104,1,69.9999978637696,0|0,0:0|0:0,0:0:0:0:
241,271,156150,2,0,P|194:223|195:154,1,139.999995727539,2|0,0:0|0:0,0:0:0:0:
261,259,156650,2,0,P|325:236|387:261,1,119.999996337891,8|2,0:0|0:0,0:0:0:0:
325,350,157150,1,0,0:0:0:0:
390,263,157400,2,0,P|453:279|497:262,1,100,0|10,0:0|0:0,0:0:0:0:
454,175,157900,1,0,0:0:0:0:
420,78,158150,6,2,B|347:24|315:131|235:72|235:72|161:19|96:171|241:158,1,402.500007677078,2|0,0:0|0:0,0:0:0:0:
249,193,159150,2,0,B|226:221|226:221|254:302,1,112.500004291535,0|0,0:0|0:0,0:0:0:0:
158,274,159650,2,0,P|113:250|54:264,1,112.500004291535,0|0,0:0|0:0,0:0:0:0:
37,273,160150,6,0,B|80:251|80:251|74:136|74:136|77:128|77:128|70:-4,1,279.999991455078,6|10,1:0|0:0,0:0:0:0:
72,0,160525,1,0,0:0:0:0:
152,25,160650,1,10,1:0:0:0:
155,108,160775,1,2,0:0:0:0:
260,120,160900,6,0,P|257:67|341:14,1,139.999995727539,8|2,0:0|0:0,0:0:0:0:
408,65,161150,2,0,P|411:118|327:171,1,139.999995727539,2|0,1:0|0:0,0:0:0:0:
224,222,161400,6,0,P|224:160|140:107,1,155.000001182556,10|2,0:0|0:0,0:0:0:0:
73,150,161650,2,0,P|72:215|156:268,1,155.000001182556,8|2,1:0|0:0,0:0:0:0:
261,315,161900,6,0,P|258:262|356:196,1,170.000003242493,10|0,0:0|0:0,0:0:0:0:
425,246,162150,2,0,P|405:345|261:249,1,340.000006484985,2|10,1:0|0:0,0:0:0:0:
342,195,162525,1,0,0:0:0:0:
320,95,162650,2,0,B|260:80|260:80|254:86|254:86|209:71|209:71|95:105,1,170.000003242493,10|2,1:0|0:0,0:0:0:0:
158,85,162900,6,0,B|181:167|181:167|148:285,1,170.000003242493,8|2,0:0|0:0,0:0:0:0:
61,251,163150,2,0,B|39:170|39:170|62:88,1,170.000003242493,2|0,1:0|0:0,0:0:0:0:
327,63,163400,6,0,P|312:91|323:170,1,92.4999996471405,10|0,0:0|0:0,0:0:0:0:
396,165,163525,2,0,P|411:137|400:58,1,92.4999996471405,2|0,0:0|0:0,0:0:0:0:
245,236,163650,2,0,B|339:233|339:233|459:275,1,184.999999294281,8|2,1:0|0:0,0:0:0:0:
421,349,163900,2,0,P|335:260|477:210,1,184.999999294281,10|0,0:0|0:0,0:0:0:0:
478,218,164150,6,0,B|435:224|435:224|381:200|381:200|369:207|369:207|287:194|287:194|281:197|281:197|212:189|212:189|194:177|194:177|193:197|193:197|177:185|177:185|68:172,1,400,2|10,1:0|0:0,0:0:0:0:
240,119,164525,1,2,0:0:0:0:
115,177,164650,1,10,1:0:0:0:
216,37,164775,1,0,0:0:0:0:
430,94,164900,6,0,B|379:75|379:75|202:130,1,200,10|2,0:0|0:0,0:0:0:0:
187,181,165150,2,0,B|238:200|238:200|415:145,1,200,0|2,1:0|0:0,0:0:0:0:
506,113,165400,1,10,0:0:0:0:
377,156,165525,1,0,0:0:0:0:
508,221,165650,6,0,B|517:200|517:200|417:235|417:235|410:244|410:244|329:273,1,200,10|2,1:0|0:0,0:0:0:0:
236,337,165900,2,0,B|229:319|218:310|218:310|226:300|231:282|231:282|238:302|246:307|246:307|247:325,2,100,8|0|2,0:0|0:0|0:0,0:0:0:0:
136,347,166150,6,0,B|122:299|147:265|147:265|159:260|159:260|153:250|153:250|182:205|167:145|167:145|147:92|94:67|30:100|32:176,1,419.999987182618,2|0,1:0|0:0,0:0:0:0:
32,165,166650,6,0,P|88:222|156:111,1,200,10|2,1:0|0:0,0:0:0:0:
234,38,166900,2,0,P|157:57|219:172,1,200,8|0,0:0|0:0,0:0:0:0:
242,276,167150,2,0,P|263:199|133:195,1,200,0|0,1:0|0:0,0:0:0:0:
32,165,167400,1,10,0:0:0:0:
242,276,167525,1,2,0:0:0:0:
234,38,167650,1,8,1:0:0:0:
333,327,167900,2,0,B|288:329|241:305|241:305|191:332|139:333,1,200,10|0,0:0|0:0,0:0:0:0:
128,344,168150,6,0,P|148:268|97:155,1,139.999995727539,2|2,1:0|0:0,0:0:0:0:
116,127,168400,1,10,0:0:0:0:
198,114,168525,1,0,0:0:0:0:
255,206,168650,2,0,B|360:193|360:193|336:253,1,139.999995727539,10|2,1:0|0:0,0:0:0:0:
360,364,168900,6,0,L|346:218,1,139.999995727539,8|2,0:0|0:0,0:0:0:0:
165,224,169150,2,0,L|152:364,1,139.999995727539,2|0,1:0|0:0,0:0:0:0:
178,112,169400,6,0,B|254:135|254:135|338:112,1,155.000001182556,10|2,0:0|0:0,0:0:0:0:
331,25,169650,2,0,B|255:2|255:2|171:25,1,155.000001182556,8|2,1:0|0:0,0:0:0:0:
256,340,169900,6,0,L|256:168,1,170.000003242493,10|0,0:0|0:0,0:0:0:0:
256,170,170150,2,0,B|256:251|256:251|241:231|226:222|226:222|469:222,1,340.000006484985,2|10,1:0|0:0,0:0:0:0:
451,319,170525,1,0,0:0:0:0:
499,149,170650,2,0,L|277:148,1,170.000003242493,10|2,1:0|0:0,0:0:0:0:
91,76,170900,6,0,P|87:155|97:305,1,184.999999294281,8|2,0:0|0:0,0:0:0:0:
217,14,171150,2,0,B|221:93|218:169|211:243,1,184.999999294281,2|0,1:0|0:0,0:0:0:0:
210,323,171400,6,0,P|265:310|339:317,1,92.4999996471405,10|0,0:0|0:0,0:0:0:0:
306,329,171525,2,0,P|251:342|177:335,1,92.4999996471405,2|0,0:0|0:0,0:0:0:0:
151,260,171650,2,0,P|306:229|418:272,1,184.999999294281,8|2,1:0|0:0,0:0:0:0:
420,326,171900,2,0,B|376:246|376:246|440:96,1,184.999999294281,10|0,0:0|0:0,0:0:0:0:
436,164,172150,6,0,B|385:160|385:160|361:168|361:168|343:94|343:94|300:144|300:144|272:155|272:155|259:93|259:93|225:113|225:113|205:168|108:168,1,400,2|10,1:0|0:0,0:0:0:0:
43,197,172525,1,2,0:0:0:0:
194,149,172650,1,8,1:0:0:0:
51,276,172775,1,2,0:0:0:0:
149,86,172900,6,0,P|171:98|141:86,1,200,10|0,0:0|0:0,0:0:0:0:
297,238,173150,2,0,P|275:250|305:238,1,200,2|2,1:0|0:0,0:0:0:0:
343,102,173400,1,8,0:0:0:0:
285,356,173525,1,2,0:0:0:0:
350,80,173650,1,10,1:0:0:0:
512,368,173900,1,10,0:0:0:0:
156,173,174150,6,2,B|236:173|236:173|300:173|332:91|300:13|236:13|236:13|197:26|140:13|140:13|127:9|127:9|69:28|13:3,1,525.000020027161
29,10,176150,6,0,B|119:35|119:35|123:29|123:29|124:36|124:36|238:68,1,189.999994926453,6|2,1:0|0:0,0:0:0:0:
455,132,176400,1,10,0:0:0:0:
407,196,176525,6,0,P|383:206|328:191,1,85.0000016212464,0|10,0:0|1:0,0:0:0:0:
290,86,176775,1,2,0:0:0:0:
338,22,176900,6,0,P|362:12|417:27,1,85.0000016212464,8|2,0:0|0:0,0:0:0:0:
507,23,177150,2,0,B|515:11|460:0|258:105|481:115|381:198|301:192,1,279.999991455078,2|10,1:0|0:0,0:0:0:0:
210,63,177525,2,0,B|176:51|177:18|177:18|220:10|223:89,1,125,2|8,0:0|1:0,0:0:0:0:
455,342,177775,5,2,0:0:0:0:
374,348,177900,2,0,P|333:331|286:248,1,125,10|0,0:0|0:0,0:0:0:0:
82,367,178150,6,0,B|72:224|175:166|271:189|271:189|203:203|194:302,1,390.000001487732,2|10,1:0|0:0,0:0:0:0:
71,381,178525,1,0,0:0:0:0:
2,342,178650,2,0,P|-1:334|5:283,1,55.0000016784668,10|2,1:0|0:0,0:0:0:0:
11,196,178900,6,0,B|15:166|-12:151|-12:151|-24:184|13:207,1,110.000003356934,8|2,0:0|0:0,0:0:0:0:
70,242,179150,1,2,1:0:0:0:
56,95,179275,6,0,B|86:69|75:31|75:31|35:50|47:104,1,145.000004425049,0|10,0:0|0:0,0:0:0:0:
93,167,179525,1,2,0:0:0:0:
157,16,179650,6,0,B|211:26|230:-20|230:-20|181:-47|140:18,1,179.999994506836,8|2,1:0|0:0,0:0:0:0:
214,171,179900,2,0,B|339:234|52:283|169:108|134:23|-21:19,1,379.999989852906,10|2,0:0|1:0,0:0:0:0:
252,0,180275,5,2,0:0:0:0:
319,33,180400,2,0,P|318:77|305:86,1,34.9999989318848,10|0,0:0|0:0,0:0:0:0:
409,14,180650,5,10,1:0:0:0:
421,15,180775,1,2,0:0:0:0:
448,94,180900,2,0,P|412:128|375:121,1,89.9999972534181,8|2,0:0|0:0,0:0:0:0:
502,165,181150,5,2,1:0:0:0:
512,178,181275,5,0,0:0:0:0:
468,257,181400,2,0,P|407:254|375:205,1,125,10|2,0:0|0:0,0:0:0:0:
179,119,181650,2,0,P|366:253|445:412,1,390.000001487732,8|10,1:0|0:0,0:0:0:0:
179,15,182025,5,0,0:0:0:0:
67,41,182150,2,0,B|-23:54|-11:142|-11:142|123:120|25:67|130:-18|221:25,1,390.000001487732,2|10,1:0|0:0,0:0:0:0:
258,44,182525,1,0,0:0:0:0:
270,50,182650,2,0,P|285:76|265:54,1,89.9999972534181,10|2,1:0|0:0,0:0:0:0:
375,123,182900,5,8,0:0:0:0:
382,139,183025,2,0,P|371:180|372:140,1,125,2|2,0:0|1:0,0:0:0:0:
366,297,183275,5,0,0:0:0:0:
357,317,183400,2,0,P|310:344|347:309,1,160,10|2,0:0|0:0,0:0:0:0:
426,51,183650,6,0,B|448:-27|588:-75|546:142|418:-43|371:176,1,320,8|10,1:0|0:0,0:0:0:0:
485,358,184025,1,0,0:0:0:0:
507,283,184150,2,0,P|445:110|289:-28,1,320,2|10,1:0|0:0,0:0:0:0:
274,1,184525,6,0,B|203:10|191:70|191:70|232:82|266:48,1,160,0|10,0:0|1:0,0:0:0:0:
244,62,184775,1,2,0:0:0:0:
95,12,184900,2,0,B|51:68|85:119|85:119|122:98|122:50,1,160,8|2,0:0|0:0,0:0:0:0:
8,360,185150,5,2,1:0:0:0:
15,383,185275,2,0,P|48:310|104:266,1,89.9999972534181,0|10,0:0|0:0,0:0:0:0:
87,195,185525,1,2,0:0:0:0:
75,216,185650,2,0,P|149:187|220:196,1,125,8|2,1:0|0:0,0:0:0:0:
484,256,185900,5,10,0:0:0:0:
450,327,186025,1,0,0:0:0:0:
375,333,186150,2,0,P|221:250|188:161,1,250,2|10,1:0|0:0,0:0:0:0:
217,355,186525,2,0,B|182:381|182:381|199:269,1,125,0|10,0:0|1:0,0:0:0:0:
347,37,186775,5,2,0:0:0:0:
376,110,186900,2,0,P|363:155|278:196,1,125,8|2,0:0|0:0,0:0:0:0:
213,15,187150,2,0,B|193:-15|101:14|154:171|290:99,1,250,2|10,1:0|0:0,0:0:0:0:
347,37,187525,1,2,0:0:0:0:
374,18,187650,2,0,B|463:34|402:62|502:80,1,125,8|2,1:0|0:0,0:0:0:0:
382,194,187900,6,0,B|463:137|438:206|530:142,1,139.999995727539,10|0,0:0|0:0,0:0:0:0:
496,0,188150,2,0,P|473:102|433:275,1,250,2|10,1:0|0:0,0:0:0:0:
475,316,188525,2,0,P|493:329|541:254,1,125,2|10,0:0|1:0,0:0:0:0:
388,331,188775,5,0,0:0:0:0:
366,314,188900,2,0,B|294:312|282:394|338:430|341:369,1,150.000005722046,10|2,0:0|0:0,0:0:0:0:
149,145,189150,2,0,B|69:105|4:215|229:238|57:135|81:40|220:20,1,300.000011444092,0|10,1:0|0:0,0:0:0:0:
38,89,189525,5,0,0:0:0:0:
33,74,189650,2,0,P|12:53|32:81,1,125,10|2,1:0|0:0,0:0:0:0:
192,25,189900,2,0,P|179:-20|185:29,1,150.000005722046,8|2,0:0|0:0,0:0:0:0:
268,74,190150,6,0,P|305:90|350:66,1,75.0000028610231,2|2,1:0|0:0,0:0:0:0:
345,177,190400,5,10,0:0:0:0:
345,194,190525,2,0,P|383:178|403:104,1,100,0|10,0:0|1:0,0:0:0:0:
496,229,190775,5,2,0:0:0:0:
507,241,190900,2,0,P|523:203|487:127,1,125,8|2,0:0|0:0,0:0:0:0:
412,32,191150,5,2,1:0:0:0:
384,18,191275,1,0,0:0:0:0:
310,28,191400,1,10,0:0:0:0:
241,73,191525,1,2,0:0:0:0:
219,186,191650,5,8,1:0:0:0:
307,284,191775,1,2,0:0:0:0:
420,252,191900,1,10,0:0:0:0:
484,384,192025,1,0,0:0:0:0:
468,375,192150,2,0,B|389:307|422:207|491:195|491:195|480:261|540:268|540:268|499:237|449:125|568:156|542:10|417:-54|321:15|321:15|449:-15|503:107|457:127|402:91|451:49,1,1000,2|0,0:0|0:0,0:0:0:0:
