osu file format v14

[General]
AudioFilename: audio.mp3
AudioLeadIn: 0
PreviewTime: 375
Countdown: 0
SampleSet: Normal
StackLeniency: 0.7
Mode: 3
LetterboxInBreaks: 0
SpecialStyle: 0
WidescreenStoryboard: 0

[Editor]
DistanceSpacing: 1.2
BeatDivisor: 4
GridSize: 8
TimelineZoom: 2

[Metadata]
Title:Curtain Call/Time Spent Together
TitleUnicode:Curtain Call/Time Spent Together
Artist:Aaron Daniel Jacob+Phineas and Cast
ArtistUnicode:Aaron Daniel Jacob+Phineas and Cast
Creator:Fomurz
Version:Live In Summer Forever
Source:
Tags:
BeatmapID:4549325
BeatmapSetID:2157982

[Difficulty]
HPDrainRate:5
CircleSize:4
OverallDifficulty:8
ApproachRate:5
SliderMultiplier:1.4
SliderTickRate:1

[Events]
//Background and Video events
0,0,"Vlcsnap-2015-06-14-10h59m59s770.png",0,0
//Break Periods
//Storyboard Layer 0 (Background)
//Storyboard Layer 1 (Fail)
//Storyboard Layer 2 (Pass)
//Storyboard Layer 3 (Foreground)
//Storyboard Layer 4 (Overlay)
//Storyboard Sound Samples

[TimingPoints]
0,375,4,1,0,20,1,0
0,-50,4,1,0,20,0,0
84515,187.5,4,1,0,19,1,0
84515,-100,4,1,0,21,0,0

[HitObjects]
448,192,375,5,0,0:0:0:0:
320,192,421,1,0,0:0:0:0:
192,192,468,1,0,0:0:0:0:
64,192,515,128,0,1031:0:0:0:0:
320,192,1218,128,0,1406:0:0:0:0:
448,192,1218,128,0,1781:0:0:0:0:
320,192,1593,128,0,1687:0:0:0:0:
64,192,1968,1,0,0:0:0:0:
192,192,1968,128,0,2062:0:0:0:0:
320,192,2156,128,0,2250:0:0:0:0:
320,192,2343,128,0,2437:0:0:0:0:
64,192,2718,1,0,0:0:0:0:
448,192,2718,1,0,0:0:0:0:
192,192,2765,1,0,0:0:0:0:
320,192,2812,1,0,0:0:0:0:
448,192,3093,1,0,0:0:0:0:
320,192,3093,1,0,0:0:0:0:
64,192,3375,1,0,0:0:0:0:
192,192,3421,1,0,0:0:0:0:
320,192,3468,1,0,0:0:0:0:
448,192,3515,128,0,4031:0:0:0:0:
192,192,4218,128,0,4406:0:0:0:0:
64,192,4218,128,0,4781:0:0:0:0:
192,192,4593,128,0,4687:0:0:0:0:
448,192,4968,1,0,0:0:0:0:
320,192,4968,128,0,5062:0:0:0:0:
192,192,5156,128,0,5250:0:0:0:0:
192,192,5343,128,0,5437:0:0:0:0:
192,192,5718,1,0,0:0:0:0:
64,192,5718,1,0,0:0:0:0:
448,192,6093,1,0,0:0:0:0:
320,192,6117,1,0,0:0:0:0:
448,192,6468,1,0,0:0:0:0:
320,192,6515,1,0,0:0:0:0:
192,192,6562,1,0,0:0:0:0:
64,192,6609,128,0,7031:0:0:0:0:
320,192,7218,128,0,7406:0:0:0:0:
448,192,7218,128,0,7781:0:0:0:0:
320,192,7593,128,0,7687:0:0:0:0:
448,192,7968,1,0,0:0:0:0:
320,192,7968,128,0,8062:0:0:0:0:
192,192,8156,128,0,8250:0:0:0:0:
192,192,8343,128,0,8437:0:0:0:0:
64,192,8718,1,0,0:0:0:0:
192,192,8718,1,0,0:0:0:0:
320,192,8765,1,0,0:0:0:0:
448,192,8812,1,0,0:0:0:0:
192,192,9093,1,0,0:0:0:0:
320,192,9093,1,0,0:0:0:0:
448,192,9375,1,0,0:0:0:0:
320,192,9421,1,0,0:0:0:0:
192,192,9468,1,0,0:0:0:0:
64,192,9515,128,0,10031:0:0:0:0:
192,192,10218,128,0,10968:0:0:0:0:
448,192,10218,128,0,10593:0:0:0:0:
448,192,10968,1,0,0:0:0:0:
320,192,10968,128,0,11343:0:0:0:0:
448,192,11156,1,0,0:0:0:0:
64,192,11343,1,0,0:0:0:0:
192,192,11343,128,0,11531:0:0:0:0:
64,192,11531,1,0,0:0:0:0:
448,192,11812,128,0,12000:0:0:0:0:
320,192,11906,128,0,12093:0:0:0:0:
64,192,12000,128,0,12187:0:0:0:0:
192,192,12093,128,0,12187:0:0:0:0:
192,192,12281,128,0,12468:0:0:0:0:
320,192,12468,1,0,0:0:0:0:
448,192,12468,128,0,12656:0:0:0:0:
64,192,12843,1,0,0:0:0:0:
192,192,12843,128,0,13031:0:0:0:0:
320,192,13218,1,0,0:0:0:0:
192,192,13218,128,0,13406:0:0:0:0:
320,192,13593,128,0,13875:0:0:0:0:
448,192,13593,128,0,14718:0:0:0:0:
64,192,13968,128,0,14109:0:0:0:0:
192,192,14156,128,0,14296:0:0:0:0:
64,192,14343,128,0,14484:0:0:0:0:
320,192,14718,128,0,15093:0:0:0:0:
192,192,14718,1,0,0:0:0:0:
64,192,15093,1,0,0:0:0:0:
192,192,15093,1,0,0:0:0:0:
192,192,15281,1,0,0:0:0:0:
64,192,15281,128,0,15468:0:0:0:0:
448,192,15468,1,0,0:0:0:0:
320,192,15468,128,0,15656:0:0:0:0:
64,192,15843,1,0,0:0:0:0:
192,192,15843,128,0,16031:0:0:0:0:
448,192,16218,1,0,0:0:0:0:
320,192,16218,1,0,0:0:0:0:
448,192,16593,1,0,0:0:0:0:
320,192,16640,1,0,0:0:0:0:
192,192,16687,1,0,0:0:0:0:
64,192,16734,128,0,17718:0:0:0:0:
448,192,16968,128,0,17109:0:0:0:0:
320,192,17156,128,0,17296:0:0:0:0:
448,192,17343,128,0,17484:0:0:0:0:
192,192,17718,128,0,18093:0:0:0:0:
320,192,17718,1,0,0:0:0:0:
448,192,18093,1,0,0:0:0:0:
320,192,18093,1,0,0:0:0:0:
448,192,18281,1,0,0:0:0:0:
320,192,18468,128,0,18843:0:0:0:0:
64,192,18468,128,0,18656:0:0:0:0:
192,192,18843,128,0,19031:0:0:0:0:
448,192,18843,128,0,18937:0:0:0:0:
320,192,19218,1,0,0:0:0:0:
64,192,19218,128,0,19406:0:0:0:0:
448,192,19218,1,0,0:0:0:0:
64,192,19593,1,0,0:0:0:0:
192,192,19640,1,0,0:0:0:0:
320,192,19687,128,0,19968:0:0:0:0:
448,192,19734,128,0,20156:0:0:0:0:
448,192,20343,128,0,20437:0:0:0:0:
320,192,20390,128,0,20484:0:0:0:0:
192,192,20437,128,0,20531:0:0:0:0:
64,192,20718,128,0,20812:0:0:0:0:
192,192,20765,128,0,20859:0:0:0:0:
320,192,20812,128,0,21093:0:0:0:0:
448,192,21093,128,0,21843:0:0:0:0:
192,192,21093,128,0,21281:0:0:0:0:
192,192,21468,128,0,22031:0:0:0:0:
64,192,21468,128,0,21843:0:0:0:0:
320,192,21468,1,0,0:0:0:0:
320,192,21843,128,0,22218:0:0:0:0:
64,192,22031,128,0,22218:0:0:0:0:
448,192,22218,128,0,22593:0:0:0:0:
192,192,22218,128,0,22406:0:0:0:0:
64,192,22406,128,0,22781:0:0:0:0:
320,192,22593,128,0,22968:0:0:0:0:
448,192,22781,128,0,23156:0:0:0:0:
192,192,22968,128,0,23156:0:0:0:0:
64,192,22968,128,0,23156:0:0:0:0:
448,192,23343,1,0,0:0:0:0:
320,192,23343,128,0,23531:0:0:0:0:
192,192,23718,1,0,0:0:0:0:
64,192,23718,128,0,23906:0:0:0:0:
192,192,24093,1,0,0:0:0:0:
320,192,24093,128,0,24281:0:0:0:0:
448,192,24468,1,0,0:0:0:0:
320,192,24468,128,0,24843:0:0:0:0:
192,192,24843,1,0,0:0:0:0:
64,192,24843,128,0,25031:0:0:0:0:
192,192,25218,1,0,0:0:0:0:
320,192,25218,128,0,25406:0:0:0:0:
320,192,25593,1,0,0:0:0:0:
448,192,25593,128,0,26718:0:0:0:0:
64,192,25968,128,0,26109:0:0:0:0:
192,192,26156,128,0,26296:0:0:0:0:
64,192,26343,128,0,26484:0:0:0:0:
320,192,26718,128,0,27093:0:0:0:0:
64,192,27093,1,0,0:0:0:0:
192,192,27093,1,0,0:0:0:0:
320,192,27281,1,0,0:0:0:0:
448,192,27281,128,0,27468:0:0:0:0:
64,192,27468,1,0,0:0:0:0:
192,192,27468,128,0,27656:0:0:0:0:
448,192,27843,1,0,0:0:0:0:
320,192,27843,128,0,28031:0:0:0:0:
64,192,28218,1,0,0:0:0:0:
320,192,28218,1,0,0:0:0:0:
448,192,28593,1,0,0:0:0:0:
320,192,28640,1,0,0:0:0:0:
192,192,28687,1,0,0:0:0:0:
64,192,28734,128,0,29718:0:0:0:0:
448,192,28968,128,0,29062:0:0:0:0:
448,192,29156,128,0,29343:0:0:0:0:
192,192,29343,128,0,29531:0:0:0:0:
320,192,29343,128,0,29906:0:0:0:0:
448,192,29531,1,0,0:0:0:0:
448,192,29718,128,0,29906:0:0:0:0:
192,192,29906,128,0,30281:0:0:0:0:
64,192,30093,128,0,30281:0:0:0:0:
448,192,30281,1,0,0:0:0:0:
448,192,30468,128,0,30656:0:0:0:0:
320,192,30468,128,0,30656:0:0:0:0:
64,192,30843,128,0,31031:0:0:0:0:
192,192,30843,128,0,31031:0:0:0:0:
192,192,31218,128,0,31312:0:0:0:0:
320,192,31218,128,0,31406:0:0:0:0:
320,192,31593,128,0,31781:0:0:0:0:
448,192,31593,128,0,32156:0:0:0:0:
192,192,32343,1,0,0:0:0:0:
64,192,32343,128,0,32531:0:0:0:0:
320,192,32718,1,0,0:0:0:0:
448,192,32718,128,0,32906:0:0:0:0:
64,192,33093,128,0,33281:0:0:0:0:
320,192,33093,128,0,33468:0:0:0:0:
192,192,33281,128,0,33656:0:0:0:0:
448,192,33468,128,0,33843:0:0:0:0:
64,192,33843,1,0,0:0:0:0:
320,192,33843,1,0,0:0:0:0:
192,192,33843,1,0,0:0:0:0:
448,192,34218,1,0,0:0:0:0:
320,192,34218,1,0,0:0:0:0:
64,192,34593,1,0,0:0:0:0:
192,192,34593,1,0,0:0:0:0:
448,192,34781,1,0,0:0:0:0:
320,192,34781,1,0,0:0:0:0:
320,192,34968,1,0,0:0:0:0:
320,192,35156,1,0,0:0:0:0:
64,192,35343,128,0,35531:0:0:0:0:
448,192,35343,128,0,35531:0:0:0:0:
192,192,35437,128,0,35531:0:0:0:0:
448,192,35718,1,0,0:0:0:0:
192,192,35765,1,0,0:0:0:0:
320,192,35812,1,0,0:0:0:0:
64,192,35859,1,0,0:0:0:0:
448,192,35906,1,0,0:0:0:0:
192,192,35953,1,0,0:0:0:0:
320,192,36000,1,0,0:0:0:0:
64,192,36046,1,0,0:0:0:0:
448,192,36093,1,0,0:0:0:0:
192,192,36140,1,0,0:0:0:0:
320,192,36187,1,0,0:0:0:0:
64,192,36281,1,0,0:0:0:0:
192,192,36328,1,0,0:0:0:0:
320,192,36375,1,0,0:0:0:0:
448,192,36421,1,0,0:0:0:0:
64,192,36562,1,0,0:0:0:0:
192,192,36562,1,0,0:0:0:0:
320,192,36562,128,0,36750:0:0:0:0:
64,192,36937,1,0,0:0:0:0:
192,192,36937,1,0,0:0:0:0:
192,192,37312,1,0,0:0:0:0:
448,192,37312,1,0,0:0:0:0:
64,192,37500,1,0,0:0:0:0:
320,192,37500,1,0,0:0:0:0:
192,192,37687,1,0,0:0:0:0:
448,192,37781,1,0,0:0:0:0:
320,192,37781,1,0,0:0:0:0:
64,192,37968,1,0,0:0:0:0:
320,192,37968,1,0,0:0:0:0:
448,192,38109,1,0,0:0:0:0:
320,192,38156,1,0,0:0:0:0:
192,192,38156,1,0,0:0:0:0:
64,192,38250,1,0,0:0:0:0:
448,192,38343,1,0,0:0:0:0:
192,192,38343,1,0,0:0:0:0:
320,192,38437,1,0,0:0:0:0:
448,192,38531,1,0,0:0:0:0:
64,192,38625,1,0,0:0:0:0:
192,192,38625,1,0,0:0:0:0:
320,192,38718,1,0,0:0:0:0:
448,192,38718,1,0,0:0:0:0:
448,192,39093,1,0,0:0:0:0:
320,192,39093,1,0,0:0:0:0:
320,192,39281,1,0,0:0:0:0:
64,192,39468,1,0,0:0:0:0:
192,192,39468,1,0,0:0:0:0:
320,192,39515,1,0,0:0:0:0:
448,192,39562,1,0,0:0:0:0:
448,192,39843,1,0,0:0:0:0:
320,192,39843,1,0,0:0:0:0:
192,192,39890,1,0,0:0:0:0:
64,192,39937,1,0,0:0:0:0:
64,192,40218,128,0,40312:0:0:0:0:
192,192,40265,1,0,0:0:0:0:
320,192,40312,1,0,0:0:0:0:
448,192,40359,128,0,40453:0:0:0:0:
320,192,40593,1,0,0:0:0:0:
192,192,40593,1,0,0:0:0:0:
192,192,40781,1,0,0:0:0:0:
192,192,40968,128,0,41343:0:0:0:0:
320,192,40968,1,0,0:0:0:0:
448,192,41343,1,0,0:0:0:0:
320,192,41343,128,0,41531:0:0:0:0:
192,192,41531,1,0,0:0:0:0:
64,192,41625,1,0,0:0:0:0:
320,192,41718,128,0,41812:0:0:0:0:
192,192,41906,128,0,42000:0:0:0:0:
320,192,42093,1,0,0:0:0:0:
448,192,42093,1,0,0:0:0:0:
448,192,42281,1,0,0:0:0:0:
64,192,42468,1,0,0:0:0:0:
192,192,42468,1,0,0:0:0:0:
448,192,42562,1,0,0:0:0:0:
320,192,42656,1,0,0:0:0:0:
192,192,42656,1,0,0:0:0:0:
64,192,42750,1,0,0:0:0:0:
320,192,42843,1,0,0:0:0:0:
448,192,42843,1,0,0:0:0:0:
192,192,42937,1,0,0:0:0:0:
320,192,43078,1,0,0:0:0:0:
64,192,43078,1,0,0:0:0:0:
448,192,43218,1,0,0:0:0:0:
320,192,43312,1,0,0:0:0:0:
192,192,43312,1,0,0:0:0:0:
448,192,43406,1,0,0:0:0:0:
320,192,43453,1,0,0:0:0:0:
192,192,43500,1,0,0:0:0:0:
448,192,43781,1,0,0:0:0:0:
320,192,43781,1,0,0:0:0:0:
64,192,43875,1,0,0:0:0:0:
320,192,43968,1,0,0:0:0:0:
192,192,43968,1,0,0:0:0:0:
448,192,44062,1,0,0:0:0:0:
64,192,44156,1,0,0:0:0:0:
192,192,44156,1,0,0:0:0:0:
320,192,44250,1,0,0:0:0:0:
192,192,44390,1,0,0:0:0:0:
448,192,44390,1,0,0:0:0:0:
64,192,44531,1,0,0:0:0:0:
192,192,44625,1,0,0:0:0:0:
320,192,44625,1,0,0:0:0:0:
64,192,44718,1,0,0:0:0:0:
192,192,44765,1,0,0:0:0:0:
320,192,44812,1,0,0:0:0:0:
320,192,45093,1,0,0:0:0:0:
448,192,45093,1,0,0:0:0:0:
64,192,45281,1,0,0:0:0:0:
320,192,45468,1,0,0:0:0:0:
192,192,45468,1,0,0:0:0:0:
448,192,45562,1,0,0:0:0:0:
192,192,45656,1,0,0:0:0:0:
448,192,45750,1,0,0:0:0:0:
320,192,45843,1,0,0:0:0:0:
64,192,46031,128,0,46171:0:0:0:0:
192,192,46078,128,0,46218:0:0:0:0:
320,192,46125,128,0,46359:0:0:0:0:
448,192,46406,1,0,0:0:0:0:
320,192,46468,1,0,0:0:0:0:
192,192,46531,1,0,0:0:0:0:
64,192,46593,1,0,0:0:0:0:
192,192,46656,1,0,0:0:0:0:
320,192,46718,1,0,0:0:0:0:
448,192,46781,128,0,47343:0:0:0:0:
64,192,46781,128,0,46968:0:0:0:0:
64,192,47343,128,0,47718:0:0:0:0:
192,192,47343,128,0,47531:0:0:0:0:
192,192,47718,128,0,48093:0:0:0:0:
320,192,47718,128,0,47906:0:0:0:0:
320,192,48093,128,0,48468:0:0:0:0:
448,192,48093,128,0,48468:0:0:0:0:
192,192,48468,1,0,0:0:0:0:
64,192,48468,1,0,0:0:0:0:
448,192,48562,1,0,0:0:0:0:
320,192,48609,1,0,0:0:0:0:
192,192,48656,1,0,0:0:0:0:
64,192,48703,128,0,49031:0:0:0:0:
192,192,48843,128,0,49031:0:0:0:0:
448,192,49218,1,0,0:0:0:0:
320,192,49218,1,0,0:0:0:0:
320,192,49406,1,0,0:0:0:0:
64,192,49593,1,0,0:0:0:0:
192,192,49593,1,0,0:0:0:0:
192,192,49781,1,0,0:0:0:0:
320,192,49968,1,0,0:0:0:0:
320,192,50062,1,0,0:0:0:0:
192,192,50156,1,0,0:0:0:0:
192,192,50250,1,0,0:0:0:0:
320,192,50343,1,0,0:0:0:0:
448,192,50343,1,0,0:0:0:0:
320,192,50531,1,0,0:0:0:0:
192,192,50625,1,0,0:0:0:0:
320,192,50718,1,0,0:0:0:0:
192,192,50812,1,0,0:0:0:0:
320,192,50906,1,0,0:0:0:0:
192,192,51000,1,0,0:0:0:0:
320,192,51093,1,0,0:0:0:0:
448,192,51093,1,0,0:0:0:0:
192,192,51281,1,0,0:0:0:0:
320,192,51468,1,0,0:0:0:0:
448,192,51468,1,0,0:0:0:0:
64,192,51515,1,0,0:0:0:0:
192,192,51562,1,0,0:0:0:0:
320,192,51609,1,0,0:0:0:0:
448,192,51656,1,0,0:0:0:0:
192,192,51843,1,0,0:0:0:0:
64,192,51843,1,0,0:0:0:0:
320,192,52031,1,0,0:0:0:0:
192,192,52218,128,0,52312:0:0:0:0:
448,192,52218,128,0,52312:0:0:0:0:
320,192,52406,128,0,52593:0:0:0:0:
64,192,52406,128,0,52500:0:0:0:0:
192,192,52593,128,0,52781:0:0:0:0:
448,192,52593,128,0,52687:0:0:0:0:
448,192,52781,1,0,0:0:0:0:
64,192,52968,1,0,0:0:0:0:
192,192,52968,1,0,0:0:0:0:
320,192,53062,1,0,0:0:0:0:
64,192,53156,1,0,0:0:0:0:
320,192,53203,1,0,0:0:0:0:
64,192,53343,1,0,0:0:0:0:
448,192,53343,1,0,0:0:0:0:
192,192,53390,1,0,0:0:0:0:
320,192,53437,1,0,0:0:0:0:
448,192,53484,1,0,0:0:0:0:
192,192,53578,1,0,0:0:0:0:
64,192,53578,1,0,0:0:0:0:
320,192,53718,128,0,53812:0:0:0:0:
192,192,53718,1,0,0:0:0:0:
320,192,53906,128,0,54000:0:0:0:0:
320,192,54093,128,0,54187:0:0:0:0:
192,192,54281,1,0,0:0:0:0:
64,192,54281,1,0,0:0:0:0:
448,192,54468,128,0,54843:0:0:0:0:
320,192,54468,128,0,54656:0:0:0:0:
192,192,54843,1,0,0:0:0:0:
192,192,55218,1,0,0:0:0:0:
64,192,55218,128,0,55359:0:0:0:0:
320,192,55406,1,0,0:0:0:0:
192,192,55406,128,0,55546:0:0:0:0:
448,192,55593,1,0,0:0:0:0:
320,192,55593,128,0,55734:0:0:0:0:
64,192,55781,1,0,0:0:0:0:
192,192,55781,1,0,0:0:0:0:
448,192,55968,128,0,56343:0:0:0:0:
320,192,56062,128,0,56531:0:0:0:0:
64,192,56343,128,0,56718:0:0:0:0:
192,192,56437,128,0,56906:0:0:0:0:
448,192,56718,128,0,57000:0:0:0:0:
320,192,56812,128,0,57093:0:0:0:0:
64,192,57093,128,0,57468:0:0:0:0:
192,192,57187,128,0,57656:0:0:0:0:
320,192,57281,128,0,57843:0:0:0:0:
448,192,57375,128,0,58031:0:0:0:0:
64,192,57843,1,0,0:0:0:0:
320,192,57937,128,0,58125:0:0:0:0:
192,192,58031,128,0,58218:0:0:0:0:
64,192,58125,128,0,58406:0:0:0:0:
320,192,58218,1,0,0:0:0:0:
448,192,58218,128,0,58593:0:0:0:0:
320,192,58593,1,0,0:0:0:0:
192,192,58593,128,0,58968:0:0:0:0:
64,192,58968,1,0,0:0:0:0:
448,192,58968,128,0,59343:0:0:0:0:
320,192,58968,128,0,59156:0:0:0:0:
320,192,59343,1,0,0:0:0:0:
64,192,59343,128,0,59718:0:0:0:0:
192,192,59343,128,0,59531:0:0:0:0:
448,192,59718,128,0,60093:0:0:0:0:
192,192,59718,1,0,0:0:0:0:
320,192,59718,128,0,59906:0:0:0:0:
64,192,60093,1,0,0:0:0:0:
192,192,60093,128,0,60281:0:0:0:0:
320,192,60093,128,0,60468:0:0:0:0:
192,192,60468,128,0,60656:0:0:0:0:
64,192,60468,128,0,60843:0:0:0:0:
448,192,60468,128,0,60843:0:0:0:0:
192,192,60890,1,0,0:0:0:0:
320,192,60937,1,0,0:0:0:0:
448,192,61031,1,0,0:0:0:0:
320,192,61078,1,0,0:0:0:0:
64,192,61125,1,0,0:0:0:0:
448,192,61218,1,0,0:0:0:0:
192,192,61218,1,0,0:0:0:0:
192,192,61406,1,0,0:0:0:0:
448,192,61593,1,0,0:0:0:0:
320,192,61593,1,0,0:0:0:0:
320,192,61781,1,0,0:0:0:0:
64,192,61968,1,0,0:0:0:0:
192,192,62015,1,0,0:0:0:0:
448,192,62156,1,0,0:0:0:0:
320,192,62203,1,0,0:0:0:0:
448,192,62343,1,0,0:0:0:0:
320,192,62437,1,0,0:0:0:0:
192,192,62531,1,0,0:0:0:0:
64,192,62531,1,0,0:0:0:0:
320,192,62625,1,0,0:0:0:0:
192,192,62718,1,0,0:0:0:0:
320,192,62812,1,0,0:0:0:0:
192,192,62906,1,0,0:0:0:0:
64,192,62906,1,0,0:0:0:0:
320,192,63093,1,0,0:0:0:0:
448,192,63093,1,0,0:0:0:0:
320,192,63281,1,0,0:0:0:0:
192,192,63468,1,0,0:0:0:0:
64,192,63468,1,0,0:0:0:0:
448,192,63515,1,0,0:0:0:0:
320,192,63562,1,0,0:0:0:0:
192,192,63609,1,0,0:0:0:0:
64,192,63656,1,0,0:0:0:0:
320,192,63843,1,0,0:0:0:0:
448,192,63843,1,0,0:0:0:0:
192,192,64031,1,0,0:0:0:0:
320,192,64031,1,0,0:0:0:0:
64,192,64218,1,0,0:0:0:0:
320,192,64218,1,0,0:0:0:0:
448,192,64406,1,0,0:0:0:0:
192,192,64406,1,0,0:0:0:0:
64,192,64593,1,0,0:0:0:0:
320,192,64593,1,0,0:0:0:0:
64,192,64781,1,0,0:0:0:0:
448,192,64968,1,0,0:0:0:0:
320,192,64968,1,0,0:0:0:0:
64,192,65156,1,0,0:0:0:0:
192,192,65156,1,0,0:0:0:0:
320,192,65343,1,0,0:0:0:0:
192,192,65343,1,0,0:0:0:0:
448,192,65531,1,0,0:0:0:0:
320,192,65531,1,0,0:0:0:0:
192,192,65718,1,0,0:0:0:0:
320,192,65718,1,0,0:0:0:0:
64,192,65906,1,0,0:0:0:0:
192,192,66000,1,0,0:0:0:0:
448,192,66093,1,0,0:0:0:0:
192,192,66187,1,0,0:0:0:0:
448,192,66281,1,0,0:0:0:0:
192,192,66468,128,0,66656:0:0:0:0:
64,192,66468,128,0,67031:0:0:0:0:
192,192,66843,128,0,66937:0:0:0:0:
320,192,67218,1,0,0:0:0:0:
448,192,67218,128,0,67312:0:0:0:0:
64,192,67406,1,0,0:0:0:0:
192,192,67406,128,0,67500:0:0:0:0:
192,192,67593,1,0,0:0:0:0:
320,192,67593,128,0,67687:0:0:0:0:
448,192,67781,1,0,0:0:0:0:
320,192,67781,128,0,67875:0:0:0:0:
192,192,67968,128,0,68156:0:0:0:0:
64,192,68062,128,0,68343:0:0:0:0:
320,192,68343,128,0,68531:0:0:0:0:
448,192,68437,128,0,68718:0:0:0:0:
64,192,68718,128,0,69093:0:0:0:0:
320,192,68718,1,0,0:0:0:0:
192,192,68906,128,0,69187:0:0:0:0:
448,192,69093,128,0,69468:0:0:0:0:
320,192,69093,128,0,69281:0:0:0:0:
64,192,69281,1,0,0:0:0:0:
192,192,69468,128,0,69656:0:0:0:0:
320,192,69468,1,0,0:0:0:0:
64,192,69468,1,0,0:0:0:0:
64,192,69656,128,0,70406:0:0:0:0:
320,192,69656,128,0,69843:0:0:0:0:
192,192,69843,128,0,70218:0:0:0:0:
448,192,69843,128,0,70031:0:0:0:0:
320,192,70031,128,0,70125:0:0:0:0:
320,192,70218,128,0,70312:0:0:0:0:
320,192,70406,128,0,70500:0:0:0:0:
320,192,70593,128,0,70687:0:0:0:0:
320,192,70781,128,0,70875:0:0:0:0:
192,192,70968,128,0,71062:0:0:0:0:
64,192,71062,1,0,0:0:0:0:
320,192,71156,128,0,71250:0:0:0:0:
192,192,71250,1,0,0:0:0:0:
448,192,71343,128,0,71437:0:0:0:0:
320,192,71437,1,0,0:0:0:0:
64,192,71531,1,0,0:0:0:0:
192,192,71531,1,0,0:0:0:0:
320,192,71718,128,0,71812:0:0:0:0:
192,192,71718,1,0,0:0:0:0:
320,192,71906,128,0,72000:0:0:0:0:
320,192,72093,1,0,0:0:0:0:
448,192,72093,128,0,72187:0:0:0:0:
448,192,72281,128,0,72375:0:0:0:0:
64,192,72468,128,0,73968:0:0:0:0:
192,192,72468,128,0,72843:0:0:0:0:
320,192,72468,1,0,0:0:0:0:
192,192,73218,128,0,73593:0:0:0:0:
448,192,73218,1,0,0:0:0:0:
320,192,73593,1,0,0:0:0:0:
448,192,73593,1,0,0:0:0:0:
448,192,73968,1,0,0:0:0:0:
192,192,73968,128,0,74343:0:0:0:0:
448,192,74343,128,0,74718:0:0:0:0:
320,192,74343,128,0,74531:0:0:0:0:
320,192,74718,128,0,75093:0:0:0:0:
192,192,74718,128,0,74906:0:0:0:0:
192,192,75093,128,0,75468:0:0:0:0:
64,192,75093,128,0,75843:0:0:0:0:
448,192,75468,1,0,0:0:0:0:
192,192,75843,128,0,76218:0:0:0:0:
320,192,75843,128,0,76781:0:0:0:0:
448,192,76218,1,0,0:0:0:0:
64,192,76218,1,0,0:0:0:0:
192,192,76593,128,0,76781:0:0:0:0:
320,192,76968,128,0,77062:0:0:0:0:
448,192,77062,1,0,0:0:0:0:
192,192,77156,128,0,77250:0:0:0:0:
320,192,77250,1,0,0:0:0:0:
64,192,77343,128,0,77437:0:0:0:0:
192,192,77437,1,0,0:0:0:0:
320,192,77531,1,0,0:0:0:0:
192,192,77718,1,0,0:0:0:0:
64,192,77718,128,0,77812:0:0:0:0:
64,192,77906,128,0,78000:0:0:0:0:
320,192,78093,1,0,0:0:0:0:
192,192,78093,128,0,78187:0:0:0:0:
192,192,78281,128,0,78375:0:0:0:0:
448,192,78468,128,0,79968:0:0:0:0:
320,192,78468,128,0,78843:0:0:0:0:
320,192,79218,128,0,79593:0:0:0:0:
320,192,79968,128,0,80343:0:0:0:0:
64,192,80343,128,0,80718:0:0:0:0:
192,192,80343,128,0,80531:0:0:0:0:
192,192,80718,128,0,81093:0:0:0:0:
320,192,80718,128,0,80906:0:0:0:0:
320,192,81093,128,0,81468:0:0:0:0:
448,192,81093,128,0,81281:0:0:0:0:
192,192,81281,128,0,81656:0:0:0:0:
64,192,81468,128,0,82781:0:0:0:0:
448,192,81656,128,0,82781:0:0:0:0:
320,192,81843,128,0,82781:0:0:0:0:
192,192,81937,128,0,82781:0:0:0:0:
448,192,82968,1,0,0:0:0:0:
320,192,82968,1,0,0:0:0:0:
192,192,83156,1,0,0:0:0:0:
320,192,83343,128,0,83671:0:0:0:0:
448,192,83343,128,0,83671:0:0:0:0:
64,192,83765,1,0,0:0:0:0:
192,192,83765,1,0,0:0:0:0:
320,192,83765,1,0,0:0:0:0:
448,192,83765,1,0,0:0:0:0:
64,192,83953,1,0,0:0:0:0:
192,192,83953,1,0,0:0:0:0:
320,192,83953,1,0,0:0:0:0:
448,192,83953,1,0,0:0:0:0:
64,192,84140,1,0,0:0:0:0:
192,192,84140,1,0,0:0:0:0:
320,192,84140,1,0,0:0:0:0:
448,192,84140,1,0,0:0:0:0:
192,192,84328,1,0,0:0:0:0:
448,192,84328,1,0,0:0:0:0:
320,192,84328,1,0,0:0:0:0:
64,192,84328,1,0,0:0:0:0:
64,192,84515,1,0,0:0:0:0:
192,192,84515,128,0,84796:0:0:0:0:
64,192,84702,1,0,0:0:0:0:
448,192,84702,1,0,0:0:0:0:
320,192,84796,1,0,0:0:0:0:
448,192,84890,1,0,0:0:0:0:
64,192,84890,1,0,0:0:0:0:
192,192,84983,1,0,0:0:0:0:
320,192,85077,1,0,0:0:0:0:
448,192,85077,1,0,0:0:0:0:
64,192,85171,1,0,0:0:0:0:
320,192,85265,1,0,0:0:0:0:
192,192,85265,1,0,0:0:0:0:
64,192,85358,1,0,0:0:0:0:
448,192,85452,1,0,0:0:0:0:
192,192,85452,1,0,0:0:0:0:
320,192,85546,1,0,0:0:0:0:
448,192,85593,1,0,0:0:0:0:
320,192,85733,1,0,0:0:0:0:
192,192,85780,1,0,0:0:0:0:
64,192,85827,1,0,0:0:0:0:
192,192,85921,1,0,0:0:0:0:
320,192,85968,1,0,0:0:0:0:
448,192,86015,1,0,0:0:0:0:
64,192,86108,1,0,0:0:0:0:
192,192,86108,1,0,0:0:0:0:
448,192,86155,1,0,0:0:0:0:
320,192,86202,1,0,0:0:0:0:
192,192,86249,1,0,0:0:0:0:
64,192,86343,1,0,0:0:0:0:
448,192,86390,1,0,0:0:0:0:
320,192,86436,1,0,0:0:0:0:
64,192,86530,1,0,0:0:0:0:
192,192,86577,1,0,0:0:0:0:
448,192,86577,1,0,0:0:0:0:
64,192,86765,1,0,0:0:0:0:
448,192,86765,1,0,0:0:0:0:
320,192,86765,1,0,0:0:0:0:
192,192,86858,1,0,0:0:0:0:
448,192,86952,1,0,0:0:0:0:
320,192,86952,1,0,0:0:0:0:
192,192,87046,128,0,87140:0:0:0:0:
64,192,87140,1,0,0:0:0:0:
320,192,87140,1,0,0:0:0:0:
448,192,87140,1,0,0:0:0:0:
192,192,87233,1,0,0:0:0:0:
448,192,87327,1,0,0:0:0:0:
320,192,87327,128,0,87421:0:0:0:0:
64,192,87421,1,0,0:0:0:0:
192,192,87515,1,0,0:0:0:0:
448,192,87515,1,0,0:0:0:0:
64,192,87608,1,0,0:0:0:0:
320,192,87608,1,0,0:0:0:0:
448,192,87655,128,0,87749:0:0:0:0:
192,192,87702,1,0,0:0:0:0:
320,192,87749,1,0,0:0:0:0:
448,192,87843,1,0,0:0:0:0:
320,192,87936,1,0,0:0:0:0:
192,192,87936,1,0,0:0:0:0:
192,192,88030,1,0,0:0:0:0:
64,192,88030,1,0,0:0:0:0:
448,192,88171,1,0,0:0:0:0:
192,192,88265,1,0,0:0:0:0:
64,192,88265,1,0,0:0:0:0:
320,192,88265,1,0,0:0:0:0:
448,192,88358,1,0,0:0:0:0:
320,192,88452,1,0,0:0:0:0:
192,192,88546,1,0,0:0:0:0:
64,192,88640,1,0,0:0:0:0:
448,192,88640,1,0,0:0:0:0:
448,192,88733,1,0,0:0:0:0:
192,192,88827,1,0,0:0:0:0:
320,192,88874,1,0,0:0:0:0:
448,192,88921,1,0,0:0:0:0:
192,192,89015,1,0,0:0:0:0:
64,192,89061,1,0,0:0:0:0:
448,192,89108,1,0,0:0:0:0:
192,192,89202,1,0,0:0:0:0:
64,192,89249,1,0,0:0:0:0:
320,192,89296,1,0,0:0:0:0:
192,192,89343,1,0,0:0:0:0:
448,192,89390,1,0,0:0:0:0:
320,192,89436,1,0,0:0:0:0:
192,192,89483,1,0,0:0:0:0:
64,192,89530,1,0,0:0:0:0:
448,192,89577,1,0,0:0:0:0:
320,192,89624,1,0,0:0:0:0:
448,192,89718,1,0,0:0:0:0:
64,192,89765,1,0,0:0:0:0:
192,192,89765,1,0,0:0:0:0:
192,192,89858,1,0,0:0:0:0:
192,192,89952,1,0,0:0:0:0:
448,192,90046,1,0,0:0:0:0:
320,192,90046,128,0,90140:0:0:0:0:
64,192,90093,1,0,0:0:0:0:
192,192,90186,1,0,0:0:0:0:
448,192,90233,1,0,0:0:0:0:
320,192,90280,1,0,0:0:0:0:
64,192,90327,1,0,0:0:0:0:
192,192,90374,1,0,0:0:0:0:
448,192,90421,1,0,0:0:0:0:
64,192,90515,1,0,0:0:0:0:
320,192,90515,1,0,0:0:0:0:
192,192,90515,128,0,90608:0:0:0:0:
448,192,90608,1,0,0:0:0:0:
192,192,90702,1,0,0:0:0:0:
320,192,90796,1,0,0:0:0:0:
64,192,90890,1,0,0:0:0:0:
192,192,90890,1,0,0:0:0:0:
448,192,90890,1,0,0:0:0:0:
320,192,90983,128,0,91171:0:0:0:0:
448,192,91077,1,0,0:0:0:0:
192,192,91171,1,0,0:0:0:0:
64,192,91265,1,0,0:0:0:0:
448,192,91265,1,0,0:0:0:0:
192,192,91311,1,0,0:0:0:0:
64,192,91405,1,0,0:0:0:0:
448,192,91452,1,0,0:0:0:0:
320,192,91546,1,0,0:0:0:0:
192,192,91546,1,0,0:0:0:0:
64,192,91640,1,0,0:0:0:0:
448,192,91733,1,0,0:0:0:0:
320,192,91733,1,0,0:0:0:0:
192,192,91827,1,0,0:0:0:0:
320,192,91921,1,0,0:0:0:0:
192,192,92015,1,0,0:0:0:0:
448,192,92015,1,0,0:0:0:0:
320,192,92108,1,0,0:0:0:0:
64,192,92202,1,0,0:0:0:0:
448,192,92202,1,0,0:0:0:0:
192,192,92296,1,0,0:0:0:0:
448,192,92390,1,0,0:0:0:0:
64,192,92390,1,0,0:0:0:0:
320,192,92483,1,0,0:0:0:0:
448,192,92577,1,0,0:0:0:0:
192,192,92577,1,0,0:0:0:0:
192,192,92765,1,0,0:0:0:0:
64,192,92765,1,0,0:0:0:0:
64,192,92858,1,0,0:0:0:0:
320,192,92952,1,0,0:0:0:0:
448,192,92952,1,0,0:0:0:0:
192,192,93046,128,0,93233:0:0:0:0:
448,192,93046,1,0,0:0:0:0:
64,192,93140,1,0,0:0:0:0:
320,192,93233,128,0,93421:0:0:0:0:
448,192,93327,1,0,0:0:0:0:
192,192,93515,1,0,0:0:0:0:
64,192,93515,1,0,0:0:0:0:
448,192,93608,1,0,0:0:0:0:
192,192,93702,128,0,93890:0:0:0:0:
448,192,93702,1,0,0:0:0:0:
64,192,93796,1,0,0:0:0:0:
320,192,93796,1,0,0:0:0:0:
448,192,93890,1,0,0:0:0:0:
320,192,93983,1,0,0:0:0:0:
192,192,94077,1,0,0:0:0:0:
320,192,94171,1,0,0:0:0:0:
192,192,94265,128,0,94358:0:0:0:0:
448,192,94265,1,0,0:0:0:0:
64,192,94265,1,0,0:0:0:0:
192,192,94452,128,0,94733:0:0:0:0:
320,192,94452,1,0,0:0:0:0:
448,192,94546,1,0,0:0:0:0:
64,192,94546,1,0,0:0:0:0:
320,192,94640,1,0,0:0:0:0:
448,192,94827,1,0,0:0:0:0:
64,192,94827,1,0,0:0:0:0:
192,192,94921,1,0,0:0:0:0:
320,192,94921,1,0,0:0:0:0:
64,192,95015,1,0,0:0:0:0:
448,192,95015,1,0,0:0:0:0:
448,192,95108,1,0,0:0:0:0:
64,192,95202,1,0,0:0:0:0:
192,192,95202,1,0,0:0:0:0:
320,192,95202,1,0,0:0:0:0:
64,192,95296,1,0,0:0:0:0:
448,192,95390,1,0,0:0:0:0:
320,192,95390,1,0,0:0:0:0:
192,192,95390,1,0,0:0:0:0:
448,192,95483,1,0,0:0:0:0:
64,192,95577,1,0,0:0:0:0:
192,192,95577,1,0,0:0:0:0:
320,192,95577,1,0,0:0:0:0:
64,192,95671,1,0,0:0:0:0:
320,192,95765,1,0,0:0:0:0:
192,192,95765,1,0,0:0:0:0:
448,192,95765,1,0,0:0:0:0:
448,192,95858,1,0,0:0:0:0:
320,192,95952,1,0,0:0:0:0:
192,192,95952,1,0,0:0:0:0:
64,192,95952,1,0,0:0:0:0:
64,192,96046,1,0,0:0:0:0:
320,192,96140,1,0,0:0:0:0:
448,192,96140,1,0,0:0:0:0:
192,192,96140,1,0,0:0:0:0:
64,192,96233,1,0,0:0:0:0:
448,192,96233,1,0,0:0:0:0:
64,192,96327,1,0,0:0:0:0:
192,192,96327,1,0,0:0:0:0:
320,192,96327,1,0,0:0:0:0:
448,192,96421,1,0,0:0:0:0:
320,192,96515,128,0,96702:0:0:0:0:
192,192,96515,1,0,0:0:0:0:
64,192,96608,128,0,96796:0:0:0:0:
448,192,96702,1,0,0:0:0:0:
192,192,96702,128,0,96796:0:0:0:0:
192,192,96890,128,0,97265:0:0:0:0:
448,192,96890,128,0,96983:0:0:0:0:
64,192,96890,128,0,97077:0:0:0:0:
320,192,97077,128,0,97358:0:0:0:0:
64,192,97265,128,0,97358:0:0:0:0:
448,192,97265,128,0,97546:0:0:0:0:
192,192,97452,128,0,97546:0:0:0:0:
64,192,97452,128,0,97546:0:0:0:0:
320,192,97452,128,0,97733:0:0:0:0:
448,192,97640,1,0,0:0:0:0:
192,192,97640,128,0,97733:0:0:0:0:
64,192,97827,1,0,0:0:0:0:
192,192,97827,128,0,98015:0:0:0:0:
448,192,97827,128,0,97921:0:0:0:0:
320,192,98015,128,0,98577:0:0:0:0:
448,192,98015,128,0,98202:0:0:0:0:
64,192,98015,128,0,98108:0:0:0:0:
192,192,98202,128,0,98390:0:0:0:0:
64,192,98390,128,0,98483:0:0:0:0:
448,192,98390,128,0,98577:0:0:0:0:
192,192,98577,128,0,98765:0:0:0:0:
64,192,98577,128,0,98765:0:0:0:0:
448,192,98765,128,0,98858:0:0:0:0:
320,192,98858,128,0,99140:0:0:0:0:
192,192,98858,128,0,98952:0:0:0:0:
64,192,98952,128,0,99515:0:0:0:0:
448,192,98952,128,0,99046:0:0:0:0:
448,192,99140,128,0,99327:0:0:0:0:
192,192,99140,128,0,99421:0:0:0:0:
320,192,99327,128,0,99515:0:0:0:0:
448,192,99515,128,0,99702:0:0:0:0:
192,192,99515,128,0,99608:0:0:0:0:
320,192,99608,128,0,99983:0:0:0:0:
64,192,99702,128,0,99796:0:0:0:0:
192,192,99702,128,0,99796:0:0:0:0:
448,192,99890,128,0,100077:0:0:0:0:
64,192,99983,128,0,100265:0:0:0:0:
192,192,99983,128,0,100077:0:0:0:0:
192,192,100171,128,0,100452:0:0:0:0:
320,192,100171,128,0,100265:0:0:0:0:
448,192,100358,128,0,100546:0:0:0:0:
320,192,100358,128,0,100640:0:0:0:0:
192,192,100640,128,0,100827:0:0:0:0:
64,192,100733,128,0,100827:0:0:0:0:
320,192,100733,128,0,100921:0:0:0:0:
64,192,100921,128,0,101015:0:0:0:0:
192,192,100921,128,0,101202:0:0:0:0:
64,192,101108,128,0,101390:0:0:0:0:
448,192,101202,128,0,101483:0:0:0:0:
320,192,101202,128,0,101296:0:0:0:0:
192,192,101390,128,0,101483:0:0:0:0:
64,192,101483,128,0,101765:0:0:0:0:
320,192,101483,128,0,101671:0:0:0:0:
448,192,101577,128,0,101858:0:0:0:0:
320,192,101765,128,0,101858:0:0:0:0:
64,192,101858,128,0,102327:0:0:0:0:
192,192,101858,128,0,102046:0:0:0:0:
448,192,101952,128,0,102233:0:0:0:0:
320,192,102046,128,0,102140:0:0:0:0:
192,192,102233,128,0,102327:0:0:0:0:
320,192,102327,128,0,102608:0:0:0:0:
448,192,102327,128,0,102421:0:0:0:0:
192,192,102515,128,0,102608:0:0:0:0:
64,192,102608,128,0,103077:0:0:0:0:
448,192,102608,128,0,102796:0:0:0:0:
320,192,102890,128,0,103358:0:0:0:0:
192,192,102890,128,0,102983:0:0:0:0:
448,192,102890,128,0,103077:0:0:0:0:
64,192,103171,128,0,103358:0:0:0:0:
448,192,103265,128,0,103358:0:0:0:0:
192,192,103265,128,0,103358:0:0:0:0:
192,192,103452,128,0,103546:0:0:0:0:
64,192,103452,128,0,103640:0:0:0:0:
192,192,103640,128,0,103733:0:0:0:0:
320,192,103640,128,0,103921:0:0:0:0:
448,192,103827,128,0,103921:0:0:0:0:
64,192,104015,128,0,104390:0:0:0:0:
192,192,104015,128,0,104202:0:0:0:0:
320,192,104202,128,0,104296:0:0:0:0:
448,192,104202,128,0,104577:0:0:0:0:
320,192,104390,128,0,104483:0:0:0:0:
64,192,104577,128,0,104671:0:0:0:0:
192,192,104577,128,0,104858:0:0:0:0:
320,192,104577,128,0,104671:0:0:0:0:
320,192,104858,128,0,104952:0:0:0:0:
192,192,104952,128,0,105046:0:0:0:0:
448,192,105046,128,0,105140:0:0:0:0:
320,192,105046,128,0,105233:0:0:0:0:
64,192,105233,128,0,105327:0:0:0:0:
192,192,105233,128,0,105421:0:0:0:0:
320,192,105421,128,0,105515:0:0:0:0:
448,192,105421,128,0,105608:0:0:0:0:
64,192,105421,128,0,105608:0:0:0:0:
192,192,105515,128,0,105702:0:0:0:0:
320,192,105608,128,0,105796:0:0:0:0:
64,192,105796,128,0,105890:0:0:0:0:
192,192,105796,128,0,105983:0:0:0:0:
320,192,105983,128,0,106171:0:0:0:0:
448,192,105983,128,0,106077:0:0:0:0:
64,192,106171,128,0,106265:0:0:0:0:
192,192,106171,128,0,106265:0:0:0:0:
320,192,106358,128,0,106452:0:0:0:0:
64,192,106358,128,0,106546:0:0:0:0:
448,192,106546,128,0,106640:0:0:0:0:
192,192,106546,128,0,106733:0:0:0:0:
64,192,106733,128,0,106827:0:0:0:0:
320,192,106733,128,0,107483:0:0:0:0:
192,192,106921,128,0,107015:0:0:0:0:
448,192,106921,128,0,107015:0:0:0:0:
64,192,107015,128,0,107202:0:0:0:0:
192,192,107108,128,0,107202:0:0:0:0:
448,192,107108,128,0,107202:0:0:0:0:
448,192,107296,128,0,107577:0:0:0:0:
192,192,107296,128,0,107390:0:0:0:0:
64,192,107390,128,0,107577:0:0:0:0:
192,192,107483,128,0,107765:0:0:0:0:
320,192,107577,128,0,107671:0:0:0:0:
64,192,107671,128,0,107858:0:0:0:0:
448,192,107671,128,0,107765:0:0:0:0:
320,192,107765,128,0,107858:0:0:0:0:
192,192,107858,128,0,107952:0:0:0:0:
448,192,107858,128,0,108046:0:0:0:0:
64,192,107952,128,0,108140:0:0:0:0:
320,192,107952,128,0,108046:0:0:0:0:
192,192,108046,128,0,108233:0:0:0:0:
448,192,108140,128,0,108233:0:0:0:0:
320,192,108140,128,0,108421:0:0:0:0:
192,192,108327,128,0,108608:0:0:0:0:
64,192,108327,128,0,108421:0:0:0:0:
64,192,108515,128,0,108890:0:0:0:0:
448,192,108515,128,0,108702:0:0:0:0:
320,192,108702,128,0,108890:0:0:0:0:
192,192,108796,128,0,108890:0:0:0:0:
448,192,108796,128,0,108890:0:0:0:0:
320,192,108983,128,0,109077:0:0:0:0:
448,192,108983,128,0,109265:0:0:0:0:
192,192,109077,128,0,109358:0:0:0:0:
64,192,109265,128,0,109358:0:0:0:0:
320,192,109265,128,0,109358:0:0:0:0:
448,192,109452,128,0,109546:0:0:0:0:
320,192,109452,128,0,109733:0:0:0:0:
192,192,109640,128,0,109921:0:0:0:0:
64,192,109640,128,0,109733:0:0:0:0:
448,192,109827,128,0,109921:0:0:0:0:
320,192,109827,128,0,110108:0:0:0:0:
64,192,110015,128,0,110296:0:0:0:0:
192,192,110015,128,0,110108:0:0:0:0:
192,192,110202,128,0,110483:0:0:0:0:
320,192,110202,128,0,110296:0:0:0:0:
320,192,110390,128,0,110671:0:0:0:0:
448,192,110390,128,0,110483:0:0:0:0:
448,192,110577,128,0,110858:0:0:0:0:
64,192,110577,128,0,110765:0:0:0:0:
192,192,110765,128,0,110858:0:0:0:0:
320,192,110765,128,0,110952:0:0:0:0:
64,192,110952,128,0,111046:0:0:0:0:
192,192,110952,128,0,111233:0:0:0:0:
448,192,111140,128,0,111327:0:0:0:0:
320,192,111140,128,0,111233:0:0:0:0:
64,192,111327,128,0,111421:0:0:0:0:
192,192,111327,128,0,111421:0:0:0:0:
320,192,111515,128,0,111890:0:0:0:0:
448,192,111515,128,0,111702:0:0:0:0:
192,192,111515,128,0,111796:0:0:0:0:
64,192,111890,128,0,111983:0:0:0:0:
448,192,111890,128,0,112171:0:0:0:0:
320,192,112077,128,0,112358:0:0:0:0:
64,192,112077,128,0,112171:0:0:0:0:
192,192,112265,128,0,112546:0:0:0:0:
448,192,112265,128,0,112358:0:0:0:0:
320,192,112452,128,0,112733:0:0:0:0:
448,192,112452,128,0,112546:0:0:0:0:
64,192,112640,128,0,112733:0:0:0:0:
192,192,112640,128,0,112921:0:0:0:0:
320,192,112827,128,0,113108:0:0:0:0:
448,192,112827,128,0,112921:0:0:0:0:
192,192,113015,128,0,113108:0:0:0:0:
64,192,113015,128,0,113108:0:0:0:0:
192,192,113202,128,0,113483:0:0:0:0:
320,192,113202,128,0,113296:0:0:0:0:
64,192,113296,128,0,113671:0:0:0:0:
320,192,113390,128,0,113671:0:0:0:0:
448,192,113390,128,0,113483:0:0:0:0:
192,192,113577,128,0,113858:0:0:0:0:
448,192,113671,128,0,114046:0:0:0:0:
64,192,113765,128,0,113858:0:0:0:0:
320,192,113765,128,0,113952:0:0:0:0:
320,192,114046,128,0,114140:0:0:0:0:
192,192,114140,128,0,114327:0:0:0:0:
64,192,114140,128,0,114327:0:0:0:0:
320,192,114327,128,0,114608:0:0:0:0:
448,192,114327,128,0,114421:0:0:0:0:
64,192,114515,128,0,114702:0:0:0:0:
192,192,114515,128,0,114890:0:0:0:0:
320,192,114702,128,0,114983:0:0:0:0:
448,192,114890,128,0,115171:0:0:0:0:
320,192,115077,128,0,115265:0:0:0:0:
64,192,115265,128,0,115358:0:0:0:0:
192,192,115265,128,0,115358:0:0:0:0:
448,192,115452,128,0,115546:0:0:0:0:
192,192,115452,128,0,115733:0:0:0:0:
320,192,115640,128,0,115827:0:0:0:0:
448,192,115640,128,0,115733:0:0:0:0:
192,192,115827,128,0,116015:0:0:0:0:
64,192,116015,128,0,116202:0:0:0:0:
448,192,116015,128,0,116296:0:0:0:0:
320,192,116015,128,0,116108:0:0:0:0:
192,192,116202,1,0,0:0:0:0:
64,192,116390,128,0,116671:0:0:0:0:
448,192,116390,128,0,116577:0:0:0:0:
192,192,116390,128,0,116483:0:0:0:0:
320,192,116577,1,0,0:0:0:0:
64,192,116765,128,0,117046:0:0:0:0:
192,192,116765,128,0,116858:0:0:0:0:
192,192,116952,128,0,117233:0:0:0:0:
320,192,116952,128,0,117046:0:0:0:0:
320,192,117140,128,0,117233:0:0:0:0:
448,192,117140,128,0,117233:0:0:0:0:
64,192,117327,128,0,117515:0:0:0:0:
448,192,117515,128,0,117796:0:0:0:0:
320,192,117515,1,0,0:0:0:0:
320,192,117702,128,0,117983:0:0:0:0:
192,192,117702,1,0,0:0:0:0:
192,192,117890,128,0,118171:0:0:0:0:
64,192,117890,1,0,0:0:0:0:
64,192,118077,128,0,118546:0:0:0:0:
448,192,118077,128,0,118546:0:0:0:0:
192,192,118265,128,0,118358:0:0:0:0:
320,192,118265,128,0,118546:0:0:0:0:
192,192,118452,128,0,118546:0:0:0:0:
64,192,118640,128,0,118733:0:0:0:0:
192,192,118640,1,0,0:0:0:0:
192,192,118827,128,0,118921:0:0:0:0:
320,192,118827,1,0,0:0:0:0:
192,192,119015,128,0,119202:0:0:0:0:
320,192,119015,128,0,119202:0:0:0:0:
64,192,119202,128,0,119390:0:0:0:0:
448,192,119202,128,0,119390:0:0:0:0:
192,192,119390,128,0,119577:0:0:0:0:
320,192,119390,128,0,119577:0:0:0:0:
64,192,119577,128,0,119765:0:0:0:0:
448,192,119577,128,0,119765:0:0:0:0:
192,192,119765,1,0,0:0:0:0:
320,192,119765,128,0,119858:0:0:0:0:
64,192,119858,1,0,0:0:0:0:
192,192,119905,1,0,0:0:0:0:
320,192,119952,1,0,0:0:0:0:
448,192,119999,1,0,0:0:0:0:
64,192,120046,1,0,0:0:0:0:
192,192,120093,1,0,0:0:0:0:
320,192,120140,1,0,0:0:0:0:
448,192,120186,1,0,0:0:0:0:
64,192,120233,1,0,0:0:0:0:
192,192,120280,1,0,0:0:0:0:
320,192,120327,1,0,0:0:0:0:
448,192,120374,1,0,0:0:0:0:
192,192,120515,128,0,120702:0:0:0:0:
320,192,120702,128,0,120983:0:0:0:0:
64,192,120983,128,0,121077:0:0:0:0:
448,192,121171,128,0,121358:0:0:0:0:
320,192,121358,128,0,121452:0:0:0:0:
192,192,121452,128,0,121546:0:0:0:0:
64,192,121640,128,0,121733:0:0:0:0:
192,192,121733,128,0,121921:0:0:0:0:
320,192,121827,128,0,122015:0:0:0:0:
448,192,122015,128,0,122390:0:0:0:0:
320,192,122202,128,0,122390:0:0:0:0:
64,192,122296,128,0,122483:0:0:0:0:
192,192,122390,128,0,122577:0:0:0:0:
320,192,122483,128,0,122624:0:0:0:0:
64,192,122577,128,0,122765:0:0:0:0:
448,192,122577,128,0,122671:0:0:0:0:
192,192,122671,128,0,122765:0:0:0:0:
320,192,122718,128,0,122811:0:0:0:0:
448,192,122765,128,0,123046:0:0:0:0:
192,192,123046,128,0,123140:0:0:0:0:
320,192,123046,128,0,123140:0:0:0:0:
64,192,123140,128,0,123186:0:0:0:0:
448,192,123186,128,0,123233:0:0:0:0:
64,192,123280,128,0,123327:0:0:0:0:
192,192,123327,128,0,123421:0:0:0:0:
320,192,123327,128,0,123561:0:0:0:0:
192,192,123608,128,0,123702:0:0:0:0:
64,192,123765,128,0,123827:0:0:0:0:
448,192,123827,128,0,123890:0:0:0:0:
192,192,123890,128,0,123952:0:0:0:0:
320,192,123952,128,0,124015:0:0:0:0:
64,192,124015,128,0,124077:0:0:0:0:
448,192,124077,128,0,124140:0:0:0:0:
192,192,124140,128,0,124202:0:0:0:0:
320,192,124218,128,0,124358:0:0:0:0:
448,192,124640,128,0,124921:0:0:0:0:
64,192,124640,128,0,124921:0:0:0:0:
192,192,124640,1,0,0:0:0:0:
320,192,124827,1,0,0:0:0:0:
192,192,124827,128,0,124921:0:0:0:0:
64,192,125015,128,0,125390:0:0:0:0:
448,192,125015,128,0,125390:0:0:0:0:
320,192,125015,1,0,0:0:0:0:
192,192,125202,1,0,0:0:0:0:
320,192,125202,128,0,125390:0:0:0:0:
192,192,125390,128,0,125765:0:0:0:0:
320,192,125577,1,0,0:0:0:0:
64,192,125577,128,0,125765:0:0:0:0:
320,192,125765,1,0,0:0:0:0:
448,192,125765,1,0,0:0:0:0:
64,192,125952,1,0,0:0:0:0:
448,192,125999,1,0,0:0:0:0:
320,192,126046,1,0,0:0:0:0:
192,192,126093,1,0,0:0:0:0:
64,192,126140,1,0,0:0:0:0:
320,192,126186,1,0,0:0:0:0:
192,192,126233,1,0,0:0:0:0:
448,192,126280,1,0,0:0:0:0:
320,192,126327,1,0,0:0:0:0:
192,192,126374,1,0,0:0:0:0:
64,192,126421,1,0,0:0:0:0:
320,192,126468,1,0,0:0:0:0:
448,192,126561,1,0,0:0:0:0:
192,192,126608,1,0,0:0:0:0:
448,192,126702,1,0,0:0:0:0:
320,192,126702,1,0,0:0:0:0:
64,192,126796,1,0,0:0:0:0:
192,192,126796,1,0,0:0:0:0:
448,192,126890,1,0,0:0:0:0:
320,192,126890,1,0,0:0:0:0:
192,192,126983,1,0,0:0:0:0:
448,192,127077,1,0,0:0:0:0:
64,192,127077,1,0,0:0:0:0:
320,192,127077,1,0,0:0:0:0:
320,192,127171,1,0,0:0:0:0:
448,192,127171,1,0,0:0:0:0:
64,192,127265,1,0,0:0:0:0:
192,192,127265,1,0,0:0:0:0:
320,192,127358,1,0,0:0:0:0:
448,192,127452,1,0,0:0:0:0:
64,192,127452,1,0,0:0:0:0:
192,192,127452,1,0,0:0:0:0:
192,192,127546,1,0,0:0:0:0:
64,192,127546,1,0,0:0:0:0:
448,192,127640,1,0,0:0:0:0:
320,192,127640,1,0,0:0:0:0:
192,192,127733,128,0,127921:0:0:0:0:
64,192,127827,128,0,128015:0:0:0:0:
448,192,127827,1,0,0:0:0:0:
320,192,127827,1,0,0:0:0:0:
448,192,128015,1,0,0:0:0:0:
320,192,128015,1,0,0:0:0:0:
192,192,128108,128,0,128296:0:0:0:0:
320,192,128202,128,0,128483:0:0:0:0:
64,192,128202,128,0,128390:0:0:0:0:
448,192,128390,128,0,128765:0:0:0:0:
64,192,128577,1,0,0:0:0:0:
192,192,128577,1,0,0:0:0:0:
320,192,128671,128,0,128858:0:0:0:0:
192,192,128765,1,0,0:0:0:0:
64,192,128858,128,0,129046:0:0:0:0:
448,192,128952,1,0,0:0:0:0:
320,192,128952,1,0,0:0:0:0:
192,192,129046,128,0,129233:0:0:0:0:
448,192,129140,1,0,0:0:0:0:
64,192,129233,128,0,129327:0:0:0:0:
448,192,129327,1,0,0:0:0:0:
320,192,129327,1,0,0:0:0:0:
64,192,129421,128,0,129515:0:0:0:0:
320,192,129515,1,0,0:0:0:0:
192,192,129515,1,0,0:0:0:0:
448,192,129608,128,0,129796:0:0:0:0:
192,192,129702,1,0,0:0:0:0:
64,192,129702,1,0,0:0:0:0:
320,192,129796,128,0,129983:0:0:0:0:
192,192,129890,1,0,0:0:0:0:
64,192,129890,1,0,0:0:0:0:
448,192,129983,128,0,130171:0:0:0:0:
64,192,130077,1,0,0:0:0:0:
320,192,130077,1,0,0:0:0:0:
192,192,130171,128,0,130358:0:0:0:0:
448,192,130265,1,0,0:0:0:0:
320,192,130265,1,0,0:0:0:0:
64,192,130358,128,0,130640:0:0:0:0:
192,192,130452,1,0,0:0:0:0:
448,192,130452,1,0,0:0:0:0:
320,192,130546,128,0,130827:0:0:0:0:
192,192,130640,128,0,131061:0:0:0:0:
448,192,130640,128,0,130921:0:0:0:0:
64,192,130921,128,0,131155:0:0:0:0:
320,192,131015,128,0,131202:0:0:0:0:
448,192,131108,128,0,131390:0:0:0:0:
192,192,131296,128,0,131390:0:0:0:0:
64,192,131390,128,0,131577:0:0:0:0:
320,192,131390,1,0,0:0:0:0:
192,192,131577,128,0,131765:0:0:0:0:
320,192,131577,128,0,131671:0:0:0:0:
448,192,131765,128,0,131952:0:0:0:0:
320,192,131765,128,0,131858:0:0:0:0:
192,192,131952,128,0,132186:0:0:0:0:
320,192,131952,128,0,132140:0:0:0:0:
448,192,132093,128,0,132233:0:0:0:0:
64,192,132140,128,0,132280:0:0:0:0:
320,192,132233,128,0,132327:0:0:0:0:
192,192,132280,128,0,132374:0:0:0:0:
448,192,132327,128,0,132468:0:0:0:0:
64,192,132374,128,0,132515:0:0:0:0:
320,192,132468,1,0,0:0:0:0:
192,192,132515,1,0,0:0:0:0:
448,192,132608,128,0,132796:0:0:0:0:
320,192,132608,128,0,132796:0:0:0:0:
192,192,132702,128,0,132796:0:0:0:0:
64,192,132702,128,0,132796:0:0:0:0:
192,192,132890,128,0,133265:0:0:0:0:
64,192,132890,128,0,133265:0:0:0:0:
320,192,132890,1,0,0:0:0:0:
448,192,132890,1,0,0:0:0:0:
320,192,133077,128,0,133171:0:0:0:0:
448,192,133077,128,0,133171:0:0:0:0:
320,192,133265,128,0,133546:0:0:0:0:
448,192,133265,128,0,133546:0:0:0:0:
192,192,133452,128,0,133733:0:0:0:0:
64,192,133452,128,0,133733:0:0:0:0:
320,192,133640,128,0,133921:0:0:0:0:
448,192,133640,128,0,133921:0:0:0:0:
192,192,133827,128,0,133921:0:0:0:0:
64,192,133827,128,0,134296:0:0:0:0:
192,192,134015,128,0,134108:0:0:0:0:
320,192,134015,128,0,134108:0:0:0:0:
448,192,134015,128,0,134296:0:0:0:0:
192,192,134202,128,0,134483:0:0:0:0:
64,192,134390,128,0,134577:0:0:0:0:
320,192,134390,128,0,134671:0:0:0:0:
448,192,134390,128,0,134483:0:0:0:0:
448,192,134577,128,0,134858:0:0:0:0:
192,192,134765,128,0,135046:0:0:0:0:
64,192,134765,128,0,134858:0:0:0:0:
320,192,134765,128,0,134952:0:0:0:0:
64,192,134952,128,0,135140:0:0:0:0:
448,192,135140,128,0,135421:0:0:0:0:
320,192,135140,128,0,135233:0:0:0:0:
192,192,135140,128,0,135233:0:0:0:0:
320,192,135327,128,0,135515:0:0:0:0:
192,192,135327,128,0,135421:0:0:0:0:
192,192,135515,128,0,135608:0:0:0:0:
64,192,135515,128,0,135702:0:0:0:0:
192,192,135702,128,0,135890:0:0:0:0:
320,192,135702,128,0,135796:0:0:0:0:
320,192,135890,128,0,135983:0:0:0:0:
448,192,135890,128,0,136265:0:0:0:0:
64,192,135890,128,0,136265:0:0:0:0:
320,192,136077,128,0,136171:0:0:0:0:
192,192,136077,128,0,136265:0:0:0:0:
320,192,136265,128,0,136358:0:0:0:0:
320,192,136452,128,0,136733:0:0:0:0:
64,192,136452,128,0,136546:0:0:0:0:
448,192,136452,128,0,136546:0:0:0:0:
192,192,136640,128,0,136733:0:0:0:0:
64,192,136640,128,0,136827:0:0:0:0:
448,192,136640,1,0,0:0:0:0:
192,192,136827,1,0,0:0:0:0:
448,192,136827,1,0,0:0:0:0:
320,192,136827,128,0,137015:0:0:0:0:
448,192,137015,1,0,0:0:0:0:
192,192,137015,1,0,0:0:0:0:
64,192,137015,128,0,137202:0:0:0:0:
192,192,137202,1,0,0:0:0:0:
320,192,137202,1,0,0:0:0:0:
448,192,137202,128,0,137765:0:0:0:0:
320,192,137390,128,0,137671:0:0:0:0:
192,192,137390,128,0,137577:0:0:0:0:
64,192,137390,128,0,137483:0:0:0:0:
64,192,137765,128,0,138140:0:0:0:0:
192,192,137765,128,0,137952:0:0:0:0:
320,192,137858,128,0,138046:0:0:0:0:
448,192,137952,128,0,138140:0:0:0:0:
320,192,138140,128,0,138327:0:0:0:0:
192,192,138140,128,0,138233:0:0:0:0:
64,192,138327,128,0,138421:0:0:0:0:
192,192,138327,128,0,138608:0:0:0:0:
320,192,138421,128,0,138515:0:0:0:0:
448,192,138421,128,0,138515:0:0:0:0:
64,192,138515,128,0,138608:0:0:0:0:
320,192,138608,128,0,138702:0:0:0:0:
448,192,138608,128,0,138702:0:0:0:0:
64,192,138702,128,0,138890:0:0:0:0:
192,192,138702,128,0,138890:0:0:0:0:
320,192,138890,128,0,138983:0:0:0:0:
448,192,138890,128,0,138983:0:0:0:0:
320,192,139077,128,0,139171:0:0:0:0:
448,192,139077,128,0,139265:0:0:0:0:
192,192,139077,128,0,139358:0:0:0:0:
64,192,139265,128,0,139358:0:0:0:0:
320,192,139358,128,0,139452:0:0:0:0:
64,192,139452,128,0,139546:0:0:0:0:
192,192,139452,128,0,139593:0:0:0:0:
448,192,139546,128,0,139640:0:0:0:0:
320,192,139593,128,0,139686:0:0:0:0:
64,192,139686,128,0,139780:0:0:0:0:
192,192,139733,128,0,139827:0:0:0:0:
448,192,139827,128,0,139921:0:0:0:0:
320,192,139874,1,0,0:0:0:0:
64,192,139921,128,0,140015:0:0:0:0:
192,192,139968,128,0,140061:0:0:0:0:
320,192,140015,128,0,140108:0:0:0:0:
448,192,140061,128,0,140155:0:0:0:0:
64,192,140108,128,0,140202:0:0:0:0:
192,192,140155,128,0,140249:0:0:0:0:
320,192,140202,128,0,140296:0:0:0:0:
448,192,140249,128,0,140343:0:0:0:0:
320,192,140390,1,0,0:0:0:0:
192,192,140390,1,0,0:0:0:0:
192,192,140577,128,0,140765:0:0:0:0:
64,192,140671,128,0,140858:0:0:0:0:
320,192,140765,128,0,140952:0:0:0:0:
448,192,140765,128,0,141140:0:0:0:0:
192,192,140858,128,0,141046:0:0:0:0:
64,192,140952,128,0,141140:0:0:0:0:
192,192,141140,128,0,141233:0:0:0:0:
320,192,141140,128,0,141233:0:0:0:0:
448,192,141327,128,0,141421:0:0:0:0:
320,192,141327,128,0,141608:0:0:0:0:
192,192,141421,128,0,141515:0:0:0:0:
64,192,141421,128,0,141515:0:0:0:0:
448,192,141515,128,0,141608:0:0:0:0:
64,192,141608,128,0,141702:0:0:0:0:
192,192,141608,128,0,141796:0:0:0:0:
64,192,141890,128,0,142077:0:0:0:0:
192,192,141890,128,0,141983:0:0:0:0:
448,192,142077,128,0,142265:0:0:0:0:
320,192,142077,128,0,142171:0:0:0:0:
64,192,142265,128,0,142452:0:0:0:0:
192,192,142265,128,0,142358:0:0:0:0:
192,192,142452,128,0,142546:0:0:0:0:
320,192,142452,128,0,142546:0:0:0:0:
448,192,142546,128,0,143015:0:0:0:0:
64,192,142546,128,0,142827:0:0:0:0:
64,192,143108,1,0,0:0:0:0:
192,192,143108,1,0,0:0:0:0:
320,192,143202,1,0,0:0:0:0:
192,192,143249,1,0,0:0:0:0:
448,192,143390,1,0,0:0:0:0:
320,192,143390,1,0,0:0:0:0:
64,192,143483,1,0,0:0:0:0:
192,192,143483,1,0,0:0:0:0:
320,192,143577,1,0,0:0:0:0:
448,192,143718,1,0,0:0:0:0:
320,192,143765,1,0,0:0:0:0:
192,192,143765,1,0,0:0:0:0:
192,192,143905,1,0,0:0:0:0:
320,192,143952,1,0,0:0:0:0:
448,192,143999,1,0,0:0:0:0:
320,192,144093,1,0,0:0:0:0:
64,192,144140,1,0,0:0:0:0:
192,192,144140,1,0,0:0:0:0:
320,192,144186,1,0,0:0:0:0:
448,192,144327,1,0,0:0:0:0:
64,192,144421,1,0,0:0:0:0:
192,192,144515,1,0,0:0:0:0:
320,192,144515,1,0,0:0:0:0:
448,192,144515,1,0,0:0:0:0:
64,192,144608,1,0,0:0:0:0:
320,192,144702,1,0,0:0:0:0:
192,192,144702,1,0,0:0:0:0:
320,192,144796,1,0,0:0:0:0:
448,192,144890,1,0,0:0:0:0:
192,192,144890,1,0,0:0:0:0:
192,192,144983,1,0,0:0:0:0:
64,192,145077,1,0,0:0:0:0:
320,192,145077,1,0,0:0:0:0:
64,192,145171,1,0,0:0:0:0:
192,192,145265,1,0,0:0:0:0:
448,192,145265,1,0,0:0:0:0:
320,192,145265,1,0,0:0:0:0:
64,192,145358,1,0,0:0:0:0:
448,192,145358,1,0,0:0:0:0:
192,192,145452,1,0,0:0:0:0:
320,192,145546,1,0,0:0:0:0:
192,192,145640,1,0,0:0:0:0:
320,192,145640,1,0,0:0:0:0:
448,192,145733,1,0,0:0:0:0:
192,192,145827,1,0,0:0:0:0:
448,192,145827,1,0,0:0:0:0:
192,192,145921,1,0,0:0:0:0:
64,192,146015,1,0,0:0:0:0:
448,192,146015,1,0,0:0:0:0:
64,192,146108,1,0,0:0:0:0:
320,192,146202,1,0,0:0:0:0:
192,192,146202,1,0,0:0:0:0:
448,192,146296,1,0,0:0:0:0:
448,192,146390,1,0,0:0:0:0:
320,192,146483,1,0,0:0:0:0:
192,192,146530,1,0,0:0:0:0:
64,192,146530,1,0,0:0:0:0:
320,192,146671,1,0,0:0:0:0:
192,192,146671,1,0,0:0:0:0:
64,192,146718,1,0,0:0:0:0:
448,192,146765,1,0,0:0:0:0:
320,192,146765,1,0,0:0:0:0:
64,192,146858,1,0,0:0:0:0:
192,192,146952,1,0,0:0:0:0:
320,192,146952,1,0,0:0:0:0:
448,192,147046,1,0,0:0:0:0:
64,192,147140,1,0,0:0:0:0:
192,192,147140,1,0,0:0:0:0:
320,192,147233,1,0,0:0:0:0:
448,192,147233,1,0,0:0:0:0:
192,192,147280,1,0,0:0:0:0:
192,192,147374,1,0,0:0:0:0:
320,192,147421,1,0,0:0:0:0:
192,192,147515,1,0,0:0:0:0:
64,192,147515,1,0,0:0:0:0:
320,192,147561,1,0,0:0:0:0:
320,192,147655,1,0,0:0:0:0:
192,192,147702,1,0,0:0:0:0:
448,192,147796,1,0,0:0:0:0:
320,192,147796,1,0,0:0:0:0:
64,192,147890,1,0,0:0:0:0:
192,192,147890,1,0,0:0:0:0:
320,192,147936,1,0,0:0:0:0:
448,192,147983,1,0,0:0:0:0:
64,192,148077,1,0,0:0:0:0:
192,192,148077,1,0,0:0:0:0:
320,192,148124,1,0,0:0:0:0:
448,192,148171,1,0,0:0:0:0:
320,192,148218,1,0,0:0:0:0:
192,192,148265,1,0,0:0:0:0:
64,192,148311,1,0,0:0:0:0:
64,192,148405,1,0,0:0:0:0:
192,192,148452,1,0,0:0:0:0:
320,192,148499,1,0,0:0:0:0:
448,192,148546,1,0,0:0:0:0:
320,192,148640,1,0,0:0:0:0:
448,192,148640,1,0,0:0:0:0:
192,192,148686,1,0,0:0:0:0:
64,192,148733,1,0,0:0:0:0:
448,192,148827,1,0,0:0:0:0:
320,192,148827,1,0,0:0:0:0:
192,192,148874,1,0,0:0:0:0:
64,192,148921,1,0,0:0:0:0:
192,192,148968,1,0,0:0:0:0:
320,192,149015,1,0,0:0:0:0:
448,192,149061,1,0,0:0:0:0:
320,192,149108,1,0,0:0:0:0:
192,192,149155,1,0,0:0:0:0:
64,192,149202,1,0,0:0:0:0:
448,192,149249,1,0,0:0:0:0:
320,192,149296,1,0,0:0:0:0:
192,192,149343,1,0,0:0:0:0:
64,192,149390,1,0,0:0:0:0:
64,192,149483,1,0,0:0:0:0:
192,192,149577,1,0,0:0:0:0:
192,192,149671,1,0,0:0:0:0:
448,192,149765,1,0,0:0:0:0:
320,192,149811,1,0,0:0:0:0:
192,192,149858,1,0,0:0:0:0:
64,192,149858,1,0,0:0:0:0:
448,192,149952,1,0,0:0:0:0:
448,192,150046,1,0,0:0:0:0:
320,192,150140,1,0,0:0:0:0:
320,192,150233,1,0,0:0:0:0:
64,192,150327,1,0,0:0:0:0:
192,192,150374,1,0,0:0:0:0:
320,192,150421,1,0,0:0:0:0:
448,192,150421,1,0,0:0:0:0:
192,192,150515,1,0,0:0:0:0:
320,192,150561,1,0,0:0:0:0:
448,192,150608,1,0,0:0:0:0:
64,192,150655,1,0,0:0:0:0:
192,192,150702,1,0,0:0:0:0:
320,192,150749,1,0,0:0:0:0:
64,192,150796,1,0,0:0:0:0:
192,192,150843,1,0,0:0:0:0:
448,192,150890,1,0,0:0:0:0:
320,192,150936,1,0,0:0:0:0:
192,192,150983,1,0,0:0:0:0:
448,192,151030,1,0,0:0:0:0:
320,192,151077,1,0,0:0:0:0:
64,192,151124,1,0,0:0:0:0:
192,192,151171,1,0,0:0:0:0:
320,192,151218,1,0,0:0:0:0:
448,192,151265,1,0,0:0:0:0:
64,192,151311,1,0,0:0:0:0:
192,192,151358,1,0,0:0:0:0:
320,192,151405,1,0,0:0:0:0:
64,192,151452,1,0,0:0:0:0:
448,192,151499,1,0,0:0:0:0:
320,192,151546,1,0,0:0:0:0:
192,192,151593,1,0,0:0:0:0:
448,192,151640,1,0,0:0:0:0:
320,192,151686,1,0,0:0:0:0:
192,192,151733,1,0,0:0:0:0:
64,192,151827,1,0,0:0:0:0:
320,192,151827,1,0,0:0:0:0:
448,192,151827,1,0,0:0:0:0:
320,192,151921,1,0,0:0:0:0:
192,192,152015,1,0,0:0:0:0:
448,192,152015,1,0,0:0:0:0:
64,192,152015,1,0,0:0:0:0:
192,192,152108,1,0,0:0:0:0:
448,192,152202,1,0,0:0:0:0:
192,192,152202,1,0,0:0:0:0:
320,192,152202,1,0,0:0:0:0:
64,192,152202,1,0,0:0:0:0:
320,192,152390,1,0,0:0:0:0:
64,192,152390,1,0,0:0:0:0:
192,192,152390,1,0,0:0:0:0:
448,192,152390,128,0,152577:0:0:0:0:
320,192,152483,1,0,0:0:0:0:
192,192,152577,1,0,0:0:0:0:
64,192,152577,1,0,0:0:0:0:
192,192,152765,1,0,0:0:0:0:
64,192,152765,1,0,0:0:0:0:
320,192,152858,1,0,0:0:0:0:
64,192,152952,1,0,0:0:0:0:
320,192,152952,1,0,0:0:0:0:
448,192,152952,1,0,0:0:0:0:
192,192,152952,128,0,153140:0:0:0:0:
64,192,153140,1,0,0:0:0:0:
320,192,153140,1,0,0:0:0:0:
64,192,153327,1,0,0:0:0:0:
192,192,153327,1,0,0:0:0:0:
448,192,153327,1,0,0:0:0:0:
320,192,153327,1,0,0:0:0:0:
448,192,153515,1,0,0:0:0:0:
192,192,153515,1,0,0:0:0:0:
448,192,153702,1,0,0:0:0:0:
192,192,153702,1,0,0:0:0:0:
64,192,153702,1,0,0:0:0:0:
320,192,153702,128,0,153890:0:0:0:0:
64,192,153796,1,0,0:0:0:0:
192,192,153890,1,0,0:0:0:0:
448,192,153890,1,0,0:0:0:0:
192,192,154077,1,0,0:0:0:0:
448,192,154077,1,0,0:0:0:0:
64,192,154171,1,0,0:0:0:0:
448,192,154265,1,0,0:0:0:0:
320,192,154265,1,0,0:0:0:0:
192,192,154265,1,0,0:0:0:0:
64,192,154265,1,0,0:0:0:0:
192,192,154452,1,0,0:0:0:0:
320,192,154452,1,0,0:0:0:0:
448,192,154452,1,0,0:0:0:0:
64,192,154452,128,0,154640:0:0:0:0:
320,192,154640,1,0,0:0:0:0:
448,192,154640,1,0,0:0:0:0:
192,192,154733,1,0,0:0:0:0:
192,192,154827,1,0,0:0:0:0:
448,192,154827,1,0,0:0:0:0:
448,192,155015,1,0,0:0:0:0:
64,192,155015,1,0,0:0:0:0:
320,192,155015,1,0,0:0:0:0:
64,192,155202,1,0,0:0:0:0:
320,192,155296,1,0,0:0:0:0:
448,192,155296,1,0,0:0:0:0:
64,192,155296,1,0,0:0:0:0:
192,192,155296,128,0,155577:0:0:0:0:
448,192,155390,1,0,0:0:0:0:
64,192,155577,1,0,0:0:0:0:
320,192,155577,1,0,0:0:0:0:
320,192,155765,1,0,0:0:0:0:
448,192,155765,1,0,0:0:0:0:
192,192,155952,1,0,0:0:0:0:
320,192,155952,1,0,0:0:0:0:
448,192,155952,1,0,0:0:0:0:
64,192,155952,128,0,156233:0:0:0:0:
192,192,156140,1,0,0:0:0:0:
320,192,156140,1,0,0:0:0:0:
448,192,156140,128,0,156421:0:0:0:0:
192,192,156327,1,0,0:0:0:0:
320,192,156327,1,0,0:0:0:0:
64,192,156421,1,0,0:0:0:0:
64,192,156515,1,0,0:0:0:0:
192,192,156515,1,0,0:0:0:0:
320,192,156515,1,0,0:0:0:0:
448,192,156608,1,0,0:0:0:0:
64,192,156702,1,0,0:0:0:0:
192,192,156702,1,0,0:0:0:0:
320,192,156702,1,0,0:0:0:0:
448,192,156702,1,0,0:0:0:0:
64,192,156890,1,0,0:0:0:0:
320,192,156890,1,0,0:0:0:0:
192,192,156890,128,0,157077:0:0:0:0:
448,192,157077,1,0,0:0:0:0:
320,192,157077,1,0,0:0:0:0:
64,192,157077,128,0,157265:0:0:0:0:
320,192,157265,1,0,0:0:0:0:
448,192,157265,1,0,0:0:0:0:
192,192,157265,128,0,157452:0:0:0:0:
64,192,157452,1,0,0:0:0:0:
448,192,157452,1,0,0:0:0:0:
320,192,157452,128,0,157640:0:0:0:0:
192,192,157640,1,0,0:0:0:0:
64,192,157640,1,0,0:0:0:0:
448,192,157640,128,0,157827:0:0:0:0:
64,192,157827,1,0,0:0:0:0:
320,192,157827,128,0,158015:0:0:0:0:
192,192,157827,1,0,0:0:0:0:
192,192,158015,128,0,158483:0:0:0:0:
448,192,158015,1,0,0:0:0:0:
64,192,158202,128,0,158483:0:0:0:0:
320,192,158202,1,0,0:0:0:0:
448,192,158202,1,0,0:0:0:0:
448,192,158390,128,0,158483:0:0:0:0:
320,192,158390,128,0,158483:0:0:0:0:
64,192,158577,1,0,0:0:0:0:
192,192,158577,1,0,0:0:0:0:
448,192,158671,1,0,0:0:0:0:
320,192,158718,1,0,0:0:0:0:
192,192,158765,1,0,0:0:0:0:
448,192,158858,1,0,0:0:0:0:
64,192,158905,1,0,0:0:0:0:
448,192,158952,1,0,0:0:0:0:
320,192,158999,1,0,0:0:0:0:
192,192,159046,1,0,0:0:0:0:
64,192,159140,1,0,0:0:0:0:
320,192,159140,128,0,159280:0:0:0:0:
448,192,159186,128,0,159327:0:0:0:0:
192,192,159327,1,0,0:0:0:0:
64,192,159327,1,0,0:0:0:0:
448,192,159421,1,0,0:0:0:0:
192,192,159515,128,0,159655:0:0:0:0:
64,192,159561,128,0,159702:0:0:0:0:
320,192,159702,128,0,159796:0:0:0:0:
448,192,159749,128,0,159796:0:0:0:0:
64,192,159890,128,0,160077:0:0:0:0:
320,192,159890,128,0,159983:0:0:0:0:
320,192,160077,128,0,160171:0:0:0:0:
192,192,160077,128,0,160358:0:0:0:0:
320,192,160265,128,0,160358:0:0:0:0:
64,192,160265,128,0,160546:0:0:0:0:
448,192,160265,128,0,160452:0:0:0:0:
192,192,160452,128,0,160640:0:0:0:0:
64,192,160640,128,0,160921:0:0:0:0:
448,192,160640,128,0,161015:0:0:0:0:
320,192,160640,128,0,160733:0:0:0:0:
320,192,160827,128,0,160921:0:0:0:0:
192,192,160827,128,0,161108:0:0:0:0:
320,192,161015,128,0,161108:0:0:0:0:
192,192,161202,128,0,161296:0:0:0:0:
320,192,161202,128,0,161296:0:0:0:0:
64,192,161390,128,0,161483:0:0:0:0:
320,192,161390,128,0,161671:0:0:0:0:
448,192,161483,128,0,161671:0:0:0:0:
192,192,161577,128,0,161671:0:0:0:0:
64,192,161577,128,0,161765:0:0:0:0:
320,192,161765,128,0,161858:0:0:0:0:
448,192,161765,128,0,162046:0:0:0:0:
320,192,161952,128,0,162046:0:0:0:0:
64,192,161952,128,0,162233:0:0:0:0:
192,192,162140,128,0,162327:0:0:0:0:
320,192,162140,128,0,162233:0:0:0:0:
448,192,162327,128,0,162608:0:0:0:0:
320,192,162327,128,0,162421:0:0:0:0:
192,192,162421,128,0,162515:0:0:0:0:
64,192,162421,128,0,162702:0:0:0:0:
320,192,162515,128,0,162608:0:0:0:0:
192,192,162608,128,0,162702:0:0:0:0:
320,192,162702,128,0,162983:0:0:0:0:
448,192,162702,128,0,162796:0:0:0:0:
192,192,162890,128,0,163171:0:0:0:0:
64,192,162890,128,0,163077:0:0:0:0:
448,192,163077,128,0,163265:0:0:0:0:
320,192,163077,128,0,163171:0:0:0:0:
192,192,163265,128,0,163546:0:0:0:0:
64,192,163265,128,0,163452:0:0:0:0:
320,192,163265,128,0,163358:0:0:0:0:
448,192,163452,128,0,163640:0:0:0:0:
64,192,163640,128,0,163827:0:0:0:0:
320,192,163640,128,0,163827:0:0:0:0:
192,192,163827,128,0,163921:0:0:0:0:
448,192,163827,128,0,164108:0:0:0:0:
192,192,164015,128,0,164108:0:0:0:0:
64,192,164015,128,0,164390:0:0:0:0:
192,192,164202,128,0,164390:0:0:0:0:
320,192,164202,128,0,164296:0:0:0:0:
320,192,164390,128,0,164671:0:0:0:0:
448,192,164483,128,0,164577:0:0:0:0:
192,192,164577,128,0,164671:0:0:0:0:
64,192,164577,128,0,164765:0:0:0:0:
448,192,164765,128,0,164952:0:0:0:0:
320,192,164765,128,0,164952:0:0:0:0:
192,192,164952,128,0,165233:0:0:0:0:
64,192,164952,128,0,165140:0:0:0:0:
320,192,165140,128,0,165421:0:0:0:0:
448,192,165140,128,0,165233:0:0:0:0:
448,192,165327,128,0,165421:0:0:0:0:
192,192,165327,128,0,165421:0:0:0:0:
64,192,165515,128,0,165608:0:0:0:0:
192,192,165515,128,0,165608:0:0:0:0:
192,192,165702,128,0,165890:0:0:0:0:
320,192,165702,128,0,165796:0:0:0:0:
64,192,165890,128,0,165983:0:0:0:0:
448,192,165890,128,0,165983:0:0:0:0:
320,192,165890,128,0,166077:0:0:0:0:
192,192,165983,128,0,166171:0:0:0:0:
448,192,166077,128,0,166171:0:0:0:0:
64,192,166077,128,0,166171:0:0:0:0:
320,192,166171,128,0,166358:0:0:0:0:
64,192,166265,128,0,166358:0:0:0:0:
448,192,166265,128,0,166452:0:0:0:0:
192,192,166265,128,0,166546:0:0:0:0:
64,192,166452,128,0,166733:0:0:0:0:
320,192,166452,128,0,166546:0:0:0:0:
448,192,166640,128,0,166827:0:0:0:0:
192,192,166640,128,0,166827:0:0:0:0:
320,192,166640,128,0,166733:0:0:0:0:
64,192,166827,128,0,167202:0:0:0:0:
320,192,166827,128,0,166921:0:0:0:0:
448,192,166921,128,0,167015:0:0:0:0:
192,192,167015,128,0,167296:0:0:0:0:
320,192,167108,128,0,167202:0:0:0:0:
448,192,167108,128,0,167483:0:0:0:0:
64,192,167390,128,0,167483:0:0:0:0:
320,192,167390,128,0,167577:0:0:0:0:
192,192,167483,128,0,167765:0:0:0:0:
64,192,167577,128,0,167671:0:0:0:0:
448,192,167577,128,0,167671:0:0:0:0:
64,192,167765,128,0,167858:0:0:0:0:
320,192,167765,128,0,167952:0:0:0:0:
448,192,167765,128,0,167858:0:0:0:0:
192,192,167858,128,0,168140:0:0:0:0:
64,192,168046,128,0,168140:0:0:0:0:
320,192,168140,128,0,168421:0:0:0:0:
448,192,168140,128,0,168233:0:0:0:0:
64,192,168233,128,0,168327:0:0:0:0:
192,192,168233,128,0,168515:0:0:0:0:
448,192,168327,128,0,168608:0:0:0:0:
64,192,168421,128,0,168515:0:0:0:0:
320,192,168515,128,0,168608:0:0:0:0:
192,192,168608,128,0,168796:0:0:0:0:
64,192,168702,128,0,168796:0:0:0:0:
448,192,168702,128,0,168796:0:0:0:0:
320,192,168702,128,0,168983:0:0:0:0:
192,192,168890,128,0,168983:0:0:0:0:
64,192,168890,128,0,168983:0:0:0:0:
448,192,168890,128,0,169171:0:0:0:0:
192,192,169077,128,0,169171:0:0:0:0:
64,192,169077,128,0,169171:0:0:0:0:
192,192,169265,128,0,169358:0:0:0:0:
320,192,169265,128,0,169640:0:0:0:0:
192,192,169452,128,0,169733:0:0:0:0:
448,192,169452,128,0,169546:0:0:0:0:
448,192,169640,128,0,169733:0:0:0:0:
64,192,169640,128,0,169921:0:0:0:0:
320,192,169827,128,0,169921:0:0:0:0:
448,192,169827,128,0,170108:0:0:0:0:
192,192,170015,128,0,170108:0:0:0:0:
320,192,170015,128,0,170296:0:0:0:0:
64,192,170202,128,0,170296:0:0:0:0:
192,192,170202,128,0,170483:0:0:0:0:
448,192,170390,128,0,170483:0:0:0:0:
320,192,170390,128,0,170671:0:0:0:0:
192,192,170577,128,0,170671:0:0:0:0:
64,192,170577,128,0,170858:0:0:0:0:
320,192,170765,128,0,170858:0:0:0:0:
448,192,170765,128,0,171046:0:0:0:0:
64,192,170952,128,0,171233:0:0:0:0:
192,192,170952,128,0,171046:0:0:0:0:
320,192,171140,128,0,171421:0:0:0:0:
448,192,171233,128,0,171608:0:0:0:0:
192,192,171233,128,0,171421:0:0:0:0:
64,192,171421,128,0,171515:0:0:0:0:
320,192,171515,128,0,171608:0:0:0:0:
192,192,171515,128,0,171608:0:0:0:0:
64,192,171702,128,0,171796:0:0:0:0:
192,192,171702,128,0,171796:0:0:0:0:
320,192,171702,128,0,171983:0:0:0:0:
448,192,171890,128,0,172077:0:0:0:0:
64,192,171890,128,0,172171:0:0:0:0:
192,192,172077,128,0,172171:0:0:0:0:
320,192,172077,128,0,172358:0:0:0:0:
192,192,172265,128,0,172358:0:0:0:0:
448,192,172265,128,0,172546:0:0:0:0:
320,192,172452,128,0,172640:0:0:0:0:
448,192,172640,128,0,172921:0:0:0:0:
64,192,172640,128,0,173015:0:0:0:0:
192,192,172640,128,0,172733:0:0:0:0:
192,192,172827,128,0,172921:0:0:0:0:
320,192,172827,128,0,173108:0:0:0:0:
192,192,173015,128,0,173296:0:0:0:0:
320,192,173202,128,0,173296:0:0:0:0:
64,192,173202,128,0,173390:0:0:0:0:
448,192,173390,128,0,173483:0:0:0:0:
192,192,173390,128,0,173671:0:0:0:0:
320,192,173577,128,0,173671:0:0:0:0:
448,192,173577,128,0,173765:0:0:0:0:
192,192,173765,128,0,173858:0:0:0:0:
64,192,173765,128,0,174046:0:0:0:0:
192,192,173952,128,0,174046:0:0:0:0:
448,192,173952,128,0,174233:0:0:0:0:
320,192,174140,128,0,174327:0:0:0:0:
192,192,174140,128,0,174233:0:0:0:0:
64,192,174327,128,0,174608:0:0:0:0:
192,192,174327,128,0,174421:0:0:0:0:
320,192,174421,128,0,174515:0:0:0:0:
448,192,174421,128,0,174702:0:0:0:0:
192,192,174515,128,0,174608:0:0:0:0:
320,192,174608,128,0,174702:0:0:0:0:
192,192,174702,128,0,174983:0:0:0:0:
64,192,174702,128,0,174796:0:0:0:0:
320,192,174890,128,0,175171:0:0:0:0:
448,192,174890,128,0,175077:0:0:0:0:
64,192,175077,128,0,175265:0:0:0:0:
192,192,175077,128,0,175171:0:0:0:0:
320,192,175265,128,0,175546:0:0:0:0:
448,192,175265,128,0,175452:0:0:0:0:
192,192,175265,128,0,175358:0:0:0:0:
64,192,175452,128,0,175640:0:0:0:0:
448,192,175640,128,0,175827:0:0:0:0:
192,192,175640,128,0,175827:0:0:0:0:
320,192,175827,128,0,175921:0:0:0:0:
64,192,175827,128,0,176108:0:0:0:0:
320,192,176015,128,0,176108:0:0:0:0:
448,192,176015,128,0,176390:0:0:0:0:
192,192,176015,128,0,176108:0:0:0:0:
320,192,176202,128,0,176390:0:0:0:0:
192,192,176202,128,0,176296:0:0:0:0:
192,192,176390,128,0,176671:0:0:0:0:
64,192,176483,128,0,176577:0:0:0:0:
320,192,176577,128,0,176671:0:0:0:0:
448,192,176577,128,0,176765:0:0:0:0:
64,192,176765,128,0,176952:0:0:0:0:
192,192,176765,128,0,176952:0:0:0:0:
320,192,176952,128,0,177233:0:0:0:0:
448,192,176952,128,0,177140:0:0:0:0:
192,192,177140,128,0,177421:0:0:0:0:
64,192,177140,128,0,177233:0:0:0:0:
64,192,177327,128,0,177421:0:0:0:0:
320,192,177327,128,0,177421:0:0:0:0:
448,192,177327,128,0,177890:0:0:0:0:
320,192,177515,128,0,177702:0:0:0:0:
192,192,177702,128,0,177890:0:0:0:0:
64,192,177702,128,0,177796:0:0:0:0:
320,192,177890,128,0,178171:0:0:0:0:
64,192,177890,128,0,178171:0:0:0:0:
192,192,178077,128,0,178171:0:0:0:0:
448,192,178077,128,0,178171:0:0:0:0:
192,192,178265,128,0,178546:0:0:0:0:
448,192,178265,128,0,178546:0:0:0:0:
320,192,178452,128,0,178546:0:0:0:0:
64,192,178452,128,0,178546:0:0:0:0:
64,192,178640,128,0,178733:0:0:0:0:
448,192,178640,128,0,178733:0:0:0:0:
192,192,178640,128,0,178921:0:0:0:0:
320,192,178640,128,0,178921:0:0:0:0:
64,192,178827,128,0,178921:0:0:0:0:
448,192,178827,128,0,178921:0:0:0:0:
192,192,179015,128,0,179108:0:0:0:0:
320,192,179015,128,0,179108:0:0:0:0:
64,192,179015,128,0,179296:0:0:0:0:
448,192,179015,128,0,179296:0:0:0:0:
192,192,179202,128,0,179296:0:0:0:0:
320,192,179202,128,0,179296:0:0:0:0:
64,192,179390,128,0,179671:0:0:0:0:
192,192,179390,128,0,179483:0:0:0:0:
192,192,179577,128,0,179671:0:0:0:0:
320,192,179577,128,0,179858:0:0:0:0:
448,192,179765,128,0,180046:0:0:0:0:
64,192,179858,128,0,180046:0:0:0:0:
192,192,179952,128,0,180327:0:0:0:0:
320,192,179952,128,0,180046:0:0:0:0:
320,192,180140,128,0,180233:0:0:0:0:
64,192,180233,128,0,180608:0:0:0:0:
448,192,180327,128,0,180608:0:0:0:0:
320,192,180327,128,0,180421:0:0:0:0:
320,192,180515,128,0,180608:0:0:0:0:
192,192,180515,128,0,180608:0:0:0:0:
64,192,180702,128,0,180796:0:0:0:0:
192,192,180702,128,0,180796:0:0:0:0:
192,192,180890,128,0,181358:0:0:0:0:
320,192,180890,128,0,180983:0:0:0:0:
448,192,180890,128,0,180983:0:0:0:0:
320,192,181077,128,0,181171:0:0:0:0:
448,192,181077,128,0,181171:0:0:0:0:
320,192,181265,128,0,181358:0:0:0:0:
448,192,181265,128,0,181358:0:0:0:0:
192,192,181452,128,0,181546:0:0:0:0:
448,192,181546,128,0,181640:0:0:0:0:
64,192,181546,128,0,181921:0:0:0:0:
320,192,181640,128,0,181733:0:0:0:0:
192,192,181733,128,0,181827:0:0:0:0:
320,192,181827,128,0,181921:0:0:0:0:
192,192,182015,128,0,182108:0:0:0:0:
448,192,182015,128,0,182108:0:0:0:0:
64,192,182015,128,0,182202:0:0:0:0:
320,192,182108,128,0,182296:0:0:0:0:
448,192,182202,128,0,182296:0:0:0:0:
192,192,182202,128,0,182296:0:0:0:0:
192,192,182390,128,0,182483:0:0:0:0:
320,192,182390,128,0,182671:0:0:0:0:
64,192,182483,128,0,182577:0:0:0:0:
192,192,182577,128,0,182765:0:0:0:0:
448,192,182577,128,0,182671:0:0:0:0:
64,192,182671,128,0,182952:0:0:0:0:
448,192,182765,128,0,182952:0:0:0:0:
320,192,182858,128,0,182952:0:0:0:0:
192,192,182952,128,0,183046:0:0:0:0:
320,192,183046,128,0,183327:0:0:0:0:
64,192,183046,128,0,183140:0:0:0:0:
192,192,183140,128,0,183233:0:0:0:0:
448,192,183140,128,0,183421:0:0:0:0:
64,192,183233,128,0,183421:0:0:0:0:
192,192,183327,128,0,183515:0:0:0:0:
320,192,183421,128,0,183608:0:0:0:0:
448,192,183515,128,0,183702:0:0:0:0:
64,192,183515,128,0,183608:0:0:0:0:
192,192,183608,128,0,183702:0:0:0:0:
320,192,183702,128,0,183796:0:0:0:0:
64,192,183702,128,0,183983:0:0:0:0:
448,192,183796,128,0,183983:0:0:0:0:
192,192,183796,128,0,183983:0:0:0:0:
320,192,183890,128,0,183983:0:0:0:0:
64,192,184358,1,0,0:0:0:0:
192,192,184405,1,0,0:0:0:0:
320,192,184452,1,0,0:0:0:0:
448,192,184499,1,0,0:0:0:0:
64,192,185015,1,0,0:0:0:0:
192,192,185061,1,0,0:0:0:0:
320,192,185108,128,0,185202:0:0:0:0:
448,192,185108,128,0,185202:0:0:0:0:
192,192,185249,1,0,0:0:0:0:
64,192,185296,1,0,0:0:0:0:
64,192,185390,1,0,0:0:0:0:
192,192,185390,1,0,0:0:0:0:
320,192,185390,1,0,0:0:0:0:
448,192,185390,1,0,0:0:0:0:
192,192,185530,1,0,0:0:0:0:
320,192,185530,1,0,0:0:0:0:
448,192,185577,128,0,185718:0:0:0:0:
64,192,185577,128,0,185718:0:0:0:0:
192,192,185765,1,0,0:0:0:0:
320,192,185765,1,0,0:0:0:0:
192,192,185952,1,0,0:0:0:0:
320,192,185952,1,0,0:0:0:0:
192,192,186140,1,0,0:0:0:0:
320,192,186140,1,0,0:0:0:0:
192,192,186327,1,0,0:0:0:0:
320,192,186327,1,0,0:0:0:0:
448,192,186515,128,0,186890:0:0:0:0:
64,192,186515,128,0,186890:0:0:0:0:
192,192,186515,1,0,0:0:0:0:
320,192,186702,1,0,0:0:0:0:
192,192,186702,128,0,186890:0:0:0:0:
320,192,186890,128,0,187265:0:0:0:0:
192,192,187077,1,0,0:0:0:0:
448,192,187077,128,0,187265:0:0:0:0:
192,192,187265,1,0,0:0:0:0:
64,192,187265,1,0,0:0:0:0:
448,192,187452,1,0,0:0:0:0:
64,192,187499,1,0,0:0:0:0:
192,192,187546,1,0,0:0:0:0:
320,192,187593,1,0,0:0:0:0:
448,192,187640,1,0,0:0:0:0:
192,192,187686,1,0,0:0:0:0:
320,192,187733,1,0,0:0:0:0:
64,192,187780,1,0,0:0:0:0:
192,192,187827,1,0,0:0:0:0:
320,192,187874,1,0,0:0:0:0:
448,192,187921,1,0,0:0:0:0:
192,192,187968,1,0,0:0:0:0:
64,192,188061,1,0,0:0:0:0:
320,192,188108,1,0,0:0:0:0:
64,192,188202,1,0,0:0:0:0:
192,192,188202,1,0,0:0:0:0:
448,192,188296,1,0,0:0:0:0:
320,192,188296,1,0,0:0:0:0:
64,192,188390,1,0,0:0:0:0:
192,192,188390,1,0,0:0:0:0:
320,192,188483,1,0,0:0:0:0:
64,192,188577,1,0,0:0:0:0:
448,192,188577,1,0,0:0:0:0:
192,192,188577,1,0,0:0:0:0:
192,192,188671,1,0,0:0:0:0:
64,192,188671,1,0,0:0:0:0:
448,192,188765,1,0,0:0:0:0:
320,192,188765,1,0,0:0:0:0:
192,192,188858,1,0,0:0:0:0:
64,192,188952,1,0,0:0:0:0:
448,192,188952,1,0,0:0:0:0:
320,192,188952,1,0,0:0:0:0:
320,192,189046,1,0,0:0:0:0:
448,192,189046,1,0,0:0:0:0:
64,192,189140,1,0,0:0:0:0:
192,192,189140,1,0,0:0:0:0:
320,192,189233,128,0,189421:0:0:0:0:
448,192,189327,128,0,189515:0:0:0:0:
64,192,189327,1,0,0:0:0:0:
192,192,189327,1,0,0:0:0:0:
64,192,189515,1,0,0:0:0:0:
192,192,189515,1,0,0:0:0:0:
320,192,189608,128,0,189796:0:0:0:0:
192,192,189702,128,0,189983:0:0:0:0:
448,192,189702,128,0,189890:0:0:0:0:
64,192,189890,128,0,190171:0:0:0:0:
448,192,190077,1,0,0:0:0:0:
320,192,190077,1,0,0:0:0:0:
192,192,190077,128,0,190358:0:0:0:0:
320,192,190265,1,0,0:0:0:0:
448,192,190358,128,0,190546:0:0:0:0:
64,192,190452,1,0,0:0:0:0:
192,192,190452,1,0,0:0:0:0:
320,192,190546,128,0,190733:0:0:0:0:
64,192,190640,1,0,0:0:0:0:
448,192,190733,128,0,190827:0:0:0:0:
64,192,190827,1,0,0:0:0:0:
192,192,190827,1,0,0:0:0:0:
448,192,190921,128,0,191015:0:0:0:0:
192,192,191015,1,0,0:0:0:0:
320,192,191015,1,0,0:0:0:0:
64,192,191108,128,0,191296:0:0:0:0:
320,192,191202,1,0,0:0:0:0:
192,192,191296,128,0,191483:0:0:0:0:
320,192,191390,1,0,0:0:0:0:
448,192,191390,1,0,0:0:0:0:
64,192,191483,128,0,191671:0:0:0:0:
448,192,191577,1,0,0:0:0:0:
192,192,191577,1,0,0:0:0:0:
320,192,191671,128,0,191858:0:0:0:0:
64,192,191765,1,0,0:0:0:0:
192,192,191765,1,0,0:0:0:0:
448,192,191858,128,0,192140:0:0:0:0:
320,192,191952,1,0,0:0:0:0:
64,192,191952,1,0,0:0:0:0:
192,192,192046,128,0,192327:0:0:0:0:
320,192,192140,128,0,192561:0:0:0:0:
64,192,192140,128,0,192421:0:0:0:0:
448,192,192421,128,0,192655:0:0:0:0:
192,192,192515,128,0,192702:0:0:0:0:
64,192,192608,128,0,192890:0:0:0:0:
192,192,192796,128,0,192890:0:0:0:0:
448,192,192890,128,0,193077:0:0:0:0:
320,192,192890,128,0,192983:0:0:0:0:
320,192,193077,128,0,193265:0:0:0:0:
192,192,193077,128,0,193171:0:0:0:0:
64,192,193265,128,0,193452:0:0:0:0:
192,192,193265,128,0,193358:0:0:0:0:
320,192,193452,128,0,193686:0:0:0:0:
192,192,193452,128,0,193640:0:0:0:0:
64,192,193593,128,0,193733:0:0:0:0:
448,192,193640,128,0,193780:0:0:0:0:
192,192,193733,128,0,193827:0:0:0:0:
320,192,193780,128,0,193874:0:0:0:0:
64,192,193827,128,0,193968:0:0:0:0:
448,192,193874,128,0,194015:0:0:0:0:
192,192,193968,1,0,0:0:0:0:
320,192,194015,1,0,0:0:0:0:
64,192,194108,128,0,194296:0:0:0:0:
192,192,194108,128,0,194296:0:0:0:0:
320,192,194202,128,0,194296:0:0:0:0:
448,192,194202,128,0,194296:0:0:0:0:
320,192,194390,128,0,194765:0:0:0:0:
448,192,194390,128,0,194765:0:0:0:0:
192,192,194390,1,0,0:0:0:0:
64,192,194390,1,0,0:0:0:0:
192,192,194577,128,0,194671:0:0:0:0:
64,192,194577,128,0,194671:0:0:0:0:
192,192,194765,128,0,195046:0:0:0:0:
64,192,194765,128,0,195046:0:0:0:0:
320,192,194952,128,0,195233:0:0:0:0:
448,192,194952,128,0,195233:0:0:0:0:
192,192,195140,128,0,195421:0:0:0:0:
64,192,195140,128,0,195421:0:0:0:0:
320,192,195327,128,0,195421:0:0:0:0:
448,192,195327,128,0,195796:0:0:0:0:
320,192,195515,128,0,195608:0:0:0:0:
192,192,195515,128,0,195608:0:0:0:0:
64,192,195515,128,0,195796:0:0:0:0:
320,192,195702,128,0,195983:0:0:0:0:
448,192,195890,128,0,196077:0:0:0:0:
192,192,195890,128,0,196171:0:0:0:0:
64,192,195890,128,0,195983:0:0:0:0:
64,192,196077,128,0,196358:0:0:0:0:
320,192,196265,128,0,196546:0:0:0:0:
448,192,196265,128,0,196358:0:0:0:0:
192,192,196265,128,0,196452:0:0:0:0:
448,192,196452,128,0,196640:0:0:0:0:
64,192,196546,128,0,196921:0:0:0:0:
192,192,196640,128,0,196733:0:0:0:0:
320,192,196640,128,0,196733:0:0:0:0:
192,192,196827,128,0,197108:0:0:0:0:
320,192,196827,128,0,196921:0:0:0:0:
320,192,197015,128,0,197108:0:0:0:0:
448,192,197015,128,0,197202:0:0:0:0:
320,192,197202,128,0,197390:0:0:0:0:
192,192,197202,128,0,197296:0:0:0:0:
192,192,197390,128,0,197483:0:0:0:0:
64,192,197390,128,0,197765:0:0:0:0:
448,192,197390,128,0,197765:0:0:0:0:
192,192,197577,128,0,197671:0:0:0:0:
320,192,197577,128,0,197765:0:0:0:0:
192,192,197765,128,0,197858:0:0:0:0:
192,192,197952,128,0,198233:0:0:0:0:
448,192,197952,128,0,198046:0:0:0:0:
64,192,197952,128,0,198046:0:0:0:0:
320,192,198140,128,0,198233:0:0:0:0:
448,192,198140,128,0,198327:0:0:0:0:
64,192,198140,1,0,0:0:0:0:
320,192,198327,1,0,0:0:0:0:
64,192,198327,1,0,0:0:0:0:
192,192,198327,128,0,198515:0:0:0:0:
64,192,198515,1,0,0:0:0:0:
320,192,198515,1,0,0:0:0:0:
448,192,198515,128,0,198702:0:0:0:0:
320,192,198702,1,0,0:0:0:0:
192,192,198702,1,0,0:0:0:0:
64,192,198702,128,0,199265:0:0:0:0:
192,192,198890,128,0,199171:0:0:0:0:
320,192,198890,128,0,199077:0:0:0:0:
448,192,198890,128,0,198983:0:0:0:0:
448,192,199265,128,0,199640:0:0:0:0:
320,192,199265,128,0,199452:0:0:0:0:
192,192,199358,128,0,199546:0:0:0:0:
64,192,199452,128,0,199640:0:0:0:0:
192,192,199640,128,0,199827:0:0:0:0:
320,192,199640,128,0,199733:0:0:0:0:
448,192,199827,128,0,199921:0:0:0:0:
320,192,199827,128,0,200108:0:0:0:0:
192,192,199921,128,0,200015:0:0:0:0:
64,192,199921,128,0,200015:0:0:0:0:
448,192,200015,128,0,200108:0:0:0:0:
192,192,200108,128,0,200202:0:0:0:0:
64,192,200108,128,0,200202:0:0:0:0:
448,192,200202,128,0,200390:0:0:0:0:
320,192,200202,128,0,200390:0:0:0:0:
192,192,200390,128,0,200483:0:0:0:0:
64,192,200390,128,0,200483:0:0:0:0:
192,192,200577,128,0,200671:0:0:0:0:
64,192,200577,128,0,200765:0:0:0:0:
320,192,200577,128,0,200858:0:0:0:0:
448,192,200765,128,0,200858:0:0:0:0:
192,192,200765,128,0,200952:0:0:0:0:
448,192,200952,128,0,201046:0:0:0:0:
320,192,200952,128,0,201093:0:0:0:0:
64,192,201046,128,0,201140:0:0:0:0:
192,192,201093,128,0,201186:0:0:0:0:
448,192,201186,128,0,201280:0:0:0:0:
320,192,201233,128,0,201327:0:0:0:0:
64,192,201327,128,0,201421:0:0:0:0:
192,192,201374,1,0,0:0:0:0:
448,192,201421,128,0,201515:0:0:0:0:
320,192,201468,128,0,201561:0:0:0:0:
192,192,201515,128,0,201608:0:0:0:0:
64,192,201561,128,0,201655:0:0:0:0:
448,192,201608,128,0,201702:0:0:0:0:
320,192,201655,128,0,201749:0:0:0:0:
192,192,201702,128,0,201796:0:0:0:0:
64,192,201749,128,0,201843:0:0:0:0:
192,192,201890,1,0,0:0:0:0:
320,192,201890,1,0,0:0:0:0:
320,192,202077,128,0,202265:0:0:0:0:
64,192,202077,1,0,0:0:0:0:
192,192,202077,1,0,0:0:0:0:
448,192,202171,128,0,202358:0:0:0:0:
192,192,202265,128,0,202452:0:0:0:0:
64,192,202265,128,0,202640:0:0:0:0:
320,192,202358,128,0,202546:0:0:0:0:
448,192,202452,128,0,202640:0:0:0:0:
320,192,202640,128,0,202733:0:0:0:0:
192,192,202640,128,0,202733:0:0:0:0:
64,192,202827,128,0,202921:0:0:0:0:
192,192,202921,128,0,203202:0:0:0:0:
320,192,202921,128,0,203015:0:0:0:0:
448,192,202921,128,0,203015:0:0:0:0:
64,192,203015,128,0,203108:0:0:0:0:
448,192,203108,128,0,203296:0:0:0:0:
320,192,203108,128,0,203390:0:0:0:0:
64,192,203296,128,0,203483:0:0:0:0:
192,192,203390,128,0,203577:0:0:0:0:
448,192,203483,128,0,203671:0:0:0:0:
320,192,203577,128,0,203765:0:0:0:0:
64,192,203577,128,0,203671:0:0:0:0:
192,192,203765,128,0,203952:0:0:0:0:
448,192,203765,128,0,203858:0:0:0:0:
64,192,203858,128,0,204046:0:0:0:0:
448,192,203952,128,0,204140:0:0:0:0:
320,192,204046,128,0,204233:0:0:0:0:
192,192,204046,128,0,204140:0:0:0:0:
64,192,204140,128,0,204233:0:0:0:0:
448,192,204233,128,0,204327:0:0:0:0:
192,192,204327,128,0,204421:0:0:0:0:
64,192,204374,1,0,0:0:0:0:
320,192,204421,128,0,204515:0:0:0:0:
448,192,204468,1,0,0:0:0:0:
64,192,204515,128,0,204608:0:0:0:0:
448,192,204608,128,0,204702:0:0:0:0:
192,192,204608,128,0,204702:0:0:0:0:
320,192,204702,128,0,204796:0:0:0:0:
64,192,204749,1,0,0:0:0:0:
192,192,204796,128,0,204890:0:0:0:0:
448,192,204843,1,0,0:0:0:0:
64,192,204890,128,0,205077:0:0:0:0:
320,192,204936,1,0,0:0:0:0:
448,192,204983,128,0,205171:0:0:0:0:
320,192,205077,128,0,205265:0:0:0:0:
192,192,205077,128,0,205171:0:0:0:0:
64,192,205265,128,0,205640:0:0:0:0:
192,192,205265,128,0,205452:0:0:0:0:
320,192,205358,128,0,205546:0:0:0:0:
448,192,205452,128,0,205640:0:0:0:0:
320,192,205640,128,0,205827:0:0:0:0:
192,192,205640,128,0,205733:0:0:0:0:
64,192,205827,128,0,205921:0:0:0:0:
192,192,205827,128,0,206108:0:0:0:0:
320,192,205921,128,0,206015:0:0:0:0:
448,192,205921,128,0,206015:0:0:0:0:
64,192,206015,128,0,206108:0:0:0:0:
448,192,206202,128,0,206296:0:0:0:0:
320,192,206202,128,0,206483:0:0:0:0:
64,192,206202,128,0,206296:0:0:0:0:
192,192,206390,128,0,206483:0:0:0:0:
64,192,206390,128,0,206671:0:0:0:0:
320,192,206577,128,0,206671:0:0:0:0:
448,192,206577,128,0,206765:0:0:0:0:
192,192,206577,128,0,206671:0:0:0:0:
192,192,206765,128,0,207046:0:0:0:0:
320,192,206765,128,0,206858:0:0:0:0:
64,192,206765,128,0,206858:0:0:0:0:
64,192,206952,128,0,207046:0:0:0:0:
448,192,206952,128,0,207046:0:0:0:0:
320,192,207046,128,0,207233:0:0:0:0:
448,192,207140,128,0,207233:0:0:0:0:
64,192,207233,128,0,207327:0:0:0:0:
192,192,207233,128,0,207421:0:0:0:0:
320,192,207327,128,0,207421:0:0:0:0:
448,192,207327,128,0,207608:0:0:0:0:
64,192,207515,128,0,207608:0:0:0:0:
192,192,207515,128,0,207702:0:0:0:0:
320,192,207608,128,0,207796:0:0:0:0:
448,192,207702,128,0,207890:0:0:0:0:
64,192,207796,128,0,207890:0:0:0:0:
192,192,207796,128,0,207983:0:0:0:0:
320,192,207983,128,0,208077:0:0:0:0:
448,192,207983,128,0,208171:0:0:0:0:
64,192,207983,128,0,208171:0:0:0:0:
192,192,208077,128,0,208171:0:0:0:0:
320,192,208265,128,0,208452:0:0:0:0:
448,192,208265,128,0,208640:0:0:0:0:
192,192,208358,128,0,208546:0:0:0:0:
64,192,208452,128,0,208640:0:0:0:0:
320,192,208640,128,0,208733:0:0:0:0:
192,192,208640,128,0,208827:0:0:0:0:
320,192,208827,128,0,209108:0:0:0:0:
448,192,208827,128,0,208921:0:0:0:0:
64,192,208921,128,0,209015:0:0:0:0:
192,192,208921,128,0,209108:0:0:0:0:
448,192,209015,128,0,209202:0:0:0:0:
320,192,209202,128,0,209390:0:0:0:0:
448,192,209296,128,0,209390:0:0:0:0:
64,192,209390,128,0,209577:0:0:0:0:
192,192,209390,1,0,0:0:0:0:
192,192,209577,128,0,209765:0:0:0:0:
320,192,209577,1,0,0:0:0:0:
320,192,209765,128,0,209952:0:0:0:0:
448,192,209765,1,0,0:0:0:0:
64,192,209765,1,0,0:0:0:0:
448,192,209952,128,0,210233:0:0:0:0:
192,192,209952,1,0,0:0:0:0:
64,192,209952,128,0,210140:0:0:0:0:
192,192,210140,1,0,0:0:0:0:
64,192,210233,128,0,210421:0:0:0:0:
320,192,210233,1,0,0:0:0:0:
448,192,210327,128,0,210515:0:0:0:0:
320,192,210421,1,0,0:0:0:0:
64,192,210515,128,0,210796:0:0:0:0:
192,192,210515,1,0,0:0:0:0:
448,192,210608,128,0,210702:0:0:0:0:
320,192,210702,1,0,0:0:0:0:
448,192,210796,128,0,211077:0:0:0:0:
192,192,210796,1,0,0:0:0:0:
64,192,210890,128,0,210983:0:0:0:0:
192,192,210983,1,0,0:0:0:0:
64,192,211077,128,0,211265:0:0:0:0:
320,192,211077,1,0,0:0:0:0:
448,192,211171,128,0,211358:0:0:0:0:
320,192,211265,1,0,0:0:0:0:
192,192,211358,1,0,0:0:0:0:
320,192,211452,1,0,0:0:0:0:
192,192,211546,1,0,0:0:0:0:
320,192,211640,1,0,0:0:0:0:
448,192,212577,1,0,0:0:0:0:
320,192,212671,1,0,0:0:0:0:
192,192,212765,1,0,0:0:0:0:
64,192,212858,1,0,0:0:0:0:
448,192,212952,1,0,0:0:0:0:
320,192,213046,1,0,0:0:0:0:
192,192,213140,128,0,213280:0:0:0:0:
64,192,213280,1,0,0:0:0:0:
192,192,213374,1,0,0:0:0:0:
64,192,213468,1,0,0:0:0:0:
320,192,213515,1,0,0:0:0:0:
448,192,213561,128,0,214077:0:0:0:0:
192,192,214265,128,0,214452:0:0:0:0:
320,192,215015,128,0,215202:0:0:0:0:
192,192,215296,128,0,215483:0:0:0:0:
320,192,215483,128,0,215671:0:0:0:0:
320,192,216140,128,0,216233:0:0:0:0:
448,192,216233,1,0,0:0:0:0:
192,192,216327,128,0,216421:0:0:0:0:
320,192,216421,1,0,0:0:0:0:
64,192,216515,128,0,216608:0:0:0:0:
192,192,216608,1,0,0:0:0:0:
448,192,216702,1,0,0:0:0:0:
320,192,216702,1,0,0:0:0:0:
192,192,216890,128,0,216983:0:0:0:0:
320,192,216890,1,0,0:0:0:0:
192,192,217077,128,0,217171:0:0:0:0:
192,192,217265,1,0,0:0:0:0:
64,192,217265,128,0,217358:0:0:0:0:
64,192,217452,128,0,217546:0:0:0:0:
448,192,217640,128,0,219140:0:0:0:0:
320,192,217640,128,0,218015:0:0:0:0:
192,192,217640,1,0,0:0:0:0:
320,192,218390,128,0,218765:0:0:0:0:
64,192,218390,1,0,0:0:0:0:
192,192,218765,1,0,0:0:0:0:
64,192,218765,1,0,0:0:0:0:
64,192,219140,1,0,0:0:0:0:
320,192,219140,128,0,219515:0:0:0:0:
64,192,219515,128,0,219890:0:0:0:0:
192,192,219515,128,0,219702:0:0:0:0:
192,192,219890,128,0,220265:0:0:0:0:
320,192,219890,128,0,220077:0:0:0:0:
320,192,220265,128,0,220640:0:0:0:0:
448,192,220265,128,0,221015:0:0:0:0:
64,192,220640,1,0,0:0:0:0:
320,192,221015,128,0,221390:0:0:0:0:
192,192,221015,128,0,221952:0:0:0:0:
64,192,221390,1,0,0:0:0:0:
448,192,221390,1,0,0:0:0:0:
320,192,221765,128,0,221952:0:0:0:0:
192,192,222140,128,0,222233:0:0:0:0:
64,192,222233,1,0,0:0:0:0:
320,192,222327,128,0,222421:0:0:0:0:
192,192,222421,1,0,0:0:0:0:
448,192,222515,128,0,222608:0:0:0:0:
320,192,222608,1,0,0:0:0:0:
192,192,222702,1,0,0:0:0:0:
448,192,222890,128,0,222983:0:0:0:0:
320,192,222890,1,0,0:0:0:0:
448,192,223077,128,0,223171:0:0:0:0:
320,192,223265,128,0,223358:0:0:0:0:
192,192,223265,1,0,0:0:0:0:
320,192,223452,128,0,223546:0:0:0:0:
64,192,223640,128,0,225140:0:0:0:0:
192,192,223640,128,0,224015:0:0:0:0:
448,192,223640,128,0,224015:0:0:0:0:
192,192,224390,128,0,224765:0:0:0:0:
192,192,225140,128,0,225515:0:0:0:0:
448,192,225515,128,0,225890:0:0:0:0:
320,192,225515,128,0,225702:0:0:0:0:
320,192,225890,128,0,226265:0:0:0:0:
192,192,225890,128,0,226077:0:0:0:0:
192,192,226265,128,0,226640:0:0:0:0:
64,192,226265,128,0,226452:0:0:0:0:
320,192,226452,128,0,226827:0:0:0:0:
448,192,226640,128,0,230671:0:0:0:0:
64,192,226827,128,0,229827:0:0:0:0:
192,192,227015,128,0,230765:0:0:0:0:
320,192,227108,128,0,234515:0:0:0:0:
320,192,234702,128,0,234890:0:0:0:0:
320,192,235265,128,0,235452:0:0:0:0:
320,192,235827,128,0,235968:0:0:0:0:
320,192,236390,128,0,236530:0:0:0:0:
320,192,236952,128,0,237046:0:0:0:0:
320,192,237515,128,0,237608:0:0:0:0:
320,192,238077,128,0,238124:0:0:0:0:
320,192,238640,128,0,238686:0:0:0:0:
320,192,239390,1,0,0:0:0:0:
320,192,240140,1,0,0:0:0:0:
