osu file format v14

[General]
AudioFilename: audio.mp3
AudioLeadIn: 0
PreviewTime: 188175
Countdown: 0
SampleSet: Soft
StackLeniency: 0
Mode: 0
LetterboxInBreaks: 0
WidescreenStoryboard: 0

[Editor]
DistanceSpacing: 1
BeatDivisor: 4
GridSize: 4
TimelineZoom: 4.199996

[Metadata]
Title:Stardust Prism
TitleUnicode:Stardust Prism
Artist:AA... Hisui Chazuke...
ArtistUnicode:ああ…翡翠茶漬け…
Creator:Naitoshi
Version:Astral Synapse
Source:
Tags:dnb happy hardcore Speed Star 3 SpeedStar3 RTTF Records RTTFRecords Starside AAAA ああああ 翡乃イスカ Hino Isuka 梅干茶漬け Umeboshi Chazuke Dream pop
BeatmapID:1365911
BeatmapSetID:644484

[Difficulty]
HPDrainRate:4.7
CircleSize:4
OverallDifficulty:8.6
ApproachRate:9.2
SliderMultiplier:1.6
SliderTickRate:1

[Events]
//Background and Video events
0,0,"vJank.jpg",0,0
//Break Periods
2,61744,70921
2,213244,214447
//Storyboard Layer 0 (Background)
//Storyboard Layer 1 (Fail)
//Storyboard Layer 2 (Pass)
//Storyboard Layer 3 (Foreground)
//Storyboard Sound Samples

[TimingPoints]
913,315.789473684211,4,2,1,5,1,0
21123,315.789473684211,4,2,1,15,1,0
21123,-400,4,2,1,15,0,0
28544,-400,4,2,1,5,0,0
28701,-400,4,2,1,35,0,0
29017,-400,4,2,1,20,0,0
29807,-400,4,2,1,5,0,0
29965,-400,4,2,1,20,0,0
31228,-200,4,2,1,35,0,0
32017,-200,4,2,1,5,0,0
32175,-200,4,2,1,35,0,0
32491,-200,4,2,1,5,0,0
32649,-200,4,2,1,35,0,0
32885,-200,4,2,1,5,0,0
32964,-200,4,2,1,35,0,0
33122,-200,4,2,1,5,0,0
33280,-200,4,2,1,35,0,0
33596,-200,4,2,1,5,0,0
33754,-200,4,2,1,35,0,0
34543,-200,4,2,1,5,0,0
34701,-200,4,2,1,35,0,0
35017,-200,4,2,1,5,0,0
35175,-200,4,2,1,35,0,0
35412,-200,4,2,1,5,0,0
35491,-200,4,2,1,35,0,0
35649,-200,4,2,1,5,0,0
35806,-200,4,2,1,35,0,0
36043,-200,4,2,1,5,0,0
36122,-200,4,2,1,35,0,0
36359,-200,4,2,1,5,0,0
36438,-200,4,2,1,35,0,0
36675,-200,4,2,1,5,0,0
36754,-200,4,2,1,35,0,0
36912,-200,4,2,1,5,0,0
37070,-200,4,2,1,35,0,0
37228,-200,4,2,1,25,0,0
37385,-200,4,2,1,35,0,0
37543,-200,4,2,1,5,0,0
38491,-200,4,2,1,35,0,0
42991,-200,4,2,1,5,0,0
43070,-200,4,2,1,35,0,0
43228,-200,4,2,1,5,0,0
43386,-200,4,2,1,35,0,0
45517,-200,4,2,1,5,0,0
45596,-200,4,2,1,35,0,0
45754,-200,4,2,1,5,0,0
45912,-200,4,2,1,35,0,0
46149,-200,4,2,1,5,0,0
46228,-200,4,2,1,35,0,0
46465,-200,4,2,1,5,0,0
46544,-200,4,2,1,35,0,0
46780,-200,4,2,1,5,0,0
46859,-200,4,2,1,35,0,0
47096,-200,4,2,1,5,0,0
47175,-200,4,2,1,35,0,0
47728,-200,4,2,1,5,0,0
47807,-200,4,2,1,35,0,0
50728,-200,4,2,1,5,0,0
50807,-200,4,2,1,35,0,0
51438,-153.846153846154,4,2,3,40,0,0
53096,-153.846153846154,4,2,3,5,0,0
53175,-153.846153846154,4,2,3,40,0,0
55623,-153.846153846154,4,2,3,5,0,0
55701,-153.846153846154,4,2,3,40,0,0
56017,-100,4,2,3,40,0,0
56491,-153.846153846154,4,2,3,40,0,0
57833,-153.846153846154,4,2,3,5,0,0
57912,-153.846153846154,4,2,3,40,0,0
71491,-133.333333333333,4,2,3,40,0,0
79859,-133.333333333333,4,2,4,20,0,0
80491,-133.333333333333,4,2,3,70,0,0
80570,-133.333333333333,4,2,1,70,0,0
80649,-400,4,2,1,70,0,0
80807,-133.333333333333,4,2,1,70,0,0
80965,-400,4,2,1,70,0,0
81123,-133.333333333333,4,2,1,70,0,0
81754,-200,4,2,1,70,0,1
81833,-200,4,2,2,40,0,1
82623,-200,4,2,1,5,0,0
82701,-66.6666666666667,4,2,1,20,0,0
82938,-133.333333333333,4,2,1,5,0,0
83017,-200,4,2,1,70,0,1
83333,-200,4,2,1,70,0,0
83491,-200,4,2,1,70,0,1
83807,-200,4,2,1,70,0,0
83965,-200,4,2,1,70,0,1
84044,-200,4,2,2,40,0,1
84833,-200,4,2,1,5,0,0
84912,-133.333333333333,4,2,1,13,0,0
85228,-40,4,2,1,40,0,0
85465,-133.333333333333,4,2,1,100,0,0
85544,-200,4,2,1,70,0,1
85859,-200,4,2,1,70,0,0
86017,-200,4,2,1,70,0,1
86333,-200,4,2,1,70,0,0
86491,-200,4,2,1,70,0,1
86570,-200,4,2,2,40,0,1
87044,-200,4,2,1,5,0,0
87123,-200,4,2,4,70,0,0
87438,-200,4,2,1,70,0,0
87596,-100,4,2,1,70,0,0
87754,-66.6666666666667,4,2,1,70,0,0
87833,-66.6666666666667,4,2,0,70,0,0
87912,-50,4,2,1,70,0,0
88070,-200,4,2,1,70,0,1
88386,-200,4,2,1,70,0,0
88544,-200,4,2,1,70,0,1
88859,-200,4,2,1,70,0,0
89017,-200,4,2,1,70,0,1
89096,-200,4,2,2,40,0,1
89412,-200,4,2,1,70,0,0
89807,-66.6666666666667,4,2,1,70,0,0
89965,-200,4,2,1,70,0,0
90123,-200,4,2,1,30,0,0
90201,-200,4,2,1,70,0,0
90596,-100,4,2,1,70,0,1
90912,-200,4,2,1,70,0,0
91070,-200,4,2,1,70,0,1
91228,-100,4,2,1,70,0,0
92807,-66.6666666666667,4,2,1,50,0,0
93044,-66.6666666666667,4,2,1,5,0,0
93123,-100,4,2,1,70,0,0
95017,-133.333333333333,4,2,1,70,0,0
95037,-133.333333333333,4,2,1,13,0,0
95333,-40,4,2,1,70,0,0
95570,-40,4,2,1,5,0,0
95649,-100,4,2,1,70,0,0
96912,-100,4,2,1,70,0,0
97544,-200,4,2,1,70,0,0
97701,-100,4,2,1,70,0,0
97859,-66.6666666666667,4,2,1,70,0,0
97938,-66.6666666666667,4,2,0,70,0,0
98017,-50,4,2,1,70,0,0
98175,-100,4,2,1,70,0,0
99912,-66.6666666666667,4,2,1,70,0,0
100070,-100,4,2,1,70,0,0
101017,-142.857142857143,4,2,1,70,0,1
101254,-142.857142857143,4,2,1,70,0,0
101333,-142.857142857143,4,2,1,70,0,1
101570,-142.857142857143,4,2,1,70,0,0
101649,-142.857142857143,4,2,1,70,0,1
101886,-142.857142857143,4,2,1,70,0,0
101965,-100,4,2,1,70,0,1
102044,-100,4,2,1,70,0,0
103544,-100,4,2,1,40,0,0
103623,-100,4,2,1,60,0,0
104254,-100,4,2,1,70,0,0
106386,-100,4,2,1,70,0,0
106425,-100,4,2,1,14,0,1
106701,-100,4,2,1,70,0,1
106741,-100,4,2,1,14,0,1
107017,-100,4,2,1,70,0,0
109228,-200,4,2,1,70,0,0
109544,-100,4,2,1,70,0,0
110965,-100,4,2,1,30,0,0
111044,-100,4,2,1,70,0,0
111280,-66.6666666666667,4,2,1,70,0,0
111438,-58.8235294117647,4,2,3,70,0,0
111596,-50,4,2,3,70,0,0
111754,-100,4,2,1,70,0,0
112070,-83.3333333333333,4,2,1,70,0,0
118386,-83.3333333333333,4,2,1,70,0,1
119017,-83.3333333333333,4,2,1,70,0,0
121070,-83.3333333333333,4,2,1,20,0,0
121228,-83.3333333333333,4,2,1,70,0,0
122175,-38,4,2,1,100,0,0
122333,-38,4,2,1,70,0,0
122491,-38,4,2,1,50,0,0
122649,-83.3333333333333,4,2,1,70,0,0
122807,-151.515151515152,4,2,1,70,0,0
123044,-50,4,2,1,70,0,0
123280,-83.3333333333333,4,2,1,70,0,0
124701,-38,4,2,1,70,0,0
125017,-200,4,2,1,70,0,0
125175,-83.3333333333333,4,2,1,70,0,0
127228,-38,4,2,1,100,0,0
127386,-38,4,2,1,70,0,0
127544,-38,4,2,1,50,0,0
127701,-83.3333333333333,4,2,1,70,0,0
128017,-50,4,2,1,70,0,0
128175,-38.3333333333333,4,2,1,70,0,0
128333,-83.3333333333333,4,2,1,70,0,0
128412,-38,4,2,1,70,0,0
128649,-66.6666666666667,4,2,1,70,0,0
128807,-400,4,2,1,70,0,0
128965,-66.6666666666667,4,2,1,70,0,0
129123,-50,4,2,1,70,0,0
129280,-66.6666666666667,4,2,1,70,0,0
129438,-100,4,2,1,70,0,0
129596,-200,4,2,1,70,0,0
129754,-38,4,2,1,100,0,0
129912,-38,4,2,1,70,0,0
130070,-83.3333333333333,4,2,1,70,0,0
130228,-200,4,2,1,70,0,0
130386,-100,4,2,1,70,0,0
130544,-66.6666666666667,4,2,1,70,0,0
130701,-50,4,2,1,70,0,0
130859,-50,4,2,1,70,0,0
131175,-83.3333333333333,4,2,1,70,0,0
131965,-71.4285714285714,4,2,1,70,0,0
132123,-55.5555555555556,4,2,1,70,0,0
132280,-83.3333333333333,4,2,1,70,0,0
132596,-133.333333333333,4,2,1,70,0,0
132754,-83.3333333333333,4,2,1,70,0,0
132912,-76.9230769230769,4,2,1,70,0,0
133070,-71.4285714285714,4,2,1,70,0,0
133228,-66.6666666666667,4,2,1,70,0,0
133859,-133.333333333333,4,2,1,70,0,0
134017,-83.3333333333333,4,2,1,70,0,0
134175,-76.9230769230769,4,2,1,70,0,0
134333,-71.4285714285714,4,2,1,70,0,0
134491,-66.6666666666667,4,2,1,70,0,0
134965,-83.3333333333333,4,2,1,70,0,0
135123,-133.333333333333,4,2,1,70,0,0
135280,-83.3333333333333,4,2,1,70,0,0
135438,-71.4285714285714,4,2,1,70,0,0
135596,-55.5555555555556,4,2,1,70,0,0
135754,-50,4,2,1,50,0,0
135912,-83.3333333333333,4,2,1,70,0,0
138596,-66.6666666666667,4,2,1,70,0,0
138754,-83.3333333333333,4,2,1,70,0,0
139701,-133.333333333333,4,2,1,70,0,0
140649,-83.3333333333333,4,2,1,40,0,0
140807,-83.3333333333333,4,2,1,70,0,0
140965,-83.3333333333333,4,2,1,100,0,0
141833,-200,4,2,1,70,0,0
142070,-200,4,2,1,45,0,0
142149,-200,4,2,1,70,0,0
142386,-50,4,2,1,70,0,1
142701,-66.6666666666667,4,2,1,70,0,1
143491,-33.3333333333333,4,2,1,70,0,1
143965,-66.6666666666667,4,2,1,70,0,1
144596,-50,4,2,1,70,0,1
144754,-66.6666666666667,4,2,1,70,0,1
145386,-33.3333333333333,4,2,1,70,0,1
145701,-66.6666666666667,4,2,1,70,0,1
146017,-33.3333333333333,4,2,1,70,0,1
146333,-66.6666666666667,4,2,1,70,0,1
146965,-200,4,2,1,70,0,1
147123,-133.333333333333,4,2,1,70,0,1
147280,-100,4,2,1,70,0,1
147438,-66.6666666666667,4,2,1,70,0,1
148228,-25,4,2,5,70,0,1
148386,-25,4,2,1,70,0,1
148544,-66.6666666666667,4,2,1,70,0,1
149175,-33.3333333333333,4,2,1,70,0,1
149491,-66.6666666666667,4,2,1,70,0,1
149807,-66.6666666666667,4,2,5,70,0,1
149965,-66.6666666666667,4,2,1,70,0,1
150201,-76.9230769230769,4,2,1,70,0,1
150438,-100,4,2,1,70,0,1
150596,-133.333333333333,4,2,1,70,0,1
150754,-100,4,2,1,70,0,1
150912,-66.6666666666667,4,2,1,70,0,1
151070,-66.6666666666667,4,2,1,70,0,1
151386,-50,4,2,1,70,0,1
151701,-33.3333333333333,4,2,1,70,0,1
151859,-66.6666666666667,4,2,1,70,0,1
152175,-66.6666666666667,4,2,1,70,0,0
152491,-50,4,2,1,70,0,1
152807,-66.6666666666667,4,2,1,70,0,1
153596,-33.3333333333333,4,2,1,70,0,1
154228,-66.6666666666667,4,2,1,70,0,1
154701,-50,4,2,1,70,0,1
154859,-66.6666666666667,4,2,1,70,0,1
157070,-200,4,2,1,70,0,1
157228,-50,4,2,1,70,0,1
157386,-100,4,2,1,70,0,1
157544,-66.6666666666667,4,2,1,70,0,1
158333,-66.6666666666667,4,2,5,70,0,1
158412,-66.6666666666667,4,2,1,70,0,1
158649,-33.3333333333333,4,2,1,70,0,1
158965,-66.6666666666667,4,2,1,70,0,1
159280,-50,4,2,1,70,0,1
159596,-66.6666666666667,4,2,1,70,0,1
162280,-83.3333333333333,4,2,1,70,0,1
162596,-66.6666666666667,4,2,1,70,0,1
164807,-83.3333333333333,4,2,1,70,0,1
164965,-66.6666666666667,4,2,1,70,0,1
165123,-50,4,2,1,70,0,1
165280,-83.3333333333333,4,2,1,70,0,0
165754,-33.3333333333333,4,2,1,70,0,0
166386,-41.6666666666667,4,2,1,70,0,0
166544,-83.3333333333333,4,2,1,70,0,0
167649,-200,4,2,1,70,0,0
167669,-200,4,2,2,5,0,0
172544,-200,4,2,2,40,0,0
172701,-178.571428571429,4,2,1,40,0,0
172721,-178.571428571429,4,2,0,10,0,0
177754,-178.571428571429,4,2,3,30,0,0
187228,-100,4,2,3,10,0,0
187280,-100,4,2,3,20,0,0
187859,-178.571428571429,4,2,3,30,0,0
188175,-200,4,2,3,30,0,0
188412,-200,4,2,3,5,0,0
188491,-200,4,2,3,15,0,0
188728,-200,4,2,3,5,0,0
188807,-200,4,2,3,10,0,0
189044,-200,4,2,3,5,0,0
189123,-200,4,2,32,100,0,0
189438,-200,4,2,3,5,0,0
189754,-200,4,2,15,100,0,0
190070,-200,4,2,3,5,0,0
190386,-200,4,2,25,100,0,0
190623,-200,4,2,3,5,0,0
190701,-200,4,2,13,100,0,0
190938,-200,4,2,3,5,0,0
191017,-200,4,2,21,70,0,0
191254,-200,4,2,3,5,0,0
191333,-200,4,2,18,100,0,0
191570,-200,4,2,3,5,0,0
191649,-200,4,2,12,70,0,0
191965,-200,4,2,19,100,0,0
192123,-200,4,2,3,12,0,0
192280,-200,4,2,23,100,0,0
192596,-200,4,2,19,100,0,0
192754,-200,4,2,3,12,0,0
192912,-200,4,2,22,80,0,0
193228,-200,4,2,16,100,0,0
193544,-200,4,2,27,100,0,0
193701,-200,4,2,3,12,0,0
193859,-200,4,2,30,100,0,0
194017,-200,4,2,3,12,0,0
194175,-200,4,2,14,50,0,0
194412,-200,4,2,3,5,0,0
194491,-200,4,2,10,60,0,0
194701,-200,4,2,3,12,0,0
194807,-200,4,2,13,100,0,0
195044,-200,4,2,3,5,0,0
195123,-200,4,2,10,50,0,0
195359,-200,4,2,3,5,0,0
195438,-200,4,2,28,40,0,0
195754,-200,4,2,100,100,0,0
196070,-200,4,2,13,30,0,0
196386,-200,4,2,17,70,0,0
196701,-200,4,2,10,100,0,0
197017,-200,4,2,13,30,0,0
197333,-200,4,2,26,100,0,0
197570,-200,4,2,3,5,0,0
197649,-200,4,2,21,70,0,0
197886,-200,4,2,3,5,0,0
197965,-200,4,2,10,100,0,0
198280,-200,4,2,19,30,0,0
198596,-200,4,2,20,60,0,0
198912,-200,4,2,19,100,0,0
199070,-200,4,2,1,5,0,0
199228,-200,4,2,10,100,0,0
199386,-200,4,2,1,5,0,0
199544,-200,4,2,19,60,0,0
199563,-200,4,2,18,20,0,0
199859,-200,4,2,20,100,0,0
200175,-200,4,2,19,100,0,0
200333,-200,4,2,1,10,0,0
200491,-200,4,2,10,100,0,0
200807,-200,4,2,19,100,0,0
201123,-200,4,2,20,100,0,0
201438,-200,4,2,19,100,0,0
201596,-200,4,2,1,20,0,0
201754,-200,4,2,11,100,0,0
201912,-200,4,2,1,20,0,0
202070,-200,4,2,19,60,0,0
202090,-200,4,2,18,30,0,0
202386,-200,4,2,20,100,0,0
202701,-200,4,2,19,100,0,0
202859,-200,4,2,1,20,0,0
203017,-200,4,2,11,100,0,0
203333,-200,4,2,19,100,0,0
203649,-200,4,2,20,100,0,0
203965,-200,4,2,19,100,0,0
204123,-200,4,2,1,20,0,0
204280,-200,4,2,11,100,0,0
204438,-200,4,2,1,20,0,0
204596,-200,4,2,19,60,0,0
204912,-200,4,2,20,100,0,0
205228,-200,4,2,19,100,0,0
205386,-200,4,2,1,10,0,0
205544,-200,4,2,10,100,0,0
205859,-200,4,2,19,100,0,0
206175,-200,4,2,20,100,0,0
206491,-200,4,2,19,100,0,0
206649,-200,4,2,1,20,0,0
206807,-200,4,2,10,100,0,0
206965,-200,4,2,1,20,0,0
207123,-153.846153846154,4,2,19,60,0,0
207438,-153.846153846154,4,2,26,70,0,0
207754,-200,4,2,35,60,0,0
208070,-200,4,2,10,100,0,0
208385,-200,4,2,19,30,0,0
208701,-200,4,2,20,100,0,0
209017,-200,4,2,19,100,0,0
209175,-200,4,2,1,5,0,0
209333,-200,4,2,10,100,0,0
209491,-200,4,2,1,5,0,0
209649,-200,4,2,19,100,0,0
209964,-200,4,2,20,100,0,0
210280,-200,4,2,19,100,0,0
210438,-200,4,2,1,5,0,0
210596,-200,4,2,10,100,0,0
210912,-200,4,2,19,100,0,0
211228,-200,4,2,20,100,0,0
211543,-200,4,2,19,100,0,0
211701,-200,4,2,1,20,0,0
211859,-200,4,2,11,100,0,0
212017,-200,4,2,1,20,0,0
212175,-200,4,2,19,100,0,0
212491,-200,4,2,20,100,0,0
212807,-200,4,2,19,100,0,0
212965,-200,4,2,1,5,0,0
215017,-100,4,2,1,70,0,0
215254,-100,4,2,1,5,0,0
215333,-83.3333333333333,4,2,1,20,0,0
215570,-83.3333333333333,4,2,1,5,0,0
215649,-33.3333333333333,4,2,1,70,0,0
216123,-66.6666666666667,4,2,1,70,0,0
216833,-50,4,2,1,70,0,0
217070,-50,4,2,1,70,0,0
217859,-66.6666666666667,4,2,1,70,0,0
218175,-33.3333333333333,4,2,1,70,0,0
218649,-66.6666666666667,4,2,1,70,0,0
219280,-15,4,2,1,70,0,0
219438,-66.6666666666667,4,2,1,70,0,0
219754,-66.6666666666667,4,2,1,40,0,0
219912,-66.6666666666667,4,2,1,60,0,0
219991,-66.6666666666667,4,2,1,90,0,0
220070,-66.6666666666667,4,2,1,80,0,0
220386,-66.6666666666667,4,2,1,70,0,0
220465,-66.6666666666667,4,2,1,90,0,0
220544,-66.6666666666667,4,2,1,100,0,0
220701,-133.333333333333,4,2,1,70,0,1
220741,-133.333333333333,4,2,1,70,0,0
221965,-133.333333333333,4,2,1,50,0,0
222123,-133.333333333333,4,2,1,70,0,0
222359,-133.333333333333,4,2,1,5,0,0
222438,-133.333333333333,4,2,1,70,0,0
222596,-133.333333333333,4,2,1,5,0,0
222754,-133.333333333333,4,2,1,70,0,0
224491,-133.333333333333,4,2,1,50,0,0
224649,-133.333333333333,4,2,1,70,0,0
224886,-133.333333333333,4,2,1,5,0,0
224965,-133.333333333333,4,2,1,70,0,0
225517,-133.333333333333,4,2,1,5,0,0
225596,-133.333333333333,4,2,1,70,0,0
225833,-133.333333333333,4,2,1,5,0,0
225912,-133.333333333333,4,2,1,70,0,0
226149,-133.333333333333,4,2,1,5,0,0
226228,-133.333333333333,4,2,1,70,0,0
226465,-133.333333333333,4,2,1,5,0,0
226544,-133.333333333333,4,2,1,70,0,0
227017,-133.333333333333,4,2,1,50,0,0
227175,-133.333333333333,4,2,1,70,0,0
227649,-133.333333333333,4,2,1,30,0,0
227807,-133.333333333333,4,2,1,70,0,0
230807,-100,4,2,2,50,0,0
235859,-100,4,2,2,70,0,0
236017,-100,4,2,2,40,0,0
236965,-100,4,2,2,40,0,0
237123,-100,4,2,2,70,0,0
237280,-100,4,2,2,40,0,0
237754,-100,4,2,2,70,0,0
237912,-100,4,2,2,40,0,0
238386,-100,4,2,2,70,0,0
240280,-50,4,2,2,70,0,0
240438,-50,4,2,1,70,0,0
240912,-66.6666666666667,4,2,1,70,0,0
241465,-66.6666666666667,4,2,1,40,0,0
241544,-66.6666666666667,4,2,1,70,0,0
241859,-200,4,2,1,70,0,0
242017,-66.6666666666667,4,2,1,70,0,0
242096,-200,4,2,1,70,0,0
242175,-66.6666666666667,4,2,1,70,0,0
242649,-66.6666666666667,4,2,0,30,0,0
242728,-66.6666666666667,4,2,1,70,0,0
242807,-200,4,2,1,70,0,0
242965,-66.6666666666667,4,2,0,40,0,0
243044,-66.6666666666667,4,2,1,70,0,0
243991,-66.6666666666667,4,2,1,70,0,0
244070,-66.6666666666667,4,2,1,70,0,0
244307,-200,4,2,1,70,0,0
244386,-66.6666666666667,4,2,1,70,0,0
244701,-200,4,2,1,70,0,0
244859,-66.6666666666667,4,2,1,70,0,0
245175,-66.6666666666667,4,2,0,30,0,0
245254,-66.6666666666667,4,2,1,70,0,0
245491,-200,4,2,1,70,0,0
245649,-100,4,2,1,70,0,0
245728,-100,4,2,0,30,0,0
245807,-100,4,2,1,70,0,0
245965,-50,4,2,1,70,0,0
246280,-66.6666666666667,4,2,1,70,0,0
247228,-66.6666666666667,4,2,1,70,0,0
247465,-40,4,2,1,70,0,0
247701,-66.6666666666667,4,2,1,70,0,0
247859,-66.6666666666667,4,2,2,30,0,0
247938,-40,4,2,1,70,0,0
248096,-40,4,2,0,30,0,0
248175,-66.6666666666667,4,2,1,70,0,0
248333,-66.6666666666667,4,2,0,30,0,0
248412,-100,4,2,1,70,0,0
249596,-66.6666666666667,4,2,1,70,0,0
249754,-18,4,2,1,70,0,0
249859,-23,4,2,1,80,0,0
249965,-33.3333333333333,4,2,1,90,0,0
250070,-40,4,2,1,100,0,0
250228,-33.3333333333333,4,2,1,100,0,0
250544,-66.6666666666667,4,2,1,70,0,0
255280,-50,4,2,1,70,0,0
255438,-66.6666666666667,4,2,1,70,0,0
258438,-50,4,2,1,70,0,0
258596,-66.6666666666667,4,2,1,70,0,0
259386,-71.4285714285714,4,2,1,40,0,0
259544,-71.4285714285714,4,2,1,70,0,0
260491,-200,4,2,1,70,0,0
260807,-71.4285714285714,4,2,1,70,0,0
261123,-71.4285714285714,4,2,6,70,0,0
262267,-71.4285714285714,4,2,6,20,0,0
262386,-71.4285714285714,4,2,6,70,0,0
262583,-71.4285714285714,4,2,6,20,0,0
262701,-71.4285714285714,4,2,6,70,0,0
263333,-55.5555555555556,4,2,6,70,0,0
263491,-71.4285714285714,4,2,6,70,0,0
264123,-35.7142857143,4,2,6,70,0,0
264438,-71.4285714285714,4,2,6,70,0,0
264754,-35.7142857143,4,2,6,70,0,0
265070,-71.4285714285714,4,2,6,70,0,0
265701,-200,4,2,6,70,0,0
265859,-142.857142857143,4,2,6,70,0,0
266017,-111.111111111111,4,2,6,70,0,0
266175,-71.4285714285714,4,2,6,70,0,0
266965,-33.3333333333333,4,2,6,70,0,0
267123,-71.4285714285714,4,2,6,70,0,0
267912,-35.7142857143,4,2,6,70,0,0
268228,-71.4285714285714,4,2,6,70,0,0
268938,-83.3333333333333,4,2,6,70,0,0
269175,-111.111111111111,4,2,6,70,0,0
269333,-142.857142857143,4,2,6,70,0,0
269491,-111.111111111111,4,2,6,70,0,0
269649,-71.4285714285714,4,2,6,70,0,0
269807,-200,4,2,6,70,0,0
269846,-200,4,2,6,13,0,0
270123,-200,4,2,6,70,0,0
270162,-200,4,2,6,37,0,0
270438,-200,4,2,6,70,0,0
270478,-200,4,2,6,13,0,0
270754,-200,4,2,6,70,0,0
270794,-200,4,2,6,37,0,0
270912,-71.4285714285714,4,2,1,70,0,0
271228,-71.4285714285714,4,2,6,70,0,0
272373,-71.4285714285714,4,2,6,20,0,0
272491,-71.4285714285714,4,2,6,70,0,0
272688,-71.4285714285714,4,2,6,20,0,0
272807,-71.4285714285714,4,2,6,70,0,0
273438,-55.5555555555556,4,2,6,70,0,0
273596,-71.4285714285714,4,2,6,70,0,0
275807,-200,4,2,6,70,0,0
275965,-142.857142857143,4,2,6,70,0,0
276123,-111.111111111111,4,2,6,70,0,0
276280,-71.4285714285714,4,2,6,70,0,0
277386,-35.7142857143,4,2,6,70,0,0
277701,-71.4285714285714,4,2,6,70,0,0
278017,-50,4,2,6,70,0,0
278333,-71.4285714285714,4,2,6,70,0,0
278807,-71.4285714285714,4,2,6,70,0,0
278846,-71.4285714285714,4,2,6,20,0,0
278965,-71.4285714285714,4,2,6,70,0,0
279004,-71.4285714285714,4,2,6,20,0,0
279123,-71.4285714285714,4,2,6,70,0,0
279162,-71.4285714285714,4,2,6,20,0,0
279201,-71.4285714285714,4,2,6,70,0,0
281333,-71.4285714285714,4,2,6,70,0,0
281373,-71.4285714285714,4,2,6,20,0,0
281491,-71.4285714285714,4,2,6,70,0,0
281530,-71.4285714285714,4,2,6,20,0,0
281649,-71.4285714285714,4,2,6,70,0,0
281688,-71.4285714285714,4,2,6,20,0,0
281728,-71.4285714285714,4,2,6,30,0,0
281807,-71.4285714285714,4,2,6,70,0,0
282280,-41,4,2,6,70,0,0
282596,-71.4285714285714,4,2,6,70,0,0
283859,-71.4285714285714,4,2,7,70,0,0
284965,-50,4,2,7,70,0,0
285004,-50,4,2,7,20,0,0
285280,-50,4,2,7,70,0,0
285320,-50,4,2,7,20,0,0
285438,-71.4285714285714,4,2,7,70,0,0
285596,-100,4,2,7,70,0,0
286070,-66.6666666666667,4,2,7,70,0,0
286228,-100,4,2,7,70,0,0
286859,-50,4,2,7,70,0,0
287175,-100,4,2,7,70,0,0
287491,-50,4,2,7,70,0,0
287807,-100,4,2,7,70,0,0
288438,-200,4,2,1,70,0,0
288596,-133.333333333333,4,2,1,70,0,0
288754,-100,4,2,1,70,0,0
288912,-66.6666666666667,4,2,1,70,0,1
289701,-25,4,2,5,70,0,1
289859,-66.6666666666667,4,2,1,70,0,1
290570,-66.6666666666667,4,2,1,70,0,0
290649,-15.02,4,2,1,70,0,1
290688,-15.02,4,2,0,70,0,1
290767,-15.02,4,2,1,70,0,1
290965,-66.6666666666667,4,2,1,70,0,1
291044,-66.6666666666667,4,2,0,70,0,1
291123,-66.6666666666667,4,2,1,70,0,1
291438,-66.6666666666667,4,2,1,70,0,1
291674,-76.9230769230769,4,2,1,70,0,1
291911,-100,4,2,1,70,0,1
292069,-133.333333333333,4,2,1,70,0,1
292227,-100,4,2,1,70,0,1
292385,-66.6666666666667,4,2,1,70,0,1
292544,-66.6666666666667,4,2,1,70,0,0
293965,-133.333333333333,4,2,1,70,0,0
294280,-50,4,2,1,100,0,1
294438,-66.6666666666667,4,2,1,70,0,1
295070,-33.3333333333333,4,2,1,70,0,1
295701,-66.6666666666667,4,2,1,70,0,1
296175,-50,4,2,1,70,0,1
296333,-66.6666666666667,4,2,1,70,0,1
297280,-133.333333333333,4,2,1,70,0,1
297359,-83.3333333333333,4,2,1,70,0,1
297438,-66.6666666666667,4,2,1,70,0,1
297517,-50,4,2,1,70,0,0
297596,-25,4,2,1,100,0,1
297912,-66.6666666666667,4,2,1,70,0,1
298544,-200,4,2,1,70,0,1
298701,-50,4,2,1,70,0,1
298859,-100,4,2,1,70,0,1
299017,-66.6666666666667,4,2,1,70,0,1
299807,-66.6666666666667,4,2,5,70,0,1
299965,-66.6666666666667,4,2,1,70,0,1
300123,-33.3333333333333,4,2,1,70,0,1
300438,-66.6666666666667,4,2,1,70,0,0
300754,-25,4,2,1,90,0,1
301070,-50,4,2,1,70,0,1
301544,-50,4,2,1,70,0,1
302017,-66.6666666666667,4,2,1,70,0,1
303754,-83.3333333333333,4,2,1,70,0,1
304070,-50,4,2,1,70,0,1
304544,-66.6666666666667,4,2,1,70,0,1
306280,-83.3333333333333,4,2,1,70,0,1
306438,-66.6666666666667,4,2,1,70,0,1
306596,-50,4,2,1,70,0,0
307228,-33.3333333333333,4,2,1,70,0,0
307859,-41.6666666666667,4,2,1,70,0,0
308017,-83.3333333333333,4,2,1,70,0,0
309123,-200,4,2,1,70,0,0
309142,-200,4,2,2,5,0,0
314017,-200,4,2,2,70,0,0
314175,-133.333333333333,4,2,1,70,0,0
314195,-133.333333333333,4,2,2,5,0,0
316544,-133.333333333333,4,2,1,70,0,0
316701,-100,4,2,1,70,0,0
316721,-100,4,2,2,5,0,0
318596,-100,4,2,1,70,0,0
319228,-100,4,2,1,40,0,0
326807,-200,4,2,1,20,0,0

[Colours]
Combo1 : 255,94,55
Combo2 : 173,255,95
Combo3 : 17,254,176
Combo4 : 255,88,100

[HitObjects]
256,192,16070,12,0,21044,0:0:0:0:
90,238,21123,6,0,B|139:248|167:224|167:224|205:248|225:209|225:209|270:231|314:208|313:171|282:185,1,260
311,283,23649,6,0,B|383:250|377:173|377:173|401:127|401:127|397:75,1,240
397,77,26175,6,0,B|407:198|407:198|430:234|430:234|389:296|447:366,1,300
453,375,28701,6,0,B|417:386|414:355|388:372|388:372|365:363|365:363|336:348|319:365,1,140
168,291,29965,2,0,B|182:306|212:291|212:291|234:282|234:282|261:299|264:268|299:280,1,140
93,306,31228,5,2,0:0:0:0:
168,291,31385,1,0,0:0:0:0:
94,220,31543,1,0,0:0:0:0:
194,165,31700,1,0,0:0:0:0:
70,137,31859,2,0,L|98:108,1,40,2|0,0:0|0:0,0:0:0:0:
9,197,32175,1,0,0:0:0:0:
193,164,32333,2,0,L|243:137,1,40,2|0,0:0|0:0,0:0:0:0:
159,285,32649,1,2,0:0:0:0:
168,291,32728,2,0,L|211:280,1,40
327,317,32965,2,0,L|283:327,1,40
415,349,33280,2,0,P|422:298|406:264,1,80
278,215,33754,5,2,0:0:0:0:
329,158,33911,1,0,0:0:0:0:
228,144,34069,1,0,0:0:0:0:
276,41,34228,1,0,0:0:0:0:
151,111,34386,2,0,P|146:130|145:149,1,40,2|0,0:0|0:0,0:0:0:0:
195,37,34701,1,0,0:0:0:0:
64,173,34859,2,0,P|70:191|82:208,1,40,2|0,0:0|0:0,0:0:0:0:
213,244,35175,1,2,0:0:0:0:
206,236,35254,2,0,P|186:232|166:234,1,40
80,327,35491,2,0,P|92:311|101:293,1,40
261,325,35807,2,0,P|222:345|194:351,1,60,2|0,0:0|0:0,0:0:0:0:
350,330,36122,6,0,P|386:353|406:375,1,60,2|0,0:0|0:0,0:0:0:0:
310,251,36438,2,0,P|312:207|320:179,1,60
415,134,36754,2,0,P|413:166|407:187,1,40,2|0,0:0|0:0,0:0:0:0:
292,98,37070,1,0,0:0:0:0:
315,191,37228,1,0,0:0:0:0:
193,171,37386,2,0,L|146:164,1,40
153,165,38491,1,0,0:0:0:0:
153,165,38807,6,0,P|145:203|148:244,1,80,2|0,0:0|0:0,0:0:0:0:
45,325,39280,2,0,P|62:290|70:249,1,80
183,345,39754,1,2,0:0:0:0:
193,353,40070,5,0,0:0:0:0:
193,353,40701,2,0,L|209:380,1,20
242,322,40859,2,0,L|270:335,1,20
267,270,41017,2,0,L|298:266,1,20
260,212,41175,2,0,L|284:191,1,20
223,168,41333,6,0,L|238:119,1,40,2|0,0:0|0:0,0:0:0:0:
129,292,41649,2,0,L|144:243,1,40
339,328,41965,2,0,P|366:293|363:241,1,80,2|0,0:0|0:0,0:0:0:0:
268,339,42438,2,0,P|276:364|294:383,1,40,2|0,0:0|0:0,0:0:0:0:
426,217,42754,1,2,0:0:0:0:
420,209,42833,2,0,P|404:196|385:189,1,40
258,269,43070,2,0,L|305:269,1,40
113,353,43386,2,0,L|203:353,1,80
41,350,43859,6,0,P|47:324|59:305,1,40,2|0,0:0|0:0,0:0:0:0:
144,204,44175,2,0,P|138:230|126:249,1,40
61,120,44491,2,0,L|72:200,1,80,2|0,0:0|0:0,0:0:0:0:
167,111,44965,2,0,L|180:74,1,40,2|0,0:0|0:0,0:0:0:0:
269,110,45280,1,2,0:0:0:0:
279,110,45359,2,0,L|307:81,1,40
230,218,45596,2,0,P|250:237|276:246,1,40
151,208,45912,2,0,P|153:243|171:274,1,60,2|0,0:0|0:0,0:0:0:0:
98,147,46228,6,0,P|78:172|71:203,1,60,2|0,0:0|0:0,0:0:0:0:
175,280,46544,2,0,L|101:273,1,60
198,352,46859,2,0,L|254:330,1,60
346,338,47175,2,0,L|314:375,1,40
389,278,47491,2,0,P|412:303|419:330,1,60
416,346,47807,5,0,0:0:0:0:
512,319,47965,1,2,0:0:0:0:
342,208,48280,1,2,0:0:0:0:
438,181,48438,1,0,0:0:0:0:
322,203,48596,1,0,0:0:0:0:
322,203,48912,6,0,P|314:160|315:120,1,80
176,91,49386,2,0,P|200:127|214:164,1,80
80,73,49859,1,2,0:0:0:0:
85,61,50175,5,0,0:0:0:0:
90,49,50491,6,0,P|107:24|149:2,1,60
113,166,50807,2,0,L|98:169,3,13.3333333333333,2|0|0|0,0:0|0:0|0:0|0:0,0:0:0:0:
176,91,51123,1,0,0:0:0:0:
274,89,51280,1,2,0:0:0:0:
231,208,51438,6,0,P|216:182|213:152,1,51.999997619629,2|0,1:2|0:0,0:0:0:0:
155,275,51754,2,0,P|125:272|97:282,1,51.999997619629,0|0,0:2|0:0,0:0:0:0:
317,344,52070,2,0,L|233:283,1,103.999995239258,10|0,0:0|0:0,0:0:0:0:
95,293,52544,2,0,L|153:335,1,51.999997619629,2|0,0:0|0:0,0:0:0:0:
322,197,52859,1,2,0:0:0:0:
327,190,52938,2,0,L|268:147,1,51.999997619629
444,187,53175,2,0,P|454:145|451:117,1,51.999997619629,0|8,0:0|0:0,0:0:0:0:
277,166,53491,2,0,P|279:208|302:282,1,103.999995239258
417,283,53965,6,0,L|356:290,1,51.999997619629,2|0,1:2|0:0,0:0:0:0:
159,233,54280,2,0,L|220:240,1,51.999997619629
334,115,54596,2,0,P|287:90|226:110,1,103.999995239258,10|0,0:0|0:0,0:0:0:0:
295,267,55070,2,0,P|300:239|292:203,1,51.999997619629
72,197,55386,1,2,0:0:0:0:
67,204,55465,2,0,P|62:232|70:268,1,51.999997619629
182,330,55701,2,0,L|121:323,1,51.999997619629,0|8,0:0|0:0,0:0:0:0:
295,267,56017,6,0,L|409:253,1,80,2|0,0:0|0:0,0:0:0:0:
159,166,56333,2,0,L|261:175,1,80,2|2,0:0|1:2,0:0:0:0:
405,103,56649,2,0,L|350:108,1,51.999997619629
203,55,56965,2,0,L|257:49,1,51.999997619629,2|8,0:0|0:0,0:0:0:0:
339,114,57280,1,0,0:0:0:0:
188,61,57438,1,0,0:0:0:0:
323,119,57596,2,0,P|327:158|318:196,1,77.9999964294435
305,215,57912,5,0,0:0:0:0:
401,188,58070,1,2,0:0:0:0:
159,166,58385,1,10,0:0:0:0:
255,139,58543,1,0,0:0:0:0:
139,161,58701,1,0,0:0:0:0:
139,161,59017,6,0,P|131:118|142:44,1,103.999995239258,2|0,1:2|0:0,0:0:0:0:
23,30,59491,2,0,P|37:50|49:91,1,51.999997619629,0|8,0:0|0:0,0:0:0:0:
23,210,59807,1,0,0:0:0:0:
137,58,59964,1,2,0:0:0:0:
143,47,60280,5,2,1:2:0:0:
149,36,60912,5,2,0:0:0:0:
107,97,60991,5,0,0:0:0:0:
120,170,61070,5,0,0:0:0:0:
183,209,61149,5,0,0:0:0:0:
255,189,61228,6,0,L|248:166,1,17.3333325398763
289,181,61333,6,0,L|293:157,1,17.3333325398763,0|2,0:0|0:0,0:0:0:0:
322,189,61438,6,0,L|337:170,1,17.3333325398763
347,211,61544,5,0,1:0:0:0:
334,242,71491,5,0,1:0:0:0:
283,305,71649,2,0,P|252:296|215:302,1,60.0000022888184,0|2,1:0|0:0,0:0:0:0:
340,184,71965,2,0,P|332:212|334:242,1,60.0000022888184,8|0,0:0|0:0,0:0:0:0:
363,318,72280,1,0,0:0:0:0:
220,126,72438,2,2,P|251:135|288:129,1,60.0000022888184,2|8,0:0|0:0,0:0:0:0:
338,76,72754,2,0,P|346:48|344:18,1,60.0000022888184
401,130,73070,1,2,0:0:0:0:
150,89,73228,2,0,P|141:117|143:147,1,60.0000022888184,8|0,0:0|0:0,0:0:0:0:
148,152,73465,1,0,0:0:0:0:
153,156,73544,2,0,L|71:161,1,60.0000022888184,0|2,0:0|0:0,0:0:0:0:
274,238,73859,2,0,L|356:243,1,60.0000022888184,8|0,0:0|0:0,0:0:0:0:
117,311,74175,6,0,L|176:307,1,60.0000022888184,0|2,0:0|0:0,0:0:0:0:
370,351,74491,2,0,L|288:346,1,60.0000022888184,8|0,0:0|0:0,0:0:0:0:
476,308,74807,1,0,0:0:0:0:
340,184,74965,2,2,P|332:212|334:242,1,60.0000022888184,2|8,0:0|0:0,0:0:0:0:
459,135,75280,2,0,P|428:126|391:132,1,60.0000022888184
281,178,75596,2,0,P|309:186|339:184,1,60.0000022888184,2|8,0:0|0:0,0:0:0:0:
232,58,75912,2,0,P|223:89|229:126,1,60.0000022888184
275,237,76228,2,0,P|283:208|281:178,1,60.0000022888184,2|8,0:0|0:0,0:0:0:0:
96,88,76544,5,0,1:0:0:0:
416,88,76701,6,0,L|346:95,1,60.0000022888184,0|0,1:0|0:0,0:0:0:0:
44,248,77017,6,0,L|114:255,1,60.0000022888184,8|0,1:2|0:0,0:0:0:0:
494,328,77333,6,0,L|424:335,1,60.0000022888184,0|2,1:0|0:0,0:0:0:0:
96,88,77649,6,0,L|166:95,1,60.0000022888184,8|0,1:2|0:0,0:0:0:0:
468,248,77965,6,0,L|398:255,1,60.0000022888184,0|0,1:0|0:0,0:0:0:0:
18,328,78280,6,0,L|88:335,1,60.0000022888184,8|0,1:2|0:0,0:0:0:0:
442,168,78596,6,0,L|372:175,1,60.0000022888184,0|2,1:0|0:0,0:0:0:0:
70,168,78912,6,0,L|140:175,1,60.0000022888184,8|0,1:2|0:0,0:0:0:0:
433,332,79228,5,0,3:0:0:0:
103,253,79386,1,4,3:0:0:0:
382,174,79544,1,4,3:2:0:0:
155,93,79701,1,8,3:0:0:0:
398,92,79859,5,0,3:0:0:0:
375,90,79937,1,0,3:0:0:0:
353,95,80016,1,0,3:0:0:0:
333,105,80095,1,0,3:0:0:0:
317,121,80174,5,0,3:0:0:0:
306,140,80253,1,0,3:0:0:0:
300,162,80332,1,0,3:0:0:0:
300,184,80411,1,0,3:0:0:0:
306,205,80490,5,0,1:0:0:0:
382,174,80570,1,2,0:3:0:0:
458,141,80649,2,0,L|445:146,1,10,8|0,0:3|3:0,0:0:0:0:
295,287,80807,5,8,1:0:0:0:
371,255,80886,1,2,0:3:0:0:
447,223,80966,2,0,L|434:228,1,10,8|0,0:3|3:0,0:0:0:0:
284,369,81123,6,0,L|301:362,1,20.0000007629395,0|0,1:0|0:0,0:0:0:0:
243,366,81228,2,0,L|262:364,1,20.0000007629395,0|2,0:0|0:3,0:0:0:0:
204,351,81333,2,0,L|222:355,1,20.0000007629395
171,325,81438,6,0,L|187:334,1,20.0000007629395,4|0,0:0|0:0,0:0:0:0:
147,291,81544,2,0,L|160:305,1,20.0000007629395,0|8,0:0|3:1,0:0:0:0:
133,251,81649,2,0,L|141:268,1,20.0000007629395
131,207,81754,6,2,P|37:222|86:158,1,220,6|0,1:0|0:0,1:0:0:0:
251,148,82701,6,2,P|168:170|57:152,1,180.000006866455,2|0,1:0|0:0,0:0:0:0:
76,159,83017,6,0,P|88:203|87:242,1,80,4|0,1:0|0:0,0:0:0:0:
251,148,83491,2,0,P|241:109|221:74,1,80,4|0,1:0|0:0,0:0:0:0:
210,245,83965,6,2,B|260:239|295:216|295:216|316:236|361:271|418:232|408:218,1,220,6|0,1:0|0:0,1:0:0:0:
362,161,84912,2,2,L|356:167,12,7.50000028610231
362,161,85228,6,2,P|336:249|436:295,1,200,4|0,0:1|3:0,1:0:0:0:
221,74,85465,1,0,3:0:0:0:
208,62,85544,6,0,P|167:49|118:63,1,80,4|0,1:0|0:0,0:0:0:0:
319,100,86017,2,0,P|360:87|409:101,1,80,4|0,1:0|0:0,0:0:0:0:
247,301,86491,6,2,B|217:249|273:208|244:166,1,140,6|0,1:0|0:0,1:0:0:0:
247,301,87123,1,0,3:0:0:0:
248,307,87201,1,0,3:0:0:0:
249,313,87280,1,0,3:0:0:0:
250,319,87359,1,0,3:0:0:0:
251,325,87438,6,0,L|268:297,1,20,0|0,3:0|3:0,0:0:0:0:
302,116,87596,6,0,L|329:162,1,40,2|0,1:0|3:0,0:0:0:0:
352,346,87754,6,2,L|392:279,1,60.0000022888184,0|2,3:0|0:1,0:1:0:0:
401,66,87912,6,2,L|455:155,1,80,0|0,1:0|1:0,0:1:0:0:
457,303,88070,6,0,P|452:265|421:231,1,80,4|0,1:0|0:0,0:0:0:0:
208,366,88544,2,0,P|236:340|246:295,1,80,4|0,1:0|0:0,0:0:0:0:
12,198,89017,6,2,P|55:207|105:186,1,100,6|0,1:0|0:0,1:0:0:0:
49,123,89491,5,2,0:0:0:0:
61,206,89571,5,0,0:0:0:0:
126,254,89649,5,0,0:0:0:0:
209,242,89728,5,0,0:0:0:0:
261,178,89807,6,0,P|259:143|237:107,1,60.0000022888184,0|0,1:0|0:0,0:0:0:0:
109,32,89965,5,2,0:0:0:0:
177,56,90044,5,0,0:0:0:0:
234,45,90123,5,4,0:0:0:0:
276,33,90201,5,0,0:0:0:0:
309,30,90280,5,8,3:0:0:0:
335,34,90359,1,0,3:0:0:0:
346,37,90438,1,2,3:0:0:0:
353,40,90517,1,2,0:0:0:0:
356,42,90596,6,0,P|360:75|354:224,1,160,4|6,1:0|0:3,0:0:0:0:
446,29,91070,1,2,1:0:0:0:
357,201,91228,6,0,P|355:217|364:238,1,26.6666666666667,0|0,1:0|0:0,0:0:0:0:
304,200,91333,2,0,P|308:215|325:230,1,26.6666666666667,0|2,0:0|0:3,0:0:0:0:
254,221,91438,2,0,P|264:232|286:239,1,26.6666666666667
217,261,91544,6,0,P|214:245|223:224,1,26.6666666666667,4|0,0:0|0:0,0:0:0:0:
163,262,91649,2,0,P|167:246|184:231,1,26.6666666666667,0|0,0:0|3:0,0:0:0:0:
113,241,91754,2,0,P|123:229|145:222,1,26.6666666666667
76,200,91859,6,0,P|66:248|85:301,1,80,6|0,1:0|0:0,0:0:0:0:
213,338,92175,2,0,P|223:290|204:237,1,80,0|0,1:0|0:0,0:0:0:0:
307,122,92491,2,0,P|297:170|316:223,1,80,0|0,1:0|0:0,0:0:0:0:
444,260,92807,6,2,P|462:172|427:76,1,180.000006866455,2|0,1:0|0:0,0:0:0:0:
435,88,93123,6,0,L|383:151,1,80,4|0,1:0|0:0,0:0:0:0:
213,338,93438,1,0,1:0:0:0:
307,122,93596,2,0,L|255:185,1,80,4|0,1:0|1:0,0:0:0:0:
256,183,94070,6,0,L|307:122,1,80,4|0,1:0|0:0,0:0:0:0:
170,180,94386,2,0,L|190:102,1,80,0|0,1:0|0:0,0:0:0:0:
90,213,94701,2,0,L|75:134,1,80,0|0,1:0|0:0,0:0:0:0:
31,276,95017,2,2,L|26:270,12,7.50000028610231,2|2|2|2|2|2|2|2|2|2|2|2|2,1:2|0:0|0:0|0:0|0:0|0:0|0:0|0:0|0:0|0:0|0:0|0:0|0:0,0:0:0:0:
31,276,95333,6,2,P|98:227|48:331,1,300,4|0,1:1|0:0,1:0:0:0:
75,134,95649,6,0,P|116:133|154:147,1,80,6|0,1:0|0:0,0:0:0:0:
15,177,95965,1,0,1:0:0:0:
283,217,96123,2,0,P|242:218|204:204,1,80,4|0,1:0|1:0,0:0:0:0:
205,205,96596,6,0,P|243:218|333:193,1,120,4|0,1:0|0:0,0:0:0:0:
344,175,96912,5,0,1:0:0:0:
274,69,97070,1,0,1:0:0:0:
463,216,97228,1,0,1:0:0:0:
393,110,97386,1,0,1:0:0:0:
205,205,97544,6,0,L|236:215,1,20,0|0,1:0|3:0,0:0:0:0:
274,69,97701,6,0,L|325:52,1,40,2|0,1:0|3:0,0:0:0:0:
371,250,97859,6,2,L|394:321,1,60.0000022888184,0|2,1:0|0:1,0:1:0:0:
463,123,98017,6,2,L|504:24,1,80,0|0,1:0|1:0,0:1:0:0:
389,307,98175,5,6,1:0:0:0:
303,242,98333,1,0,1:0:0:0:
370,157,98491,1,0,1:0:0:0:
456,222,98649,1,4,1:0:0:0:
263,349,98807,5,0,1:0:0:0:
230,275,98965,1,0,1:0:0:0:
303,242,99123,1,4,1:0:0:0:
335,315,99280,1,2,1:2:0:0:
178,146,99438,2,0,P|184:118|192:99,1,40,0|0,1:0|3:0,0:0:0:0:
463,123,99596,5,2,3:2:0:0:
451,206,99675,5,0,3:0:0:0:
386,254,99754,5,0,1:0:0:0:
303,242,99833,5,0,3:0:0:0:
251,178,99912,6,0,P|253:143|275:107,1,60.0000022888184,0|0,1:0|3:0,0:0:0:0:
403,32,100070,5,2,1:2:0:0:
335,56,100149,5,0,3:0:0:0:
278,45,100228,5,4,3:2:0:0:
236,33,100306,5,0,3:0:0:0:
203,30,100385,5,8,3:0:0:0:
177,34,100464,1,0,3:0:0:0:
166,37,100544,1,2,3:0:0:0:
159,40,100622,1,2,3:2:0:0:
156,42,100701,5,6,1:0:0:0:
156,42,101017,6,0,P|196:49|263:51,1,83.9999974365235,0|0,1:0|0:0,0:0:0:0:
91,116,101333,6,0,P|129:129|194:143,1,83.9999974365235,2|0,1:2|0:0,0:0:0:0:
14,177,101649,6,0,P|49:197|111:222,1,83.9999974365235,6|0,1:0|0:0,0:0:0:0:
251,297,101965,6,0,B|203:292|203:292|153:310,1,80,6|0,1:0|0:0,0:0:0:0:
335,353,102280,1,0,1:0:0:0:
177,306,102438,1,2,3:2:0:0:
181,309,102596,2,0,L|187:229,1,80,2|0,1:2|0:0,0:0:0:0:
335,353,102912,2,0,L|327:247,1,80,0|0,1:0|0:0,0:0:0:0:
472,296,103228,2,0,L|480:190,1,80,0|2,1:0|0:0,0:0:0:0:
300,144,103544,6,0,B|348:149|348:149|398:131,1,80,4|2,1:2|0:0,0:0:0:0:
187,229,103859,6,0,B|139:223|139:223|93:195,1,80,2|0,1:2|0:0,0:0:0:0:
329,273,104175,6,0,B|374:258|374:258|413:221,1,80,4|0,1:2|0:0,0:0:0:0:
198,384,104491,6,0,B|210:326|204:261|204:261|171:198,1,160,0|0,1:0|1:2,0:0:0:0:
224,85,104965,2,0,B|217:117|220:153|220:153|239:188,1,80,2|2,1:2|1:2,0:0:0:0:
422,98,105280,1,0,0:0:0:0:
329,273,105438,1,0,1:0:0:0:
414,88,105596,2,0,B|382:77|346:76|346:76|309:90,1,80,2|0,0:0|1:2,0:0:0:0:
474,233,105912,1,2,0:0:0:0:
336,80,106070,2,0,B|325:111|324:147|324:147|338:184,1,80,2|2,1:0|0:2,0:0:0:0:
441,314,106386,6,0,L|476:301,1,20,2|2,1:2|0:0,0:0:0:0:
440,314,106465,2,2,L|427:278,1,20
439,314,106544,6,2,L|403:326,1,20
438,314,106623,2,2,L|450:349,1,20
437,314,106701,6,0,L|473:313,1,20,2|2,1:0|0:0,0:0:0:0:
436,314,106780,2,2,L|435:276,1,20
435,314,106859,6,2,L|397:313,1,20
434,314,106938,2,2,L|433:350,1,20
433,314,107017,5,0,1:0:0:0:
331,316,107175,1,0,1:0:0:0:
374,211,107333,5,0,1:0:0:0:
476,213,107491,1,2,1:2:0:0:
281,229,107649,5,2,1:2:0:0:
180,209,107807,1,0,1:0:0:0:
243,115,107965,5,0,1:0:0:0:
343,139,108123,1,0,1:0:0:0:
151,136,108280,5,0,1:0:0:0:
281,229,108438,1,2,1:2:0:0:
293,238,108517,1,0,3:0:0:0:
305,247,108596,1,0,1:0:0:0:
109,237,108754,5,2,1:2:0:0:
6,238,108912,1,2,1:2:0:0:
48,133,109070,5,0,1:0:0:0:
151,136,109228,1,2,1:0:0:0:
71,306,109386,1,0,1:0:0:0:
151,136,109544,5,0,3:0:0:0:
159,148,109622,1,0,3:0:0:0:
166,161,109701,1,0,3:0:0:0:
171,175,109780,1,0,3:0:0:0:
173,190,109859,1,0,3:0:0:0:
172,205,109938,1,0,3:0:0:0:
168,219,110017,1,2,3:2:0:0:
163,233,110096,1,0,3:0:0:0:
157,247,110175,5,2,3:2:0:0:
152,261,110254,1,0,3:0:0:0:
149,276,110333,1,0,3:0:0:0:
149,291,110412,1,0,3:0:0:0:
152,305,110491,1,0,3:0:0:0:
159,319,110570,1,0,3:0:0:0:
167,331,110649,1,4,3:1:0:0:
177,343,110728,1,0,3:0:0:0:
188,353,110807,6,0,L|112:353,1,40,0|0,3:0|3:0,0:0:0:0:
338,282,110965,5,4,3:2:0:0:
318,282,111043,1,0,3:0:0:0:
298,282,111123,6,0,L|374:282,1,40,0|0,3:0|3:0,0:0:0:0:
398,282,111280,6,0,L|322:282,1,60.0000022888184,8|0,3:0|3:0,0:0:0:0:
230,282,111438,6,2,L|306:282,1,68.0000012969971,2|2,3:0|3:1,0:1:0:0:
478,282,111596,6,0,L|389:282,1,80,2|0,3:1|3:0,0:0:0:0:
230,282,111754,6,0,P|236:291|243:309,1,26.6666666666667,8|0,0:0|0:0,0:0:0:0:
220,242,111859,2,0,P|229:247|243:260,1,26.6666666666667,0|2,0:0|0:0,0:0:0:0:
194,209,111965,2,0,P|204:210|223:216,1,26.6666666666667
156,190,112070,6,0,P|146:254|161:351,1,143.999995605469,6|0,1:0|0:0,0:0:0:0:
23,384,112386,2,0,P|51:341|73:266,1,95.9999970703126,8|0,0:0|0:0,0:0:0:0:
80,96,112701,1,2,0:0:0:0:
66,90,112780,1,0,0:0:0:0:
51,87,112859,2,0,P|67:101|103:124,1,47.9999985351563,0|4,1:0|0:0,0:0:0:0:
249,68,113017,1,8,0:0:0:0:
25,183,113175,2,0,P|46:189|88:195,1,47.9999985351563,2|0,0:0|0:0,0:0:0:0:
280,157,113333,6,0,P|259:151|217:145,1,47.9999985351563,0|0,1:0|0:0,0:0:0:0:
155,332,113491,1,2,0:0:0:0:
178,338,113569,1,0,0:0:0:0:
201,342,113648,1,12,0:0:0:0:
280,157,113807,1,2,3:0:0:0:
284,148,113886,1,0,3:0:0:0:
288,139,113965,2,0,L|291:250,1,95.9999970703126,2|2,3:2|1:3,0:0:0:0:
450,382,114280,2,0,L|452:286,1,95.9999970703126,8|2,0:0|0:0,0:0:0:0:
201,342,114596,6,0,P|251:349|328:338,1,95.9999970703126,4|0,1:0|0:0,0:0:0:0:
151,164,114912,2,0,P|149:214|123:287,1,95.9999970703126,8|0,0:0|0:0,0:0:0:0:
68,78,115228,1,2,0:0:0:0:
53,77,115307,1,0,0:0:0:0:
38,76,115386,2,0,L|99:80,1,47.9999985351563,0|4,1:0|0:0,0:0:0:0:
253,89,115544,1,8,0:0:0:0:
23,160,115701,2,0,L|84:164,1,47.9999985351563,2|0,0:0|0:0,0:0:0:0:
283,178,115859,6,0,L|222:174,1,47.9999985351563,0|0,1:0|0:0,0:0:0:0:
8,244,116017,1,2,0:0:0:0:
31,245,116095,1,0,0:0:0:0:
55,247,116174,1,12,0:0:0:0:
313,267,116333,1,2,3:0:0:0:
303,265,116412,1,0,3:0:0:0:
293,267,116491,2,0,P|342:291|424:288,1,95.9999970703126,2|2,3:2|1:3,0:0:0:0:
145,203,116807,2,0,P|194:179|276:182,1,95.9999970703126,8|2,0:0|0:0,0:0:0:0:
0,150,117123,6,0,P|-1:218|18:263,1,95.9999970703126,4|0,1:0|0:0,0:0:0:0:
230,243,117438,2,0,P|171:208|123:202,1,95.9999970703126,8|0,1:2|0:0,0:0:0:0:
289,330,117754,1,2,1:2:0:0:
304,334,117833,1,0,0:0:0:0:
318,335,117912,2,0,P|339:333|380:324,1,47.9999985351563,0|4,1:0|0:0,0:0:0:0:
142,314,118070,1,8,1:2:0:0:
353,254,118228,2,0,P|373:247|411:230,1,47.9999985351563,2|0,0:0|0:0,0:0:0:0:
107,233,118386,6,0,P|111:219|100:207,1,23.9999992675781,0|0,1:0|0:0,0:0:0:0:
128,228,118465,2,0,P|129:213|115:204,1,23.9999992675781
147,218,118544,6,0,P|144:203|130:197,1,23.9999992675781,2|0,0:0|0:0,0:0:0:0:
164,204,118623,2,0,P|159:190|143:187,1,23.9999992675781
177,188,118702,6,0,P|169:175|152:175,1,23.9999992675781,12|0,1:2|0:0,0:0:0:0:
186,168,118780,2,0,P|175:157|159:161,1,23.9999992675781
192,148,118859,6,0,P|179:139|165:146,1,23.9999992675781,2|0,3:0|0:0,0:0:0:0:
194,127,118938,2,0,P|180:121|167:131,1,23.9999992675781,0|0,3:0|0:0,0:0:0:0:
191,106,119017,6,0,P|146:106|86:147,1,95.9999970703126,2|2,1:2|1:3,0:0:0:0:
291,46,119333,2,0,P|255:18|182:15,1,95.9999970703126,8|2,1:2|0:0,0:0:0:0:
381,195,119649,6,0,P|417:167|490:164,1,95.9999970703126,4|0,1:0|1:0,0:0:0:0:
264,208,119965,2,0,P|275:163|330:116,1,95.9999970703126,8|0,0:0|1:2,0:0:0:0:
426,285,120280,1,2,1:2:0:0:
425,300,120359,1,0,0:0:0:0:
424,315,120438,2,0,L|420:376,1,47.9999985351563,0|4,1:0|0:0,0:0:0:0:
372,213,120596,1,8,1:2:0:0:
256,359,120754,2,0,L|260:298,1,47.9999985351563,2|0,1:2|0:0,0:0:0:0:
107,118,120912,6,0,L|103:179,1,47.9999985351563,0|0,1:0|0:0,0:0:0:0:
90,354,121070,2,0,L|91:332,8,11.9999996337891,8|8|8|8|8|8|8|8|8,0:1|0:1|0:1|0:1|0:1|0:1|0:1|0:1|0:0,0:0:0:0:
264,208,121386,6,0,P|233:210|195:235,1,47.9999985351563,2|0,3:0|3:0,0:0:0:0:
256,359,121544,5,2,3:2:0:0:
291,358,121623,1,0,0:0:0:0:
328,348,121701,1,2,1:3:0:0:
376,318,121780,1,0,0:0:0:0:
415,258,121859,5,12,1:2:0:0:
421,172,121938,1,0,0:0:0:0:
368,88,122017,1,0,0:0:0:0:
271,53,122096,1,0,0:0:0:0:
173,87,122175,6,0,L|229:111,1,52.6315789473684,0|0,1:0|0:0,0:0:0:0:
159,163,122333,6,0,L|215:187,1,52.6315789473684,0|0,1:0|0:0,0:0:0:0:
145,239,122491,6,0,L|201:263,1,52.6315789473684,6|0,1:0|0:0,0:0:0:0:
193,260,122649,5,8,3:0:0:0:
217,270,122728,1,2,3:0:0:0:
242,280,122807,6,0,L|325:315,1,52.6000024880983,0|4,1:0|0:3,0:0:0:0:
325,129,123044,6,0,B|272:108|272:108|218:106|218:106|163:83,1,160,2|0,1:2|0:0,0:0:0:0:
370,261,123280,6,0,P|339:225|266:214,1,95.9999970703126,4|0,1:0|0:0,0:0:0:0:
112,380,123596,2,0,P|158:371|204:313,1,95.9999970703126,2|8,1:2|0:0,0:0:0:0:
136,97,123912,2,0,P|120:141|148:210,1,95.9999970703126,6|10,1:2|0:3,0:0:0:0:
325,129,124228,2,0,L|230:147,1,95.9999970703126,2|4,1:2|0:3,0:0:0:0:
112,380,124544,5,2,3:2:0:0:
137,375,124623,1,0,3:0:0:0:
164,371,124702,6,0,L|252:355,1,52.6315789473684,0|0,1:0|0:0,0:0:0:0:
127,305,124859,5,0,1:0:0:0:
89,239,125017,6,0,L|100:237,3,10,2|2|0|0,1:2|0:3|0:0|0:0,0:0:0:0:
94,243,125175,6,0,L|6:259,1,47.9999985351563,8|2,0:3|0:3,0:0:0:0:
224,290,125333,2,0,L|87:314,1,95.9999970703126,0|4,1:0|0:3,0:0:0:0:
278,138,125570,2,0,L|190:154,1,47.9999985351563,2|4,1:2|0:3,0:0:0:0:
230,146,125807,2,0,P|295:162|310:259,1,143.999995605469,6|0,1:0|0:0,0:0:0:0:
245,221,126123,5,2,1:2:0:0:
295,163,126201,5,0,0:0:0:0:
369,142,126280,5,4,0:0:0:0:
443,163,126359,5,0,0:0:0:0:
479,231,126438,6,0,P|485:261|482:295,1,47.9999985351563,4|0,1:0|0:0,0:0:0:0:
370,295,126596,2,0,P|392:274|423:260,1,47.9999985351563,10|0,0:3|0:0,0:0:0:0:
480,358,126754,2,0,P|451:348|423:328,1,47.9999985351563,2|0,1:2|0:0,0:0:0:0:
369,142,126912,5,8,0:0:0:0:
370,137,126991,1,4,0:3:0:0:
371,132,127070,1,2,1:2:0:0:
372,127,127149,1,2,0:0:0:0:
373,122,127228,6,0,L|379:187,1,52.6315789473684,0|0,1:0|0:0,0:0:0:0:
295,163,127386,6,0,L|291:111,1,52.6315789473684,0|0,1:0|0:0,0:0:0:0:
207,98,127544,6,0,L|213:163,1,52.6315789473684,6|0,1:0|0:0,0:0:0:0:
214,175,127701,5,8,3:0:0:0:
216,199,127780,1,2,3:0:0:0:
218,225,127859,6,0,L|224:290,1,47.9999985351563,0|0,1:0|0:0,0:0:0:0:
133,150,128017,6,0,P|80:154|50:204,1,80,2|0,0:0|0:0,0:0:0:0:
206,326,128175,6,0,B|224:285|224:285|218:223,1,104.347829548308,4|0,1:3|0:0,0:0:0:0:
373,122,128333,5,6,1:0:0:0:
374,123,128373,5,2,0:0:0:0:
375,124,128412,6,0,B|385:161|357:197|357:197|363:255|363:255|333:291|353:346,1,210.526315789474,0|0,1:0|0:0,0:0:0:0:
473,325,128649,2,0,P|442:308|408:304,1,60.0000022888184,2|0,1:2|0:0,0:0:0:0:
206,326,128807,6,0,L|211:331,1,5,2|2,1:0|0:0,0:0:0:0:
206,326,128886,5,0,0:0:0:0:
206,326,128965,2,0,P|237:343|271:347,1,60.0000022888184,0|0,1:2|0:0,0:0:0:0:
62,171,129123,6,0,L|73:268,1,80,10|0,0:3|0:0,0:0:0:0:
197,91,129280,6,0,L|187:165,1,60.0000022888184,2|0,1:2|0:0,0:0:0:0:
347,47,129438,6,0,L|327:95,1,40,8|0,0:0|0:0,0:0:0:0:
501,38,129596,6,0,L|486:60,1,20,2|0,1:2|3:0,0:0:0:0:
416,174,129754,6,0,L|387:218,1,52.6315789473684,0|0,1:2|0:0,0:0:0:0:
428,185,129912,5,0,1:0:0:0:
439,195,130070,5,0,1:0:0:0:
450,205,130228,6,0,L|461:188,1,20,4|4,0:3|0:3,0:0:0:0:
335,141,130386,6,0,L|341:88,1,40,0|0,1:0|0:0,0:0:0:0:
197,141,130544,6,0,L|187:66,1,60.0000022888184,2|0,1:2|0:0,0:0:0:0:
83,205,130701,6,0,L|38:137,1,80,2|0,1:0|0:0,0:0:0:0:
372,266,130859,6,0,B|343:242|299:238|243:271|243:271|212:252|194:308|137:282,1,240,4|0,1:0|0:0,0:0:0:0:
163,217,131175,1,0,1:0:0:0:
432,157,131333,1,0,1:0:0:0:
388,177,131412,1,0,3:0:0:0:
341,180,131491,2,0,P|389:194|424:221,1,95.9999970703126,4|10,0:0|0:3,0:0:0:0:
464,358,131807,6,0,L|463:306,1,47.9999985351563,0|0,1:0|0:0,0:0:0:0:
343,124,131965,6,0,L|341:185,1,55.9999982910157,8|0,0:0|0:0,0:0:0:0:
220,342,132123,6,0,L|221:253,1,71.9999978027344,0|0,3:0|3:0,0:0:0:0:
114,82,132280,6,0,P|101:136|105:197,1,95.9999970703126,4|0,1:0|0:0,0:0:0:0:
322,289,132596,2,0,P|319:306|310:329,1,30.0000011444092,8|0,0:0|0:0,0:0:0:0:
270,151,132754,6,0,P|250:139|217:130,1,47.9999985351563,2|0,1:2|0:0,0:0:0:0:
403,177,132912,2,0,P|426:179|458:192,1,51.999997619629,2|0,0:3|0:0,0:0:0:0:
239,221,133070,2,0,P|217:227|186:244,1,55.9999982910157,2|0,3:2|0:0,0:0:0:0:
386,249,133228,2,0,P|404:271|420:310,1,60.0000022888184,8|0,0:0|0:0,0:0:0:0:
343,123,133386,6,0,P|318:80|251:43,1,120.000004577637,4|0,1:0|0:0,0:0:0:0:
376,233,133701,1,0,1:0:0:0:
201,99,133859,2,0,P|197:120|197:140,1,30.0000011444092,8|0,0:0|0:0,0:0:0:0:
260,299,134017,6,0,P|269:320|289:348,1,47.9999985351563,2|0,1:2|0:0,0:0:0:0:
367,216,134175,2,0,P|336:210|305:208,1,51.999997619629,2|0,0:3|0:0,0:0:0:0:
152,211,134333,2,0,P|129:219|102:240,1,55.9999982910157,2|0,3:2|0:0,0:0:0:0:
308,123,134491,2,0,P|277:142|254:168,1,60.0000022888184,8|0,0:0|0:0,0:0:0:0:
188,277,134649,6,0,P|190:326|232:390,1,120.000004577637,6|0,1:0|0:0,0:0:0:0:
249,174,134965,1,0,1:0:0:0:
346,377,135123,2,0,P|367:376|387:373,1,30.0000011444092,8|0,0:0|0:0,0:0:0:0:
413,202,135280,6,0,P|387:208|363:216,1,47.9999985351563,2|0,1:2|0:0,0:0:0:0:
260,299,135438,2,0,P|280:276|301:256,1,55.9999982910157,2|0,0:3|0:0,0:0:0:0:
362,76,135596,2,0,P|339:95|313:130,1,71.9999978027344,6|0,3:2|0:0,0:0:0:0:
172,192,135754,2,0,P|205:180|257:173,1,80,8|0,0:0|0:0,0:0:0:0:
257,0,135912,6,0,P|246:44|244:113,1,95.9999970703126,4|2,1:0|3:2,0:0:0:0:
285,353,136228,2,0,P|295:308|297:239,1,95.9999970703126,0|2,1:0|3:2,0:0:0:0:
77,206,136544,6,0,L|179:191,1,95.9999970703126,0|2,1:0|0:0,0:0:0:0:
461,229,136859,2,0,L|359:214,1,95.9999970703126,0|2,1:0|0:0,0:0:0:0:
170,165,137175,6,0,L|232:155,1,47.9999985351563,4|0,1:0|0:0,0:0:0:0:
368,188,137333,2,0,L|305:178,1,47.9999985351563,0|0,1:0|0:0,0:0:0:0:
179,268,137491,5,2,0:0:0:0:
218,340,137570,1,0,0:0:0:0:
288,372,137649,1,0,3:0:0:0:
358,360,137728,1,0,0:0:0:0:
408,315,137807,5,2,3:2:0:0:
429,256,137886,1,0,0:0:0:0:
420,200,137965,1,2,3:2:0:0:
390,156,138044,1,0,0:0:0:0:
351,131,138123,5,4,3:0:0:0:
318,122,138201,1,0,0:0:0:0:
293,122,138280,1,0,3:0:0:0:
278,124,138359,1,0,0:0:0:0:
268,126,138438,1,4,3:0:0:0:
260,129,138517,1,0,0:0:0:0:
252,132,138596,6,0,P|248:170|251:197,1,60.0000022888184,0|0,1:0|0:0,0:0:0:0:
351,131,138754,5,2,0:0:0:0:
295,61,138833,1,0,0:0:0:0:
215,40,138912,1,0,3:0:0:0:
143,66,138991,1,0,0:0:0:0:
97,123,139070,5,2,3:2:0:0:
86,189,139149,1,0,0:0:0:0:
106,247,139228,1,2,3:2:0:0:
147,288,139307,1,0,0:0:0:0:
192,307,139386,5,4,3:0:0:0:
229,310,139464,1,0,0:0:0:0:
256,305,139543,1,0,3:0:0:0:
272,301,139622,1,0,0:0:0:0:
280,296,139701,6,0,L|281:334,1,30.0000011444092,4|0,3:0|0:0,0:0:0:0:
358,262,139859,5,0,3:0:0:0:
341,237,139937,1,0,3:0:0:0:
317,219,140016,1,0,3:0:0:0:
288,211,140096,1,0,3:0:0:0:
187,190,140175,5,0,3:0:0:0:
209,150,140254,1,0,3:0:0:0:
245,122,140333,1,0,3:0:0:0:
287,107,140412,1,0,3:0:0:0:
392,58,140491,5,0,3:0:0:0:
353,25,140569,1,0,3:0:0:0:
306,6,140649,2,4,L|291:2,4,11.9999996337891,4|4|4|4|0,3:0|0:3|0:3|0:3|3:0,3:0:0:0:
294,4,140807,2,0,P|277:1|240:7,1,47.9999985351563,0|0,3:0|3:0,0:0:0:0:
423,201,140965,5,2,1:2:0:0:
440,207,141280,5,0,1:0:0:0:
458,213,141596,5,2,1:2:0:0:
458,213,141833,2,0,L|455:184,2,20,2|12|4,0:0|0:3|0:3,0:0:0:0:
433,288,142070,5,6,1:2:0:0:
372,335,142148,5,0,0:0:0:0:
296,341,142227,5,0,0:0:0:0:
227,307,142306,5,0,0:0:0:0:
205,233,142386,6,0,B|203:173|222:58|200:16|364:99|209:118,1,240,6|0,1:0|0:0,0:0:0:0:
127,235,142701,2,0,P|127:190|130:168,1,60.0000022888184,8|0,0:0|0:0,0:0:0:0:
313,22,142859,2,0,P|337:57|341:87,1,60.0000022888184,2|0,0:3|0:0,0:0:0:0:
309,210,143017,2,0,P|271:165|253:108,1,120.000004577637,2|8,0:0|0:3,0:0:0:0:
458,213,143333,2,0,L|377:213,1,60.0000022888184,8|0,0:0|0:0,0:0:0:0:
227,307,143491,6,0,B|251:286|251:286|261:293|261:293|291:274,4,60.0000022888184,2|0|0|0|0,0:0|0:0|0:0|0:0|1:0,0:0:0:0:
253,107,143807,2,0,B|265:77|265:77|278:79|278:79|297:50,4,60.0000022888184,2|0|0|0|8,0:0|0:0|0:0|0:0|0:0,0:0:0:0:
35,174,144123,2,0,L|65:51,1,120.000004577637,0|2,1:0|3:2,0:0:0:0:
210,296,144438,1,0,1:0:0:0:
218,302,144517,1,0,0:0:0:0:
227,307,144596,6,0,B|218:267|218:267|182:204|182:204|170:152,1,160,12|8,0:0|0:3,0:0:0:0:
61,238,144912,6,0,P|100:245|121:241,1,60.0000022888184,4|0,1:0|0:0,0:0:0:0:
3,79,145070,2,0,P|29:49|49:39,1,60.0000022888184
56,328,145228,2,0,P|92:344|114:345,1,60.0000022888184,8|0,0:0|0:0,0:0:0:0:
95,131,145386,6,0,P|67:141|44:160,1,60.0000022888184,6|0,1:0|0:0,0:0:0:0:
127,117,145465,2,0,P|98:108|68:110,1,60.0000022888184
161,124,145544,2,0,P|142:100|117:84,1,60.0000022888184
184,150,145623,2,0,P|183:120|172:92,1,60.0000022888184
188,184,145701,6,0,P|204:159|212:130,1,60.0000022888184,0|0,1:0|0:0,0:0:0:0:
239,282,145859,2,0,P|268:282|297:275,1,60.0000022888184,8|0,0:0|0:0,0:0:0:0:
417,131,146017,6,0,P|445:141|468:160,1,60.0000022888184,2|0,1:0|0:0,0:0:0:0:
385,117,146096,2,0,P|414:108|444:110,1,60.0000022888184
351,124,146175,2,0,P|370:100|395:84,1,60.0000022888184,0|0,1:0|0:0,0:0:0:0:
328,150,146254,2,0,P|329:120|340:92,1,60.0000022888184
324,184,146333,6,0,P|308:159|300:130,1,60.0000022888184,2|0,0:0|0:0,0:0:0:0:
95,131,146491,1,10,0:0:0:0:
71,207,146570,1,2,0:0:0:0:
93,259,146649,1,0,1:0:0:0:
103,290,146728,1,0,1:0:0:0:
100,313,146807,1,0,0:0:0:0:
95,326,146886,1,0,1:0:0:0:
90,333,146965,6,0,L|114:328,1,20,0|0,1:0|0:0,0:0:0:0:
297,274,147123,6,0,L|261:266,1,30.0000011444092,12|0,0:0|0:0,0:0:0:0:
148,192,147280,6,0,L|200:181,1,40,2|0,0:0|0:0,0:0:0:0:
339,92,147438,6,0,P|298:79|260:91,1,60.0000022888184,4|0,1:0|0:0,0:0:0:0:
156,56,147596,2,0,P|192:33|232:35,1,60.0000022888184
427,54,147754,2,0,P|395:24|356:18,1,60.0000022888184,8|0,0:0|0:0,0:0:0:0:
435,296,147912,2,0,P|450:231|437:175,1,120.000004577637,2|2,1:3|0:0,0:0:0:0:
272,293,148149,1,0,0:0:0:0:
265,290,148228,6,0,P|235:248|336:291,1,320,12|8,1:3|0:0,0:0:0:0:
173,160,148544,6,0,P|214:113|268:90,1,120.000004577637,4|0,1:0|1:0,0:0:0:0:
178,302,148859,1,2,0:0:0:0:
379,114,149017,1,8,0:0:0:0:
173,160,149175,6,0,B|161:140|161:140|144:138|144:138|130:113,1,60.0000022888184,0|0,1:3|0:0,0:0:0:0:
156,111,149254,2,0,B|172:123|172:123|188:118|188:118|207:131,1,60.0000022888184,2|0,1:3|0:0,0:0:0:0:
198,90,149333,6,0,B|182:73|182:73|165:74|165:74|147:53,1,60.0000022888184
171,45,149412,2,0,B|189:53|189:53|204:45|204:45|225:54,1,60.0000022888184
207,16,149491,6,0,L|179:89,1,60.0000022888184,2|0,1:2|0:0,0:0:0:0:
336,239,149649,2,0,L|315:183,1,60.0000022888184,8|0,0:0|0:0,0:0:0:0:
178,302,149807,2,0,L|156:358,1,60.0000022888184,10|0,0:3|0:0,0:0:0:0:
454,230,149965,6,0,B|411:237|411:237|372:232|372:232|335:239,1,120.000004577637,0|0,1:0|0:0,0:0:0:0:
161,363,150201,2,0,B|191:370|191:370|227:364,1,51.999997619629,2|8,1:0|0:0,0:0:0:0:
331,233,150359,1,2,0:0:0:0:
325,228,150438,2,0,B|300:222|300:222|270:227,1,40,0|0,1:3|0:0,0:0:0:0:
320,349,150596,6,0,B|337:349|337:349|348:343,1,30.0000011444092,0|0,1:0|0:0,0:0:0:0:
150,272,150754,6,0,B|126:263|126:263|115:253,1,40,0|0,1:0|0:0,0:0:0:0:
338,144,150912,6,0,B|370:123|370:123|396:87,1,60.0000022888184,8|0,0:0|0:0,0:0:0:0:
106,48,151070,6,0,B|95:91|95:91|104:169,1,120.000004577637,4|0,1:0|1:0,0:0:0:0:
382,105,151386,6,0,B|348:85|348:85|308:88,1,80,0|0,1:0|0:0,0:0:0:0:
103,166,151544,2,0,B|137:186|137:186|177:183,1,80,2|0,1:0|0:0,0:0:0:0:
379,13,151701,6,0,L|317:18,1,60.0000022888184,6|0,1:0|0:0,0:0:0:0:
396,6,152017,5,0,1:0:0:0:
274,277,152175,5,6,1:2:0:0:
334,322,152253,5,0,0:0:0:0:
411,327,152332,5,0,0:0:0:0:
479,291,152411,5,0,0:0:0:0:
510,220,152491,6,0,B|510:159|489:44|510:3|348:88|503:105,1,240,6|0,1:0|0:0,0:0:0:0:
411,327,152807,2,0,P|440:367|465:380,1,60.0000022888184,8|0,0:0|0:0,0:0:0:0:
274,277,152965,1,2,0:3:0:0:
257,301,153043,1,0,0:0:0:0:
250,330,153123,2,0,P|228:287|213:209,1,120.000004577637,2|8,0:0|0:3,0:0:0:0:
411,327,153438,2,0,L|346:330,1,60.0000022888184,8|0,0:0|0:0,0:0:0:0:
166,240,153596,6,0,B|190:219|190:219|200:226|200:226|230:207,4,60.0000022888184,2|0|0|0|0,0:0|0:0|0:0|0:0|1:0,0:0:0:0:
385,130,153912,2,0,B|361:107|361:107|350:115|350:115|321:96,4,60.0000022888184,2|0|0|0|8,0:0|0:0|0:0|0:0|0:0,0:0:0:0:
105,99,154228,2,0,L|213:33,1,120.000004577637,0|2,1:0|3:2,0:0:0:0:
178,354,154543,1,0,1:0:0:0:
169,360,154622,1,0,0:0:0:0:
160,365,154701,6,0,B|169:325|169:325|205:262|205:262|202:237|217:210,1,160,12|8,0:0|0:3,0:0:0:0:
374,244,155017,6,0,P|334:250|313:246,1,60.0000022888184,4|0,1:0|0:0,0:0:0:0:
435,70,155175,2,0,P|455:90|468:117,1,60.0000022888184,0|0,1:0|0:0,0:0:0:0:
421,320,155333,2,0,P|387:342|367:347,1,60.0000022888184,8|0,1:2|0:0,0:0:0:0:
339,136,155491,2,0,P|396:155|444:195,1,120.000004577637,6|0,1:0|0:0,0:0:0:0:
334,141,155807,2,0,L|336:81,1,60.0000022888184,2|0,1:2|0:0,0:0:0:0:
209,156,155965,2,0,L|213:216,1,60.0000022888184,8|0,0:0|0:0,0:0:0:0:
11,86,156123,2,0,P|67:67|127:69,1,120.000004577637,2|0,1:0|1:0,0:0:0:0:
72,285,156359,1,0,0:0:0:0:
77,289,156438,6,0,L|81:229,1,60.0000022888184,2|0,0:0|0:0,0:0:0:0:
330,145,156596,1,10,0:0:0:0:
354,221,156675,1,2,0:0:0:0:
332,273,156754,1,0,1:0:0:0:
322,304,156833,1,0,1:0:0:0:
325,327,156912,1,0,0:0:0:0:
330,340,156991,1,0,1:0:0:0:
335,347,157070,6,0,P|323:352|311:354,1,20,0|0,1:0|0:0,0:0:0:0:
168,318,157228,6,0,P|214:296|264:286,1,80,12|0,0:0|0:0,0:0:0:0:
467,301,157386,6,0,P|444:310|422:314,1,40,2|0,0:0|0:0,0:0:0:0:
145,214,157544,6,0,P|176:206|224:213,1,60.0000022888184,4|0,1:0|0:0,0:0:0:0:
470,138,157701,2,0,P|439:149|405:183,1,60.0000022888184,0|0,1:0|0:0,0:0:0:0:
149,118,157859,2,0,P|180:116|226:133,1,60.0000022888184,8|0,1:2|0:0,0:0:0:0:
409,60,158017,2,0,P|368:86|329:145,1,120.000004577637,2|2,1:3|0:0,0:0:0:0:
414,65,158333,2,0,L|410:-15,1,60.0000022888184,12|0,1:3|0:0,0:0:0:0:
324,139,158491,2,0,L|328:219,1,60.0000022888184,8|0,0:0|0:0,0:0:0:0:
472,335,158649,6,0,P|471:302|449:259,1,60.0000022888184,4|0,1:0|0:0,0:0:0:0:
504,285,158728,2,0,P|472:275|424:283,1,60.0000022888184
467,240,158807,2,0,P|448:267|440:314,1,60.0000022888184,0|0,1:0|0:0,0:0:0:0:
413,259,158886,2,0,P|433:285|475:306,1,60.0000022888184
415,317,158965,6,0,P|446:306|480:272,1,60.0000022888184,2|0,1:2|0:0,0:0:0:0:
470,138,159123,2,0,P|439:149|405:183,1,60.0000022888184,8|0,0:0|0:0,0:0:0:0:
192,301,159280,6,0,B|245:317|310:280|310:280|346:319|347:216|443:272,1,240,6|0,1:0|0:0,0:0:0:0:
202,376,159596,2,0,P|170:372|128:338,1,60.0000022888184,0|0,1:0|3:0,0:0:0:0:
218,228,159754,2,0,P|245:245|269:293,1,60.0000022888184,8|0,3:2|3:0,0:0:0:0:
85,303,159912,2,0,P|67:275|66:221,1,60.0000022888184,0|0,3:2|3:0,0:0:0:0:
174,58,160070,6,0,P|180:105|149:175,1,120.000004577637,4|2,1:0|0:0,0:0:0:0:
316,173,160386,2,0,P|316:113|286:62,1,120.000004577637,8|2,1:2|0:0,0:0:0:0:
389,17,160701,2,0,P|438:52|463:106,1,120.000004577637,0|2,1:2|0:0,0:0:0:0:
469,177,161017,1,8,1:2:0:0:
466,182,161096,1,0,0:0:0:0:
463,187,161175,1,2,0:0:0:0:
460,192,161254,1,0,0:0:0:0:
389,232,161333,5,0,1:0:0:0:
345,212,161412,1,0,0:0:0:0:
316,173,161491,1,2,0:0:0:0:
309,123,161570,1,0,0:0:0:0:
405,138,161649,5,8,1:2:0:0:
384,182,161728,1,0,0:0:0:0:
345,212,161807,1,2,0:0:0:0:
294,215,161886,1,0,0:0:0:0:
309,123,161965,5,0,1:2:0:0:
353,145,162044,1,0,0:0:0:0:
384,182,162123,1,2,0:0:0:0:
389,232,162202,1,0,0:0:0:0:
301,261,162280,6,0,P|293:237|294:213,1,47.9999985351563,8|0,1:2|0:0,0:0:0:0:
503,262,162438,2,0,P|496:289|476:316,1,47.9999985351563,2|0,0:0|0:0,0:0:0:0:
350,119,162596,6,0,L|389:232,1,120.000004577637,0|2,1:0|0:0,0:0:0:0:
175,69,162912,2,0,L|214:182,1,120.000004577637,8|2,1:2|0:0,0:0:0:0:
0,18,163228,2,0,L|39:131,1,120.000004577637,0|2,1:2|0:0,0:0:0:0:
66,200,163544,1,8,1:2:0:0:
69,205,163623,1,0,0:0:0:0:
72,210,163702,1,2,0:0:0:0:
75,215,163781,1,0,0:0:0:0:
136,253,163860,5,0,1:0:0:0:
181,234,163939,1,0,0:0:0:0:
211,195,164017,1,2,3:2:0:0:
218,146,164096,1,0,3:0:0:0:
211,195,164176,5,8,1:2:0:0:
231,239,164255,1,0,0:0:0:0:
270,270,164334,1,2,0:0:0:0:
231,239,164413,1,0,0:0:0:0:
181,234,164492,5,0,1:0:0:0:
136,253,164571,1,0,0:0:0:0:
107,291,164649,1,2,0:0:0:0:
136,329,164728,1,0,0:0:0:0:
181,348,164807,6,0,P|205:331|221:301,1,47.9999985351563,8|0,1:2|0:0,0:0:0:0:
30,284,164965,6,0,P|32:312|48:342,1,60.0000022888184,2|0,0:0|0:0,0:0:0:0:
136,170,165123,6,0,P|107:144|70:128,1,80,2|0,1:0|0:0,0:0:0:0:
270,270,165280,1,0,3:0:0:0:
274,268,165359,1,0,3:0:0:0:
278,266,165438,1,0,3:0:0:0:
282,264,165517,1,0,3:0:0:0:
286,262,165596,1,0,3:0:0:0:
290,260,165675,1,0,3:0:0:0:
294,258,165754,6,0,L|302:318,1,60.0000022888184,0|0,1:0|0:0,0:0:0:0:
218,146,165991,2,0,L|200:204,1,60.0000022888184,2|0,1:0|0:0,0:0:0:0:
196,12,166228,2,0,L|155:56,1,60.0000022888184,0|0,1:0|0:0,0:0:0:0:
408,95,166386,6,0,P|374:78|307:78,1,95.9999970703126,6|0,1:0|0:0,0:0:0:0:
446,360,166544,5,2,0:0:0:0:
472,339,166622,1,0,0:0:0:0:
484,309,166701,1,2,0:0:0:0:
479,276,166780,1,0,0:0:0:0:
433,219,166859,5,0,0:0:0:0:
402,209,166938,1,2,0:0:0:0:
370,218,167017,1,0,1:0:0:0:
399,295,167095,5,0,0:0:0:0:
363,263,167175,1,0,3:0:0:0:
328,232,167253,1,0,3:0:0:0:
281,228,167332,1,0,3:0:0:0:
240,253,167411,1,0,3:0:0:0:
222,298,167491,1,0,3:0:0:0:
233,344,167570,1,2,3:2:0:0:
269,376,167649,6,2,B|335:412|421:348|376:251|312:247|312:247|352:173|352:173|283:113|146:209|146:209|204:139|151:72|151:72|91:130|146:209|146:209|184:273|124:319|124:319|26:308|11:154|36:126,1,1220,4|0,1:0|0:0,0:1:0:0:
34,127,172544,1,2,0:0:0:0:
37,121,172623,1,0,0:0:0:0:
39,115,172701,6,2,B|59:73|82:2|136:-4|158:-2|158:-2|192:0|225:29|237:67|241:81|241:81|302:62|402:93|419:144|419:144|397:147|352:173|352:173|312:247|312:247|273:234|239:261|239:261|238:302|220:388|116:388|89:344|89:344|124:319|124:319|184:273|146:209|146:209|91:130|151:72|151:72|204:139|146:209,1,1433.6000175,4|4,0:1|0:1,0:1:0:0:
148,206,178070,5,0,0:0:0:0:
148,206,178386,1,8,0:0:0:0:
148,206,178701,1,0,0:0:0:0:
235,188,179017,1,0,0:0:0:0:
148,206,179333,2,2,L|243:187,1,89.60000109375,0|8,0:0|0:0,0:0:0:0:
243,194,179965,1,0,0:0:0:0:
250,199,180280,5,2,1:2:0:0:
250,199,180596,1,0,0:0:0:0:
250,199,180912,1,8,0:0:0:0:
250,199,181228,1,0,0:0:0:0:
338,181,181544,1,0,0:0:0:0:
250,199,181859,2,2,L|345:180,1,89.60000109375,0|8,0:0|0:0,0:0:0:0:
250,199,182491,1,8,0:0:0:0:
345,187,182807,5,2,1:2:0:0:
352,192,183122,1,0,0:0:0:0:
352,192,183438,1,8,0:0:0:0:
352,192,183755,1,0,0:0:0:0:
440,174,184070,1,0,0:0:0:0:
352,192,184386,2,2,L|447:173,1,89.60000109375,0|8,0:0|0:0,0:0:0:0:
440,174,185017,1,0,0:0:0:0:
440,174,185333,6,0,L|428:270,1,89.60000109375,2|0,1:2|0:0,0:0:0:0:
429,263,185965,1,8,0:0:0:0:
429,263,186280,1,0,0:0:0:0:
363,276,186596,5,0,1:0:0:0:
429,263,186912,2,2,L|356:278,1,67.2000008203125,0|0,0:0|0:0,0:0:0:0:
267,239,187228,6,0,P|271:219|282:211,1,26.6666666666667,8|0,0:0|0:0,0:0:0:0:
236,234,187333,2,0,P|249:219|263:218,1,26.6666666666667
217,207,187438,2,0,P|236:201|248:208,1,26.6666666666667
215,174,187544,6,0,P|234:180|241:191,1,26.6666666666667
231,145,187649,2,0,P|244:160|243:174,1,26.6666666666667
259,128,187754,2,0,P|262:148|254:159,1,26.6666666666667
291,128,187859,5,0,1:0:0:0:
291,128,188175,6,0,P|256:133|228:155,1,60
320,63,188491,2,0,P|355:66|384:86,1,60,2|0,0:0|0:0,0:0:0:0:
368,204,188807,2,0,P|371:169|391:140,1,60
439,193,189123,2,0,L|442:279,1,80,0|2,0:0|0:0,0:0:0:0:
464,129,189754,2,0,L|466:49,1,80,0|2,0:0|0:0,0:0:0:0:
265,43,190386,6,0,P|295:60|330:60,1,60
203,75,190701,2,0,P|172:92|137:92,1,60
111,158,191017,2,0,P|144:167|169:192,1,60,2|0,2:1|0:0,0:0:0:0:
45,136,191333,2,0,P|36:101|12:76,1,60
17,231,191649,2,0,P|47:252|106:255,1,80,2|0,0:0|0:0,0:0:0:0:
210,250,192123,1,0,0:0:0:0:
208,249,192201,1,0,0:0:0:0:
206,248,192280,2,0,P|224:279|276:307,1,80,2|0,0:0|0:0,0:0:0:0:
399,267,192755,1,0,0:0:0:0:
397,266,192833,1,0,0:0:0:0:
395,265,192912,6,0,P|398:301|433:348,1,80,2|0,0:0|0:0,0:0:0:0:
420,337,193544,1,0,0:0:0:0:
420,337,193701,1,0,0:0:0:0:
488,293,193859,1,0,0:0:0:0:
395,265,194017,1,0,0:0:0:0:
463,220,194175,2,0,P|478:189|476:154,1,60,2|0,0:0|0:0,0:0:0:0:
466,96,194491,2,0,P|448:69|419:54,1,53.3333333333333,0|0,3:0|0:0,0:0:0:0:
367,32,194754,1,0,0:0:0:0:
362,31,194807,2,0,P|326:33|296:53,1,60
249,86,195123,2,0,P|232:118|235:154,1,60,0|0,3:0|0:0,0:0:0:0:
285,188,195438,6,0,P|301:220|303:267,1,80,2|0,0:0|0:0,0:0:0:0:
303,263,196070,1,0,0:0:0:0:
303,263,196386,6,0,P|319:226|318:187,2,80,0|2|0,0:0|3:0|0:0,0:0:0:0:
303,263,197333,2,0,P|332:236|347:201,1,60,4|0,0:3|0:0,0:0:0:0:
408,192,197649,2,0,P|417:220|416:250,1,60
448,314,197965,6,0,P|484:285|508:246,1,80,2|0,0:0|0:0,0:0:0:0:
311,366,198596,2,0,P|357:363|399:345,1,80,8|0,0:0|0:0,0:0:0:0:
168,330,199070,1,0,0:0:0:0:
189,345,199228,1,2,2:1:0:0:
213,356,199386,1,0,0:0:0:0:
239,362,199544,2,2,L|224:269,1,80,0|8,0:0|0:0,0:0:0:0:
226,283,200175,1,0,0:0:0:0:
68,312,200333,1,0,3:0:0:0:
66,313,200412,1,0,3:0:0:0:
64,314,200491,6,0,P|28:285|4:246,1,80,2|0,2:3|0:0,0:0:0:0:
201,366,201122,2,0,P|155:363|113:345,1,80,8|0,0:0|0:0,0:0:0:0:
344,330,201596,1,0,0:0:0:0:
323,345,201754,1,2,0:0:0:0:
299,356,201912,1,0,0:0:0:0:
273,362,202070,2,2,L|288:269,1,80,0|8,0:0|0:0,0:0:0:0:
286,283,202701,1,8,0:0:0:0:
373,259,202859,1,0,0:0:0:0:
219,232,203017,6,0,P|220:192|237:156,1,80,2|0,2:1|0:0,0:0:0:0:
144,52,203649,2,0,P|143:91|159:128,1,80,8|0,0:0|0:0,0:0:0:0:
300,61,204123,1,0,0:0:0:0:
273,65,204280,1,2,0:0:0:0:
247,70,204438,1,0,0:0:0:0:
221,75,204596,2,2,L|311:95,1,80,0|8,0:0|0:0,0:0:0:0:
299,92,205228,1,0,0:0:0:0:
376,265,205386,1,0,3:0:0:0:
378,264,205465,1,0,3:0:0:0:
380,263,205544,6,0,P|379:223|362:187,1,80,2|0,2:3|0:0,0:0:0:0:
455,83,206175,2,0,P|456:122|440:159,1,80,8|0,0:0|0:0,0:0:0:0:
299,92,206650,1,0,0:0:0:0:
326,96,206807,1,4,3:0:0:0:
352,101,206965,1,0,0:0:0:0:
378,106,207123,2,2,L|273:129,1,103.999995239258,0|10,0:0|0:0,0:0:0:0:
378,106,207755,1,8,0:0:0:0:
247,232,208070,5,2,0:0:0:0:
209,165,208386,1,0,0:0:0:0:
276,128,208701,1,0,0:0:0:0:
312,194,209017,2,0,L|338:242,1,40
247,232,209333,2,0,L|273:280,1,40,2|0,0:1|0:0,0:0:0:0:
182,270,209649,2,0,L|220:340,1,80
220,340,210280,1,0,0:0:0:0:
91,296,210438,1,0,3:0:0:0:
89,295,210517,1,0,3:0:0:0:
87,294,210596,5,2,0:3:0:0:
109,221,210911,1,0,0:0:0:0:
160,164,211227,1,0,0:0:0:0:
231,136,211544,2,0,P|237:165|232:188,1,40
305,220,211859,2,0,P|304:200|309:180,1,40,2|0,0:0|0:0,0:0:0:0:
388,133,212175,2,0,P|385:184|375:210,1,80
375,211,212807,1,0,0:0:0:0:
235,243,212965,1,0,3:0:0:0:
233,244,213044,1,4,0:3:0:0:
233,244,215017,6,0,P|246:184|301:128,1,120,2|0,0:0|0:0,0:0:0:0:
279,67,215333,6,0,P|219:102|216:172,1,143.999995605469,4|0,0:0|0:0,0:0:0:0:
215,170,215649,6,0,L|159:194,1,60.0000022888184,0|0,1:0|0:0,0:0:0:0:
308,244,215807,6,0,L|364:268,1,60.0000022888184,0|0,1:0|0:0,0:0:0:0:
251,318,215965,6,0,L|195:342,1,60.0000022888184,2|0,1:0|0:0,0:0:0:0:
420,320,216123,5,4,0:3:0:0:
437,289,216201,1,4,0:3:0:0:
439,253,216280,1,2,0:3:0:0:
426,220,216359,1,0,0:0:0:0:
399,197,216438,2,0,L|471:192,1,60.0000022888184,2|0,1:2|0:0,0:0:0:0:
215,170,216596,2,0,L|155:165,1,60.0000022888184,0|0,1:0|0:0,0:0:0:0:
412,106,216754,5,4,1:0:0:0:
411,107,216794,5,2,0:0:0:0:
409,107,216833,6,0,B|348:95|348:95|308:101|308:101|243:88,1,160
70,113,217070,2,0,P|107:97|100:33,1,80,0|0,1:0|0:0,0:0:0:0:
0,72,217228,1,0,3:0:0:0:
135,232,217386,2,0,P|161:201|128:146,1,80,0|0,1:0|0:0,0:0:0:0:
54,224,217544,1,0,3:0:0:0:
242,312,217701,2,0,P|253:273|200:237,1,80,0|0,1:0|0:0,0:0:0:0:
165,339,217859,2,0,P|181:368|210:386,1,60.0000022888184,4|0,3:2|0:0,0:0:0:0:
315,193,218017,2,0,P|291:174|262:168,1,60.0000022888184,2|0,1:2|0:0,0:0:0:0:
417,372,218175,6,0,L|411:299,1,60.0000022888184,4|0,1:0|0:0,0:0:0:0:
324,270,218333,6,0,L|329:211,1,60.0000022888184,0|0,1:0|0:0,0:0:0:0:
240,168,218491,6,0,L|235:89,1,60.0000022888184,0|0,1:0|0:0,0:0:0:0:
83,196,218649,5,4,3:3:0:0:
122,217,218727,1,4,0:3:0:0:
169,220,218806,1,2,3:3:0:0:
211,203,218885,1,0,0:0:0:0:
240,168,218965,2,0,L|246:251,1,60.0000022888184,0|0,1:0|0:0,0:0:0:0:
417,372,219123,2,0,L|411:299,1,60.0000022888184,0|0,1:0|0:0,0:0:0:0:
309,77,219280,5,4,1:0:0:0:
308,78,219320,5,2,0:0:0:0:
307,79,219359,6,0,B|310:121|310:121|326:168|326:168|331:241,1,133.333333333333
298,280,219438,5,0,1:0:0:0:
267,297,219516,1,0,0:0:0:0:
231,299,219595,1,4,0:3:0:0:
198,286,219674,1,4,0:3:0:0:
244,227,219754,5,0,3:0:0:0:
262,259,219833,1,2,3:0:0:0:
267,297,219911,1,2,3:0:0:0:
254,332,219991,1,2,3:0:0:0:
198,286,220070,5,2,3:2:0:0:
149,266,220149,1,2,3:2:0:0:
95,269,220228,1,0,3:0:0:0:
49,294,220306,1,0,3:0:0:0:
124,333,220386,5,2,1:0:0:0:
149,266,220465,5,0,1:0:0:0:
142,192,220544,5,2,1:2:0:0:
106,132,220623,5,2,1:2:0:0:
44,93,220701,6,0,P|32:129|39:163,1,60.0000022888184,4|0,1:0|0:0,0:0:0:0:
74,2,221017,2,0,P|36:9|10:32,1,60.0000022888184
252,54,221333,2,0,L|124:57,1,120.000004577637,2|0,0:0|0:0,0:0:0:0:
303,138,221807,2,0,L|367:139,1,60.0000022888184,2|0,0:0|1:0,0:0:0:0:
512,213,222123,1,2,0:0:0:0:
503,213,222201,2,0,L|439:214,1,60.0000022888184
309,311,222438,2,0,P|346:293|376:295,1,60.0000022888184
164,213,222754,2,0,P|200:231|236:302,1,120.000004577637,2|0,0:0|0:0,0:0:0:0:
70,338,223228,6,0,L|150:320,1,60.0000022888184,2|0,0:0|0:0,0:0:0:0:
222,226,223544,2,0,L|142:208,1,60.0000022888184
293,151,223859,2,0,P|238:127|181:140,1,120.000004577637,2|0,0:0|0:0,0:0:0:0:
381,269,224333,2,0,P|346:285|311:282,1,60.0000022888184,2|0,0:0|1:0,0:0:0:0:
435,171,224649,1,2,0:0:0:0:
427,167,224728,2,0,P|388:166|358:184,1,60.0000022888184
222,226,224965,2,0,L|281:225,1,60.0000022888184
144,281,225280,2,0,L|235:321,1,90.0000034332277,2|0,0:0|0:0,0:0:0:0:
50,297,225596,6,0,L|109:365,1,90.0000034332277,2|0,0:0|0:0,0:0:0:0:
243,326,225912,2,0,P|213:338|179:388,1,90.0000034332277
155,175,226228,2,0,P|172:202|227:227,1,90.0000034332277
122,262,226544,1,0,0:0:0:0:
152,163,226701,5,2,0:0:0:0:
91,123,226859,1,0,0:0:0:0:
90,194,227017,1,0,1:0:0:0:
286,110,227175,5,2,0:0:0:0:
271,38,227333,1,0,0:0:0:0:
220,88,227491,1,0,0:0:0:0:
418,167,227649,5,6,0:0:0:0:
458,105,227807,1,0,0:0:0:0:
387,105,227965,1,0,0:0:0:0:
471,300,228123,5,2,0:0:0:0:
465,299,228201,1,0,0:0:0:0:
459,299,228280,2,0,P|387:308|332:323,1,120.000004577637,2|0,0:0|0:0,0:0:0:0:
173,287,228754,2,0,P|245:278|300:263,1,120.000004577637
4,254,229228,1,2,0:0:0:0:
9,266,229544,5,0,1:0:0:0:
13,278,229859,6,0,P|34:298|95:316,1,90.0000034332277
96,207,230175,6,0,L|68:204,1,20.0000007629395,2|0,0:0|0:0,0:0:0:0:
112,231,230280,2,0,L|123:256,1,20.0000007629395
125,205,230386,2,0,L|141:182,1,20.0000007629395
207,221,230491,6,0,L|185:237,1,20.0000007629395
236,227,230596,2,0,L|261:235,1,20.0000007629395,0|2,0:0|1:2,0:0:0:0:
227,199,230702,2,0,L|222:170,1,20.0000007629395
294,153,230807,6,0,P|330:187|343:244,1,80,4|2,1:0|0:3,0:0:0:0:
404,315,231123,2,0,P|422:268|409:211,1,80,0|2,1:0|0:3,0:0:0:0:
242,349,231438,2,0,L|331:346,1,80,2|2,1:2|0:3,0:0:0:0:
128,351,231754,1,0,1:0:0:0:
242,213,231912,2,0,L|293:152,1,80,6|0,0:3|1:0,0:0:0:0:
142,129,232228,1,6,0:3:0:0:
141,121,232307,2,0,L|135:80,1,40,0|0,0:0|1:0,0:0:0:0:
343,91,232544,2,0,P|321:126|291:153,1,80,2|0,0:3|1:0,0:0:0:0:
321,346,232859,2,0,P|331:305|329:265,1,80,6|0,0:3|1:0,0:0:0:0:
61,273,233175,1,2,0:3:0:0:
65,279,233254,1,0,3:0:0:0:
69,285,233333,6,0,L|156:270,1,80,0|2,1:0|0:3,0:0:0:0:
321,346,233649,2,0,L|234:331,1,80,0|2,1:0|0:3,0:0:0:0:
411,231,233965,2,0,P|412:270|402:309,1,80,2|2,1:2|0:3,0:0:0:0:
248,220,234280,1,0,1:0:0:0:
486,207,234438,2,0,P|451:224|411:231,1,80,6|0,0:3|1:0,0:0:0:0:
291,137,234754,1,6,0:3:0:0:
288,129,234833,2,0,P|287:100|295:71,1,40,0|0,0:0|1:0,0:0:0:0:
473,52,235070,2,0,L|381:40,1,80,2|0,0:3|1:0,0:0:0:0:
181,184,235386,2,0,L|193:92,1,80,6|0,0:3|1:0,0:0:0:0:
73,231,235701,2,0,L|79:185,1,40,2|0,0:3|0:0,0:0:0:0:
57,364,235859,5,4,1:0:0:0:
60,369,236017,5,2,1:3:0:0:
95,377,236096,1,0,1:0:0:0:
130,380,236175,1,0,1:0:0:0:
165,377,236254,1,0,1:0:0:0:
199,365,236333,1,2,1:3:0:0:
229,346,236412,1,0,1:0:0:0:
258,325,236491,1,0,1:0:0:0:
288,306,236570,1,0,1:0:0:0:
322,294,236649,1,2,1:3:0:0:
357,291,236728,1,0,1:0:0:0:
392,298,236807,1,0,1:0:0:0:
182,288,236965,5,2,3:0:0:0:
400,158,237123,5,4,1:0:0:0:
397,163,237280,5,2,1:3:0:0:
382,195,237359,1,0,1:0:0:0:
375,230,237438,1,0,1:0:0:0:
379,265,237517,1,0,1:0:0:0:
392,298,237596,1,2,1:3:0:0:
297,63,237754,5,4,1:0:0:0:
292,66,237912,5,2,1:3:0:0:
260,81,237990,1,0,1:0:0:0:
225,88,238069,1,0,1:0:0:0:
190,84,238148,1,0,1:0:0:0:
157,71,238227,1,2,1:3:0:0:
413,42,238386,5,0,1:0:0:0:
284,180,238544,1,2,1:3:0:0:
387,275,238701,5,0,1:0:0:0:
400,159,238859,1,2,1:3:0:0:
271,297,239017,5,0,1:0:0:0:
263,64,239175,1,2,1:3:0:0:
168,167,239332,5,0,1:0:0:0:
284,180,239490,1,2,1:3:0:0:
146,51,239650,5,0,1:0:0:0:
138,53,239729,1,0,1:0:0:0:
133,60,239808,1,2,1:3:0:0:
134,67,239887,1,0,1:0:0:0:
140,73,239966,1,0,1:0:0:0:
148,74,240045,1,0,1:0:0:0:
154,69,240123,1,2,1:3:0:0:
156,61,240202,1,0,1:0:0:0:
153,55,240280,6,0,P|127:84|114:135,1,80,4|2,1:0|0:0,0:0:0:0:
324,246,240438,2,0,P|311:209|273:172,1,80,10|8,0:3|0:3,0:0:0:0:
41,154,240596,5,2,1:0:0:0:
54,224,240675,5,0,3:0:0:0:
114,293,240754,5,0,3:0:0:0:
249,330,240833,5,2,0:0:0:0:
418,317,240912,6,0,B|446:262|446:262|453:187,1,120.000004577637,6|0,1:0|0:0,0:0:0:0:
384,49,241149,2,0,L|376:130,1,60.0000022888184,2|8,1:0|0:0,0:0:0:0:
356,184,241307,5,0,0:0:0:0:
319,189,241386,1,2,0:0:0:0:
283,179,241465,1,4,0:0:0:0:
220,227,241544,5,0,0:0:0:0:
184,217,241623,1,0,0:0:0:0:
147,222,241702,1,0,1:2:0:0:
116,240,241780,1,2,0:0:0:0:
53,288,241859,6,0,L|48:311,2,13.3333333333333,8|0|0,0:0|0:0|0:0,0:0:0:0:
126,319,242017,1,0,0:0:0:0:
137,326,242096,2,0,L|164:323,1,20,0|0,0:0|1:0,0:0:0:0:
236,322,242254,5,0,0:0:0:0:
272,313,242333,1,2,0:0:0:0:
309,319,242412,1,0,0:0:0:0:
356,255,242491,5,8,0:0:0:0:
393,255,242570,1,0,0:0:0:0:
428,242,242649,1,2,1:0:0:0:
453,217,242727,1,2,0:0:0:0:
503,154,242807,6,0,L|502:139,2,10,2|0|0,0:0|0:0|0:0,0:0:0:0:
453,217,242965,1,2,1:0:0:0:
418,222,243043,1,0,0:0:0:0:
382,212,243122,1,8,0:0:0:0:
334,176,243201,1,8,0:3:0:0:
297,107,243280,1,2,0:0:0:0:
249,159,243359,1,0,0:0:0:0:
158,154,243438,5,0,1:0:0:0:
262,22,243517,5,2,0:0:0:0:
266,22,243596,5,2,0:0:0:0:
262,18,243675,5,0,1:0:0:0:
258,22,243754,5,10,0:0:0:0:
262,26,243833,5,2,0:0:0:0:
177,62,243912,5,6,0:1:0:0:
165,67,243991,2,0,P|152:52|144:7,1,60.0000022888184,2|0,0:0|0:0,0:0:0:0:
68,40,244149,5,2,0:0:0:0:
60,76,244228,1,0,1:0:0:0:
68,113,244307,2,0,P|76:122|89:130,1,20,0|8,0:0|0:0,0:0:0:0:
158,154,244465,5,2,0:0:0:0:
138,185,244544,1,0,0:0:0:0:
108,207,244623,1,2,0:0:0:0:
33,230,244701,6,0,L|17:225,2,13.3333333333333,0|0|0,1:0|0:0|0:0,0:0:0:0:
90,283,244859,5,0,0:0:0:0:
116,309,244938,1,0,0:0:0:0:
128,344,245017,1,8,0:0:0:0:
195,301,245096,5,0,0:0:0:0:
231,291,245175,1,2,1:0:0:0:
268,296,245254,1,0,1:0:0:0:
261,217,245333,5,0,0:0:0:0:
271,181,245412,1,0,1:0:0:0:
295,152,245491,2,0,L|297:171,2,13.3333333333333,0|0|0,1:0|0:0|0:0,0:0:0:0:
296,166,245649,6,0,L|291:103,1,40,8|2,0:0|1:0,0:0:0:0:
488,211,245807,2,0,L|483:148,1,40,0|0,1:0|1:0,0:0:0:0:
371,351,245965,6,0,B|362:303|384:271|384:271|380:202|380:202|408:154|378:85,1,240,6|0,1:0|0:0,0:0:0:0:
184,130,246280,5,8,0:0:0:0:
220,128,246359,1,0,0:0:0:0:
256,127,246438,1,0,0:0:0:0:
292,126,246517,1,2,0:0:0:0:
316,54,246596,5,2,3:2:0:0:
259,8,246675,1,2,3:2:0:0:
186,7,246754,1,0,1:0:0:0:
132,55,246833,1,0,0:0:0:0:
110,123,246912,5,8,0:0:0:0:
91,153,246991,1,0,0:0:0:0:
60,172,247070,1,2,0:0:0:0:
25,180,247149,1,2,0:0:0:0:
38,103,247228,6,0,P|72:166|59:210,1,120.000004577637,0|0,1:0|0:0,0:0:0:0:
166,208,247465,6,0,P|84:148|74:234,1,200,2|0,1:0|0:0,0:0:0:0:
169,211,247701,5,4,1:0:0:0:
112,189,247780,1,0,3:0:0:0:
60,209,247859,1,2,3:1:0:0:
6,190,247938,6,0,P|59:258|112:188,1,200,2|2,1:0|0:1,0:0:0:0:
50,48,248175,6,0,B|42:72|42:72|43:126,1,60.0000022888184,8|8,0:0|0:3,0:0:0:0:
171,213,248333,2,0,B|179:189|179:189|178:135,1,60.0000022888184,2|2,1:0|0:0,0:0:0:0:
26,333,248491,1,6,1:0:0:0:
224,347,248649,5,2,0:0:0:0:
306,332,248728,5,2,0:0:0:0:
365,271,248808,5,8,0:0:0:0:
376,188,248887,5,0,0:0:0:0:
337,114,248966,5,0,1:0:0:0:
261,77,249044,5,0,0:0:0:0:
285,253,249123,5,6,0:0:0:0:
365,271,249202,5,2,0:0:0:0:
443,237,249280,5,0,1:0:0:0:
486,165,249359,5,0,0:0:0:0:
479,82,249438,5,10,0:0:0:0:
423,18,249517,5,0,0:0:0:0:
376,188,249596,6,0,P|370:211|379:255,1,60.0000022888184,2|0,0:1|0:0,0:0:0:0:
261,77,249754,6,0,P|296:71|255:97,1,148.148148148148,4|0,1:0|0:0,0:0:0:0:
251,71,249859,6,0,P|273:56|252:88,1,115.942028985507,2|0,1:2|0:0,0:0:0:0:
237,70,249965,6,0,P|248:54|241:80,1,80.0000030517579,2|0,1:3|0:0,0:0:0:0:
224,70,250070,6,0,P|230:58|227:77,1,66.6666666666667,10|0,1:3|0:0,0:0:0:0:
213,73,250175,1,2,0:0:0:0:
204,81,250228,6,0,B|276:126|310:59|369:79|369:79|438:51|446:93|461:78|480:82|480:82|511:136|429:167,1,360.000013732911,6|0,1:0|0:0,1:0:0:0:
232,166,250544,6,0,P|203:158|153:129,1,60.0000022888184,2|0,1:0|0:0,0:0:0:0:
75,40,250701,5,0,3:0:0:0:
68,111,250780,5,2,3:2:0:0:
61,182,250859,5,2,3:2:0:0:
54,253,250938,5,2,3:2:0:0:
48,324,251017,6,0,L|81:272,1,60.0000022888184,4|0,1:0|0:0,0:0:0:0:
176,145,251175,1,0,0:0:0:0:
182,155,251254,2,0,L|215:207,1,60.0000022888184,2|0,0:0|1:0,0:0:0:0:
304,338,251412,1,0,0:0:0:0:
313,332,251491,2,0,L|364:298,1,60.0000022888184,2|0,0:0|0:0,0:0:0:0:
462,126,251649,1,0,1:0:0:0:
453,132,251728,2,0,L|402:166,1,60.0000022888184,2|0,0:0|0:0,0:0:0:0:
413,363,251886,1,0,0:0:0:0:
432,340,251964,1,2,1:2:0:0:
443,312,252043,1,0,0:0:0:0:
443,282,252122,1,4,1:0:0:0:
433,254,252201,6,0,B|395:240|377:230|377:230|336:212|311:238,1,120.000004577637,2|0,0:0|0:0,0:0:0:0:
80,273,252438,1,0,0:0:0:0:
92,272,252517,2,0,L|153:269,1,60.0000022888184,2|0,0:0|1:0,0:0:0:0:
176,145,252675,1,0,0:0:0:0:
186,139,252754,2,0,L|240:110,1,60.0000022888184,2|0,0:0|0:0,0:0:0:0:
321,230,252912,1,0,1:0:0:0:
328,240,252991,2,0,L|364:289,1,60.0000022888184,2|0,0:0|1:0,0:0:0:0:
423,74,253149,1,0,0:0:0:0:
395,63,253228,1,2,1:0:0:0:
365,63,253307,1,0,0:0:0:0:
337,73,253386,6,0,B|321:94|318:116|312:126|312:126|325:151|302:152|310:162|314:190|314:190|322:191|322:191|314:194|314:194|331:218|314:247,1,180.000006866455,4|0,1:0|0:0,0:0:0:0:
223,342,253701,5,0,0:0:0:0:
223,342,253780,1,0,0:0:0:0:
200,334,253859,1,0,1:0:0:0:
223,342,253938,1,0,0:0:0:0:
200,334,254017,1,0,0:0:0:0:
181,318,254096,1,0,0:0:0:0:
167,298,254175,5,0,1:0:0:0:
149,266,254254,1,0,0:0:0:0:
118,282,254333,1,0,0:0:0:0:
81,279,254412,1,0,0:0:0:0:
103,210,254491,5,0,1:0:0:0:
121,178,254570,1,0,0:0:0:0:
152,194,254649,1,0,0:0:0:0:
189,191,254728,1,0,0:0:0:0:
167,122,254807,6,0,P|107:106|51:169,1,120.000004577637,0|0,1:0|0:0,0:0:0:0:
189,191,255044,2,0,L|246:170,1,60.0000022888184,2|0,0:0|1:0,0:0:0:0:
391,257,255201,1,0,0:0:0:0:
385,250,255280,6,0,B|339:210|278:325|206:223,1,160,2|0,0:1|1:0,0:0:0:0:
356,346,255517,2,0,L|469:304,1,120.000004577637,2|0,0:0|0:0,0:0:0:0:
225,327,255754,2,0,P|196:313|165:272,1,60.0000022888184,0|0,1:0|0:0,0:0:0:0:
396,178,255912,2,0,P|425:192|456:233,1,60.0000022888184,2|0,0:0|0:0,0:0:0:0:
222,48,256070,5,4,1:0:0:0:
228,50,256228,5,2,0:0:0:0:
300,89,256307,1,0,0:0:0:0:
332,159,256386,1,0,3:0:0:0:
320,229,256465,1,0,0:0:0:0:
275,279,256544,5,2,3:2:0:0:
216,300,256623,1,0,0:0:0:0:
160,291,256702,1,2,3:2:0:0:
116,261,256781,1,0,0:0:0:0:
91,222,256859,5,4,3:0:0:0:
82,189,256938,1,0,0:0:0:0:
82,164,257017,1,0,3:0:0:0:
84,149,257096,1,0,0:0:0:0:
86,139,257175,1,4,3:0:0:0:
89,131,257254,1,0,0:0:0:0:
92,123,257333,5,0,1:0:0:0:
95,118,257491,5,2,0:0:0:0:
91,129,257570,1,0,0:0:0:0:
87,140,257649,1,0,3:0:0:0:
84,153,257728,1,0,0:0:0:0:
81,174,257807,5,2,3:2:0:0:
81,207,257886,1,0,0:0:0:0:
93,252,257964,1,2,3:2:0:0:
127,305,258043,1,0,0:0:0:0:
187,345,258122,5,4,3:0:0:0:
262,358,258201,1,0,0:0:0:0:
342,329,258280,1,0,3:0:0:0:
403,262,258359,1,0,0:0:0:0:
419,167,258438,2,0,P|412:114|401:86,1,80,4|2,3:0|0:0,0:0:0:0:
279,20,258596,5,0,1:0:0:0:
266,47,258675,1,0,3:0:0:0:
256,75,258754,1,0,3:0:0:0:
252,104,258833,1,0,3:0:0:0:
252,197,258912,5,0,3:0:0:0:
218,181,258991,1,0,3:0:0:0:
184,168,259070,1,0,3:0:0:0:
149,163,259149,1,0,3:0:0:0:
56,163,259228,5,0,3:0:0:0:
77,119,259307,1,0,3:0:0:0:
92,76,259386,2,4,L|96:61,4,13.9999995727539,4|4|4|4|0,3:0|0:3|0:3|0:3|3:0,3:0:0:0:
92,76,259544,2,0,P|95:59|89:22,1,55.9999982910157,0|0,3:0|3:0,0:0:0:0:
252,197,259701,5,2,1:2:0:0:
269,191,260016,5,0,1:0:0:0:
287,186,260332,5,2,1:2:0:0:
287,186,260649,2,0,L|268:163,1,20,12|4,0:3|0:3,0:0:0:0:
290,262,260808,5,2,1:2:0:0:
246,321,260886,5,0,0:0:0:0:
188,367,260965,5,10,0:3:0:0:
119,342,261043,5,0,0:0:0:0:
55,303,261123,5,4,1:2:0:0:
191,370,261280,1,0,0:0:0:0:
293,265,261438,5,2,0:0:0:0:
296,268,261517,1,0,0:0:0:0:
344,125,261754,1,2,3:2:0:0:
347,128,261833,1,0,0:0:0:0:
399,206,261991,1,2,0:0:0:0:
402,209,262070,1,0,0:0:0:0:
260,174,262228,6,0,L|222:164,3,27.9999991455078,2|0|0|0,0:0|0:0|0:0|0:0,0:0:0:0:
97,269,262544,2,0,L|125:265,3,27.9999991455078,2|0|0|0,0:0|0:0|0:0|0:0,0:0:0:0:
307,298,262859,2,0,L|215:362,1,111.999996582031,2|0,0:0|3:0,0:0:0:0:
410,94,263175,1,0,0:0:0:0:
418,88,263254,1,0,0:0:0:0:
426,82,263333,6,0,B|354:132|354:132|338:193,1,143.999995605469,10|0,0:0|0:0,0:0:0:0:
415,353,263649,6,0,B|441:334|441:334|447:311,1,55.9999982910157,8|0,0:0|0:0,0:0:0:0:
461,171,263807,2,0,B|434:189|434:189|428:212,1,55.9999982910157
321,304,263965,2,0,B|294:285|294:285|288:262,1,55.9999982910157,2|0,0:0|0:0,0:0:0:0:
355,132,264123,6,0,B|343:110|343:110|371:99,1,55.9999982910157,0|0,1:0|0:0,0:0:0:0:
328,158,264201,2,0,B|324:133|324:133|354:132,1,55.9999982910157
295,173,264280,2,0,B|299:148|299:148|328:158,1,55.9999982910157,0|0,3:0|0:0,0:0:0:0:
258,176,264359,2,0,B|271:154|271:154|294:173,1,55.9999982910157
223,165,264438,6,0,B|242:149|242:149|258:175,1,55.9999982910157
288,262,264596,6,0,B|320:258|320:258|338:241,1,55.9999982910157,0|0,1:0|0:0,0:0:0:0:
223,165,264754,6,0,B|204:181|204:181|188:155,1,55.9999982910157,0|0,1:2|0:0,0:0:0:0:
188,155,264833,2,0,B|175:177|175:177|152:158,1,55.9999982910157
152,158,264911,2,0,B|148:183|148:183|119:173,1,55.9999982910157
119,173,264991,2,0,B|123:198|123:198|93:199,1,55.9999982910157
92,199,265070,6,0,B|104:221|104:221|76:232,1,55.9999982910157,2|0,0:0|0:0,0:0:0:0:
109,64,265228,1,10,0:0:0:0:
103,46,265307,1,0,0:0:0:0:
80,78,265386,1,0,1:0:0:0:
74,59,265465,1,0,0:0:0:0:
51,91,265544,1,0,3:0:0:0:
45,72,265623,1,0,0:0:0:0:
38,52,265701,6,0,L|46:77,1,20,0|0,1:0|0:0,0:0:0:0:
179,30,265859,6,0,L|175:58,1,27.9999991455078,8|0,1:2|0:0,0:0:0:0:
319,91,266017,6,0,L|298:122,1,35.9999989013672,2|0,0:0|0:0,0:0:0:0:
308,272,266175,6,0,L|367:235,1,55.9999982910157,8|0,1:2|0:0,0:0:0:0:
190,236,266333,2,0,L|249:199,1,55.9999982910157,0|0,0:0|1:0,0:0:0:0:
319,379,266491,2,0,L|378:342,1,55.9999982910157
145,353,266649,6,0,B|159:357|159:357|151:339,1,27.9999991455078,0|0,1:0|0:0,0:0:0:0:
195,321,266728,2,0,B|210:319|210:319|199:335,1,27.9999991455078
249,297,266807,2,0,B|264:296|264:296|250:282,1,27.9999991455078,2|0,3:2|0:0,0:0:0:0:
304,274,266886,2,0,B|319:278|319:278|302:288,1,27.9999991455078
355,242,266965,6,0,B|284:288|284:288|218:307|218:307|145:354,1,240.000009155274,2|0,1:2|0:0,0:0:0:0:
421,181,267280,2,0,B|366:160|366:160|313:169,1,111.999996582031,8|0,1:2|0:0,0:0:0:0:
481,240,267596,1,2,0:0:0:0:
238,207,267754,1,0,1:0:0:0:
474,137,267912,2,0,B|478:113|478:113|519:72,1,55.9999982910157,8|0,1:2|0:0,0:0:0:0:
434,129,267991,2,0,B|418:156|418:156|420:180,1,55.9999982910157
400,106,268070,2,0,B|407:74|407:74|425:59,1,55.9999982910157,0|0,3:0|0:0,0:0:0:0:
362,100,268149,2,0,B|346:127|346:127|348:151,1,55.9999982910157
328,77,268228,6,0,B|335:45|335:45|353:30,1,55.9999982910157,2|0,0:0|0:0,0:0:0:0:
198,182,268386,2,0,B|177:191|177:191|144:185,1,55.9999982910157,8|0,0:0|0:0,0:0:0:0:
355,242,268544,2,0,B|379:264|379:264|383:287,1,55.9999982910157,2|0,0:0|0:0,0:0:0:0:
138,302,268701,6,0,B|224:298|224:298|185:326,1,111.999996582031,0|0,1:0|0:0,0:0:0:0:
413,369,268938,2,0,B|384:374|384:374|326:366,1,47.9999985351563,0|8,1:0|0:0,0:0:0:0:
230,295,269096,1,0,0:0:0:0:
236,291,269175,2,0,B|257:287|257:287|300:293,1,35.9999989013672,2|0,0:0|0:0,0:0:0:0:
81,362,269333,6,0,L|65:324,1,27.9999991455078,0|0,3:0|0:0,0:0:0:0:
278,291,269491,6,0,L|263:326,1,35.9999989013672
124,224,269649,6,0,L|102:171,1,55.9999982910157,8|0,1:2|0:0,0:0:0:0:
341,143,269807,6,0,L|335:151,3,10,8|0|0|0,1:2|0:0|0:0|0:0,0:0:0:0:
357,139,270123,6,0,L|354:149,3,10,8|0|0|0,0:0|0:0|0:0|0:0,0:0:0:0:
373,135,270438,6,0,L|375:145,3,10,12|0|0|0,1:2|0:0|0:0|0:0,0:0:0:0:
389,131,270754,6,0,L|395:139,2,10,8|0|0,0:0|0:0|0:0,0:0:0:0:
409,213,270912,5,2,1:2:0:0:
343,248,270990,5,0,0:0:0:0:
273,267,271069,5,10,0:3:0:0:
218,215,271149,5,0,0:0:0:0:
177,154,271227,5,4,1:2:0:0:
313,100,271386,1,0,0:0:0:0:
411,215,271544,5,10,3:2:0:0:
413,217,271623,1,0,0:0:0:0:
243,119,271858,1,2,3:2:0:0:
245,121,271937,1,0,0:3:0:0:
368,152,272096,1,2,0:2:0:0:
370,154,272175,1,8,3:2:0:0:
273,267,272333,6,0,L|251:291,4,27.9999991455078,2|0|0|0|0,0:0|0:0|0:0|0:0|3:0,0:0:0:0:
396,143,272649,2,0,L|365:155,4,27.9999991455078,2|0|0|0|8,0:0|0:0|0:0|0:0|3:2,0:0:0:0:
218,215,272965,2,0,L|99:264,1,111.999996582031,2|0,0:0|3:0,0:0:0:0:
295,110,273280,1,0,0:0:0:0:
304,105,273359,1,0,0:0:0:0:
313,100,273438,6,0,B|226:96|226:96|180:47,1,143.999995605469,10|0,3:2|0:0,0:0:0:0:
343,248,273754,6,0,B|323:226|323:226|277:216,1,55.9999982910157,0|0,1:0|0:0,0:0:0:0:
113,256,273912,2,0,B|134:272|134:272|164:274,1,55.9999982910157,2|0,0:0|0:0,0:0:0:0:
177,149,274070,2,0,B|152:144|152:144|125:156,1,55.9999982910157,8|0,3:2|0:0,0:0:0:0:
256,338,274228,2,0,B|306:358|306:358|388:339,1,111.999996582031,0|0,1:0|3:0,0:0:0:0:
252,333,274544,2,0,L|226:388,1,55.9999982910157,0|0,1:0|0:0,0:0:0:0:
343,248,274701,2,0,L|319:197,1,55.9999982910157,8|0,3:2|0:0,0:0:0:0:
131,49,274859,2,0,B|111:99|111:99|130:181,1,111.999996582031,0|0,1:0|3:0,0:0:0:0:
94,278,275175,6,0,L|76:199,1,55.9999982910157
257,126,275332,1,10,0:0:0:0:
251,106,275411,1,0,0:0:0:0:
226,137,275490,1,0,1:0:0:0:
222,118,275569,1,0,0:0:0:0:
197,148,275648,1,0,3:0:0:0:
191,129,275727,1,0,0:0:0:0:
186,109,275807,6,0,L|192:136,1,20,0|0,1:0|0:0,0:0:0:0:
281,36,275965,6,0,L|288:0,1,27.9999991455078,8|0,1:2|0:0,0:0:0:0:
370,130,276123,6,0,L|340:167,1,35.9999989013672,2|0,0:0|0:0,0:0:0:0:
433,35,276280,6,0,L|493:1,1,55.9999982910157,0|0,1:2|0:0,0:0:0:0:
421,202,276438,2,0,L|481:168,1,55.9999982910157,0|0,1:2|0:0,0:0:0:0:
238,36,276596,2,0,L|298:2,1,55.9999982910157,8|0,3:2|0:0,0:0:0:0:
175,252,276754,2,0,L|284:190,1,111.999996582031,0|0,1:2|3:0,0:0:0:0:
170,257,277070,2,0,B|160:223|160:223|169:197,1,55.9999982910157,12|0,1:3|0:0,0:0:0:0:
277,190,277228,2,0,B|283:209|283:209|273:243,1,55.9999982910157,8|0,3:2|0:0,0:0:0:0:
52,130,277386,6,0,B|83:110|83:110|114:107,1,55.9999982910157,4|0,1:0|0:0,0:0:0:0:
70,74,277465,2,0,B|98:97|98:97|111:125,1,55.9999982910157
129,74,277544,2,0,B|115:108|115:108|92:129,1,55.9999982910157,8|0,3:2|0:0,0:0:0:0:
147,130,277623,2,0,B|110:127|110:127|83:112,1,55.9999982910157,0|0,0:0|0:0,0:0:0:0:
100,165,277701,6,0,B|90:129|90:129|97:98,1,55.9999982910157,2|0,1:2|0:0,0:0:0:0:
238,36,277859,2,0,B|247:71|247:71|240:102,1,55.9999982910157,0|0,3:0|0:0,0:0:0:0:
166,203,278017,2,0,B|182:194|182:194|216:185|216:185|230:184|230:184|263:186|263:186|284:191|284:191|302:177|302:177|320:183|320:183|336:191|336:191|360:195|360:195|413:171,1,240,0|0,1:0|0:0,0:0:0:0:
209,269,278333,2,0,B|184:283|184:283|143:279,1,55.9999982910157,2|0,0:0|0:0,0:0:0:0:
100,165,278491,2,0,B|116:141|116:141|154:127,1,55.9999982910157,8|0,3:2|0:0,0:0:0:0:
104,335,278649,2,0,B|77:324|77:324|53:290,1,55.9999982910157,2|0,0:0|0:0,0:0:0:0:
299,262,278807,6,0,B|315:267|315:267|333:285,1,27.9999991455078,0|0,3:0|0:0,0:0:0:0:
317,268,278886,2,0,B|317:284|317:284|305:307,1,27.9999991455078
317,286,278965,2,0,B|301:291|301:291|275:287,1,27.9999991455078
299,292,279044,2,0,B|288:278|288:278|285:253,1,27.9999991455078
289,277,279123,2,0,B|298:263|298:263|321:251,1,27.9999991455078,0|0,3:0|0:0,0:0:0:0:
303,277,279201,1,0,0:0:0:0:
303,277,279280,5,2,0:0:0:0:
303,277,279438,2,0,L|272:388,1,111.999996582031,10|0,3:2|0:0,0:0:0:0:
443,205,279754,6,0,L|489:207,1,27.9999991455078,8|0,3:2|0:0,0:0:0:0:
447,183,279833,2,0,L|479:150,1,27.9999991455078
434,165,279912,2,0,L|432:118,1,27.9999991455078,2|0,0:0|0:0,0:0:0:0:
411,165,279991,2,0,L|377:131,1,27.9999991455078
320,186,280070,5,4,3:0:0:0:
254,162,280149,1,2,0:0:0:0:
188,186,280228,5,0,0:0:0:0:
122,162,280307,1,2,0:0:0:0:
56,186,280386,5,0,3:0:0:0:
89,174,280465,1,0,0:0:0:0:
122,186,280544,5,0,0:0:0:0:
155,174,280623,1,2,0:0:0:0:
188,186,280701,5,0,3:0:0:0:
171,181,280780,1,2,0:0:0:0:
154,186,280859,5,0,0:0:0:0:
137,181,280938,1,0,0:0:0:0:
122,186,281017,6,0,L|110:261,1,55.9999982910157,8|0,3:2|0:0,0:0:0:0:
203,101,281175,2,0,L|194:45,1,55.9999982910157
320,186,281333,6,0,B|336:181|336:181|354:163,1,27.9999991455078,8|0,3:2|0:0,0:0:0:0:
338,180,281412,2,0,B|338:164|338:164|326:141,1,27.9999991455078
338,162,281491,2,0,B|322:157|322:157|296:161,1,27.9999991455078
320,156,281570,2,0,B|309:170|309:170|306:195,1,27.9999991455078
310,171,281649,2,0,B|319:185|319:185|342:197,1,27.9999991455078
324,171,281727,1,0,0:0:0:0:
324,171,281806,5,2,0:0:0:0:
324,171,281965,2,0,L|293:60,1,111.999996582031,2|0,0:2|0:0,0:0:0:0:
45,105,282201,1,0,0:0:0:0:
42,109,282280,6,0,B|7:152|60:138|60:138|30:163|30:163|60:169|60:169|38:198|38:198|84:256|18:260|68:355,1,292.682926829268,2|0,1:2|0:0,0:0:0:0:
74,343,282596,5,8,1:2:0:0:
136,296,282754,1,2,0:0:0:0:
214,285,282912,1,0,0:0:0:0:
287,310,283070,1,6,1:2:0:0:
341,365,283386,5,0,1:2:0:0:
341,365,283544,5,2,0:0:0:0:
287,310,283623,5,0,0:0:0:0:
214,285,283701,5,0,0:0:0:0:
136,296,283780,5,2,0:0:0:0:
74,343,283859,5,4,0:1:0:0:
341,365,284175,1,8,0:0:0:0:
214,285,284807,1,8,0:0:0:0:
341,205,284965,6,0,P|321:192|269:189,3,40,2|0|0|0,0:0|0:0|0:0|0:0,0:0:0:0:
474,132,285280,2,0,P|451:139|400:128,4,40,2|0|0|0|8,0:0|0:0|0:0|0:0|0:0,0:0:0:0:
339,115,285596,2,0,P|312:101|277:46,1,80,0|2,0:0|0:0,0:0:0:0:
130,227,285912,1,8,0:0:0:0:
133,235,285991,1,0,0:0:0:0:
137,242,286070,6,0,B|176:200|176:149|176:149|151:150|148:171,1,120.000004577637,12|0,0:0|0:0,0:0:0:0:
91,297,286386,6,0,P|112:311|143:314,1,40,0|0,1:0|0:0,0:0:0:0:
160,153,286544,2,0,P|135:149|105:159,1,40,2|0,0:0|0:0,0:0:0:0:
12,249,286701,2,0,P|36:241|58:220,1,40,8|0,0:0|0:0,0:0:0:0:
176,48,286859,6,0,P|154:63|147:109,1,40,0|0,1:0|0:0,0:0:0:0:
151,37,286938,2,0,P|132:56|135:102,1,40
124,31,287017,2,0,P|110:53|122:98,1,40
96,31,287096,2,0,P|87:56|108:97,1,40
69,36,287175,6,0,P|65:62|94:98,1,40
248,147,287333,2,0,P|246:120|209:91,1,40,8|0,0:0|0:0,0:0:0:0:
336,48,287491,6,0,P|358:63|365:109,1,40,0|0,1:0|0:0,0:0:0:0:
361,37,287570,2,0,P|379:56|376:102,1,40
388,31,287649,2,0,P|401:53|389:98,1,40
416,31,287728,2,0,P|424:56|403:97,1,40
443,36,287807,6,0,P|446:62|417:98,1,40,2|0,0:0|0:0,0:0:0:0:
248,147,287965,1,10,0:0:0:0:
236,185,288044,1,2,0:0:0:0:
247,211,288123,1,0,1:0:0:0:
252,226,288202,1,0,1:0:0:0:
250,238,288281,1,0,0:0:0:0:
248,244,288360,1,0,1:0:0:0:
245,248,288438,6,0,L|282:253,1,20,0|0,1:0|0:0,0:0:0:0:
414,190,288596,6,0,L|377:195,1,30.0000011444092,12|0,0:0|0:0,0:0:0:0:
123,134,288754,6,0,L|169:140,1,40
336,48,288912,6,0,P|295:35|257:47,1,60.0000022888184,4|0,1:0|0:0,0:0:0:0:
432,231,289070,2,0,P|445:190|433:152,1,60.0000022888184,0|0,1:0|0:0,0:0:0:0:
249,327,289228,2,0,P|290:340|328:328,1,60.0000022888184,0|0,1:0|0:0,0:0:0:0:
153,144,289386,2,0,P|130:215|151:282,1,120.000004577637,2|0,1:3|1:0,0:0:0:0:
306,338,289623,1,0,0:0:0:0:
313,335,289702,6,0,P|343:293|242:336,1,320,12|0,1:3|0:0,0:0:0:0:
395,297,289938,1,0,0:0:0:0:
391,292,290017,6,0,P|320:269|253:290,1,120.000004577637,4|0,1:0|1:0,0:0:0:0:
106,377,290333,2,0,P|139:346|148:305,1,60.0000022888184,2|0,1:3|1:0,0:0:0:0:
174,87,290491,2,0,P|183:131|214:159,1,60.0000022888184,2|0,1:3|1:0,0:0:0:0:
371,68,290649,6,2,P|331:96|378:86,1,133.155788218783,6|2,1:0|0:1,1:0:0:0:
354,63,290728,6,2,P|329:104|368:75,1,133.155788218783,2|0,1:0|0:0,1:0:0:0:
336,63,290807,6,0,P|331:111|354:69,1,133.155788218783,0|0,1:0|0:0,0:0:0:0:
320,72,290886,6,0,P|335:117|339:69,1,133.155788218783,0|0,1:0|0:0,0:0:0:0:
308,86,290965,6,2,P|306:101|329:168,1,60.0000022888184,2|2,1:2|1:0,1:0:0:0:
446,233,291123,2,0,P|448:218|425:151,1,60.0000022888184,0|0,1:0|1:0,0:0:0:0:
277,277,291280,2,0,P|288:286|358:299,1,60.0000022888184,2|0,1:2|1:0,0:0:0:0:
209,220,291438,6,0,B|166:227|166:227|127:222|127:222|90:229,1,120.000004577637,0|2,1:0|1:2,0:0:0:0:
322,373,291675,6,0,B|357:373|357:373|382:365,1,51.999997619629,2|0,1:0|1:0,0:0:0:0:
491,234,291833,1,2,0:0:0:0:
485,229,291912,2,0,B|455:229|455:229|434:235,1,40,0|0,1:0|1:0,0:0:0:0:
248,283,292070,6,0,B|265:283|265:283|276:277,1,30.0000011444092,0|0,1:0|0:0,0:0:0:0:
457,148,292228,6,0,B|433:152|433:152|420:164,1,40,0|0,1:0|0:0,0:0:0:0:
209,220,292386,6,0,B|247:202|247:202|265:179,1,60.0000022888184,0|0,1:0|0:0,0:0:0:0:
38,187,292544,5,2,1:0:0:0:
29,184,292859,5,0,1:0:0:0:
20,182,293175,5,2,1:2:0:0:
11,179,293491,5,2,1:2:0:0:
26,256,293649,5,6,1:2:0:0:
87,303,293727,5,0,3:0:0:0:
163,309,293806,5,0,3:0:0:0:
232,275,293885,5,0,3:0:0:0:
254,201,293965,6,0,B|233:244|264:254|241:293,1,90.0000034332277,4|0,1:0|0:0,0:0:0:0:
254,201,294280,6,0,P|260:274|354:291,1,160,12|2,1:2|0:3,0:0:0:0:
402,188,294517,1,0,0:0:0:0:
422,166,294596,2,0,L|305:239,1,120.000004577637,2|8,0:0|0:3,0:0:0:0:
451,96,294912,2,0,P|419:91|383:102,1,60.0000022888184,8|0,0:0|0:0,0:0:0:0:
189,146,295070,6,0,B|224:138|224:138|200:157,4,60.0000022888184,2|0|0|0|0,0:0|0:0|0:0|0:0|1:0,0:0:0:0:
320,229,295386,2,0,B|285:236|285:236|315:243,4,60.0000022888184,2|0|0|0|8,0:0|0:0|0:0|0:0|1:2,0:0:0:0:
451,312,295701,2,0,P|404:301|318:328,1,120.000004577637,0|2,1:0|3:2,0:0:0:0:
493,169,296017,1,0,1:0:0:0:
499,178,296096,1,0,0:0:0:0:
504,187,296175,6,0,B|451:191|425:159|425:159|421:141|410:133|410:133|406:88|360:89,1,160,12|8,0:0|0:3,0:0:0:0:
137,196,296491,6,0,P|177:202|198:198,1,60.0000022888184,4|0,1:0|0:0,0:0:0:0:
76,22,296649,2,0,P|56:42|43:69,1,60.0000022888184,0|0,1:0|0:0,0:0:0:0:
90,272,296807,2,0,P|124:294|144:299,1,60.0000022888184,8|0,1:2|0:0,0:0:0:0:
172,88,296965,2,0,P|115:107|67:147,1,120.000004577637,6|0,1:0|0:0,0:0:0:0:
336,316,297280,6,0,P|334:305|330:292,1,15.0000005722046,2|0,1:2|0:0,0:0:0:0:
398,275,297359,6,0,P|393:264|385:253,1,23.9999992675781
447,219,297438,6,0,P|438:208|425:197,1,30.0000011444092,8|0,0:0|0:0,0:0:0:0:
480,151,297517,6,0,P|465:140|446:130,1,40,0|0,1:0|0:0,0:0:0:0:
494,76,297596,6,0,B|466:47|435:53|435:53|394:63|384:23|334:92|334:92|277:57|218:85|218:85|192:108|134:172|71:62|172:88,1,480,6|0,1:0|0:0,0:0:0:0:
136,189,297912,6,0,P|175:189|217:171,1,60.0000022888184,2|0,1:2|0:0,0:0:0:0:
334,92,298070,1,10,0:0:0:0:
358,167,298149,1,2,0:0:0:0:
336,219,298228,1,0,1:0:0:0:
326,250,298307,1,0,1:0:0:0:
329,273,298386,1,0,0:0:0:0:
334,286,298465,1,0,1:0:0:0:
339,293,298544,6,0,P|327:298|315:300,1,20,0|0,1:0|0:0,0:0:0:0:
113,263,298701,6,0,P|156:281|199:288,1,80,12|0,0:0|0:0,0:0:0:0:
439,235,298859,6,0,P|417:244|395:247,1,40,2|0,0:0|0:0,0:0:0:0:
135,189,299017,6,0,P|167:182|197:183,1,60.0000022888184,4|0,1:0|0:0,0:0:0:0:
429,161,299175,2,0,P|396:160|366:153,1,60.0000022888184,0|0,1:0|0:0,0:0:0:0:
172,88,299333,2,0,P|203:95|231:108,1,60.0000022888184,8|0,1:2|0:0,0:0:0:0:
443,42,299491,6,0,P|385:58|330:81,1,120.000004577637,2|2,1:3|0:0,0:0:0:0:
452,38,299807,2,0,L|370:11,1,60.0000022888184,12|0,1:3|0:0,0:0:0:0:
429,161,299965,2,0,L|485:179,1,60.0000022888184,8|0,0:0|0:0,0:0:0:0:
172,88,300123,6,0,P|173:121|195:164,1,60.0000022888184,4|0,1:0|0:0,0:0:0:0:
140,138,300202,2,0,P|172:148|220:140,1,60.0000022888184
177,183,300281,2,0,P|196:156|204:109,1,60.0000022888184,0|0,1:0|0:0,0:0:0:0:
231,164,300360,2,0,P|211:138|169:117,1,60.0000022888184
229,106,300439,6,0,P|208:113|185:136,1,30.0000011444092,2|0,1:2|0:0,0:0:0:0:
264,115,300517,6,2,P|248:130|237:160,1,30.0000011444092
291,137,300596,6,0,P|270:144|247:167,1,30.0000011444092,8|0,0:0|0:0,0:0:0:0:
306,168,300675,6,0,P|284:165|254:176,1,30.0000011444092,2|2,0:0|0:0,0:0:0:0:
306,202,300754,6,0,P|276:182|225:178,1,80,6|0,1:0|0:0,0:0:0:0:
292,222,300833,6,0,P|264:244|244:291,1,80
306,241,300912,6,0,P|318:274|357:307,1,80,2|0,0:0|0:0,0:0:0:0:
329,234,300991,6,0,P|364:231|408:205,1,80,2|0,0:0|0:0,0:0:0:0:
329,210,301070,6,0,P|338:175|326:125,1,80,6|0,1:0|1:0,0:0:0:0:
229,28,301228,2,0,P|220:63|232:113,1,80,8|0,1:2|1:0,0:0:0:0:
129,210,301386,2,0,P|138:175|126:125,1,80,2|0,1:2|1:0,0:0:0:0:
71,308,301544,6,0,P|44:337|13:350,1,40,4|0,1:0|0:0,0:0:0:0:
97,320,301623,2,0,P|78:355|52:375,1,40
125,326,301701,2,0,P|116:365|96:391,1,40,2|0,0:0|0:0,0:0:0:0:
154,323,301780,2,0,P|156:362|143:393,1,40
184,312,301859,2,0,P|196:350|192:382,1,40,8|0,1:2|0:0,0:0:0:0:
206,294,301938,2,0,P|227:327|232:360,1,40
224,271,302017,5,2,1:2:0:0:
389,366,302175,2,0,P|360:298|362:238,1,120.000004577637,0|2,1:2|0:0,0:0:0:0:
392,187,302491,1,8,1:2:0:0:
395,182,302570,1,0,0:0:0:0:
398,177,302649,1,2,0:0:0:0:
401,172,302728,1,0,0:0:0:0:
406,91,302807,5,0,1:0:0:0:
366,63,302886,1,0,0:0:0:0:
318,53,302965,1,2,0:0:0:0:
270,58,303044,1,0,0:0:0:0:
282,79,303123,5,8,1:2:0:0:
294,98,303201,1,0,0:0:0:0:
308,117,303280,1,2,0:0:0:0:
321,137,303359,1,0,0:0:0:0:
255,199,303438,5,0,1:0:0:0:
242,150,303517,1,0,0:0:0:0:
249,101,303596,1,2,0:0:0:0:
270,58,303675,1,0,0:0:0:0:
321,137,303754,6,0,P|333:166|334:191,1,47.9999985351563,8|0,1:2|0:0,0:0:0:0:
156,187,303912,2,0,P|157:155|167:132,1,47.9999985351563,2|0,0:0|0:0,0:0:0:0:
377,308,304070,6,0,P|404:337|435:350,1,40,4|0,1:0|0:0,0:0:0:0:
351,320,304149,2,0,P|370:355|396:375,1,40
323,326,304227,2,0,P|332:365|352:391,1,40,2|0,0:0|0:0,0:0:0:0:
294,323,304306,2,0,P|292:362|305:393,1,40
264,312,304385,2,0,P|252:350|256:382,1,40,8|0,0:0|0:0,0:0:0:0:
242,294,304464,2,0,P|221:327|216:360,1,40
224,271,304544,5,2,1:2:0:0:
59,366,304701,2,0,P|88:298|86:238,1,120.000004577637,0|2,1:2|0:0,0:0:0:0:
56,187,305017,1,8,1:2:0:0:
53,182,305096,1,0,0:0:0:0:
50,177,305175,1,2,0:0:0:0:
47,172,305254,1,0,0:0:0:0:
71,95,305333,5,0,1:0:0:0:
105,61,305412,1,0,0:0:0:0:
149,42,305491,1,2,3:2:0:0:
196,39,305570,1,0,3:0:0:0:
165,74,305649,5,8,1:2:0:0:
148,118,305728,1,0,0:0:0:0:
148,167,305807,1,2,0:0:0:0:
166,212,305886,1,0,0:0:0:0:
185,167,305965,5,0,1:0:0:0:
219,133,306044,1,0,0:0:0:0:
263,114,306123,1,2,0:0:0:0:
313,113,306201,1,0,0:0:0:0:
358,130,306280,6,0,P|357:170|344:197,1,47.9999985351563,8|0,1:2|0:0,0:0:0:0:
257,332,306438,6,0,P|258:292|271:265,1,60.0000022888184,2|0,0:0|0:0,0:0:0:0:
469,316,306596,6,0,P|421:314|389:299,1,80,2|0,1:0|0:0,0:0:0:0:
437,75,306754,1,0,3:0:0:0:
441,73,306833,1,0,3:0:0:0:
445,71,306912,1,0,3:0:0:0:
449,69,306991,1,0,3:0:0:0:
453,67,307070,1,0,3:0:0:0:
457,65,307149,1,0,3:0:0:0:
461,63,307228,6,0,L|469:123,1,60.0000022888184,0|0,1:0|0:0,0:0:0:0:
245,171,307465,2,0,L|263:113,1,60.0000022888184,2|0,1:0|0:0,0:0:0:0:
60,74,307702,2,0,L|19:118,1,60.0000022888184,0|0,1:0|0:0,0:0:0:0:
153,272,307859,6,0,P|152:224|133:180,1,95.9999970703126,6|0,1:0|0:0,0:0:0:0:
90,305,308017,5,2,0:0:0:0:
110,331,308095,1,0,0:0:0:0:
139,344,308174,1,2,0:0:0:0:
172,340,308253,1,0,0:0:0:0:
285,290,308332,5,0,0:0:0:0:
254,280,308411,1,2,0:0:0:0:
222,289,308490,1,0,1:0:0:0:
253,352,308570,5,0,0:0:0:0:
301,358,308649,1,0,3:0:0:0:
342,334,308728,1,0,3:0:0:0:
355,287,308807,1,0,3:0:0:0:
336,242,308886,1,0,3:0:0:0:
353,196,308965,1,0,3:0:0:0:
336,150,309044,1,2,3:2:0:0:
352,102,309123,6,2,B|396:38|488:60|498:137|498:137|500:222|403:247|353:196|353:196|417:283|341:334|341:334|319:253|229:210|229:210|199:194|151:204|151:204|230:249|242:352|242:352|181:385|95:350|61:302|61:262,1,1220,4|0,1:0|0:0,1:0:0:0:
60,260,314017,1,2,0:0:0:0:
60,251,314096,1,0,0:0:0:0:
60,242,314175,6,2,B|78:106|202:108|288:163|288:163|228:4|431:-53|507:19|507:19|514:77|495:125|495:125|504:155|490:176|488:198|453:215,1,870.000033187867,4|0,0:1|0:0,1:0:0:0:
449,216,316544,1,2,0:0:0:0:
442,219,316623,1,0,0:0:0:0:
436,221,316701,6,2,B|426:141|331:122|288:163|288:163|259:95|303:34|303:34|233:63|142:21|142:21|171:97|106:151|106:151|71:177|60:241|60:241|151:195|144:86,1,920,4|0,0:1|0:0,1:0:0:0:
146,83,318596,6,0,P|128:74|102:80,1,26.6666666666667
175,72,318701,2,0,P|168:52|146:38,1,26.6666666666667
203,84,318807,2,0,P|212:66|206:40,1,26.6666666666667,2|0,0:0|0:0,0:0:0:0:
220,119,318912,6,0,P|239:123|255:144,1,26.6666666666667,2|0,0:0|0:0,0:0:0:0:
210,147,319017,2,0,P|220:165|217:191,1,26.6666666666667
183,162,319123,2,0,P|178:181|157:197,1,26.6666666666667,2|0,0:0|0:0,0:0:0:0:
108,148,319228,5,4,0:1:0:0:
85,214,319386,1,0,0:0:0:0:
40,161,319544,1,0,0:0:0:0:
130,267,319701,5,0,0:0:0:0:
107,333,319859,1,2,0:0:0:0:
62,280,320017,1,0,0:0:0:0:
221,188,320175,5,0,0:0:0:0:
198,254,320333,1,2,0:0:0:0:
153,201,320491,1,0,0:0:0:0:
267,56,320649,5,2,0:0:0:0:
312,109,320807,1,0,0:0:0:0:
244,122,320965,1,0,0:0:0:0:
425,149,321123,5,0,0:0:0:0:
402,215,321281,1,2,0:0:0:0:
334,228,321438,1,0,0:0:0:0:
289,175,321596,1,0,0:0:0:0:
267,56,321754,5,2,1:2:0:0:
244,122,321912,1,0,0:0:0:0:
243,124,322070,1,0,0:0:0:0:
267,56,322228,5,0,0:0:0:0:
357,162,322386,1,2,0:0:0:0:
355,164,322544,1,0,0:0:0:0:
267,56,322701,5,0,0:0:0:0:
221,188,322859,1,2,0:0:0:0:
219,190,323017,1,0,0:0:0:0:
267,56,323175,5,2,0:0:0:0:
289,175,323333,1,0,0:0:0:0:
287,177,323491,1,0,0:0:0:0:
267,56,323649,5,0,0:0:0:0:
198,254,323807,1,2,0:0:0:0:
266,241,323965,1,0,0:0:0:0:
334,228,324123,1,2,0:0:0:0:
425,149,324280,5,0,1:0:0:0:
289,175,324438,1,0,0:0:0:0:
402,215,324596,1,0,0:0:0:0:
312,109,324754,5,2,0:0:0:0:
153,201,324912,1,0,0:0:0:0:
289,175,325070,1,0,0:0:0:0:
176,135,325228,5,2,0:0:0:0:
40,161,325386,1,0,0:0:0:0:
153,201,325544,1,0,0:0:0:0:
289,175,325701,5,0,0:0:0:0:
130,267,325859,1,2,0:0:0:0:
266,241,326017,1,0,0:0:0:0:
379,281,326175,5,2,0:0:0:0:
243,307,326333,1,0,0:0:0:0:
356,347,326491,1,0,0:0:0:0:
424,334,326649,1,0,0:0:0:0:
250,227,326807,6,0,P|242:270|243:310,1,80,0|0,1:0|0:0,0:0:0:0:
104,339,327281,2,0,P|128:303|142:266,1,80,2|0,0:0|0:0,0:0:0:0:
8,357,327754,1,2,0:0:0:0:
4,361,328070,5,0,1:0:0:0:
