osu file format v14

[General]
AudioFilename: audio.mp3
AudioLeadIn: 0
PreviewTime: 18551
Countdown: 0
SampleSet: Soft
StackLeniency: 0.7
Mode: 0
LetterboxInBreaks: 0
WidescreenStoryboard: 1

[Editor]
Bookmarks: 19633
DistanceSpacing: 1
BeatDivisor: 4
GridSize: 32
TimelineZoom: 2.099999

[Metadata]
Title:Horrible Bits
TitleUnicode:Horrible Bits
Artist:A r M i N
ArtistUnicode:A r M i N
Creator:pre
Version:alexander's straight jorking it
Source:
Tags:
BeatmapID:0
BeatmapSetID:2159357

[Difficulty]
HPDrainRate:4.5
CircleSize:4.2
OverallDifficulty:9
ApproachRate:9.3
SliderMultiplier:1.8
SliderTickRate:1

[Events]
//Background and Video events
0,0,"bg.png",0,0
//Break Periods
//Storyboard Layer 0 (Background)
//Storyboard Layer 1 (Fail)
//Storyboard Layer 2 (Pass)
//Storyboard Layer 3 (Foreground)
//Storyboard Layer 4 (Overlay)
//Storyboard Sound Samples

[TimingPoints]
18,288.461538461538,4,2,0,100,1,0
306,-200,4,2,0,100,0,0
1171,-66.6666666666667,4,2,0,100,0,0
3479,-100,4,2,0,100,0,0
5787,-66.6666666666667,4,2,0,100,0,0
8094,-100,4,2,0,100,0,0
9537,-111.111111111111,4,2,0,100,0,0
10402,-66.6666666666667,4,2,0,100,0,0
12133,-100,4,2,0,100,0,0
15017,-66.6666666666667,4,2,0,100,0,0
16171,-100,4,2,0,100,0,0
19633,-100,4,2,0,100,0,1
28864,-100,4,2,0,100,0,0

[Colours]
Combo1 : 124,57,147
Combo2 : 151,9,19
Combo3 : 208,81,4
Combo4 : 100,100,255

[HitObjects]
36,86,306,6,0,P|21:128|38:186,2,90,0|0|0,0:3|0:3|0:3,0:3:0:0:
184,38,1171,2,0,P|211:98|199:173,1,135.000005149842
107,353,1460,1,0,0:0:0:0:
119,101,1604,1,0,0:0:0:0:
259,337,1748,2,0,P|248:402|196:372,1,135
0,280,2037,2,0,L|139:271,1,135.000005149842
446,224,2325,5,0,0:0:0:0:
207,290,2469,1,0,0:0:0:0:
354,59,2614,1,0,0:0:0:0:
389,340,2758,1,0,0:0:0:0:
361,27,2902,1,0,0:0:0:0:
195,309,3046,1,0,0:0:0:0:
500,167,3191,5,0,0:0:0:0:
188,123,3335,1,0,0:0:0:0:
483,297,3479,2,0,B|459:336|459:336|398:373,1,90
311,254,3767,2,0,B|335:215|335:215|396:178,1,90
476,208,4056,5,0,0:0:0:0:
235,85,4200,1,0,0:0:0:0:
438,30,4344,1,0,0:0:0:0:
309,256,4489,1,0,0:0:0:0:
231,0,4633,6,0,P|190:12|154:63,1,90
199,260,4921,2,0,P|208:219|182:161,1,90
0,108,5210,2,0,P|30:136|93:142,1,90
482,114,5498,1,0,0:0:0:0:
512,146,5570,1,0,0:0:0:0:
512,190,5642,1,0,0:0:0:0:
482,224,5715,1,0,0:0:0:0:
437,229,5787,6,0,L|298:171,1,135.000005149842
199,46,6075,1,0,0:0:0:0:
69,257,6219,1,0,0:0:0:0:
0,8,6364,2,0,B|26:-16|26:-16|120:19,1,135.000005149842
250,169,6652,2,0,B|223:193|223:193|130:158,1,135.000005149842
45,78,6941,5,0,0:0:0:0:
164,316,7085,1,0,0:0:0:0:
206,43,7229,1,0,0:0:0:0:
174,358,7373,1,0,0:0:0:0:
0,153,7517,1,0,0:0:0:0:
274,115,7662,1,0,0:0:0:0:
76,311,7806,5,0,0:0:0:0:
285,11,7950,1,0,0:0:0:0:
391,346,8094,2,0,P|348:356|292:346,1,90
175,101,8383,1,0,0:0:0:0:
481,191,8527,1,0,0:0:0:0:
214,384,8671,2,0,P|178:357|150:308,1,90
271,197,8960,2,0,P|306:223|334:272,1,90
21,236,9537,6,0,B|-13:273|-13:273|0:392,2,161.999995056153
192,199,10402,2,0,B|229:260|229:260|217:333,1,135.000005149842
81,299,10691,1,0,0:0:0:0:
252,36,10835,1,0,0:0:0:0:
253,384,10979,2,0,B|222:399|222:399|159:369|159:369|141:328,1,135.000005149842
213,187,11267,2,0,B|242:175|242:175|307:199|307:199|318:231,1,135.000005149842
360,334,11556,6,0,L|97:230,1,270.000010299683
15,118,11989,1,0,0:0:0:0:
15,118,12133,2,0,L|-2:20,1,90
108,234,12421,2,0,L|125:332,1,90
183,42,12710,5,0,0:0:0:0:
269,295,12854,1,0,0:0:0:0:
4,224,12998,1,0,0:0:0:0:
205,0,13142,1,0,0:0:0:0:
314,178,13287,2,0,L|204:213,1,90
45,43,13575,2,0,L|155:78,1,90
448,214,13864,6,0,B|456:144|456:144|411:132,1,90
223,171,14152,2,0,B|278:212|278:212|312:180,1,90
379,0,14441,2,0,B|315:27|315:27|326:72,1,90
477,317,14729,1,0,0:0:0:0:
467,361,14801,1,0,0:0:0:0:
428,384,14873,1,0,0:0:0:0:
383,379,14945,1,0,0:0:0:0:
347,352,15017,6,0,B|350:323|350:323|226:355,1,135.000005149842
17,357,15306,2,0,B|3:390|3:390|101:364,1,135.000005149842
227,244,15594,2,0,B|241:211|241:211|143:237,1,135.000005149842
0,192,15883,1,0,0:0:0:0:
181,316,16027,1,0,0:0:0:0:
166,107,16171,2,0,L|146:13,1,90
318,0,16460,2,0,L|338:94,1,90
391,354,16748,5,0,0:0:0:0:
472,75,16892,1,0,0:0:0:0:
217,223,17037,1,0,0:0:0:0:
512,269,17181,1,0,0:0:0:0:
297,61,17325,5,0,0:0:0:0:
506,294,17469,1,0,0:0:0:0:
183,222,17614,5,0,0:0:0:0:
495,90,17758,1,0,0:0:0:0:
289,380,17902,5,0,0:0:0:0:
267,36,18046,1,0,0:0:0:0:
20,325,18191,2,0,B|69:330|69:330|130:356,2,90
340,312,18623,5,0,0:0:0:0:
121,212,18767,1,0,0:0:0:0:
321,146,18912,1,0,0:0:0:0:
132,0,19056,6,0,L|168:102,1,90
215,250,19344,2,0,L|286:167,1,90
384,57,19633,2,0,L|276:36,1,90
64,93,19921,5,0,0:0:0:0:
116,350,20066,1,0,0:0:0:0:
186,20,20210,1,0,0:0:0:0:
260,331,20354,1,0,0:0:0:0:
7,176,20498,1,0,0:0:0:0:
376,122,20642,1,0,0:0:0:0:
80,0,20787,6,0,L|114:95,1,90
261,370,21075,1,0,0:0:0:0:
305,40,21219,1,0,0:0:0:0:
98,273,21364,1,0,0:0:0:0:
392,322,21508,1,0,0:0:0:0:
59,139,21652,1,0,0:0:0:0:
512,225,21796,1,0,0:0:0:0:
161,378,21941,6,0,L|211:273,1,90
322,10,22229,1,0,0:0:0:0:
376,304,22373,1,0,0:0:0:0:
171,55,22517,1,0,0:0:0:0:
499,155,22662,1,0,0:0:0:0:
139,202,22806,1,0,0:0:0:0:
466,278,22950,1,0,0:0:0:0:
371,42,23094,5,0,0:0:0:0:
273,326,23239,1,0,0:0:0:0:
260,21,23383,5,0,0:0:0:0:
377,310,23527,1,0,0:0:0:0:
322,0,23671,5,0,0:0:0:0:
136,339,23816,1,0,0:0:0:0:
121,13,23960,5,0,0:0:0:0:
293,371,24104,1,0,0:0:0:0:
512,27,24248,6,0,L|406:39,1,90
144,128,24537,1,0,0:0:0:0:
473,153,24681,1,0,0:0:0:0:
138,34,24825,1,0,0:0:0:0:
299,363,24969,1,0,0:0:0:0:
311,18,25114,1,0,0:0:0:0:
98,309,25258,1,0,0:0:0:0:
457,344,25402,6,0,L|404:265,1,90
231,14,25691,1,0,0:0:0:0:
206,323,25835,1,0,0:0:0:0:
480,136,25979,1,0,0:0:0:0:
177,347,26123,1,0,0:0:0:0:
351,17,26267,1,0,0:0:0:0:
404,373,26412,1,0,0:0:0:0:
5,277,26556,6,0,L|67:196,1,90
234,2,26844,1,0,0:0:0:0:
276,376,26989,1,0,0:0:0:0:
12,103,27133,1,0,0:0:0:0:
371,74,27277,1,0,0:0:0:0:
22,244,27421,1,0,0:0:0:0:
347,302,27566,1,0,0:0:0:0:
166,18,27710,5,0,0:0:0:0:
124,371,27854,1,0,0:0:0:0:
271,28,27998,5,0,0:0:0:0:
314,373,28142,1,0,0:0:0:0:
4,154,28287,5,0,0:0:0:0:
486,252,28431,1,0,0:0:0:0:
0,244,28575,5,0,0:0:0:0:
496,142,28719,1,0,0:0:0:0:
95,18,28864,2,0,L|-18:-6,1,90
256,192,29080,12,0,31460,0:0:0:0:
