osu file format v14

[General]
AudioFilename: A_Rival - Crypt of the Necrodancer OST - Heart of the Crypt (4-2 Remix).mp3
AudioLeadIn: 0
PreviewTime: 15420
Countdown: 0
SampleSet: None
StackLeniency: 0.7
Mode: 3
LetterboxInBreaks: 0
SpecialStyle: 1
WidescreenStoryboard: 1

[Editor]
Bookmarks: 15420,28661,35282,48524,76661,89903,106455,119696,146179
DistanceSpacing: 1
BeatDivisor: 4
GridSize: 8
TimelineZoom: 1.7

[Metadata]
Title:Heart of the Crypt (4-2 Remix)
TitleUnicode:Heart of the Crypt (4-2 Remix)
Artist:A_Rival
ArtistUnicode:A_Rival
Creator:Tornspirit
Version:unfinished
Source:Crypt of the Necrodancer
Tags:2spooky5me
BeatmapID:1589571
BeatmapSetID:750701

[Difficulty]
HPDrainRate:8
CircleSize:4
OverallDifficulty:8
ApproachRate:5
SliderMultiplier:1.4
SliderTickRate:1

[Events]
//Background and Video events
0,0,"minimal_dove__crypt_of_the_necrodancer_by_theztret00-daqvj2p.png",0,0
//Break Periods
//Storyboard Layer 0 (Background)
//Storyboard Layer 1 (Fail)
//Storyboard Layer 2 (Pass)
//Storyboard Layer 3 (Foreground)
//Storyboard Sound Samples

[TimingPoints]
524,413.793103448276,4,1,0,10,1,0

[HitObjects]
448,192,524,128,0,1248:0:0:0:0:
192,192,524,1,0,0:0:0:0:
320,192,524,1,0,0:0:0:0:
448,192,1351,128,0,2075:0:0:0:0:
192,192,1351,1,0,0:0:0:0:
64,192,1351,1,0,0:0:0:0:
320,192,1351,1,0,0:0:0:0:
448,192,2179,128,0,2903:0:0:0:0:
192,192,2179,1,0,0:0:0:0:
64,192,2179,1,0,0:0:0:0:
448,192,3006,128,0,3317:0:0:0:0:
192,192,3006,1,0,0:0:0:0:
320,192,3006,1,0,0:0:0:0:
64,192,3006,1,0,0:0:0:0:
448,192,3420,128,0,3730:0:0:0:0:
192,192,3420,1,0,0:0:0:0:
320,192,3420,1,0,0:0:0:0:
320,192,3834,128,0,4558:0:0:0:0:
192,192,3834,1,0,0:0:0:0:
64,192,3834,1,0,0:0:0:0:
320,192,4661,128,0,5386:0:0:0:0:
64,192,4661,1,0,0:0:0:0:
192,192,4661,1,0,0:0:0:0:
448,192,4661,1,0,0:0:0:0:
192,192,5489,128,0,6213:0:0:0:0:
448,192,5489,1,0,0:0:0:0:
64,192,5489,1,0,0:0:0:0:
192,192,6317,128,0,6627:0:0:0:0:
448,192,6317,1,0,0:0:0:0:
320,192,6317,1,0,0:0:0:0:
64,192,6317,1,0,0:0:0:0:
192,192,6730,128,0,7041:0:0:0:0:
64,192,6730,1,0,0:0:0:0:
320,192,6730,1,0,0:0:0:0:
64,192,7144,128,0,7868:0:0:0:0:
320,192,7144,1,0,0:0:0:0:
448,192,7144,1,0,0:0:0:0:
64,192,7972,128,0,8696:0:0:0:0:
320,192,7972,1,0,0:0:0:0:
448,192,7972,1,0,0:0:0:0:
192,192,7972,1,0,0:0:0:0:
192,192,8799,128,0,9524:0:0:0:0:
320,192,8799,1,0,0:0:0:0:
64,192,8799,1,0,0:0:0:0:
320,192,9627,128,0,9937:0:0:0:0:
64,192,9627,1,0,0:0:0:0:
448,192,9627,1,0,0:0:0:0:
192,192,9627,1,0,0:0:0:0:
320,192,10041,128,0,10351:0:0:0:0:
192,192,10041,1,0,0:0:0:0:
448,192,10041,1,0,0:0:0:0:
448,192,10455,128,0,11179:0:0:0:0:
320,192,10455,1,0,0:0:0:0:
192,192,10455,1,0,0:0:0:0:
192,192,11282,128,0,12006:0:0:0:0:
448,192,11282,1,0,0:0:0:0:
64,192,11282,1,0,0:0:0:0:
320,192,11282,1,0,0:0:0:0:
64,192,12110,128,0,12627:0:0:0:0:
192,192,12110,1,0,0:0:0:0:
448,192,12110,1,0,0:0:0:0:
64,192,12730,128,0,12834:0:0:0:0:
320,192,12730,1,0,0:0:0:0:
448,192,12730,1,0,0:0:0:0:
64,192,12937,128,0,13248:0:0:0:0:
320,192,12937,1,0,0:0:0:0:
192,192,12937,1,0,0:0:0:0:
448,192,12937,1,0,0:0:0:0:
64,192,13351,128,0,13661:0:0:0:0:
320,192,13351,1,0,0:0:0:0:
448,192,13351,1,0,0:0:0:0:
64,192,13765,128,0,14282:0:0:0:0:
320,192,13765,1,0,0:0:0:0:
192,192,13765,1,0,0:0:0:0:
64,192,14386,128,0,14489:0:0:0:0:
320,192,14386,1,0,0:0:0:0:
192,192,14386,1,0,0:0:0:0:
64,192,14592,128,0,14903:0:0:0:0:
320,192,14592,1,0,0:0:0:0:
448,192,14592,1,0,0:0:0:0:
192,192,14592,1,0,0:0:0:0:
192,192,14903,1,0,0:0:0:0:
448,192,14903,1,0,0:0:0:0:
64,192,15006,128,0,15110:0:0:0:0:
320,192,15213,1,0,0:0:0:0:
448,192,15213,1,0,0:0:0:0:
64,192,15213,128,0,15317:0:0:0:0:
320,192,15420,1,0,0:0:0:0:
64,192,15420,1,0,0:0:0:0:
448,192,15420,1,0,0:0:0:0:
192,192,15730,1,0,0:0:0:0:
64,192,16041,1,0,0:0:0:0:
448,192,16248,1,0,0:0:0:0:
192,192,16248,1,0,0:0:0:0:
320,192,16248,1,0,0:0:0:0:
320,192,17075,1,0,0:0:0:0:
448,192,17075,1,0,0:0:0:0:
64,192,17075,1,0,0:0:0:0:
192,192,17386,1,0,0:0:0:0:
64,192,17696,1,0,0:0:0:0:
192,192,17903,1,0,0:0:0:0:
448,192,17903,1,0,0:0:0:0:
320,192,17903,1,0,0:0:0:0:
64,192,18213,1,0,0:0:0:0:
64,192,18317,1,0,0:0:0:0:
448,192,18317,1,0,0:0:0:0:
192,192,18317,1,0,0:0:0:0:
64,192,18730,1,0,0:0:0:0:
448,192,18730,1,0,0:0:0:0:
320,192,18730,1,0,0:0:0:0:
448,192,19558,1,0,0:0:0:0:
64,192,19558,1,0,0:0:0:0:
192,192,19558,1,0,0:0:0:0:
320,192,20386,1,0,0:0:0:0:
64,192,20386,1,0,0:0:0:0:
192,192,21213,1,0,0:0:0:0:
448,192,21213,1,0,0:0:0:0:
320,192,21213,1,0,0:0:0:0:
64,192,21627,128,0,22041:0:0:0:0:
448,192,21627,1,0,0:0:0:0:
320,192,21627,1,0,0:0:0:0:
192,192,22041,1,0,0:0:0:0:
320,192,22041,1,0,0:0:0:0:
320,192,22868,1,0,0:0:0:0:
64,192,22868,1,0,0:0:0:0:
448,192,22868,1,0,0:0:0:0:
192,192,23075,1,0,0:0:0:0:
320,192,23489,1,0,0:0:0:0:
192,192,23696,1,0,0:0:0:0:
64,192,23696,1,0,0:0:0:0:
448,192,23696,1,0,0:0:0:0:
192,192,24524,1,0,0:0:0:0:
448,192,24524,1,0,0:0:0:0:
320,192,24524,1,0,0:0:0:0:
64,192,24730,1,0,0:0:0:0:
448,192,24937,1,0,0:0:0:0:
320,192,24937,1,0,0:0:0:0:
192,192,25144,1,0,0:0:0:0:
64,192,25351,1,0,0:0:0:0:
448,192,25351,1,0,0:0:0:0:
320,192,25351,1,0,0:0:0:0:
192,192,26179,1,0,0:0:0:0:
64,192,26179,1,0,0:0:0:0:
320,192,26179,1,0,0:0:0:0:
448,192,26592,1,0,0:0:0:0:
192,192,27006,1,0,0:0:0:0:
64,192,27006,1,0,0:0:0:0:
320,192,27006,1,0,0:0:0:0:
192,192,27317,1,0,0:0:0:0:
64,192,27627,1,0,0:0:0:0:
320,192,27834,1,0,0:0:0:0:
448,192,27834,1,0,0:0:0:0:
64,192,27937,1,0,0:0:0:0:
64,192,28248,1,0,0:0:0:0:
192,192,28248,1,0,0:0:0:0:
448,192,28248,1,0,0:0:0:0:
320,192,28455,1,0,0:0:0:0:
64,192,28661,1,0,0:0:0:0:
448,192,28661,1,0,0:0:0:0:
320,192,28661,1,0,0:0:0:0:
192,192,29075,1,0,0:0:0:0:
448,192,29179,1,0,0:0:0:0:
192,192,29282,1,0,0:0:0:0:
448,192,29386,1,0,0:0:0:0:
192,192,29489,1,0,0:0:0:0:
64,192,29489,1,0,0:0:0:0:
192,192,29903,1,0,0:0:0:0:
448,192,30006,1,0,0:0:0:0:
192,192,30110,1,0,0:0:0:0:
448,192,30213,1,0,0:0:0:0:
192,192,30317,1,0,0:0:0:0:
320,192,30317,1,0,0:0:0:0:
192,192,30730,1,0,0:0:0:0:
448,192,30834,1,0,0:0:0:0:
192,192,30937,1,0,0:0:0:0:
448,192,31041,1,0,0:0:0:0:
192,192,31144,1,0,0:0:0:0:
64,192,31144,1,0,0:0:0:0:
192,192,31351,1,0,0:0:0:0:
320,192,31455,1,0,0:0:0:0:
448,192,31455,1,0,0:0:0:0:
192,192,31661,1,0,0:0:0:0:
320,192,31765,1,0,0:0:0:0:
448,192,31765,1,0,0:0:0:0:
192,192,31868,1,0,0:0:0:0:
448,192,31972,1,0,0:0:0:0:
320,192,31972,1,0,0:0:0:0:
320,192,32386,1,0,0:0:0:0:
448,192,32489,1,0,0:0:0:0:
320,192,32592,1,0,0:0:0:0:
448,192,32696,1,0,0:0:0:0:
64,192,32799,1,0,0:0:0:0:
320,192,32799,1,0,0:0:0:0:
320,192,33213,1,0,0:0:0:0:
448,192,33317,1,0,0:0:0:0:
320,192,33420,1,0,0:0:0:0:
448,192,33524,1,0,0:0:0:0:
320,192,33627,1,0,0:0:0:0:
192,192,33627,1,0,0:0:0:0:
320,192,33834,1,0,0:0:0:0:
448,192,33834,1,0,0:0:0:0:
192,192,33937,1,0,0:0:0:0:
64,192,33937,1,0,0:0:0:0:
320,192,34041,1,0,0:0:0:0:
448,192,34041,1,0,0:0:0:0:
64,192,34248,1,0,0:0:0:0:
320,192,34248,1,0,0:0:0:0:
192,192,34351,1,0,0:0:0:0:
448,192,34351,1,0,0:0:0:0:
64,192,34455,1,0,0:0:0:0:
320,192,34455,1,0,0:0:0:0:
64,192,34661,1,0,0:0:0:0:
448,192,34661,1,0,0:0:0:0:
192,192,34765,1,0,0:0:0:0:
320,192,34765,1,0,0:0:0:0:
448,192,34868,1,0,0:0:0:0:
64,192,34868,1,0,0:0:0:0:
320,192,34972,1,0,0:0:0:0:
192,192,34972,1,0,0:0:0:0:
448,192,35075,1,0,0:0:0:0:
64,192,35075,1,0,0:0:0:0:
320,192,35282,1,0,0:0:0:0:
64,192,35282,1,0,0:0:0:0:
192,192,35282,128,0,35489:0:0:0:0:
320,192,35489,128,0,35903:0:0:0:0:
448,192,35903,128,0,37765:0:0:0:0:
64,192,36110,1,0,0:0:0:0:
320,192,36110,1,0,0:0:0:0:
192,192,36110,1,0,0:0:0:0:
320,192,36937,1,0,0:0:0:0:
64,192,36937,1,0,0:0:0:0:
320,192,37765,1,0,0:0:0:0:
64,192,37765,1,0,0:0:0:0:
64,192,37972,128,0,38179:0:0:0:0:
448,192,38179,128,0,38386:0:0:0:0:
64,192,38386,128,0,38592:0:0:0:0:
192,192,38592,1,0,0:0:0:0:
448,192,38592,1,0,0:0:0:0:
320,192,38799,1,0,0:0:0:0:
192,192,38903,1,0,0:0:0:0:
64,192,39006,1,0,0:0:0:0:
448,192,39213,1,0,0:0:0:0:
64,192,39317,1,0,0:0:0:0:
192,192,39420,1,0,0:0:0:0:
448,192,39420,1,0,0:0:0:0:
320,192,39420,1,0,0:0:0:0:
320,192,39627,1,0,0:0:0:0:
448,192,39730,1,0,0:0:0:0:
320,192,39834,1,0,0:0:0:0:
64,192,40041,1,0,0:0:0:0:
192,192,40144,1,0,0:0:0:0:
320,192,40248,1,0,0:0:0:0:
448,192,40248,1,0,0:0:0:0:
64,192,40455,1,0,0:0:0:0:
192,192,40558,1,0,0:0:0:0:
448,192,40661,1,0,0:0:0:0:
320,192,40868,1,0,0:0:0:0:
64,192,40972,1,0,0:0:0:0:
192,192,41075,1,0,0:0:0:0:
448,192,41075,1,0,0:0:0:0:
320,192,41075,1,0,0:0:0:0:
64,192,41282,128,0,41489:0:0:0:0:
192,192,41489,128,0,41696:0:0:0:0:
320,192,41696,128,0,41903:0:0:0:0:
192,192,41903,1,0,0:0:0:0:
64,192,41903,1,0,0:0:0:0:
448,192,41903,128,0,43558:0:0:0:0:
320,192,42317,1,0,0:0:0:0:
192,192,42524,1,0,0:0:0:0:
64,192,42627,1,0,0:0:0:0:
192,192,42730,1,0,0:0:0:0:
320,192,42730,1,0,0:0:0:0:
64,192,43558,1,0,0:0:0:0:
192,192,43558,1,0,0:0:0:0:
64,192,43972,1,0,0:0:0:0:
320,192,44179,1,0,0:0:0:0:
448,192,44282,1,0,0:0:0:0:
192,192,44386,1,0,0:0:0:0:
320,192,44386,1,0,0:0:0:0:
64,192,44386,1,0,0:0:0:0:
64,192,44592,128,0,44799:0:0:0:0:
448,192,44799,128,0,45213:0:0:0:0:
320,192,45213,1,0,0:0:0:0:
64,192,45213,1,0,0:0:0:0:
192,192,45213,128,0,46868:0:0:0:0:
64,192,46041,1,0,0:0:0:0:
448,192,46041,1,0,0:0:0:0:
320,192,46041,1,0,0:0:0:0:
320,192,46868,1,0,0:0:0:0:
64,192,46868,1,0,0:0:0:0:
192,192,47696,1,0,0:0:0:0:
448,192,47696,1,0,0:0:0:0:
64,192,48524,128,0,50179:0:0:0:0:
192,192,48524,1,0,0:0:0:0:
320,192,48524,1,0,0:0:0:0:
448,192,48627,1,0,0:0:0:0:
192,192,48730,1,0,0:0:0:0:
320,192,48834,1,0,0:0:0:0:
448,192,48937,1,0,0:0:0:0:
192,192,49041,1,0,0:0:0:0:
320,192,49144,1,0,0:0:0:0:
192,192,49248,1,0,0:0:0:0:
320,192,49351,1,0,0:0:0:0:
448,192,49351,1,0,0:0:0:0:
192,192,49455,1,0,0:0:0:0:
320,192,49558,1,0,0:0:0:0:
448,192,49661,1,0,0:0:0:0:
320,192,49765,1,0,0:0:0:0:
192,192,49868,1,0,0:0:0:0:
320,192,49972,1,0,0:0:0:0:
448,192,50075,1,0,0:0:0:0:
192,192,50179,128,0,51006:0:0:0:0:
320,192,50179,1,0,0:0:0:0:
448,192,50179,1,0,0:0:0:0:
64,192,50230,1,0,0:0:0:0:
320,192,50282,1,0,0:0:0:0:
448,192,50386,1,0,0:0:0:0:
64,192,50489,1,0,0:0:0:0:
320,192,50592,1,0,0:0:0:0:
448,192,50696,1,0,0:0:0:0:
320,192,50799,1,0,0:0:0:0:
64,192,50851,1,0,0:0:0:0:
448,192,50903,1,0,0:0:0:0:
320,192,51006,128,0,51834:0:0:0:0:
64,192,51006,1,0,0:0:0:0:
448,192,51006,1,0,0:0:0:0:
192,192,51110,1,0,0:0:0:0:
64,192,51213,1,0,0:0:0:0:
192,192,51317,1,0,0:0:0:0:
64,192,51420,1,0,0:0:0:0:
448,192,51420,1,0,0:0:0:0:
192,192,51472,1,0,0:0:0:0:
64,192,51524,1,0,0:0:0:0:
448,192,51575,1,0,0:0:0:0:
192,192,51627,1,0,0:0:0:0:
448,192,51679,1,0,0:0:0:0:
64,192,51730,1,0,0:0:0:0:
192,192,51782,1,0,0:0:0:0:
448,192,51834,128,0,53282:0:0:0:0:
64,192,51834,1,0,0:0:0:0:
192,192,51937,1,0,0:0:0:0:
64,192,52041,1,0,0:0:0:0:
192,192,52144,1,0,0:0:0:0:
320,192,52248,1,0,0:0:0:0:
192,192,52351,1,0,0:0:0:0:
320,192,52455,1,0,0:0:0:0:
192,192,52558,1,0,0:0:0:0:
320,192,52661,1,0,0:0:0:0:
64,192,52661,1,0,0:0:0:0:
192,192,52765,1,0,0:0:0:0:
64,192,52868,1,0,0:0:0:0:
192,192,52972,1,0,0:0:0:0:
320,192,53075,1,0,0:0:0:0:
192,192,53179,1,0,0:0:0:0:
320,192,53282,128,0,53386:0:0:0:0:
64,192,53282,1,0,0:0:0:0:
64,192,53386,128,0,53489:0:0:0:0:
192,192,53386,1,0,0:0:0:0:
320,192,53489,128,0,54317:0:0:0:0:
192,192,53489,1,0,0:0:0:0:
448,192,53489,1,0,0:0:0:0:
64,192,53541,1,0,0:0:0:0:
448,192,53592,1,0,0:0:0:0:
192,192,53696,1,0,0:0:0:0:
64,192,53799,1,0,0:0:0:0:
192,192,53903,1,0,0:0:0:0:
448,192,54006,1,0,0:0:0:0:
192,192,54110,1,0,0:0:0:0:
64,192,54161,1,0,0:0:0:0:
448,192,54213,1,0,0:0:0:0:
64,192,54317,128,0,54730:0:0:0:0:
192,192,54317,1,0,0:0:0:0:
448,192,54317,1,0,0:0:0:0:
320,192,54420,1,0,0:0:0:0:
192,192,54524,1,0,0:0:0:0:
320,192,54627,1,0,0:0:0:0:
192,192,54730,128,0,55144:0:0:0:0:
448,192,54730,1,0,0:0:0:0:
320,192,54782,1,0,0:0:0:0:
64,192,54834,1,0,0:0:0:0:
448,192,54886,1,0,0:0:0:0:
64,192,54937,1,0,0:0:0:0:
320,192,54989,1,0,0:0:0:0:
448,192,55041,1,0,0:0:0:0:
64,192,55092,1,0,0:0:0:0:
448,192,55144,1,0,0:0:0:0:
320,192,55144,128,0,56592:0:0:0:0:
64,192,55248,1,0,0:0:0:0:
192,192,55351,1,0,0:0:0:0:
448,192,55455,1,0,0:0:0:0:
192,192,55558,1,0,0:0:0:0:
64,192,55661,1,0,0:0:0:0:
192,192,55765,1,0,0:0:0:0:
448,192,55868,1,0,0:0:0:0:
192,192,55972,1,0,0:0:0:0:
64,192,55972,1,0,0:0:0:0:
448,192,56075,1,0,0:0:0:0:
64,192,56179,1,0,0:0:0:0:
192,192,56282,1,0,0:0:0:0:
448,192,56386,1,0,0:0:0:0:
192,192,56489,1,0,0:0:0:0:
64,192,56592,128,0,56696:0:0:0:0:
448,192,56592,1,0,0:0:0:0:
192,192,56696,128,0,56799:0:0:0:0:
320,192,56696,1,0,0:0:0:0:
448,192,56799,128,0,57627:0:0:0:0:
320,192,56799,1,0,0:0:0:0:
64,192,56799,1,0,0:0:0:0:
192,192,56851,1,0,0:0:0:0:
64,192,56903,1,0,0:0:0:0:
320,192,57006,1,0,0:0:0:0:
192,192,57110,1,0,0:0:0:0:
64,192,57213,1,0,0:0:0:0:
192,192,57317,1,0,0:0:0:0:
320,192,57420,1,0,0:0:0:0:
64,192,57472,1,0,0:0:0:0:
192,192,57524,1,0,0:0:0:0:
320,192,57627,128,0,58455:0:0:0:0:
192,192,57627,1,0,0:0:0:0:
64,192,57627,1,0,0:0:0:0:
448,192,57730,1,0,0:0:0:0:
192,192,57834,1,0,0:0:0:0:
64,192,57937,1,0,0:0:0:0:
192,192,58041,1,0,0:0:0:0:
448,192,58041,1,0,0:0:0:0:
64,192,58092,1,0,0:0:0:0:
192,192,58144,1,0,0:0:0:0:
448,192,58196,1,0,0:0:0:0:
64,192,58248,1,0,0:0:0:0:
192,192,58299,1,0,0:0:0:0:
448,192,58351,1,0,0:0:0:0:
192,192,58403,1,0,0:0:0:0:
64,192,58455,128,0,59903:0:0:0:0:
448,192,58455,1,0,0:0:0:0:
192,192,58558,1,0,0:0:0:0:
320,192,58661,1,0,0:0:0:0:
448,192,58765,1,0,0:0:0:0:
320,192,58868,1,0,0:0:0:0:
192,192,58972,1,0,0:0:0:0:
448,192,59075,1,0,0:0:0:0:
320,192,59179,1,0,0:0:0:0:
192,192,59282,1,0,0:0:0:0:
448,192,59282,1,0,0:0:0:0:
320,192,59386,1,0,0:0:0:0:
192,192,59489,1,0,0:0:0:0:
320,192,59592,1,0,0:0:0:0:
448,192,59696,1,0,0:0:0:0:
320,192,59799,1,0,0:0:0:0:
448,192,59903,128,0,60006:0:0:0:0:
192,192,59903,1,0,0:0:0:0:
320,192,60006,128,0,60110:0:0:0:0:
64,192,60006,1,0,0:0:0:0:
448,192,60110,128,0,61558:0:0:0:0:
192,192,60110,1,0,0:0:0:0:
64,192,60110,1,0,0:0:0:0:
320,192,60161,1,0,0:0:0:0:
192,192,60213,1,0,0:0:0:0:
64,192,60317,1,0,0:0:0:0:
320,192,60420,1,0,0:0:0:0:
64,192,60524,1,0,0:0:0:0:
192,192,60627,1,0,0:0:0:0:
320,192,60730,1,0,0:0:0:0:
64,192,60782,1,0,0:0:0:0:
192,192,60834,1,0,0:0:0:0:
320,192,60937,1,0,0:0:0:0:
64,192,60937,1,0,0:0:0:0:
192,192,61041,1,0,0:0:0:0:
64,192,61144,1,0,0:0:0:0:
320,192,61248,1,0,0:0:0:0:
64,192,61351,1,0,0:0:0:0:
192,192,61403,1,0,0:0:0:0:
320,192,61455,1,0,0:0:0:0:
64,192,61506,1,0,0:0:0:0:
320,192,61558,128,0,61661:0:0:0:0:
192,192,61558,1,0,0:0:0:0:
64,192,61610,1,0,0:0:0:0:
192,192,61661,128,0,61765:0:0:0:0:
448,192,61661,1,0,0:0:0:0:
64,192,61713,1,0,0:0:0:0:
320,192,61765,128,0,62386:0:0:0:0:
448,192,61765,1,0,0:0:0:0:
64,192,61868,1,0,0:0:0:0:
192,192,61972,1,0,0:0:0:0:
448,192,62075,1,0,0:0:0:0:
64,192,62075,1,0,0:0:0:0:
192,192,62179,1,0,0:0:0:0:
448,192,62282,1,0,0:0:0:0:
192,192,62386,128,0,62489:0:0:0:0:
64,192,62386,1,0,0:0:0:0:
448,192,62386,1,0,0:0:0:0:
64,192,62489,128,0,62592:0:0:0:0:
320,192,62489,1,0,0:0:0:0:
192,192,62592,128,0,63006:0:0:0:0:
320,192,62592,1,0,0:0:0:0:
448,192,62592,1,0,0:0:0:0:
64,192,62696,1,0,0:0:0:0:
320,192,62799,1,0,0:0:0:0:
448,192,62903,1,0,0:0:0:0:
320,192,63006,128,0,63420:0:0:0:0:
64,192,63006,1,0,0:0:0:0:
192,192,63110,1,0,0:0:0:0:
448,192,63213,1,0,0:0:0:0:
192,192,63317,1,0,0:0:0:0:
448,192,63420,128,0,63627:0:0:0:0:
192,192,63420,1,0,0:0:0:0:
64,192,63420,1,0,0:0:0:0:
320,192,63472,1,0,0:0:0:0:
64,192,63524,1,0,0:0:0:0:
192,192,63627,128,0,64041:0:0:0:0:
320,192,63627,1,0,0:0:0:0:
64,192,63730,1,0,0:0:0:0:
448,192,63834,1,0,0:0:0:0:
320,192,63937,1,0,0:0:0:0:
64,192,64041,128,0,66110:0:0:0:0:
448,192,64041,1,0,0:0:0:0:
320,192,64092,1,0,0:0:0:0:
192,192,64144,1,0,0:0:0:0:
448,192,64248,1,0,0:0:0:0:
320,192,64248,1,0,0:0:0:0:
192,192,64351,1,0,0:0:0:0:
448,192,64455,1,0,0:0:0:0:
320,192,64558,1,0,0:0:0:0:
192,192,64661,1,0,0:0:0:0:
448,192,64713,1,0,0:0:0:0:
320,192,64765,1,0,0:0:0:0:
448,192,64817,1,0,0:0:0:0:
192,192,64868,1,0,0:0:0:0:
448,192,64920,1,0,0:0:0:0:
320,192,64972,1,0,0:0:0:0:
192,192,65024,1,0,0:0:0:0:
320,192,65075,1,0,0:0:0:0:
448,192,65075,1,0,0:0:0:0:
192,192,65179,1,0,0:0:0:0:
448,192,65282,1,0,0:0:0:0:
320,192,65386,1,0,0:0:0:0:
448,192,65489,1,0,0:0:0:0:
192,192,65592,1,0,0:0:0:0:
448,192,65696,1,0,0:0:0:0:
320,192,65799,1,0,0:0:0:0:
192,192,65903,1,0,0:0:0:0:
448,192,65903,1,0,0:0:0:0:
320,192,66006,1,0,0:0:0:0:
192,192,66110,128,0,66317:0:0:0:0:
448,192,66110,1,0,0:0:0:0:
64,192,66213,1,0,0:0:0:0:
448,192,66317,128,0,66730:0:0:0:0:
320,192,66317,1,0,0:0:0:0:
64,192,66420,1,0,0:0:0:0:
320,192,66524,1,0,0:0:0:0:
192,192,66627,1,0,0:0:0:0:
320,192,66730,128,0,68179:0:0:0:0:
192,192,66730,1,0,0:0:0:0:
64,192,66730,1,0,0:0:0:0:
448,192,66782,1,0,0:0:0:0:
64,192,66834,1,0,0:0:0:0:
192,192,66937,1,0,0:0:0:0:
448,192,67041,1,0,0:0:0:0:
64,192,67144,1,0,0:0:0:0:
192,192,67248,1,0,0:0:0:0:
448,192,67351,1,0,0:0:0:0:
64,192,67403,1,0,0:0:0:0:
192,192,67455,1,0,0:0:0:0:
448,192,67558,1,0,0:0:0:0:
64,192,67558,1,0,0:0:0:0:
192,192,67661,1,0,0:0:0:0:
448,192,67765,1,0,0:0:0:0:
192,192,67868,1,0,0:0:0:0:
64,192,67972,1,0,0:0:0:0:
448,192,68024,1,0,0:0:0:0:
192,192,68075,1,0,0:0:0:0:
448,192,68127,1,0,0:0:0:0:
192,192,68179,128,0,68386:0:0:0:0:
64,192,68179,1,0,0:0:0:0:
448,192,68230,1,0,0:0:0:0:
64,192,68282,1,0,0:0:0:0:
320,192,68334,1,0,0:0:0:0:
64,192,68386,128,0,69627:0:0:0:0:
448,192,68386,1,0,0:0:0:0:
320,192,68489,1,0,0:0:0:0:
192,192,68592,1,0,0:0:0:0:
320,192,68696,1,0,0:0:0:0:
448,192,68799,1,0,0:0:0:0:
320,192,68903,1,0,0:0:0:0:
192,192,69006,1,0,0:0:0:0:
320,192,69110,1,0,0:0:0:0:
192,192,69213,1,0,0:0:0:0:
448,192,69213,1,0,0:0:0:0:
320,192,69317,1,0,0:0:0:0:
448,192,69420,1,0,0:0:0:0:
192,192,69524,1,0,0:0:0:0:
320,192,69627,128,0,69834:0:0:0:0:
448,192,69627,1,0,0:0:0:0:
64,192,69730,1,0,0:0:0:0:
448,192,69834,128,0,69937:0:0:0:0:
192,192,69834,1,0,0:0:0:0:
64,192,69937,128,0,70041:0:0:0:0:
320,192,69937,1,0,0:0:0:0:
192,192,70041,128,0,70248:0:0:0:0:
320,192,70041,1,0,0:0:0:0:
448,192,70041,1,0,0:0:0:0:
64,192,70092,1,0,0:0:0:0:
448,192,70144,1,0,0:0:0:0:
320,192,70248,128,0,70661:0:0:0:0:
64,192,70248,1,0,0:0:0:0:
448,192,70351,1,0,0:0:0:0:
192,192,70455,1,0,0:0:0:0:
64,192,70558,1,0,0:0:0:0:
448,192,70661,128,0,72110:0:0:0:0:
192,192,70661,1,0,0:0:0:0:
64,192,70713,1,0,0:0:0:0:
320,192,70765,1,0,0:0:0:0:
192,192,70868,1,0,0:0:0:0:
64,192,70868,1,0,0:0:0:0:
320,192,70972,1,0,0:0:0:0:
192,192,71075,1,0,0:0:0:0:
64,192,71179,1,0,0:0:0:0:
192,192,71282,1,0,0:0:0:0:
320,192,71334,1,0,0:0:0:0:
64,192,71386,1,0,0:0:0:0:
192,192,71437,1,0,0:0:0:0:
320,192,71489,1,0,0:0:0:0:
64,192,71541,1,0,0:0:0:0:
320,192,71592,1,0,0:0:0:0:
64,192,71644,1,0,0:0:0:0:
320,192,71696,1,0,0:0:0:0:
192,192,71696,1,0,0:0:0:0:
64,192,71799,1,0,0:0:0:0:
192,192,71903,1,0,0:0:0:0:
320,192,72006,1,0,0:0:0:0:
64,192,72110,1,0,0:0:0:0:
192,192,72213,1,0,0:0:0:0:
448,192,72317,1,0,0:0:0:0:
320,192,72420,1,0,0:0:0:0:
192,192,72524,1,0,0:0:0:0:
64,192,72524,1,0,0:0:0:0:
320,192,72627,1,0,0:0:0:0:
448,192,72730,128,0,72937:0:0:0:0:
64,192,72730,1,0,0:0:0:0:
192,192,72834,1,0,0:0:0:0:
64,192,72937,128,0,73351:0:0:0:0:
320,192,72937,1,0,0:0:0:0:
448,192,73041,1,0,0:0:0:0:
192,192,73144,1,0,0:0:0:0:
320,192,73248,1,0,0:0:0:0:
192,192,73351,128,0,74799:0:0:0:0:
320,192,73351,1,0,0:0:0:0:
448,192,73351,1,0,0:0:0:0:
64,192,73403,1,0,0:0:0:0:
448,192,73455,1,0,0:0:0:0:
320,192,73558,1,0,0:0:0:0:
64,192,73661,1,0,0:0:0:0:
320,192,73765,1,0,0:0:0:0:
448,192,73868,1,0,0:0:0:0:
64,192,73972,1,0,0:0:0:0:
320,192,74024,1,0,0:0:0:0:
448,192,74075,1,0,0:0:0:0:
64,192,74179,1,0,0:0:0:0:
320,192,74179,1,0,0:0:0:0:
448,192,74282,1,0,0:0:0:0:
64,192,74386,1,0,0:0:0:0:
320,192,74489,1,0,0:0:0:0:
64,192,74592,1,0,0:0:0:0:
448,192,74644,1,0,0:0:0:0:
64,192,74696,1,0,0:0:0:0:
320,192,74748,1,0,0:0:0:0:
64,192,74799,128,0,75006:0:0:0:0:
448,192,74799,1,0,0:0:0:0:
320,192,74851,1,0,0:0:0:0:
192,192,74903,1,0,0:0:0:0:
320,192,74955,1,0,0:0:0:0:
448,192,75006,128,0,75420:0:0:0:0:
192,192,75006,1,0,0:0:0:0:
192,192,75110,1,0,0:0:0:0:
320,192,75213,1,0,0:0:0:0:
320,192,75317,1,0,0:0:0:0:
192,192,75420,128,0,75834:0:0:0:0:
64,192,75420,1,0,0:0:0:0:
64,192,75524,1,0,0:0:0:0:
448,192,75627,1,0,0:0:0:0:
448,192,75730,1,0,0:0:0:0:
320,192,75834,128,0,76248:0:0:0:0:
64,192,75834,1,0,0:0:0:0:
448,192,75834,1,0,0:0:0:0:
64,192,75937,1,0,0:0:0:0:
192,192,76041,1,0,0:0:0:0:
192,192,76144,1,0,0:0:0:0:
64,192,76248,128,0,76661:0:0:0:0:
448,192,76248,1,0,0:0:0:0:
448,192,76351,1,0,0:0:0:0:
320,192,76455,1,0,0:0:0:0:
320,192,76558,1,0,0:0:0:0:
448,192,76661,5,0,0:0:0:0:
192,192,76661,1,0,0:0:0:0:
320,192,76765,1,0,0:0:0:0:
64,192,76972,1,0,0:0:0:0:
192,192,77075,1,0,0:0:0:0:
320,192,77179,1,0,0:0:0:0:
64,192,77282,1,0,0:0:0:0:
192,192,77282,1,0,0:0:0:0:
448,192,77386,1,0,0:0:0:0:
64,192,77489,1,0,0:0:0:0:
192,192,77489,1,0,0:0:0:0:
320,192,77489,1,0,0:0:0:0:
448,192,77592,1,0,0:0:0:0:
320,192,77696,1,0,0:0:0:0:
192,192,77799,1,0,0:0:0:0:
64,192,77903,1,0,0:0:0:0:
192,192,78006,1,0,0:0:0:0:
320,192,78110,1,0,0:0:0:0:
448,192,78213,1,0,0:0:0:0:
64,192,78317,1,0,0:0:0:0:
320,192,78317,1,0,0:0:0:0:
192,192,78420,1,0,0:0:0:0:
64,192,78627,1,0,0:0:0:0:
320,192,78627,1,0,0:0:0:0:
448,192,78730,1,0,0:0:0:0:
192,192,78834,1,0,0:0:0:0:
64,192,78937,1,0,0:0:0:0:
320,192,78937,1,0,0:0:0:0:
448,192,79041,1,0,0:0:0:0:
320,192,79144,1,0,0:0:0:0:
64,192,79144,1,0,0:0:0:0:
192,192,79144,1,0,0:0:0:0:
448,192,79248,1,0,0:0:0:0:
320,192,79351,1,0,0:0:0:0:
64,192,79455,1,0,0:0:0:0:
448,192,79558,1,0,0:0:0:0:
320,192,79661,1,0,0:0:0:0:
192,192,79765,1,0,0:0:0:0:
64,192,79868,1,0,0:0:0:0:
448,192,80075,1,0,0:0:0:0:
320,192,80075,1,0,0:0:0:0:
320,192,80282,1,0,0:0:0:0:
448,192,80282,1,0,0:0:0:0:
320,192,80386,1,0,0:0:0:0:
448,192,80386,1,0,0:0:0:0:
320,192,80489,1,0,0:0:0:0:
448,192,80489,1,0,0:0:0:0:
64,192,80592,1,0,0:0:0:0:
192,192,80592,1,0,0:0:0:0:
320,192,80696,1,0,0:0:0:0:
448,192,80696,1,0,0:0:0:0:
320,192,80799,1,0,0:0:0:0:
192,192,80799,1,0,0:0:0:0:
64,192,80799,1,0,0:0:0:0:
192,192,80903,1,0,0:0:0:0:
448,192,80903,1,0,0:0:0:0:
192,192,81006,1,0,0:0:0:0:
448,192,81006,1,0,0:0:0:0:
192,192,81110,1,0,0:0:0:0:
448,192,81110,1,0,0:0:0:0:
192,192,81213,1,0,0:0:0:0:
448,192,81213,1,0,0:0:0:0:
192,192,81317,1,0,0:0:0:0:
448,192,81317,1,0,0:0:0:0:
192,192,81420,1,0,0:0:0:0:
448,192,81420,1,0,0:0:0:0:
192,192,81524,1,0,0:0:0:0:
448,192,81524,1,0,0:0:0:0:
320,192,81627,1,0,0:0:0:0:
448,192,81627,1,0,0:0:0:0:
64,192,81730,1,0,0:0:0:0:
320,192,81730,1,0,0:0:0:0:
192,192,81937,1,0,0:0:0:0:
448,192,81937,1,0,0:0:0:0:
320,192,82041,1,0,0:0:0:0:
64,192,82041,1,0,0:0:0:0:
320,192,82144,1,0,0:0:0:0:
64,192,82144,1,0,0:0:0:0:
192,192,82248,1,0,0:0:0:0:
448,192,82248,1,0,0:0:0:0:
320,192,82351,1,0,0:0:0:0:
64,192,82351,1,0,0:0:0:0:
192,192,82455,1,0,0:0:0:0:
448,192,82455,1,0,0:0:0:0:
320,192,82455,1,0,0:0:0:0:
192,192,82558,1,0,0:0:0:0:
448,192,82558,1,0,0:0:0:0:
320,192,82661,1,0,0:0:0:0:
64,192,82661,1,0,0:0:0:0:
192,192,82765,1,0,0:0:0:0:
64,192,82765,1,0,0:0:0:0:
320,192,82868,1,0,0:0:0:0:
64,192,82868,1,0,0:0:0:0:
192,192,82868,1,0,0:0:0:0:
64,192,82972,1,0,0:0:0:0:
192,192,82972,1,0,0:0:0:0:
448,192,82972,1,0,0:0:0:0:
320,192,83075,1,0,0:0:0:0:
64,192,83075,1,0,0:0:0:0:
448,192,83075,1,0,0:0:0:0:
320,192,83179,1,0,0:0:0:0:
448,192,83179,1,0,0:0:0:0:
192,192,83179,1,0,0:0:0:0:
64,192,83282,5,0,0:0:0:0:
320,192,83282,1,0,0:0:0:0:
192,192,83386,1,0,0:0:0:0:
448,192,83386,1,0,0:0:0:0:
192,192,83592,1,0,0:0:0:0:
448,192,83592,1,0,0:0:0:0:
192,192,83696,1,0,0:0:0:0:
448,192,83696,1,0,0:0:0:0:
192,192,83799,1,0,0:0:0:0:
448,192,83799,1,0,0:0:0:0:
64,192,83903,1,0,0:0:0:0:
320,192,83903,1,0,0:0:0:0:
192,192,84006,1,0,0:0:0:0:
448,192,84006,1,0,0:0:0:0:
320,192,84110,1,0,0:0:0:0:
192,192,84110,1,0,0:0:0:0:
64,192,84110,1,0,0:0:0:0:
192,192,84213,1,0,0:0:0:0:
448,192,84213,1,0,0:0:0:0:
192,192,84317,1,0,0:0:0:0:
448,192,84317,1,0,0:0:0:0:
192,192,84420,1,0,0:0:0:0:
448,192,84420,1,0,0:0:0:0:
192,192,84524,1,0,0:0:0:0:
448,192,84524,1,0,0:0:0:0:
192,192,84627,1,0,0:0:0:0:
448,192,84627,1,0,0:0:0:0:
192,192,84730,1,0,0:0:0:0:
448,192,84730,1,0,0:0:0:0:
192,192,84834,1,0,0:0:0:0:
448,192,84834,1,0,0:0:0:0:
448,192,84937,1,0,0:0:0:0:
64,192,84937,1,0,0:0:0:0:
320,192,85041,1,0,0:0:0:0:
192,192,85041,1,0,0:0:0:0:
192,192,85248,1,0,0:0:0:0:
320,192,85248,1,0,0:0:0:0:
192,192,85351,1,0,0:0:0:0:
320,192,85351,1,0,0:0:0:0:
320,192,85455,1,0,0:0:0:0:
192,192,85455,1,0,0:0:0:0:
64,192,85558,1,0,0:0:0:0:
448,192,85558,1,0,0:0:0:0:
320,192,85661,1,0,0:0:0:0:
64,192,85661,1,0,0:0:0:0:
192,192,85765,1,0,0:0:0:0:
448,192,85765,1,0,0:0:0:0:
320,192,85765,1,0,0:0:0:0:
64,192,85868,1,0,0:0:0:0:
448,192,85868,1,0,0:0:0:0:
320,192,85972,1,0,0:0:0:0:
64,192,85972,1,0,0:0:0:0:
192,192,86075,1,0,0:0:0:0:
64,192,86075,1,0,0:0:0:0:
320,192,86179,1,0,0:0:0:0:
64,192,86179,1,0,0:0:0:0:
320,192,86282,1,0,0:0:0:0:
64,192,86282,1,0,0:0:0:0:
320,192,86386,1,0,0:0:0:0:
64,192,86386,1,0,0:0:0:0:
320,192,86489,1,0,0:0:0:0:
64,192,86489,1,0,0:0:0:0:
448,192,86592,5,0,0:0:0:0:
320,192,86592,1,0,0:0:0:0:
64,192,86696,1,0,0:0:0:0:
192,192,86696,1,0,0:0:0:0:
192,192,86903,1,0,0:0:0:0:
64,192,86903,1,0,0:0:0:0:
192,192,87006,1,0,0:0:0:0:
64,192,87006,1,0,0:0:0:0:
192,192,87110,1,0,0:0:0:0:
64,192,87110,1,0,0:0:0:0:
448,192,87213,1,0,0:0:0:0:
320,192,87213,1,0,0:0:0:0:
192,192,87317,1,0,0:0:0:0:
64,192,87317,1,0,0:0:0:0:
192,192,87420,1,0,0:0:0:0:
320,192,87420,1,0,0:0:0:0:
448,192,87420,1,0,0:0:0:0:
320,192,87524,1,0,0:0:0:0:
64,192,87524,1,0,0:0:0:0:
320,192,87627,1,0,0:0:0:0:
64,192,87627,1,0,0:0:0:0:
320,192,87730,1,0,0:0:0:0:
64,192,87730,1,0,0:0:0:0:
320,192,87834,1,0,0:0:0:0:
64,192,87834,1,0,0:0:0:0:
320,192,87937,1,0,0:0:0:0:
64,192,87937,1,0,0:0:0:0:
320,192,88041,1,0,0:0:0:0:
64,192,88041,1,0,0:0:0:0:
320,192,88144,1,0,0:0:0:0:
64,192,88144,1,0,0:0:0:0:
192,192,88248,1,0,0:0:0:0:
448,192,88248,1,0,0:0:0:0:
448,192,88351,1,0,0:0:0:0:
192,192,88351,1,0,0:0:0:0:
320,192,88558,1,0,0:0:0:0:
64,192,88558,1,0,0:0:0:0:
192,192,88661,1,0,0:0:0:0:
448,192,88661,1,0,0:0:0:0:
192,192,88765,1,0,0:0:0:0:
448,192,88765,1,0,0:0:0:0:
320,192,88868,1,0,0:0:0:0:
64,192,88868,1,0,0:0:0:0:
320,192,88972,1,0,0:0:0:0:
448,192,88972,1,0,0:0:0:0:
320,192,89075,1,0,0:0:0:0:
64,192,89075,1,0,0:0:0:0:
192,192,89075,1,0,0:0:0:0:
320,192,89179,1,0,0:0:0:0:
64,192,89179,1,0,0:0:0:0:
448,192,89179,1,0,0:0:0:0:
192,192,89282,1,0,0:0:0:0:
448,192,89282,1,0,0:0:0:0:
64,192,89282,1,0,0:0:0:0:
320,192,89386,1,0,0:0:0:0:
448,192,89386,1,0,0:0:0:0:
64,192,89386,1,0,0:0:0:0:
192,192,89489,1,0,0:0:0:0:
448,192,89489,1,0,0:0:0:0:
320,192,89489,1,0,0:0:0:0:
448,192,89592,1,0,0:0:0:0:
64,192,89592,1,0,0:0:0:0:
192,192,89592,1,0,0:0:0:0:
448,192,89696,1,0,0:0:0:0:
64,192,89696,1,0,0:0:0:0:
320,192,89696,1,0,0:0:0:0:
192,192,89799,1,0,0:0:0:0:
64,192,89799,1,0,0:0:0:0:
320,192,89799,1,0,0:0:0:0:
192,192,89903,1,0,0:0:0:0:
448,192,89903,1,0,0:0:0:0:
320,192,90006,1,0,0:0:0:0:
64,192,90006,1,0,0:0:0:0:
320,192,90213,1,0,0:0:0:0:
64,192,90213,1,0,0:0:0:0:
320,192,90317,1,0,0:0:0:0:
64,192,90317,1,0,0:0:0:0:
320,192,90420,1,0,0:0:0:0:
64,192,90420,1,0,0:0:0:0:
192,192,90524,1,0,0:0:0:0:
448,192,90524,1,0,0:0:0:0:
192,192,90627,1,0,0:0:0:0:
320,192,90627,1,0,0:0:0:0:
320,192,90730,1,0,0:0:0:0:
64,192,90730,1,0,0:0:0:0:
448,192,90730,1,0,0:0:0:0:
320,192,90834,1,0,0:0:0:0:
192,192,90834,1,0,0:0:0:0:
320,192,90937,1,0,0:0:0:0:
192,192,90937,1,0,0:0:0:0:
320,192,91041,1,0,0:0:0:0:
192,192,91041,1,0,0:0:0:0:
320,192,91144,1,0,0:0:0:0:
192,192,91144,1,0,0:0:0:0:
320,192,91248,1,0,0:0:0:0:
192,192,91248,1,0,0:0:0:0:
320,192,91351,1,0,0:0:0:0:
192,192,91351,1,0,0:0:0:0:
320,192,91455,1,0,0:0:0:0:
192,192,91455,1,0,0:0:0:0:
192,192,91558,1,0,0:0:0:0:
448,192,91558,1,0,0:0:0:0:
320,192,91661,1,0,0:0:0:0:
64,192,91661,1,0,0:0:0:0:
320,192,91868,1,0,0:0:0:0:
64,192,91868,1,0,0:0:0:0:
320,192,91972,1,0,0:0:0:0:
64,192,91972,1,0,0:0:0:0:
320,192,92075,1,0,0:0:0:0:
64,192,92075,1,0,0:0:0:0:
192,192,92179,1,0,0:0:0:0:
448,192,92179,1,0,0:0:0:0:
320,192,92282,1,0,0:0:0:0:
448,192,92282,1,0,0:0:0:0:
320,192,92386,1,0,0:0:0:0:
192,192,92386,1,0,0:0:0:0:
64,192,92386,1,0,0:0:0:0:
320,192,92489,1,0,0:0:0:0:
448,192,92489,1,0,0:0:0:0:
320,192,92592,1,0,0:0:0:0:
448,192,92592,1,0,0:0:0:0:
320,192,92696,1,0,0:0:0:0:
448,192,92696,1,0,0:0:0:0:
320,192,92799,1,0,0:0:0:0:
448,192,92799,1,0,0:0:0:0:
320,192,92903,1,0,0:0:0:0:
448,192,92903,1,0,0:0:0:0:
320,192,93006,1,0,0:0:0:0:
448,192,93006,1,0,0:0:0:0:
320,192,93110,1,0,0:0:0:0:
448,192,93110,1,0,0:0:0:0:
320,192,93213,1,0,0:0:0:0:
64,192,93213,1,0,0:0:0:0:
192,192,93317,1,0,0:0:0:0:
448,192,93317,1,0,0:0:0:0:
192,192,93524,1,0,0:0:0:0:
448,192,93524,1,0,0:0:0:0:
192,192,93627,1,0,0:0:0:0:
448,192,93627,1,0,0:0:0:0:
192,192,93730,1,0,0:0:0:0:
448,192,93730,1,0,0:0:0:0:
320,192,93834,1,0,0:0:0:0:
64,192,93834,1,0,0:0:0:0:
64,192,93937,1,0,0:0:0:0:
192,192,93937,1,0,0:0:0:0:
320,192,94041,1,0,0:0:0:0:
192,192,94041,1,0,0:0:0:0:
448,192,94041,1,0,0:0:0:0:
64,192,94144,1,0,0:0:0:0:
192,192,94144,1,0,0:0:0:0:
64,192,94248,1,0,0:0:0:0:
192,192,94248,1,0,0:0:0:0:
64,192,94351,1,0,0:0:0:0:
192,192,94351,1,0,0:0:0:0:
64,192,94455,1,0,0:0:0:0:
192,192,94455,1,0,0:0:0:0:
64,192,94558,1,0,0:0:0:0:
192,192,94558,1,0,0:0:0:0:
64,192,94661,1,0,0:0:0:0:
192,192,94661,1,0,0:0:0:0:
64,192,94765,1,0,0:0:0:0:
192,192,94765,1,0,0:0:0:0:
64,192,94868,1,0,0:0:0:0:
448,192,94868,1,0,0:0:0:0:
64,192,94972,1,0,0:0:0:0:
448,192,94972,1,0,0:0:0:0:
448,192,95179,1,0,0:0:0:0:
192,192,95179,1,0,0:0:0:0:
64,192,95282,1,0,0:0:0:0:
448,192,95282,1,0,0:0:0:0:
448,192,95386,1,0,0:0:0:0:
64,192,95386,1,0,0:0:0:0:
64,192,95489,1,0,0:0:0:0:
320,192,95489,1,0,0:0:0:0:
192,192,95592,1,0,0:0:0:0:
320,192,95592,1,0,0:0:0:0:
192,192,95696,1,0,0:0:0:0:
448,192,95696,1,0,0:0:0:0:
64,192,95696,1,0,0:0:0:0:
320,192,95799,1,0,0:0:0:0:
64,192,95799,1,0,0:0:0:0:
320,192,95903,1,0,0:0:0:0:
64,192,95903,1,0,0:0:0:0:
320,192,96006,1,0,0:0:0:0:
64,192,96006,1,0,0:0:0:0:
320,192,96110,1,0,0:0:0:0:
64,192,96110,1,0,0:0:0:0:
192,192,96110,1,0,0:0:0:0:
64,192,96213,1,0,0:0:0:0:
192,192,96213,1,0,0:0:0:0:
448,192,96213,1,0,0:0:0:0:
320,192,96317,1,0,0:0:0:0:
64,192,96317,1,0,0:0:0:0:
320,192,96420,1,0,0:0:0:0:
192,192,96420,1,0,0:0:0:0:
448,192,96420,1,0,0:0:0:0:
64,192,96524,1,0,0:0:0:0:
192,192,96524,1,0,0:0:0:0:
320,192,96627,1,0,0:0:0:0:
448,192,96627,1,0,0:0:0:0:
320,192,96834,1,0,0:0:0:0:
448,192,96834,1,0,0:0:0:0:
320,192,96937,1,0,0:0:0:0:
448,192,96937,1,0,0:0:0:0:
320,192,97041,1,0,0:0:0:0:
448,192,97041,1,0,0:0:0:0:
192,192,97144,1,0,0:0:0:0:
64,192,97144,1,0,0:0:0:0:
320,192,97248,1,0,0:0:0:0:
448,192,97248,1,0,0:0:0:0:
320,192,97351,1,0,0:0:0:0:
192,192,97351,1,0,0:0:0:0:
64,192,97351,1,0,0:0:0:0:
320,192,97455,1,0,0:0:0:0:
448,192,97455,1,0,0:0:0:0:
320,192,97558,1,0,0:0:0:0:
448,192,97558,1,0,0:0:0:0:
448,192,97661,1,0,0:0:0:0:
320,192,97661,1,0,0:0:0:0:
320,192,97765,1,0,0:0:0:0:
448,192,97765,1,0,0:0:0:0:
320,192,97868,1,0,0:0:0:0:
448,192,97868,1,0,0:0:0:0:
320,192,97972,1,0,0:0:0:0:
448,192,97972,1,0,0:0:0:0:
320,192,98075,1,0,0:0:0:0:
448,192,98075,1,0,0:0:0:0:
448,192,98179,1,0,0:0:0:0:
192,192,98179,1,0,0:0:0:0:
192,192,98282,1,0,0:0:0:0:
64,192,98282,1,0,0:0:0:0:
192,192,98489,1,0,0:0:0:0:
64,192,98489,1,0,0:0:0:0:
192,192,98592,1,0,0:0:0:0:
64,192,98592,1,0,0:0:0:0:
192,192,98696,1,0,0:0:0:0:
64,192,98696,1,0,0:0:0:0:
448,192,98799,1,0,0:0:0:0:
192,192,98799,1,0,0:0:0:0:
192,192,98903,1,0,0:0:0:0:
64,192,98903,1,0,0:0:0:0:
320,192,99006,1,0,0:0:0:0:
64,192,99006,1,0,0:0:0:0:
448,192,99006,1,0,0:0:0:0:
192,192,99110,1,0,0:0:0:0:
64,192,99110,1,0,0:0:0:0:
192,192,99213,1,0,0:0:0:0:
64,192,99213,1,0,0:0:0:0:
192,192,99317,1,0,0:0:0:0:
64,192,99317,1,0,0:0:0:0:
192,192,99420,1,0,0:0:0:0:
64,192,99420,1,0,0:0:0:0:
192,192,99524,1,0,0:0:0:0:
64,192,99524,1,0,0:0:0:0:
192,192,99627,1,0,0:0:0:0:
64,192,99627,1,0,0:0:0:0:
192,192,99730,1,0,0:0:0:0:
64,192,99730,1,0,0:0:0:0:
64,192,99834,1,0,0:0:0:0:
320,192,99834,1,0,0:0:0:0:
192,192,99937,1,0,0:0:0:0:
448,192,99937,1,0,0:0:0:0:
192,192,100144,1,0,0:0:0:0:
448,192,100144,1,0,0:0:0:0:
192,192,100248,1,0,0:0:0:0:
448,192,100248,1,0,0:0:0:0:
192,192,100351,1,0,0:0:0:0:
448,192,100351,1,0,0:0:0:0:
320,192,100455,1,0,0:0:0:0:
64,192,100455,1,0,0:0:0:0:
192,192,100558,1,0,0:0:0:0:
448,192,100558,1,0,0:0:0:0:
320,192,100661,1,0,0:0:0:0:
192,192,100661,1,0,0:0:0:0:
64,192,100661,1,0,0:0:0:0:
192,192,100765,1,0,0:0:0:0:
448,192,100765,1,0,0:0:0:0:
192,192,100868,1,0,0:0:0:0:
448,192,100868,1,0,0:0:0:0:
192,192,100972,1,0,0:0:0:0:
448,192,100972,1,0,0:0:0:0:
192,192,101075,1,0,0:0:0:0:
448,192,101075,1,0,0:0:0:0:
192,192,101179,1,0,0:0:0:0:
448,192,101179,1,0,0:0:0:0:
448,192,101282,1,0,0:0:0:0:
192,192,101282,1,0,0:0:0:0:
192,192,101386,1,0,0:0:0:0:
448,192,101386,1,0,0:0:0:0:
64,192,101489,1,0,0:0:0:0:
448,192,101489,1,0,0:0:0:0:
448,192,101592,1,0,0:0:0:0:
64,192,101592,1,0,0:0:0:0:
64,192,101799,1,0,0:0:0:0:
320,192,101799,1,0,0:0:0:0:
64,192,101903,1,0,0:0:0:0:
448,192,101903,1,0,0:0:0:0:
448,192,102006,1,0,0:0:0:0:
64,192,102006,1,0,0:0:0:0:
192,192,102110,1,0,0:0:0:0:
448,192,102110,1,0,0:0:0:0:
448,192,102213,1,0,0:0:0:0:
64,192,102213,1,0,0:0:0:0:
320,192,102317,1,0,0:0:0:0:
192,192,102317,1,0,0:0:0:0:
64,192,102317,1,0,0:0:0:0:
64,192,102420,1,0,0:0:0:0:
448,192,102420,1,0,0:0:0:0:
64,192,102524,1,0,0:0:0:0:
448,192,102524,1,0,0:0:0:0:
64,192,102627,1,0,0:0:0:0:
448,192,102627,1,0,0:0:0:0:
64,192,102730,1,0,0:0:0:0:
448,192,102730,1,0,0:0:0:0:
320,192,102730,1,0,0:0:0:0:
64,192,102834,1,0,0:0:0:0:
448,192,102834,1,0,0:0:0:0:
192,192,102834,1,0,0:0:0:0:
64,192,102937,1,0,0:0:0:0:
192,192,102937,1,0,0:0:0:0:
320,192,102937,1,0,0:0:0:0:
448,192,103041,1,0,0:0:0:0:
192,192,103041,1,0,0:0:0:0:
320,192,103041,1,0,0:0:0:0:
448,192,103144,1,0,0:0:0:0:
192,192,103144,1,0,0:0:0:0:
448,192,103248,1,0,0:0:0:0:
64,192,103248,1,0,0:0:0:0:
448,192,103455,1,0,0:0:0:0:
64,192,103455,1,0,0:0:0:0:
64,192,103558,1,0,0:0:0:0:
448,192,103558,1,0,0:0:0:0:
64,192,103661,1,0,0:0:0:0:
448,192,103661,1,0,0:0:0:0:
64,192,103765,1,0,0:0:0:0:
448,192,103765,1,0,0:0:0:0:
192,192,103868,1,0,0:0:0:0:
320,192,103868,1,0,0:0:0:0:
320,192,103972,1,0,0:0:0:0:
64,192,103972,1,0,0:0:0:0:
448,192,103972,1,0,0:0:0:0:
192,192,104075,1,0,0:0:0:0:
320,192,104075,1,0,0:0:0:0:
192,192,104179,1,0,0:0:0:0:
320,192,104179,1,0,0:0:0:0:
192,192,104282,1,0,0:0:0:0:
320,192,104282,1,0,0:0:0:0:
192,192,104386,1,0,0:0:0:0:
320,192,104386,1,0,0:0:0:0:
192,192,104489,1,0,0:0:0:0:
320,192,104489,1,0,0:0:0:0:
320,192,104592,1,0,0:0:0:0:
192,192,104592,1,0,0:0:0:0:
192,192,104696,1,0,0:0:0:0:
320,192,104696,1,0,0:0:0:0:
448,192,104799,1,0,0:0:0:0:
320,192,104799,1,0,0:0:0:0:
192,192,104903,1,0,0:0:0:0:
64,192,104903,1,0,0:0:0:0:
192,192,105110,1,0,0:0:0:0:
64,192,105110,1,0,0:0:0:0:
448,192,105213,1,0,0:0:0:0:
64,192,105213,1,0,0:0:0:0:
192,192,105213,1,0,0:0:0:0:
192,192,105317,1,0,0:0:0:0:
64,192,105317,1,0,0:0:0:0:
192,192,105420,1,0,0:0:0:0:
64,192,105420,1,0,0:0:0:0:
320,192,105524,1,0,0:0:0:0:
448,192,105524,1,0,0:0:0:0:
64,192,105627,1,0,0:0:0:0:
448,192,105627,1,0,0:0:0:0:
320,192,105627,1,0,0:0:0:0:
320,192,105730,1,0,0:0:0:0:
448,192,105730,1,0,0:0:0:0:
448,192,105834,1,0,0:0:0:0:
320,192,105834,1,0,0:0:0:0:
448,192,105937,1,0,0:0:0:0:
320,192,105937,1,0,0:0:0:0:
320,192,106041,1,0,0:0:0:0:
448,192,106041,1,0,0:0:0:0:
64,192,106041,1,0,0:0:0:0:
320,192,106144,1,0,0:0:0:0:
448,192,106144,1,0,0:0:0:0:
320,192,106248,1,0,0:0:0:0:
448,192,106248,1,0,0:0:0:0:
64,192,106248,128,0,106455:0:0:0:0:
320,192,106351,1,0,0:0:0:0:
448,192,106351,1,0,0:0:0:0:
320,192,106455,128,0,106868:0:0:0:0:
448,192,106455,128,0,106868:0:0:0:0:
192,192,106455,1,0,0:0:0:0:
448,192,107075,128,0,107282:0:0:0:0:
192,192,107282,128,0,107696:0:0:0:0:
64,192,107282,128,0,107696:0:0:0:0:
320,192,107282,1,0,0:0:0:0:
64,192,107903,128,0,108110:0:0:0:0:
320,192,108110,128,0,108524:0:0:0:0:
448,192,108110,128,0,108524:0:0:0:0:
192,192,108110,1,0,0:0:0:0:
192,192,108730,128,0,108937:0:0:0:0:
64,192,108937,128,0,109351:0:0:0:0:
448,192,108937,128,0,109351:0:0:0:0:
320,192,108937,1,0,0:0:0:0:
448,192,109558,128,0,109765:0:0:0:0:
320,192,109765,128,0,110179:0:0:0:0:
64,192,109765,128,0,110179:0:0:0:0:
192,192,109765,1,0,0:0:0:0:
64,192,110386,128,0,110592:0:0:0:0:
192,192,110592,128,0,111006:0:0:0:0:
448,192,110592,128,0,111006:0:0:0:0:
320,192,110592,1,0,0:0:0:0:
448,192,111213,128,0,111420:0:0:0:0:
64,192,111420,128,0,111834:0:0:0:0:
320,192,111420,128,0,111834:0:0:0:0:
192,192,111420,1,0,0:0:0:0:
192,192,112041,128,0,112248:0:0:0:0:
64,192,112248,128,0,112661:0:0:0:0:
320,192,112248,128,0,112661:0:0:0:0:
448,192,112248,1,0,0:0:0:0:
320,192,112868,128,0,113075:0:0:0:0:
64,192,113075,128,0,113489:0:0:0:0:
448,192,113075,128,0,113489:0:0:0:0:
192,192,113075,1,0,0:0:0:0:
192,192,113696,128,0,113903:0:0:0:0:
64,192,113903,128,0,114317:0:0:0:0:
448,192,113903,128,0,114317:0:0:0:0:
320,192,113903,1,0,0:0:0:0:
320,192,114524,128,0,114730:0:0:0:0:
64,192,114730,128,0,115144:0:0:0:0:
448,192,114730,128,0,115144:0:0:0:0:
192,192,114730,1,0,0:0:0:0:
64,192,115351,128,0,115558:0:0:0:0:
320,192,115558,128,0,115972:0:0:0:0:
448,192,115558,128,0,115972:0:0:0:0:
192,192,115558,1,0,0:0:0:0:
320,192,116179,128,0,116386:0:0:0:0:
64,192,116386,128,0,116799:0:0:0:0:
192,192,116386,128,0,116799:0:0:0:0:
448,192,116386,1,0,0:0:0:0:
192,192,117006,128,0,117213:0:0:0:0:
320,192,117213,128,0,117627:0:0:0:0:
448,192,117213,128,0,117627:0:0:0:0:
64,192,117213,1,0,0:0:0:0:
320,192,117834,128,0,118041:0:0:0:0:
192,192,118041,128,0,118455:0:0:0:0:
448,192,118041,128,0,118455:0:0:0:0:
64,192,118041,1,0,0:0:0:0:
192,192,118661,128,0,118868:0:0:0:0:
320,192,118868,128,0,119282:0:0:0:0:
64,192,118868,128,0,119282:0:0:0:0:
448,192,118868,1,0,0:0:0:0:
64,192,119489,128,0,119696:0:0:0:0:
320,192,119696,128,0,120420:0:0:0:0:
192,192,119696,1,0,0:0:0:0:
448,192,119696,1,0,0:0:0:0:
64,192,119799,1,0,0:0:0:0:
192,192,119903,1,0,0:0:0:0:
448,192,120006,1,0,0:0:0:0:
192,192,120110,1,0,0:0:0:0:
64,192,120213,1,0,0:0:0:0:
192,192,120317,1,0,0:0:0:0:
448,192,120420,1,0,0:0:0:0:
320,192,120524,128,0,121248:0:0:0:0:
64,192,120524,1,0,0:0:0:0:
192,192,120524,1,0,0:0:0:0:
448,192,120627,1,0,0:0:0:0:
192,192,120730,1,0,0:0:0:0:
64,192,120834,1,0,0:0:0:0:
192,192,120937,1,0,0:0:0:0:
448,192,121041,1,0,0:0:0:0:
192,192,121144,1,0,0:0:0:0:
64,192,121248,1,0,0:0:0:0:
320,192,121351,128,0,122075:0:0:0:0:
192,192,121351,1,0,0:0:0:0:
448,192,121351,1,0,0:0:0:0:
64,192,121403,1,0,0:0:0:0:
448,192,121455,1,0,0:0:0:0:
192,192,121558,1,0,0:0:0:0:
64,192,121661,1,0,0:0:0:0:
192,192,121765,1,0,0:0:0:0:
448,192,121868,1,0,0:0:0:0:
64,192,121972,1,0,0:0:0:0:
448,192,122024,1,0,0:0:0:0:
192,192,122075,1,0,0:0:0:0:
320,192,122179,128,0,122903:0:0:0:0:
448,192,122179,1,0,0:0:0:0:
64,192,122179,1,0,0:0:0:0:
192,192,122282,1,0,0:0:0:0:
64,192,122386,1,0,0:0:0:0:
192,192,122489,1,0,0:0:0:0:
448,192,122592,1,0,0:0:0:0:
64,192,122644,1,0,0:0:0:0:
192,192,122696,1,0,0:0:0:0:
64,192,122748,1,0,0:0:0:0:
448,192,122799,1,0,0:0:0:0:
192,192,122851,1,0,0:0:0:0:
64,192,122903,1,0,0:0:0:0:
448,192,122955,1,0,0:0:0:0:
64,192,123006,128,0,123730:0:0:0:0:
192,192,123006,1,0,0:0:0:0:
320,192,123006,1,0,0:0:0:0:
448,192,123110,1,0,0:0:0:0:
320,192,123213,1,0,0:0:0:0:
192,192,123317,1,0,0:0:0:0:
320,192,123420,1,0,0:0:0:0:
448,192,123524,1,0,0:0:0:0:
320,192,123627,1,0,0:0:0:0:
192,192,123730,1,0,0:0:0:0:
64,192,123834,128,0,124558:0:0:0:0:
448,192,123834,1,0,0:0:0:0:
320,192,123834,1,0,0:0:0:0:
192,192,123937,1,0,0:0:0:0:
320,192,124041,1,0,0:0:0:0:
448,192,124144,1,0,0:0:0:0:
320,192,124248,1,0,0:0:0:0:
192,192,124351,1,0,0:0:0:0:
320,192,124455,1,0,0:0:0:0:
448,192,124558,1,0,0:0:0:0:
64,192,124661,128,0,125386:0:0:0:0:
192,192,124661,1,0,0:0:0:0:
320,192,124661,1,0,0:0:0:0:
448,192,124713,1,0,0:0:0:0:
320,192,124765,1,0,0:0:0:0:
192,192,124868,1,0,0:0:0:0:
320,192,124972,1,0,0:0:0:0:
448,192,125075,1,0,0:0:0:0:
320,192,125179,1,0,0:0:0:0:
192,192,125282,1,0,0:0:0:0:
320,192,125334,1,0,0:0:0:0:
448,192,125386,1,0,0:0:0:0:
64,192,125489,128,0,126213:0:0:0:0:
192,192,125489,1,0,0:0:0:0:
320,192,125489,1,0,0:0:0:0:
448,192,125541,1,0,0:0:0:0:
192,192,125592,1,0,0:0:0:0:
320,192,125696,1,0,0:0:0:0:
448,192,125799,1,0,0:0:0:0:
192,192,125903,1,0,0:0:0:0:
448,192,125955,1,0,0:0:0:0:
320,192,126006,1,0,0:0:0:0:
448,192,126058,1,0,0:0:0:0:
192,192,126110,1,0,0:0:0:0:
320,192,126161,1,0,0:0:0:0:
448,192,126213,1,0,0:0:0:0:
192,192,126265,1,0,0:0:0:0:
448,192,126317,128,0,127041:0:0:0:0:
320,192,126317,1,0,0:0:0:0:
64,192,126317,1,0,0:0:0:0:
192,192,126420,1,0,0:0:0:0:
64,192,126524,1,0,0:0:0:0:
192,192,126627,1,0,0:0:0:0:
320,192,126730,1,0,0:0:0:0:
192,192,126834,1,0,0:0:0:0:
64,192,126937,1,0,0:0:0:0:
192,192,127041,1,0,0:0:0:0:
448,192,127144,128,0,127868:0:0:0:0:
320,192,127144,1,0,0:0:0:0:
64,192,127144,1,0,0:0:0:0:
192,192,127248,1,0,0:0:0:0:
320,192,127351,1,0,0:0:0:0:
192,192,127455,1,0,0:0:0:0:
64,192,127558,1,0,0:0:0:0:
192,192,127661,1,0,0:0:0:0:
320,192,127765,1,0,0:0:0:0:
192,192,127868,1,0,0:0:0:0:
320,192,127972,128,0,128696:0:0:0:0:
64,192,127972,1,0,0:0:0:0:
448,192,127972,1,0,0:0:0:0:
192,192,128024,1,0,0:0:0:0:
64,192,128075,1,0,0:0:0:0:
192,192,128179,1,0,0:0:0:0:
448,192,128282,1,0,0:0:0:0:
192,192,128386,1,0,0:0:0:0:
64,192,128489,1,0,0:0:0:0:
448,192,128592,1,0,0:0:0:0:
192,192,128644,1,0,0:0:0:0:
64,192,128696,1,0,0:0:0:0:
320,192,128799,128,0,129524:0:0:0:0:
192,192,128799,1,0,0:0:0:0:
448,192,128799,1,0,0:0:0:0:
64,192,128903,1,0,0:0:0:0:
192,192,129006,1,0,0:0:0:0:
448,192,129110,1,0,0:0:0:0:
192,192,129213,1,0,0:0:0:0:
64,192,129265,1,0,0:0:0:0:
448,192,129317,1,0,0:0:0:0:
192,192,129368,1,0,0:0:0:0:
64,192,129420,1,0,0:0:0:0:
192,192,129472,1,0,0:0:0:0:
448,192,129524,1,0,0:0:0:0:
64,192,129575,1,0,0:0:0:0:
192,192,129627,128,0,130351:0:0:0:0:
320,192,129627,1,0,0:0:0:0:
448,192,129627,1,0,0:0:0:0:
64,192,129730,1,0,0:0:0:0:
320,192,129834,1,0,0:0:0:0:
448,192,129937,1,0,0:0:0:0:
320,192,130041,1,0,0:0:0:0:
64,192,130144,1,0,0:0:0:0:
320,192,130248,1,0,0:0:0:0:
448,192,130351,1,0,0:0:0:0:
192,192,130455,128,0,131179:0:0:0:0:
320,192,130455,1,0,0:0:0:0:
64,192,130455,1,0,0:0:0:0:
448,192,130558,1,0,0:0:0:0:
320,192,130661,1,0,0:0:0:0:
64,192,130765,1,0,0:0:0:0:
320,192,130868,1,0,0:0:0:0:
448,192,130972,1,0,0:0:0:0:
320,192,131075,1,0,0:0:0:0:
64,192,131179,1,0,0:0:0:0:
192,192,131282,128,0,132006:0:0:0:0:
320,192,131282,1,0,0:0:0:0:
448,192,131282,1,0,0:0:0:0:
64,192,131334,1,0,0:0:0:0:
448,192,131386,1,0,0:0:0:0:
320,192,131489,1,0,0:0:0:0:
64,192,131592,1,0,0:0:0:0:
320,192,131696,1,0,0:0:0:0:
448,192,131799,1,0,0:0:0:0:
320,192,131903,1,0,0:0:0:0:
64,192,131955,1,0,0:0:0:0:
448,192,132006,1,0,0:0:0:0:
192,192,132110,128,0,132627:0:0:0:0:
320,192,132110,1,0,0:0:0:0:
64,192,132110,1,0,0:0:0:0:
448,192,132213,1,0,0:0:0:0:
320,192,132317,1,0,0:0:0:0:
64,192,132420,1,0,0:0:0:0:
320,192,132524,1,0,0:0:0:0:
64,192,132575,1,0,0:0:0:0:
320,192,132627,1,0,0:0:0:0:
448,192,132679,1,0,0:0:0:0:
320,192,132730,128,0,132834:0:0:0:0:
64,192,132730,1,0,0:0:0:0:
192,192,132782,1,0,0:0:0:0:
448,192,132834,1,0,0:0:0:0:
192,192,132886,1,0,0:0:0:0:
320,192,132937,128,0,133661:0:0:0:0:
64,192,132937,1,0,0:0:0:0:
448,192,132937,1,0,0:0:0:0:
192,192,133041,1,0,0:0:0:0:
64,192,133144,1,0,0:0:0:0:
192,192,133248,1,0,0:0:0:0:
448,192,133351,1,0,0:0:0:0:
192,192,133455,1,0,0:0:0:0:
64,192,133558,1,0,0:0:0:0:
192,192,133661,1,0,0:0:0:0:
320,192,133765,128,0,134489:0:0:0:0:
448,192,133765,1,0,0:0:0:0:
64,192,133765,1,0,0:0:0:0:
192,192,133868,1,0,0:0:0:0:
64,192,133972,1,0,0:0:0:0:
192,192,134075,1,0,0:0:0:0:
448,192,134179,1,0,0:0:0:0:
192,192,134282,1,0,0:0:0:0:
64,192,134386,1,0,0:0:0:0:
192,192,134489,1,0,0:0:0:0:
320,192,134592,128,0,135317:0:0:0:0:
448,192,134592,1,0,0:0:0:0:
64,192,134592,1,0,0:0:0:0:
192,192,134644,1,0,0:0:0:0:
448,192,134696,1,0,0:0:0:0:
192,192,134799,1,0,0:0:0:0:
64,192,134903,1,0,0:0:0:0:
192,192,135006,1,0,0:0:0:0:
448,192,135110,1,0,0:0:0:0:
64,192,135213,1,0,0:0:0:0:
448,192,135265,1,0,0:0:0:0:
192,192,135317,1,0,0:0:0:0:
320,192,135420,128,0,136144:0:0:0:0:
448,192,135420,1,0,0:0:0:0:
64,192,135420,1,0,0:0:0:0:
192,192,135524,1,0,0:0:0:0:
64,192,135627,1,0,0:0:0:0:
192,192,135730,1,0,0:0:0:0:
448,192,135834,1,0,0:0:0:0:
64,192,135886,1,0,0:0:0:0:
192,192,135937,1,0,0:0:0:0:
64,192,135989,1,0,0:0:0:0:
448,192,136041,1,0,0:0:0:0:
192,192,136092,1,0,0:0:0:0:
64,192,136144,1,0,0:0:0:0:
448,192,136196,1,0,0:0:0:0:
64,192,136248,128,0,136972:0:0:0:0:
192,192,136248,1,0,0:0:0:0:
320,192,136248,1,0,0:0:0:0:
448,192,136351,1,0,0:0:0:0:
320,192,136455,1,0,0:0:0:0:
192,192,136558,1,0,0:0:0:0:
320,192,136661,1,0,0:0:0:0:
448,192,136765,1,0,0:0:0:0:
320,192,136868,1,0,0:0:0:0:
192,192,136972,1,0,0:0:0:0:
64,192,137075,128,0,137799:0:0:0:0:
448,192,137075,1,0,0:0:0:0:
320,192,137075,1,0,0:0:0:0:
192,192,137179,1,0,0:0:0:0:
320,192,137282,1,0,0:0:0:0:
448,192,137386,1,0,0:0:0:0:
320,192,137489,1,0,0:0:0:0:
192,192,137592,1,0,0:0:0:0:
320,192,137696,1,0,0:0:0:0:
448,192,137799,1,0,0:0:0:0:
64,192,137903,128,0,138627:0:0:0:0:
192,192,137903,1,0,0:0:0:0:
320,192,137903,1,0,0:0:0:0:
448,192,137955,1,0,0:0:0:0:
320,192,138006,1,0,0:0:0:0:
192,192,138110,1,0,0:0:0:0:
320,192,138213,1,0,0:0:0:0:
448,192,138317,1,0,0:0:0:0:
320,192,138420,1,0,0:0:0:0:
192,192,138524,1,0,0:0:0:0:
320,192,138575,1,0,0:0:0:0:
448,192,138627,1,0,0:0:0:0:
64,192,138730,128,0,139455:0:0:0:0:
192,192,138730,1,0,0:0:0:0:
320,192,138730,1,0,0:0:0:0:
448,192,138782,1,0,0:0:0:0:
192,192,138834,1,0,0:0:0:0:
320,192,138937,1,0,0:0:0:0:
448,192,139041,1,0,0:0:0:0:
192,192,139144,1,0,0:0:0:0:
448,192,139196,1,0,0:0:0:0:
320,192,139248,1,0,0:0:0:0:
448,192,139299,1,0,0:0:0:0:
192,192,139351,1,0,0:0:0:0:
320,192,139403,1,0,0:0:0:0:
448,192,139455,1,0,0:0:0:0:
192,192,139506,1,0,0:0:0:0:
448,192,139558,128,0,140282:0:0:0:0:
320,192,139558,1,0,0:0:0:0:
64,192,139558,1,0,0:0:0:0:
192,192,139661,1,0,0:0:0:0:
64,192,139765,1,0,0:0:0:0:
192,192,139868,1,0,0:0:0:0:
320,192,139972,1,0,0:0:0:0:
192,192,140075,1,0,0:0:0:0:
64,192,140179,1,0,0:0:0:0:
192,192,140282,1,0,0:0:0:0:
448,192,140386,128,0,141110:0:0:0:0:
320,192,140386,1,0,0:0:0:0:
64,192,140386,1,0,0:0:0:0:
192,192,140489,1,0,0:0:0:0:
320,192,140592,1,0,0:0:0:0:
192,192,140696,1,0,0:0:0:0:
64,192,140799,1,0,0:0:0:0:
192,192,140903,1,0,0:0:0:0:
320,192,141006,1,0,0:0:0:0:
192,192,141110,1,0,0:0:0:0:
320,192,141213,128,0,141937:0:0:0:0:
64,192,141213,1,0,0:0:0:0:
448,192,141213,1,0,0:0:0:0:
192,192,141265,1,0,0:0:0:0:
64,192,141317,1,0,0:0:0:0:
192,192,141420,1,0,0:0:0:0:
448,192,141524,1,0,0:0:0:0:
192,192,141627,1,0,0:0:0:0:
64,192,141730,1,0,0:0:0:0:
448,192,141834,1,0,0:0:0:0:
192,192,141886,1,0,0:0:0:0:
64,192,141937,1,0,0:0:0:0:
320,192,142041,128,0,142765:0:0:0:0:
192,192,142041,1,0,0:0:0:0:
448,192,142041,1,0,0:0:0:0:
64,192,142144,1,0,0:0:0:0:
192,192,142248,1,0,0:0:0:0:
448,192,142351,1,0,0:0:0:0:
192,192,142455,1,0,0:0:0:0:
64,192,142506,1,0,0:0:0:0:
448,192,142558,1,0,0:0:0:0:
192,192,142610,1,0,0:0:0:0:
64,192,142661,1,0,0:0:0:0:
192,192,142713,1,0,0:0:0:0:
448,192,142765,1,0,0:0:0:0:
64,192,142817,1,0,0:0:0:0:
192,192,142868,128,0,143592:0:0:0:0:
320,192,142868,1,0,0:0:0:0:
448,192,142868,1,0,0:0:0:0:
64,192,142972,1,0,0:0:0:0:
320,192,143075,1,0,0:0:0:0:
448,192,143179,1,0,0:0:0:0:
320,192,143282,1,0,0:0:0:0:
64,192,143386,1,0,0:0:0:0:
320,192,143489,1,0,0:0:0:0:
448,192,143592,1,0,0:0:0:0:
192,192,143696,128,0,144420:0:0:0:0:
320,192,143696,1,0,0:0:0:0:
64,192,143696,1,0,0:0:0:0:
448,192,143799,1,0,0:0:0:0:
320,192,143903,1,0,0:0:0:0:
64,192,144006,1,0,0:0:0:0:
320,192,144110,1,0,0:0:0:0:
448,192,144213,1,0,0:0:0:0:
320,192,144317,1,0,0:0:0:0:
64,192,144420,1,0,0:0:0:0:
192,192,144524,128,0,145248:0:0:0:0:
320,192,144524,1,0,0:0:0:0:
448,192,144524,1,0,0:0:0:0:
64,192,144575,1,0,0:0:0:0:
448,192,144627,1,0,0:0:0:0:
320,192,144730,1,0,0:0:0:0:
64,192,144834,1,0,0:0:0:0:
320,192,144937,1,0,0:0:0:0:
448,192,145041,5,0,0:0:0:0:
320,192,145144,1,0,0:0:0:0:
64,192,145196,1,0,0:0:0:0:
448,192,145248,1,0,0:0:0:0:
192,192,145351,128,0,146179:0:0:0:0:
320,192,145351,1,0,0:0:0:0:
64,192,145351,1,0,0:0:0:0:
448,192,145455,1,0,0:0:0:0:
320,192,145558,1,0,0:0:0:0:
64,192,145661,1,0,0:0:0:0:
320,192,145765,1,0,0:0:0:0:
448,192,145817,1,0,0:0:0:0:
320,192,145868,1,0,0:0:0:0:
64,192,145920,1,0,0:0:0:0:
448,192,145972,1,0,0:0:0:0:
64,192,146024,1,0,0:0:0:0:
320,192,146075,1,0,0:0:0:0:
448,192,146127,1,0,0:0:0:0:
64,192,146179,5,0,0:0:0:0:
320,192,146179,1,0,0:0:0:0:
192,192,146592,1,0,0:0:0:0:
64,192,146696,1,0,0:0:0:0:
192,192,146799,1,0,0:0:0:0:
64,192,146903,1,0,0:0:0:0:
448,192,147006,1,0,0:0:0:0:
192,192,147006,1,0,0:0:0:0:
192,192,147420,1,0,0:0:0:0:
64,192,147524,1,0,0:0:0:0:
192,192,147627,1,0,0:0:0:0:
64,192,147730,1,0,0:0:0:0:
320,192,147834,1,0,0:0:0:0:
448,192,147834,1,0,0:0:0:0:
192,192,148248,1,0,0:0:0:0:
64,192,148351,1,0,0:0:0:0:
192,192,148455,1,0,0:0:0:0:
64,192,148558,1,0,0:0:0:0:
448,192,148661,1,0,0:0:0:0:
192,192,148661,1,0,0:0:0:0:
192,192,148868,1,0,0:0:0:0:
320,192,148972,1,0,0:0:0:0:
448,192,149179,1,0,0:0:0:0:
192,192,149282,1,0,0:0:0:0:
448,192,149386,1,0,0:0:0:0:
192,192,149489,1,0,0:0:0:0:
64,192,149489,1,0,0:0:0:0:
320,192,149903,1,0,0:0:0:0:
448,192,150006,1,0,0:0:0:0:
320,192,150110,1,0,0:0:0:0:
448,192,150213,1,0,0:0:0:0:
64,192,150317,1,0,0:0:0:0:
320,192,150317,1,0,0:0:0:0:
320,192,150730,1,0,0:0:0:0:
448,192,150834,1,0,0:0:0:0:
320,192,150937,1,0,0:0:0:0:
448,192,151041,1,0,0:0:0:0:
320,192,151144,1,0,0:0:0:0:
192,192,151144,1,0,0:0:0:0:
192,192,151558,1,0,0:0:0:0:
64,192,151661,1,0,0:0:0:0:
192,192,151765,1,0,0:0:0:0:
64,192,151868,1,0,0:0:0:0:
448,192,151972,1,0,0:0:0:0:
320,192,151972,1,0,0:0:0:0:
64,192,152075,1,0,0:0:0:0:
192,192,152179,1,0,0:0:0:0:
320,192,152282,1,0,0:0:0:0:
448,192,152386,1,0,0:0:0:0:
320,192,152489,1,0,0:0:0:0:
192,192,152592,1,0,0:0:0:0:
64,192,152696,1,0,0:0:0:0:
320,192,152799,1,0,0:0:0:0:
448,192,152799,1,0,0:0:0:0:
192,192,153213,1,0,0:0:0:0:
64,192,153317,1,0,0:0:0:0:
192,192,153420,1,0,0:0:0:0:
64,192,153524,1,0,0:0:0:0:
448,192,153627,1,0,0:0:0:0:
192,192,153627,1,0,0:0:0:0:
192,192,154041,1,0,0:0:0:0:
64,192,154144,1,0,0:0:0:0:
192,192,154248,1,0,0:0:0:0:
64,192,154351,1,0,0:0:0:0:
192,192,154455,1,0,0:0:0:0:
320,192,154455,1,0,0:0:0:0:
192,192,154868,1,0,0:0:0:0:
64,192,154972,1,0,0:0:0:0:
192,192,155075,1,0,0:0:0:0:
64,192,155179,1,0,0:0:0:0:
320,192,155282,1,0,0:0:0:0:
448,192,155282,1,0,0:0:0:0:
192,192,155489,1,0,0:0:0:0:
320,192,155592,1,0,0:0:0:0:
448,192,155799,1,0,0:0:0:0:
192,192,155903,1,0,0:0:0:0:
448,192,156006,1,0,0:0:0:0:
192,192,156110,1,0,0:0:0:0:
64,192,156110,1,0,0:0:0:0:
320,192,156524,1,0,0:0:0:0:
448,192,156627,1,0,0:0:0:0:
320,192,156730,1,0,0:0:0:0:
448,192,156834,1,0,0:0:0:0:
64,192,156937,1,0,0:0:0:0:
320,192,156937,1,0,0:0:0:0:
320,192,157351,1,0,0:0:0:0:
448,192,157455,1,0,0:0:0:0:
320,192,157558,1,0,0:0:0:0:
448,192,157661,1,0,0:0:0:0:
320,192,157765,1,0,0:0:0:0:
64,192,157765,1,0,0:0:0:0:
192,192,158179,1,0,0:0:0:0:
448,192,158592,1,0,0:0:0:0:
64,192,158592,1,0,0:0:0:0:
320,192,158903,1,0,0:0:0:0:
192,192,159213,1,0,0:0:0:0:
