osu file format v14

[General]
AudioFilename: audio.mp3
AudioLeadIn: 0
PreviewTime: 73149
Countdown: 0
SampleSet: Soft
StackLeniency: 0.4
Mode: 0
LetterboxInBreaks: 0
WidescreenStoryboard: 0

[Editor]
Bookmarks: 244399,274399,277056,292368
DistanceSpacing: 3.1
BeatDivisor: 4
GridSize: 16
TimelineZoom: 2.899999

[Metadata]
Title:Key of HearT
TitleUnicode:Key of HearT
Artist:AZURE FACTORY
ArtistUnicode:AZURE FACTORY
Creator:gazimal
Version:Lunatic TearS
Source:
Tags:Erica Masaki Kanui AdveNt Seamless Voyage 真崎エリカ japanese j-rock j rock jrock Framme Etranger Ⅰ フラム・エトランゼ-Ⅰ
BeatmapID:3980057
BeatmapSetID:1927366

[Difficulty]
HPDrainRate:5
CircleSize:4
OverallDifficulty:9
ApproachRate:9.4
SliderMultiplier:1.8
SliderTickRate:1

[Events]
//Background and Video events
0,0,"FIPL7PaakAI7KUB (1).jpg",0,0
//Break Periods
2,116474,124641
2,215381,224641
//Storyboard Layer 0 (Background)
//Storyboard Layer 1 (Fail)
//Storyboard Layer 2 (Pass)
//Storyboard Layer 3 (Foreground)
//Storyboard Layer 4 (Overlay)
//Storyboard Sound Samples

[TimingPoints]
181,312.5,3,2,1,60,1,0
3931,-333.333333333333,3,2,1,40,0,0
11431,-200,3,2,1,45,0,0
17056,-142.857142857143,3,2,1,45,0,0
17524,-200,3,2,1,45,0,0
17993,-142.857142857143,3,2,1,45,0,0
18384,-200,3,2,1,45,0,0
18931,312.5,4,2,1,30,1,0
19243,-100,4,2,1,40,0,0
19556,-100,4,2,1,50,0,0
19712,-100,4,2,1,55,0,0
19868,-100,4,2,1,60,0,0
20024,-83.3333333333333,4,2,1,65,0,0
20259,-83.3333333333333,4,2,1,5,0,0
20337,-100,4,2,1,65,0,0
21274,-83.3333333333333,4,2,1,65,0,0
21509,-83.3333333333333,4,2,1,5,0,0
21587,-100,4,2,1,65,0,0
22524,-83.3333333333333,4,2,1,65,0,0
22759,-83.3333333333333,4,2,1,5,0,0
22837,-100,4,2,1,65,0,0
24009,-83.3333333333333,4,2,1,5,0,0
24087,-100,4,2,1,65,0,0
24243,-83.3333333333333,4,2,1,65,0,0
25259,-83.3333333333333,4,2,1,5,0,0
25337,-100,4,2,1,65,0,0
26274,-83.3333333333333,4,2,1,65,0,0
26509,-83.3333333333333,4,2,1,5,0,0
26587,-100,4,2,1,65,0,0
27524,-83.3333333333333,4,2,1,65,0,0
27759,-83.3333333333333,4,2,1,5,0,0
27837,-100,4,2,1,65,0,0
28774,-83.3333333333333,4,2,1,65,0,0
29243,-100,4,2,1,65,0,0
29868,-133.333333333333,4,2,1,65,0,0
30024,-83.3333333333333,4,2,1,70,0,0
31118,-133.333333333333,4,2,1,70,0,0
31274,-66.6666666666667,4,2,1,70,0,0
31743,-133.333333333333,4,2,1,70,0,0
32368,-83.3333333333333,4,2,1,70,0,0
32524,-83.3333333333333,4,2,1,50,0,0
32993,-500,4,2,1,50,0,0
33931,-76.9230769230769,4,2,1,60,0,0
34165,-83.3333333333333,4,2,1,5,0,0
34243,-76.9230769230769,4,2,1,60,0,0
34399,-133.333333333333,4,2,1,60,0,0
35024,-100,4,2,1,60,0,0
36431,-83.3333333333333,4,2,1,60,0,0
36665,-83.3333333333333,4,2,1,5,0,0
36743,-83.3333333333333,4,2,1,60,0,0
36899,-133.333333333333,4,2,1,60,0,0
37524,-100,4,2,1,60,0,0
38618,-133.333333333333,4,2,1,60,0,0
38852,-83.3333333333333,4,2,1,5,0,0
38931,-83.3333333333333,4,2,1,60,0,0
39165,-83.3333333333333,4,2,1,5,0,0
39243,-83.3333333333333,4,2,1,60,0,0
39399,-100,4,2,1,60,0,0
40493,-133.333333333333,4,2,1,60,0,0
41118,-100,4,2,1,60,0,0
41352,-83.3333333333333,4,2,1,5,0,0
41431,-100,4,2,1,60,0,0
41665,-83.3333333333333,4,2,1,5,0,0
41743,-100,4,2,1,60,0,0
43931,-76.9230769230769,4,2,1,60,0,0
44165,-83.3333333333333,4,2,1,5,0,0
44243,-76.9230769230769,4,2,1,60,0,0
44399,-133.333333333333,4,2,1,60,0,0
45024,-100,4,2,1,60,0,0
46118,-200,4,2,1,60,0,0
46431,-83.3333333333333,4,2,1,60,0,0
46665,-83.3333333333333,4,2,1,5,0,0
46743,-83.3333333333333,4,2,1,60,0,0
46899,-100,4,2,1,60,0,0
48852,-83.3333333333333,4,2,1,5,0,0
48931,-76.9230769230769,4,2,1,60,0,0
49399,-100,4,2,1,60,0,0
50102,-83.3333333333333,4,2,1,5,0,0
50181,-66.6666666666667,4,2,1,60,0,0
50415,-83.3333333333333,4,2,1,5,0,0
50493,-133.333333333333,4,2,1,60,0,0
50649,-133.333333333333,4,2,1,60,0,0
51431,-66.6666666666667,4,2,1,65,0,0
51665,-83.3333333333333,4,2,1,5,0,0
51743,-100,4,2,1,65,0,0
51899,-66.6666666666667,4,2,1,65,0,0
52134,-83.3333333333333,4,2,1,5,0,0
52212,-66.6666666666667,4,2,1,65,0,0
52368,-100,4,2,1,65,0,0
52524,-76.9230769230769,4,2,1,65,0,0
52837,-100,4,2,1,65,0,0
53306,-100,4,2,1,70,0,0
53931,-71.4285714285714,4,2,1,65,0,0
54165,-83.3333333333333,4,2,1,5,0,0
54243,-71.4285714285714,4,2,1,65,0,0
54399,-100,4,2,1,65,0,0
55415,-83.3333333333333,4,2,1,5,0,0
55493,-100,4,2,1,65,0,0
56352,-83.3333333333333,4,2,1,5,0,0
56431,-100,4,2,1,65,0,0
57602,-83.3333333333333,4,2,1,5,0,0
57681,-100,4,2,1,65,0,0
57915,-83.3333333333333,4,2,1,5,0,0
57993,-100,4,2,1,65,0,0
58931,-76.9230769230769,4,2,1,65,0,0
59165,-83.3333333333333,4,2,1,5,0,0
59243,-76.9230769230769,4,2,1,65,0,0
59556,-100,4,2,1,65,0,0
60102,-83.3333333333333,4,2,1,5,0,0
60181,-100,4,2,1,65,0,0
61665,-83.3333333333333,4,2,1,5,0,0
61743,-100,4,2,1,65,0,0
62915,-83.3333333333333,4,2,1,5,0,0
62993,-100,4,2,1,65,0,0
63931,-66.6666666666667,4,2,1,75,0,0
64165,-83.3333333333333,4,2,1,5,0,0
64243,-66.6666666666667,4,2,1,75,0,0
66431,-76.9230769230769,4,2,1,75,0,0
66665,-83.3333333333333,4,2,1,5,0,0
66743,-100,4,2,1,75,0,0
72681,-100,4,2,1,80,0,0
72993,-100,4,2,1,50,0,0
73618,-66.6666666666667,4,2,1,60,0,0
73852,-83.3333333333333,4,2,1,5,0,0
73931,-58.8235294117647,4,2,1,80,0,1
74165,-58.8235294117647,4,2,1,5,0,1
74243,-83.3333333333333,4,2,1,80,0,1
75102,-58.8235294117647,4,2,1,5,0,1
75181,-83.3333333333333,4,2,1,80,0,1
75649,-71.4285714285714,4,2,1,80,0,1
76118,-100,4,2,1,80,0,1
76431,-76.9230769230769,4,2,1,80,0,1
77681,-83.3333333333333,4,2,1,80,0,1
77915,-58.8235294117647,4,2,1,5,0,1
77993,-100,4,2,1,80,0,1
78149,-83.3333333333333,4,2,1,80,0,1
78852,-58.8235294117647,4,2,1,5,0,1
78931,-76.9230769230769,4,2,1,80,0,1
79868,-83.3333333333333,4,2,1,80,0,1
80415,-58.8235294117647,4,2,1,5,0,1
80493,-83.3333333333333,4,2,1,80,0,1
81352,-58.8235294117647,4,2,1,5,0,1
81431,-83.3333333333333,4,2,1,80,0,1
81509,-58.8235294117647,4,2,1,5,0,1
81743,-83.3333333333333,4,2,1,80,0,1
82602,-58.8235294117647,4,2,1,5,0,1
82681,-83.3333333333333,4,2,1,80,0,1
83227,-58.8235294117647,4,2,1,5,0,1
83306,-100,4,2,1,80,0,1
83931,-66.6666666666667,4,2,1,80,0,1
84165,-58.8235294117647,4,2,1,5,0,1
84243,-66.6666666666667,4,2,1,80,0,1
84399,-83.3333333333333,4,2,1,80,0,1
85102,-58.8235294117647,4,2,1,5,0,1
85181,-66.6666666666667,4,2,1,80,0,1
85415,-58.8235294117647,4,2,1,5,0,1
85493,-66.6666666666667,4,2,1,80,0,1
85649,-83.3333333333333,4,2,1,80,0,1
86352,-58.8235294117647,4,2,1,5,0,1
86431,-76.9230769230769,4,2,1,80,0,1
87915,-58.8235294117647,4,2,1,5,0,1
87993,-100,4,2,1,80,0,1
88149,-83.3333333333333,4,2,1,80,0,1
88852,-58.8235294117647,4,2,1,5,0,1
88931,-76.9230769230769,4,2,1,80,0,1
89868,-83.3333333333333,4,2,1,80,0,1
90181,-71.4285714285714,4,2,1,80,0,1
90415,-58.8235294117647,4,2,1,5,0,1
90493,-133.333333333333,4,2,1,80,0,1
90649,-83.3333333333333,4,2,1,80,0,1
91431,-66.6666666666667,4,2,1,80,0,1
91665,-58.8235294117647,4,2,1,5,0,1
91743,-100,4,2,1,80,0,1
91899,-66.6666666666667,4,2,1,80,0,1
92759,-58.8235294117647,4,2,1,5,0,1
92837,-133.333333333333,4,2,1,80,0,1
92993,-200,4,2,1,80,0,1
93227,-58.8235294117647,4,2,1,5,0,1
93306,-200,4,2,1,80,0,1
93618,-100,4,2,1,80,0,1
93931,-62.5,4,2,1,80,0,1
94165,-58.8235294117647,4,2,1,5,0,1
94243,-62.5,4,2,1,80,0,1
97681,-76.9230769230769,4,2,1,80,0,1
98931,-62.5,4,2,1,80,0,1
99165,-58.8235294117647,4,2,1,5,0,1
99243,-62.5,4,2,1,80,0,1
100649,-83.3333333333333,4,2,1,80,0,1
100806,-62.5,4,2,1,80,0,1
101118,-133.333333333333,4,2,1,80,0,1
101431,-133.333333333333,4,2,1,80,0,0
101509,-133.333333333333,4,2,1,60,0,0
102681,-133.333333333333,4,2,1,60,0,0
103774,-76.9230769230769,4,2,1,65,0,0
104009,-76.9230769230769,4,2,1,5,0,0
104087,-100,4,2,1,65,0,0
104243,-76.9230769230769,4,2,1,65,0,0
105024,-76.9230769230769,4,2,1,65,0,0
105259,-76.9230769230769,4,2,1,5,0,0
105337,-100,4,2,1,65,0,0
106274,-83.3333333333333,4,2,1,65,0,0
106509,-76.9230769230769,4,2,1,5,0,0
106587,-100,4,2,1,65,0,0
107524,-83.3333333333333,4,2,1,65,0,0
107759,-76.9230769230769,4,2,1,5,0,0
107837,-100,4,2,1,65,0,0
108774,-71.4285714285714,4,2,1,65,0,0
109009,-76.9230769230769,4,2,1,5,0,0
109087,-100,4,2,1,65,0,0
110024,-76.9230769230769,4,2,1,65,0,0
110259,-76.9230769230769,4,2,1,5,0,0
110337,-100,4,2,1,65,0,0
111274,-83.3333333333333,4,2,1,65,0,0
111509,-76.9230769230769,4,2,1,5,0,0
111587,-100,4,2,1,65,0,0
112524,-76.9230769230769,4,2,1,65,0,0
112837,-100,4,2,1,65,0,0
113774,-83.3333333333333,4,2,1,70,0,0
114556,-100,4,2,1,70,0,0
116274,-100,4,2,1,50,0,0
125181,-100,4,2,1,65,0,0
126118,-500,4,2,1,40,0,0
126743,-62.5,4,2,1,70,0,0
127056,-62.5,4,2,1,60,0,0
127212,-133.333333333333,4,2,1,60,0,0
127524,-100,4,2,1,60,0,0
127993,-133.333333333333,4,2,1,60,0,0
128306,-200,4,2,1,60,0,0
128618,-83.3333333333333,4,2,1,60,0,0
128852,-76.9230769230769,4,2,1,5,0,0
128931,-133.333333333333,4,2,1,60,0,0
129399,-111.111111111111,4,2,1,60,0,0
129712,-100,4,2,1,60,0,0
131352,-76.9230769230769,4,2,1,5,0,0
131431,-76.9230769230769,4,2,1,60,0,0
131899,-100,4,2,1,60,0,0
132602,-76.9230769230769,4,2,1,5,0,0
132681,-71.4285714285714,4,2,1,60,0,0
132915,-76.9230769230769,4,2,1,5,0,0
132993,-133.333333333333,4,2,1,60,0,0
133618,-200,4,2,1,60,0,0
133931,-66.6666666666667,4,2,1,65,0,0
134165,-76.9230769230769,4,2,1,5,0,0
134243,-100,4,2,1,65,0,0
134399,-66.6666666666667,4,2,1,65,0,0
134634,-76.9230769230769,4,2,1,5,0,0
134712,-66.6666666666667,4,2,1,65,0,0
134868,-100,4,2,1,65,0,0
135024,-66.6666666666667,4,2,1,65,0,0
135259,-76.9230769230769,4,2,1,5,0,0
135337,-100,4,2,1,65,0,0
135806,-100,4,2,1,70,0,0
136431,-71.4285714285714,4,2,1,65,0,0
136665,-76.9230769230769,4,2,1,5,0,0
136743,-71.4285714285714,4,2,1,65,0,0
136899,-100,4,2,1,65,0,0
137915,-76.9230769230769,4,2,1,5,0,0
137993,-100,4,2,1,65,0,0
138852,-76.9230769230769,4,2,1,5,0,0
138931,-100,4,2,1,65,0,0
141431,-76.9230769230769,4,2,1,65,0,0
141665,-76.9230769230769,4,2,1,5,0,0
141743,-76.9230769230769,4,2,1,65,0,0
142056,-100,4,2,1,65,0,0
142602,-76.9230769230769,4,2,1,5,0,0
142681,-100,4,2,1,65,0,0
144165,-76.9230769230769,4,2,1,5,0,0
144243,-100,4,2,1,65,0,0
145415,-76.9230769230769,4,2,1,5,0,0
145493,-100,4,2,1,65,0,0
146431,-133.333333333333,4,2,1,75,0,0
146509,-133.333333333333,4,2,1,70,0,0
147056,-83.3333333333333,4,2,1,70,0,0
147290,-76.9230769230769,4,2,1,5,0,0
147368,-83.3333333333333,4,2,1,70,0,0
147681,-133.333333333333,4,2,1,70,0,0
148306,-83.3333333333333,4,2,1,70,0,0
148540,-76.9230769230769,4,2,1,5,0,0
148618,-83.3333333333333,4,2,1,70,0,0
148931,-133.333333333333,4,2,1,70,0,0
149556,-83.3333333333333,4,2,1,70,0,0
149790,-76.9230769230769,4,2,1,5,0,0
149868,-83.3333333333333,4,2,1,70,0,0
150181,-133.333333333333,4,2,1,70,0,0
150806,-83.3333333333333,4,2,1,70,0,0
151040,-76.9230769230769,4,2,1,5,0,0
151118,-333.333333333333,4,2,1,70,0,0
151352,-76.9230769230769,4,2,1,5,0,0
151431,-333.333333333333,4,2,1,75,0,0
153931,-100,4,2,1,75,0,0
155181,-100,4,2,1,80,0,0
155806,-100,4,2,1,50,0,0
156118,-66.6666666666667,4,2,1,60,0,0
156352,-76.9230769230769,4,2,1,5,0,0
156431,-58.8235294117647,4,2,1,80,0,1
156665,-58.8235294117647,4,2,1,5,0,1
156743,-58.8235294117647,4,2,1,80,0,1
156899,-83.3333333333333,4,2,1,80,0,1
157602,-58.8235294117647,4,2,1,5,0,1
157681,-83.3333333333333,4,2,1,80,0,1
158149,-71.4285714285714,4,2,1,80,0,1
158618,-83.3333333333333,4,2,1,80,0,1
158931,-76.9230769230769,4,2,1,80,0,1
159868,-83.3333333333333,4,2,1,80,0,1
160415,-58.8235294117647,4,2,1,5,0,1
160493,-133.333333333333,4,2,1,80,0,1
160649,-83.3333333333333,4,2,1,80,0,1
161352,-58.8235294117647,4,2,1,5,0,1
161431,-76.9230769230769,4,2,1,80,0,1
162368,-83.3333333333333,4,2,1,80,0,1
162915,-58.8235294117647,4,2,1,5,0,1
162993,-133.333333333333,4,2,1,80,0,1
163149,-83.3333333333333,4,2,1,80,0,1
163852,-58.8235294117647,4,2,1,5,0,1
163931,-83.3333333333333,4,2,1,80,0,1
164165,-58.8235294117647,4,2,1,5,0,1
164243,-100,4,2,1,80,0,1
164399,-83.3333333333333,4,2,1,80,0,1
165102,-58.8235294117647,4,2,1,5,0,1
165181,-83.3333333333333,4,2,1,80,0,1
165727,-58.8235294117647,4,2,1,5,0,1
165806,-100,4,2,1,80,0,1
166431,-66.6666666666667,4,2,1,80,0,1
166665,-58.8235294117647,4,2,1,5,0,1
166743,-66.6666666666667,4,2,1,80,0,1
166899,-83.3333333333333,4,2,1,80,0,1
167602,-58.8235294117647,4,2,1,5,0,1
167681,-66.6666666666667,4,2,1,80,0,1
167915,-58.8235294117647,4,2,1,5,0,1
167993,-66.6666666666667,4,2,1,80,0,1
168149,-83.3333333333333,4,2,1,80,0,1
168852,-58.8235294117647,4,2,1,5,0,1
168931,-76.9230769230769,4,2,1,80,0,1
169868,-83.3333333333333,4,2,1,80,0,1
170415,-58.8235294117647,4,2,1,5,0,1
170493,-100,4,2,1,80,0,1
170649,-83.3333333333333,4,2,1,80,0,1
171352,-58.8235294117647,4,2,1,5,0,1
171431,-76.9230769230769,4,2,1,80,0,1
172368,-83.3333333333333,4,2,1,80,0,1
172915,-58.8235294117647,4,2,1,5,0,1
172993,-100,4,2,1,80,0,1
173149,-83.3333333333333,4,2,1,80,0,1
173931,-66.6666666666667,4,2,1,80,0,1
174165,-58.8235294117647,4,2,1,5,0,1
174243,-100,4,2,1,80,0,1
174399,-66.6666666666667,4,2,1,80,0,1
175259,-58.8235294117647,4,2,1,5,0,1
175337,-100,4,2,1,80,0,1
175493,-333.333333333333,4,2,1,80,0,1
175727,-58.8235294117647,4,2,1,5,0,1
175806,-333.333333333333,4,2,1,80,0,1
176431,-58.8235294117647,4,2,1,80,0,1
176665,-58.8235294117647,4,2,1,5,0,1
176743,-58.8235294117647,4,2,1,80,0,1
180181,-76.9230769230769,4,2,1,80,0,1
181431,-58.8235294117647,4,2,1,80,0,1
181665,-58.8235294117647,4,2,1,5,0,1
181743,-58.8235294117647,4,2,1,80,0,1
183149,-76.9230769230769,4,2,1,80,0,1
183306,-62.5,4,2,1,80,0,1
183618,-133.333333333333,4,2,1,80,0,1
183931,-133.333333333333,4,2,1,80,0,0
184009,-133.333333333333,4,2,1,50,0,0
185181,-133.333333333333,4,2,4,45,0,0
185806,-333.333333333333,4,2,4,45,0,0
190181,-200,4,2,4,45,0,0
190962,-200,4,2,4,25,0,0
191118,-200,4,2,4,30,0,0
191274,-200,4,2,4,35,0,0
191431,-200,4,2,4,45,0,0
192681,-133.333333333333,4,2,4,45,0,0
193306,-333.333333333333,4,2,4,45,0,0
193931,-333.333333333333,4,2,1,70,0,0
194868,-200,4,2,1,50,0,0
195181,-55.5555555555556,4,2,1,70,0,0
195415,-55.5555555555556,4,2,1,5,0,0
195493,-76.9230769230769,4,2,1,70,0,0
195727,-55.5555555555556,4,2,1,5,0,0
195806,-76.9230769230769,4,2,1,70,0,0
196118,-100,4,2,1,70,0,0
196431,-76.9230769230769,4,2,1,70,0,0
196665,-55.5555555555556,4,2,1,5,0,0
196743,-133.333333333333,4,2,1,70,0,0
196899,-83.3333333333333,4,2,1,70,0,0
197602,-55.5555555555556,4,2,1,5,0,0
197681,-83.3333333333333,4,2,1,70,0,0
198852,-55.5555555555556,4,2,1,5,0,0
198931,-83.3333333333333,4,2,1,70,0,0
199165,-55.5555555555556,4,2,1,5,0,0
199243,-100,4,2,1,70,0,0
199399,-83.3333333333333,4,2,1,70,0,0
200102,-55.5555555555556,4,2,1,5,0,0
200181,-66.6666666666667,4,2,1,70,0,0
200415,-55.5555555555556,4,2,1,5,0,0
200493,-100,4,2,1,70,0,0
201431,-76.9230769230769,4,2,1,70,0,0
202681,-83.3333333333333,4,2,1,70,0,0
202915,-55.5555555555556,4,2,1,5,0,0
202993,-133.333333333333,4,2,1,70,0,0
203931,-76.9230769230769,4,2,1,70,0,0
204165,-55.5555555555556,4,2,1,5,0,0
204243,-100,4,2,1,70,0,0
205181,-66.6666666666667,4,2,1,70,0,0
206118,-100,4,2,1,70,0,0
206431,-71.4285714285714,4,2,1,70,0,0
206665,-55.5555555555556,4,2,1,5,0,0
206743,-71.4285714285714,4,2,1,70,0,0
207056,-71.4285714285714,4,2,1,72,0,0
207368,-71.4285714285714,4,2,1,74,0,0
207681,-66.6666666666667,4,2,1,76,0,0
207993,-76.9230769230769,4,2,1,76,0,0
208149,-133.333333333333,4,2,1,76,0,0
208306,-55.5555555555556,4,2,1,76,0,0
208618,-76.9230769230769,4,2,1,76,0,0
208774,-133.333333333333,4,2,1,76,0,0
208931,-58.8235294117647,4,2,1,76,0,0
209165,-55.5555555555556,4,2,1,5,0,0
209243,-100,4,2,1,76,0,0
209399,-76.9230769230769,4,2,1,76,0,0
209712,-133.333333333333,4,2,1,76,0,0
209868,-83.3333333333333,4,2,1,76,0,0
212681,-58.8235294117647,4,2,1,76,0,0
212915,-55.5555555555556,4,2,1,5,0,0
212993,-100,4,2,1,76,0,0
213149,-58.8235294117647,4,2,1,76,0,0
214009,-55.5555555555556,4,2,1,5,0,0
214087,-133.333333333333,4,2,1,70,0,0
214243,-200,4,2,1,70,0,0
214477,-55.5555555555556,4,2,1,5,0,0
214556,-133.333333333333,4,2,1,70,0,0
214946,-133.333333333333,4,2,1,60,0,0
215181,-133.333333333333,4,2,1,50,0,0
225181,-333.333333333333,4,2,2,50,0,0
225493,-500,4,2,2,50,0,0
229946,-500,4,2,1,50,0,0
230181,-500,4,2,2,50,0,0
232681,-500,4,2,1,50,0,0
233931,-133.333333333333,4,2,1,70,0,0
234477,-55.5555555555556,4,2,1,5,0,0
234556,-133.333333333333,4,2,1,70,0,0
235102,-55.5555555555556,4,2,1,5,0,0
235181,-1000,4,2,1,70,0,0
236431,-1000,4,2,1,45,0,0
236743,-1000,4,2,1,50,0,0
237056,-1000,4,2,1,60,0,0
237368,-1000,4,2,1,70,0,0
237681,-1000,4,2,1,75,0,0
238931,-1000,4,2,1,80,0,0
239165,-1000,4,2,1,50,0,0
240181,-133.333333333333,4,2,1,70,0,0
241118,-66.6666666666667,4,2,1,70,0,0
241352,-55.5555555555556,4,2,1,5,0,0
241431,-133.333333333333,4,2,1,70,0,0
241899,-500,4,2,1,60,0,0
242212,-58.8235294117647,4,2,1,50,0,0
242368,-58.8235294117647,4,2,1,70,0,0
242602,-55.5555555555556,4,2,1,5,0,0
242681,-58.8235294117647,4,2,1,80,0,1
242837,-58.8235294117647,4,2,1,80,0,0
243149,-58.8235294117647,4,2,1,80,0,1
243306,-58.8235294117647,4,2,1,80,0,0
243618,-58.8235294117647,4,2,1,80,0,1
243774,-58.8235294117647,4,2,1,80,0,0
243931,-58.8235294117647,4,2,1,80,0,1
244165,-58.8235294117647,4,2,1,80,0,0
244399,-58.8235294117647,4,2,1,80,0,1
244634,-58.8235294117647,4,2,1,80,0,0
244868,-55.5555555555556,4,2,1,80,0,1
244946,-55.5555555555556,4,2,1,80,0,0
245102,-55.5555555555556,4,2,1,5,0,0
245181,-66.6666666666667,4,2,1,80,0,1
246118,-76.9230769230769,4,2,1,80,0,1
246352,-76.9230769230769,4,2,1,5,0,1
246431,-76.9230769230769,4,2,1,80,0,1
246665,-76.9230769230769,4,2,1,5,0,1
246743,-100,4,2,1,80,0,1
246899,-76.9230769230769,4,2,1,80,0,1
247681,-66.6666666666667,4,2,1,80,0,1
247915,-76.9230769230769,4,2,1,5,0,1
247993,-100,4,2,1,80,0,1
248149,-66.6666666666667,4,2,1,80,0,1
248618,-100,4,2,1,80,0,1
248931,-71.4285714285714,4,2,1,80,0,1
249165,-76.9230769230769,4,2,1,5,0,1
249243,-83.3333333333333,4,2,1,80,0,1
249556,-133.333333333333,4,2,1,80,0,1
250181,-58.8235294117647,4,2,1,80,0,1
250415,-76.9230769230769,4,2,1,5,0,1
250493,-100,4,2,1,80,0,1
250649,-83.3333333333333,4,2,1,80,0,1
251118,-76.9230769230769,4,2,1,80,0,1
251352,-76.9230769230769,4,2,1,5,0,1
251431,-76.9230769230769,4,2,1,80,0,1
251665,-76.9230769230769,4,2,1,5,0,1
251743,-100,4,2,1,80,0,1
251899,-76.9230769230769,4,2,1,80,0,1
252602,-76.9230769230769,4,2,1,5,0,1
252681,-71.4285714285714,4,2,1,80,0,1
253618,-83.3333333333333,4,2,1,80,0,1
254165,-76.9230769230769,4,2,1,5,0,1
254243,-100,4,2,1,80,0,1
254399,-83.3333333333333,4,2,1,80,0,1
254712,-133.333333333333,4,2,1,80,0,1
254868,-100,4,2,1,80,0,1
255181,-76.9230769230769,4,2,1,80,0,1
256665,-76.9230769230769,4,2,1,5,0,1
256743,-100,4,2,1,80,0,1
256899,-83.3333333333333,4,2,1,80,0,1
257681,-55.5555555555556,4,2,1,80,0,1
257915,-76.9230769230769,4,2,1,5,0,1
257993,-100,4,2,1,80,0,1
258149,-58.8235294117647,4,2,1,80,0,1
258774,-58.8235294117647,4,2,1,80,0,1
259009,-76.9230769230769,4,2,1,5,0,1
259087,-100,4,2,1,80,0,1
259243,-303.030303030303,4,2,1,80,0,1
259477,-76.9230769230769,4,2,1,5,0,1
259556,-303.030303030303,4,2,1,80,0,1
260181,-52.6315789473684,4,2,1,80,0,1
260415,-76.9230769230769,4,2,1,5,0,1
260493,-52.6315789473684,4,2,1,80,0,1
263931,-83.3333333333333,4,2,1,80,0,1
264243,-66.6666666666667,4,2,1,80,0,1
264556,-83.3333333333333,4,2,1,80,0,1
265181,-55.5555555555556,4,2,1,80,0,1
265415,-76.9230769230769,4,2,1,5,0,1
265493,-55.5555555555556,4,2,1,80,0,1
267681,-66.6666666666667,4,2,1,80,0,1
267915,-76.9230769230769,4,2,1,5,0,1
267993,-100,4,2,1,80,0,1
268306,-66.6666666666667,4,2,1,80,0,1
269243,-100,4,2,1,80,0,1
270181,-66.6666666666667,4,2,1,85,0,1
277681,-333.333333333333,4,2,1,85,0,0
277759,-333.333333333333,4,2,1,60,0,0
278931,-133.333333333333,4,2,1,60,0,0
280024,-76.9230769230769,4,2,1,65,0,0
280259,-76.9230769230769,4,2,1,5,0,0
280337,-100,4,2,1,65,0,0
280493,-83.3333333333333,4,2,1,65,0,0
281274,-76.9230769230769,4,2,1,65,0,0
281509,-76.9230769230769,4,2,1,5,0,0
281587,-100,4,2,1,65,0,0
281743,-76.9230769230769,4,2,1,65,0,0
282524,-76.9230769230769,4,2,1,65,0,0
282759,-76.9230769230769,4,2,1,5,0,0
282837,-100,4,2,1,65,0,0
283774,-76.9230769230769,4,2,1,65,0,0
284009,-76.9230769230769,4,2,1,5,0,0
284087,-100,4,2,1,65,0,0
285024,-71.4285714285714,4,2,1,65,0,0
285259,-76.9230769230769,4,2,1,5,0,0
285337,-100,4,2,1,65,0,0
286274,-76.9230769230769,4,2,1,65,0,0
286509,-76.9230769230769,4,2,1,5,0,0
286587,-100,4,2,1,65,0,0
286743,-66.6666666666667,4,2,1,65,0,0
287524,-76.9230769230769,4,2,1,65,0,0
287759,-76.9230769230769,4,2,1,5,0,0
287837,-100,4,2,1,65,0,0
288306,-76.9230769230769,4,2,1,65,0,0
289009,-76.9230769230769,4,2,1,5,0,0
289087,-100,4,2,1,65,0,0
289243,-83.3333333333333,4,2,1,65,0,0
290024,-62.5,4,2,1,65,0,0
290806,-76.9230769230769,4,2,1,65,0,0
292524,-333.333333333333,4,2,1,65,0,0
293931,-66.6666666666667,4,2,1,75,0,0
294009,-76.9230769230769,4,2,1,5,0,0
294087,-200,4,2,1,75,0,0
294321,-76.9230769230769,4,2,1,5,0,0
294399,-66.6666666666667,4,2,1,75,0,0
294477,-76.9230769230769,4,2,1,5,0,0
294712,-66.6666666666667,4,2,1,85,0,0
294790,-76.9230769230769,4,2,1,5,0,0
294868,-66.6666666666667,4,2,1,85,0,0
294946,-76.9230769230769,4,2,1,5,0,0
295024,-66.6666666666667,4,2,1,85,0,0
295102,-66.6666666666667,4,2,1,5,0,0

[Colours]
Combo1 : 128,0,255
Combo2 : 74,74,255
Combo3 : 128,255,255

[HitObjects]
417,66,3931,6,0,L|410:97,2,26.9999991760254,2|2|2,0:0|0:0|0:0,0:0:0:0:
35,160,4712,6,0,L|28:128,2,26.9999991760254,2|0|0,0:0|0:0|0:0,0:0:0:0:
106,92,5181,2,0,L|112:123,2,26.9999991760254,2|0|0,0:0|0:0|0:0,0:0:0:0:
29,51,5649,1,2,0:0:0:0:
105,202,5806,6,0,L|98:233,2,26.9999991760254,2|2|2,0:0|0:0|0:0,0:0:0:0:
207,175,6274,2,0,L|180:169,2,26.9999991760254,0|0|2,0:0|0:0|0:0,0:0:0:0:
303,119,6743,2,0,L|321:98,2,26.9999991760254,0|0|2,0:0|0:0|0:0,0:0:0:0:
303,230,7212,2,0,L|311:255,2,26.9999991760254,0|0|2,0:0|0:0|0:0,0:0:0:0:
240,303,7681,6,0,L|231:277,2,26.9999991760254,2|2|2,0:0|0:0|0:0,0:0:0:0:
319,380,8149,2,0,L|344:371,2,26.9999991760254,0|0|2,0:0|0:0|0:0,0:0:0:0:
385,300,8618,2,0,L|405:318,2,26.9999991760254,0|0|2,0:0|0:0|0:0,0:0:0:0:
487,317,9087,2,0,L|481:343,2,26.9999991760254,0|0|2,0:0|0:0|0:0,0:0:0:0:
512,211,9556,6,0,L|506:184,2,26.9999991760254,2|2|2,0:0|0:0|0:0,0:0:0:0:
423,173,10024,2,0,L|428:199,2,26.9999991760254,0|0|2,0:0|0:0|0:0,0:0:0:0:
478,109,10493,5,0,0:0:0:0:
400,56,10649,1,0,0:0:0:0:
484,14,10806,1,2,0:0:0:0:
478,109,10962,5,0,0:0:0:0:
400,56,11118,1,0,0:0:0:0:
322,109,11274,1,2,0:0:0:0:
328,203,11431,5,2,0:0:0:0:
328,203,11509,2,0,L|414:221,1,67.5,2|2,0:0|0:0,0:0:0:0:
500,230,11899,2,0,L|506:261,2,22.5,2|2|2,0:3|0:3|0:3,0:0:0:0:
436,294,12212,1,2,0:0:0:0:
456,382,12368,6,0,L|435:289,1,90,2|2,0:0|0:3,0:0:0:0:
343,372,12837,2,0,L|370:366,2,22.5,2|2|2,0:2|0:3|0:3,0:0:0:0:
354,290,13149,1,2,0:3:0:0:
266,309,13305,6,0,L|358:288,1,90,2|2,0:0|0:3,0:0:0:0:
221,384,13774,2,0,L|193:378,2,22.5,2|2|2,0:0|0:3|0:3,0:0:0:0:
175,295,14087,1,2,0:0:0:0:
106,384,14243,6,0,L|86:294,1,90,2|0,0:0|0:0,0:0:0:0:
72,290,14634,2,0,L|76:313,2,22.5,2|2|2,0:3|0:3|0:3,0:0:0:0:
61,215,14868,1,2,0:0:0:0:
142,223,15024,1,2,0:0:0:0:
175,295,15181,5,2,0:0:0:0:
188,157,15337,1,2,0:0:0:0:
61,215,15493,1,2,0:0:0:0:
100,119,15649,2,0,L|104:141,2,22.5,2|2|2,0:3|0:3|0:3,0:0:0:0:
8,87,15962,6,0,L|19:141,1,45,2|0,0:0|0:0,0:0:0:0:
17,131,16196,1,2,0:3:0:0:
17,131,16274,1,2,0:3:0:0:
106,36,16431,2,0,L|74:29,3,22.5,2|2|2|2,0:0|0:3|0:3|0:3,0:0:0:0:
174,81,16743,1,2,0:3:0:0:
249,25,16899,6,0,L|229:20,2,15,2|2|2,0:0|0:0|0:0,0:0:0:0:
272,50,17056,6,0,L|401:22,1,125.999996154785,2|2,0:0|0:0,0:0:0:0:
476,93,17524,2,0,L|452:88,2,22.5,2|2|2,0:3|0:3|0:3,0:0:0:0:
354,152,17837,5,2,0:0:0:0:
354,152,17915,1,2,0:0:0:0:
354,152,17993,1,2,0:0:0:0:
354,152,18071,2,0,L|459:174,1,94.499997116089,2|0,0:0|0:0,0:0:0:0:
455,192,18384,2,0,L|431:187,2,22.5,2|2|2,0:3|0:3|0:3,0:0:0:0:
505,258,18618,1,2,0:3:0:0:
434,371,18774,1,2,0:2:0:0:
371,253,18931,5,2,0:0:0:0:
385,263,19087,1,0,0:0:0:0:
381,289,19243,1,2,0:0:0:0:
333,312,19399,1,0,0:0:0:0:
257,292,19556,1,2,0:0:0:0:
192,220,19712,1,0,0:0:0:0:
95,172,19868,1,0,0:0:0:0:
3,239,20024,6,0,B|-18:296|38:326|38:326|77:319|103:355,1,161.999995056153,6|0,3:2|0:0,0:0:0:0:
159,384,20337,2,0,L|168:340,1,45,2|0,3:2|0:0,0:0:0:0:
275,203,20493,2,0,L|250:316,1,90,10|0,0:0|0:0,0:0:0:0:
192,220,20806,1,2,3:2:0:0:
382,164,20962,1,2,3:2:0:0:
219,67,21118,1,8,0:0:0:0:
457,134,21274,6,0,P|462:66|393:98,1,161.999995056153,2|0,3:2|0:0,0:0:0:0:
382,164,21587,2,0,L|391:207,1,45,2|0,3:2|0:0,0:0:0:0:
432,370,21743,2,0,P|460:338|515:330,1,90,10|0,0:0|0:0,0:0:0:0:
322,376,22056,1,2,3:2:0:0:
275,203,22212,1,2,3:2:0:0:
406,282,22368,1,8,0:0:0:0:
224,384,22524,6,0,B|153:369|153:369|142:358|142:358|61:341,1,161.999995056153,2|0,3:2|0:0,0:0:0:0:
0,313,22837,2,0,P|12:291|36:275,1,45,2|0,3:2|0:0,0:0:0:0:
137,229,22993,2,0,P|94:218|64:186,1,90,10|0,0:0|0:0,0:0:0:0:
22,26,23306,1,2,3:2:0:0:
201,76,23462,1,2,3:2:0:0:
1,140,23618,1,8,0:0:0:0:
104,19,23774,6,0,L|134:163,1,135,2|0,3:2|0:0,0:0:0:0:
206,182,24087,2,0,P|223:164|249:154,1,45,2|0,3:2|0:0,0:0:0:0:
397,108,24243,2,0,L|279:83,1,107.999996704102,10|2,0:0|0:0,0:0:0:0:
340,211,24556,1,2,3:2:0:0:
495,55,24712,1,2,3:2:0:0:
324,11,24868,1,8,0:0:0:0:
432,230,25024,6,0,B|502:206|473:137|473:137|464:161|444:173,1,161.999995056153,6|0,3:2|0:0,0:0:0:0:
373,294,25337,2,0,P|388:309|420:320,1,45,2|0,3:2|0:0,0:0:0:0:
340,211,25493,2,0,P|292:222|245:266,1,90,10|0,0:0|0:0,0:0:0:0:
162,377,25806,1,2,3:2:0:0:
7,288,25962,1,2,3:2:0:0:
183,254,26118,1,8,0:0:0:0:
72,384,26274,6,0,L|106:219,1,161.999995056153,2|0,3:2|0:0,0:0:0:0:
115,147,26587,2,0,L|68:156,1,45,2|0,3:2|0:0,0:0:0:0:
205,55,26743,2,0,L|314:78,1,90,10|0,0:0|0:0,0:0:0:0:
504,104,27056,1,2,3:2:0:0:
371,218,27212,1,2,3:2:0:0:
366,29,27368,1,8,0:0:0:0:
458,176,27524,6,0,B|424:121|361:113|361:113|351:134|327:142,1,161.999995056153,2|0,3:2|0:0,0:0:0:0:
252,144,27837,2,0,L|261:187,1,45,2|0,3:2|0:0,0:0:0:0:
201,342,27993,2,0,L|181:248,1,90,10|0,0:0|0:0,0:0:0:0:
282,286,28306,1,2,3:2:0:0:
120,384,28462,1,2,3:2:0:0:
95,214,28618,1,8,0:0:0:0:
334,359,28774,6,0,B|357:344|365:318|365:318|453:296|453:296|471:319|468:353|427:373,1,215.999993408203,2|2,3:2|3:2,0:0:0:0:
282,286,29243,2,0,L|301:192,1,90,10|0,0:0|0:0,0:0:0:0:
334,0,29556,1,2,3:2:0:0:
501,144,29712,1,2,3:2:0:0:
283,104,29868,2,0,L|322:95,1,33.7500012874604,8|0,0:0|0:0,0:0:0:0:
451,0,30024,6,0,L|405:215,1,215.999993408203,6|2,3:2|3:2,0:0:0:0:
67,181,30493,1,10,0:0:0:0:
290,111,30649,1,0,3:2:0:0:
290,111,30727,1,0,3:2:0:0:
290,111,30806,1,8,0:0:0:0:
307,205,30962,1,0,3:2:0:0:
307,205,31040,1,0,3:2:0:0:
307,205,31118,2,0,L|263:195,1,33.7500012874604,8|0,0:0|0:0,0:0:0:0:
132,135,31274,6,0,B|126:108|80:95|80:95|174:77|197:154|197:154|176:187|198:223,1,270.000010299683,4|0,3:2|3:2,0:0:0:0:
59,214,31743,1,8,0:3:0:0:
59,214,31821,1,8,0:3:0:0:
59,214,31899,2,0,L|66:178,1,33.7500012874604,4|4,0:3|0:3,0:0:0:0:
145,325,32056,1,8,0:0:0:0:
145,325,32134,1,8,0:3:0:0:
145,325,32212,2,0,L|137:289,1,33.7500012874604,4|4,0:3|0:3,0:0:0:0:
0,351,32368,6,0,L|54:339,1,53.9999983520508,8|0,0:0|0:0,0:0:0:0:
301,299,32524,1,0,3:2:0:0:
301,299,32993,6,0,L|309:259,2,36
269,121,33931,6,0,B|214:88|172:134|172:134|154:173|106:170,1,175.499991966248,6|0,3:2|0:0,0:0:0:0:
47,142,34243,1,10,0:0:0:0:
201,253,34399,2,0,P|212:221|234:195,1,67.5000025749208,2|0,0:0|3:2,0:0:0:0:
91,316,34712,2,0,P|112:341|124:373,1,67.5000025749208,2|8,3:2|0:0,0:0:0:0:
400,384,35024,6,0,L|219:349,1,180,2|0,3:2|3:2,0:0:0:0:
441,270,35493,2,0,B|447:200|523:202|523:202|486:220|478:252,1,180,8|0,0:0|3:2,0:0:0:0:
269,121,35962,1,2,3:2:0:0:
381,164,36118,2,0,L|357:54,1,90,10|2,0:0|0:3,0:0:0:0:
417,12,36352,5,2,0:3:0:0:
417,12,36431,2,0,B|397:6|386:-6|386:-6|260:20,1,161.999995056153,0|0,3:2|0:0,0:0:0:0:
188,41,36743,1,10,0:0:0:0:
240,177,36899,2,0,P|246:142|278:116,1,67.5000025749208,2|0,0:0|3:2,0:0:0:0:
81,36,37212,2,0,P|104:59|108:92,1,67.5000025749208,2|8,3:2|0:0,0:0:0:0:
0,247,37524,6,0,B|-5:182|63:150|63:150|87:172|117:166,1,180,2|0,3:2|3:2,0:0:0:0:
347,255,37993,2,0,L|365:166,1,90,8|0,0:0|0:0,0:0:0:0:
244,267,38306,1,0,3:2:0:0:
442,225,38462,1,0,3:2:0:0:
268,120,38618,6,0,B|273:84|316:77|316:77|292:92|285:120,1,101.250003862381,10|0,0:0|0:0,0:0:0:0:
214,192,38931,2,0,P|174:121|113:69,1,161.999995056153,6|0,3:2|0:0,0:0:0:0:
47,32,39243,1,10,0:0:0:0:
214,54,39399,2,0,P|244:21|285:4,2,90,2|0|0,0:0|3:2|3:2,0:0:0:0:
57,214,39868,1,10,0:0:0:0:
212,334,40024,6,0,B|279:312|279:234|279:234|262:264|224:272,1,180,2|0,3:2|3:2,0:0:0:0:
402,358,40493,2,0,P|433:372|466:378,1,67.5000025749208,10|0,0:0|0:0,0:0:0:0:
512,189,40806,1,2,3:2:0:0:
361,255,40962,1,0,3:2:0:0:
454,297,41118,2,0,L|424:156,1,135,10|2,0:0|0:3,0:0:0:0:
447,70,41431,6,0,B|481:74|511:50|511:50|484:76|488:110,1,135,2|0,3:2|0:0,0:0:0:0:
361,103,41743,1,10,0:0:0:0:
290,42,41899,2,0,P|325:14|369:10,1,90,2|0,0:0|3:2,0:0:0:0:
273,128,42212,1,2,3:2:0:0:
107,38,42368,1,8,0:0:0:0:
172,176,42524,6,0,L|211:-11,1,180,2|0,3:2|3:2,0:0:0:0:
43,164,42993,2,0,L|62:257,1,90,8|0,0:0|0:0,0:0:0:0:
268,236,43306,1,2,3:3:0:0:
268,236,43384,1,2,0:3:0:0:
268,236,43462,1,2,3:3:0:0:
158,322,43618,2,0,L|167:275,1,45,10|0,0:0|0:0,0:0:0:0:
86,384,43774,5,8,0:0:0:0:
86,384,43852,1,0,1:2:0:0:
86,384,43931,2,0,P|159:339|247:350,1,175.499991966248,6|0,3:2|0:0,0:0:0:0:
314,384,44243,1,10,0:0:0:0:
430,256,44399,2,0,P|456:235|488:224,1,67.5000025749208,2|0,0:0|3:2,0:0:0:0:
353,111,44712,2,0,P|384:123|409:146,1,67.5000025749208,2|8,3:2|0:0,0:0:0:0:
172,176,45024,6,0,B|105:198|67:163|67:163|53:114|8:121,1,180,2|0,3:2|3:2,0:0:0:0:
149,9,45493,2,0,L|129:98,1,90,10|0,0:0|0:0,0:0:0:0:
81,299,45806,1,2,3:2:0:0:
278,189,45962,1,0,3:2:0:0:
174,359,46118,6,0,L|169:335,1,22.5,10|0,0:0|0:0,0:0:0:0:
245,289,46274,2,0,L|249:312,1,22.5,2|0,0:0|0:0,0:0:0:0:
328,384,46431,6,0,B|361:321|426:324|426:324|440:348|469:354,1,161.999995056153,2|0,3:2|0:0,0:0:0:0:
494,283,46743,1,10,0:0:0:0:
338,249,46899,2,0,P|299:227|277:188,1,90,2|2,0:0|3:2,0:0:0:0:
129,96,47212,2,0,L|82:105,1,45,2|0,3:2|0:0,0:0:0:0:
125,180,47368,1,8,0:0:0:0:
177,4,47524,6,0,L|-6:43,1,180,2|2,3:2|3:2,0:0:0:0:
206,143,47993,2,0,P|227:104|266:82,1,90,10|0,0:0|0:0,0:0:0:0:
465,147,48306,1,2,3:2:0:0:
341,22,48462,1,0,3:2:0:0:
477,64,48618,2,0,B|512:16|460:-6|460:-6|474:21|472:36,1,135,10|0,0:0|0:0,0:0:0:0:
386,134,48931,6,0,B|360:176|381:222|425:235|426:232|427:229|478:211|522:244|507:315,1,233.999989288331,6|8,3:2|0:0,0:0:0:0:
358,354,49399,2,0,P|391:324|432:306,1,90,2|0,0:0|3:2,0:0:0:0:
170,288,49712,1,0,3:2:0:0:
248,384,49868,2,0,L|277:243,1,135,10|0,0:0|0:0,0:0:0:0:
267,171,50181,6,0,B|255:118|193:103|154:150|164:191|177:204|177:204|203:209|220:224,1,202.500007724762,6|0,3:2|0:0,0:0:0:0:
345,205,50493,2,0,L|384:196,1,33.7500012874604,10|0,0:0|0:0,0:0:0:0:
512,134,50649,2,0,L|418:114,2,67.5000025749208,2|0|0,0:0|3:2|3:2,0:0:0:0:
387,6,51118,1,10,0:0:0:0:
387,6,51431,6,0,L|343:211,1,202.500007724762,6|0,3:2|0:0,0:0:0:0:
417,255,51743,2,0,L|426:208,1,45,10|0,0:0|0:0,0:0:0:0:
284,60,51899,6,0,B|268:52|257:32|257:32|173:61|173:61|164:109|124:117,1,202.500007724762,6|0,3:2|0:0,0:0:0:0:
96,46,52212,1,2,3:2:0:0:
246,181,52368,2,0,L|236:134,1,45,10|0,0:0|0:0,0:0:0:0:
104,266,52524,6,0,B|125:319|190:304|204:252|204:252|180:239|175:212,1,175.499991966248,6|0,3:2|0:0,0:0:0:0:
236,136,52837,2,0,L|246:181,1,45,0|0,3:2|0:0,0:0:0:0:
278,384,52993,1,8,0:0:0:0:
278,384,53306,5,10,0:0:0:0:
272,334,53384,1,8,0:0:0:0:
288,286,53462,1,10,0:0:0:0:
321,249,53540,1,8,0:0:0:0:
368,229,53618,1,10,0:0:0:0:
418,230,53696,1,8,0:0:0:0:
463,252,53774,1,10,0:0:0:0:
495,291,53852,1,8,0:0:0:0:
508,338,53931,6,0,L|312:284,1,188.999994232178,6|0,3:2|0:0,0:0:0:0:
248,262,54243,1,8,0:0:0:0:
171,368,54399,2,0,L|260:348,2,90,2|0|0,0:0|3:2|3:2,0:0:0:0:
21,277,54868,2,0,P|53:307|74:347,1,90,10|0,0:0|0:0,0:0:0:0:
149,185,55181,6,0,P|179:125|238:96,1,135,2|0,3:2|0:0,0:0:0:0:
317,86,55493,1,8,0:0:0:0:
125,39,55649,2,0,L|35:19,2,90,2|0|0,0:0|3:2|3:2,0:0:0:0:
346,177,56118,2,0,P|394:143|408:63,1,135,10|0,0:0|0:0,0:0:0:0:
504,180,56431,6,0,P|425:141|345:176,1,180,2|8,3:2|0:0,0:0:0:0:
189,363,56899,2,0,L|169:273,1,90,2|0,0:0|3:2,0:0:0:0:
95,350,57212,1,2,3:2:0:0:
290,257,57368,2,0,B|270:210|221:216|221:216|246:237|246:271,1,135,10|0,0:0|0:0,0:0:0:0:
270,341,57681,6,0,B|368:319|368:319|381:333|402:340,1,135,2|0,3:2|0:0,0:0:0:0:
465,384,57993,2,0,L|486:282,1,90,8|2,0:0|0:0,0:0:0:0:
504,180,58306,1,2,3:2:0:0:
371,246,58462,1,2,3:2:0:0:
429,80,58618,1,10,0:0:0:0:
484,296,58774,1,2,0:0:0:0:
244,256,58931,6,0,L|285:60,1,175.499991966248,6|0,3:2|0:0,0:0:0:0:
295,11,59243,1,8,0:0:0:0:
104,72,59399,1,2,0:0:0:0:
173,0,59556,2,0,L|192:93,1,90,0|0,3:2|3:2,0:0:0:0:
61,203,59868,6,0,B|70:168|50:137|50:137|76:162|128:158,1,135,10|0,0:0|0:0,0:0:0:0:
134,254,60181,2,0,P|102:285|59:297,1,90,2|0,3:2|0:0,0:0:0:0:
215,189,60493,1,8,0:0:0:0:
311,305,60649,2,0,L|218:285,2,90,2|0|0,0:0|3:2|3:2,0:0:0:0:
494,322,61118,2,0,P|451:333|424:368,1,90,10|0,0:0|0:0,0:0:0:0:
345,212,61431,6,0,B|379:181|421:209|421:209|436:239|472:241,1,135,2|0,3:2|0:0,0:0:0:0:
485,168,61743,1,10,0:0:0:0:
311,305,61899,2,0,B|280:297|282:260|282:260|295:279|318:285,1,90,2|0,0:0|3:2,0:0:0:0:
339,384,62212,1,2,3:2:0:0:
202,315,62368,2,0,L|112:334,1,90,10|0,0:0|0:0,0:0:0:0:
0,171,62681,6,0,L|136:200,1,135,0|0,3:2|0:0,0:0:0:0:
210,205,62993,2,0,L|199:154,1,45,8|0,0:0|0:0,0:0:0:0:
294,82,63149,2,0,L|283:132,1,45,8|0,0:0|0:0,0:0:0:0:
197,67,63306,1,0,3:2:0:0:
197,67,63384,1,8,0:2:0:0:
197,67,63462,1,0,3:2:0:0:
390,20,63618,5,8,0:0:0:0:
380,64,63696,1,8,0:0:0:0:
371,108,63774,1,8,0:0:0:0:
361,152,63852,1,8,0:0:0:0:
352,196,63931,6,0,B|406:185|425:141|394:97|394:97|345:98|325:55,1,202.500007724762,4|0,3:2|0:0,0:0:0:0:
390,20,64243,5,8,0:0:0:0:
488,115,64399,1,0,3:2:0:0:
283,133,64556,1,8,0:0:0:0:
475,30,64712,1,0,3:2:0:0:
255,53,64868,1,8,0:0:0:0:
505,199,65024,1,0,3:2:0:0:
192,221,65181,5,8,0:0:0:0:
488,115,65337,1,0,3:2:0:0:
229,43,65493,1,8,0:0:0:0:
512,122,65649,1,0,3:2:0:0:
254,295,65806,5,8,0:0:0:0:
333,69,65962,1,0,3:2:0:0:
415,328,66118,1,8,0:0:0:0:
327,47,66274,1,0,3:2:0:0:
192,221,66431,6,0,L|371:182,1,175.499991966248,10|0,0:0|0:0,0:0:0:0:
443,173,66743,2,0,L|431:227,1,45,8|0,0:0|0:0,0:0:0:0:
321,384,66899,1,0,3:2:0:0:
256,131,67056,1,8,0:0:0:0:
109,329,67212,1,0,3:2:0:0:
363,183,67368,1,8,0:0:0:0:
138,135,67524,1,0,3:2:0:0:
236,384,67681,6,0,L|258:278,1,90,10|0,0:0|3:2,0:0:0:0:
39,112,67993,2,0,L|61:217,1,90,8|0,0:0|3:2,0:0:0:0:
256,131,68306,6,0,L|211:121,1,45,10|0,0:0|0:0,0:0:0:0:
399,258,68462,1,0,3:2:0:0:
407,173,68618,2,0,L|362:182,1,45,10|0,0:0|0:0,0:0:0:0:
135,222,68774,1,0,3:2:0:0:
188,48,68931,5,12,0:0:0:0:
254,295,69087,1,0,3:2:0:0:
254,295,69243,1,0,3:2:0:0:
135,222,69399,5,12,0:0:0:0:
411,177,69555,1,0,3:2:0:0:
411,177,69711,1,0,3:2:0:0:
324,52,69868,5,12,0:0:0:0:
258,299,70024,1,0,3:2:0:0:
258,299,70180,1,0,3:2:0:0:
139,136,70337,5,12,0:0:0:0:
415,181,70493,1,0,3:2:0:0:
415,181,70649,1,0,3:2:0:0:
188,48,70806,5,10,0:0:0:0:
107,340,70962,1,0,3:2:0:0:
324,52,71118,5,14,0:0:0:0:
405,344,71274,1,0,3:2:0:0:
72,189,71431,5,12,3:2:0:0:
98,153,71509,1,0,3:2:0:0:
139,136,71587,1,0,3:2:0:0:
183,142,71665,1,0,3:2:0:0:
217,171,71743,2,0,L|207:217,1,45,0|0,3:2|0:0,0:0:0:0:
260,326,71899,5,8,3:2:0:0:
286,362,71977,1,0,3:2:0:0:
327,379,72055,1,0,3:2:0:0:
371,373,72133,1,0,3:2:0:0:
405,344,72211,2,0,L|395:297,1,45,0|0,3:2|0:0,0:0:0:0:
491,193,72368,5,8,3:2:0:0:
486,215,72446,1,0,3:2:0:0:
481,237,72524,1,0,3:2:0:0:
476,259,72602,1,0,3:2:0:0:
472,281,72681,5,10,3:2:0:0:
136,233,72837,1,10,0:0:0:0:
136,233,73306,5,2,0:0:0:0:
146,227,73384,1,2,0:0:0:0:
149,210,73462,1,2,0:0:0:0:
135,194,73540,1,2,0:0:0:0:
108,196,73618,2,0,B|180:169|148:102|148:102|158:151|123:176,1,202.500007724762,4|0,0:1|0:0,0:0:0:0:
71,121,73931,6,0,L|309:171,1,229.500004377365,6|0,3:2|0:0,0:0:0:0:
373,187,74243,1,8,0:0:0:0:
249,320,74399,2,0,P|272:270|319:246,1,107.999996704102,0|0,0:0|3:2,0:0:0:0:
370,373,74712,1,0,3:2:0:0:
166,288,74868,2,0,B|113:261|74:299|74:299|56:343|10:340,1,161.999995056153,8|0,0:0|0:0,0:0:0:0:
0,266,75181,6,0,L|22:160,1,107.999996704102,2|0,3:2|0:0,0:0:0:0:
51,9,75493,1,8,0:0:0:0:
215,83,75649,2,0,B|118:62|118:62|107:76|87:84,1,125.999996154785,0|0,0:0|3:2,0:0:0:0:
240,216,75962,1,0,3:2:0:0:
358,126,76118,2,0,L|339:37,1,90,8|0,0:0|0:0,0:0:0:0:
481,194,76431,6,0,B|497:272|422:299|422:299|355:289|334:352,2,233.999989288331,2|8|0,3:2|0:0|3:2,0:0:0:0:
408,379,77212,1,0,3:2:0:0:
222,324,77368,2,0,B|221:371|266:381|266:381|255:357|259:339,1,116.999994644165,8|0,0:0|0:0,0:0:0:0:
250,145,77681,6,0,L|77:181,1,161.999995056153,2|0,3:2|0:0,0:0:0:0:
8,201,77993,2,0,L|17:157,1,45,8|0,0:0|0:0,0:0:0:0:
52,0,78149,2,0,L|76:117,1,107.999996704102,0|0,0:0|3:2,0:0:0:0:
123,327,78462,1,0,3:2:0:0:
366,144,78618,2,0,B|371:85|294:78|294:78|322:98|326:129,1,161.999995056153,8|0,0:0|0:0,0:0:0:0:
303,238,78931,6,0,B|347:153|456:153|456:153|470:183|505:195,2,233.999989288331,6|8|0,3:2|0:0|3:2,0:0:0:0:
123,327,79712,1,0,3:2:0:0:
244,376,79868,2,0,L|217:250,1,107.999996704102,8|0,0:0|0:0,0:0:0:0:
138,94,80181,6,0,B|107:151|47:146|47:146|71:129|74:102,1,161.999995056153,2|0,3:2|0:0,0:0:0:0:
155,17,80493,2,0,P|183:25|207:49,1,53.9999983520508,8|0,0:0|0:0,0:0:0:0:
366,144,80649,2,0,P|386:94|430:64,1,107.999996704102,0|0,0:0|3:2,0:0:0:0:
488,187,80962,1,0,3:2:0:0:
303,238,81118,2,0,B|272:177|201:180|201:180|191:205|159:213,1,161.999995056153,8|0,0:0|0:0,0:0:0:0:
89,163,81431,6,0,L|128:350,1,161.999995056153,2|0,3:2|0:0,0:0:0:0:
53,372,81743,2,0,L|38:305,1,53.9999983520508,8|0,0:0|0:0,0:0:0:0:
200,337,81899,2,0,B|199:362|225:384|225:384|192:370|158:381,1,107.999996704102,0|0,0:0|3:2,0:0:0:0:
20,233,82212,1,0,3:2:0:0:
274,317,82368,2,0,P|339:269|419:258,1,161.999995056153,8|0,0:0|0:0,0:0:0:0:
495,273,82681,5,2,3:2:0:0:
495,273,82993,6,0,L|460:108,1,161.999995056153,8|0,0:0|0:0,0:0:0:0:
399,69,83306,2,0,L|408:24,1,45,0|0,3:2|0:0,0:0:0:0:
494,0,83462,2,0,L|484:44,1,45,0|0,3:2|0:0,0:0:0:0:
383,154,83618,1,8,0:0:0:0:
341,168,83696,1,2,0:0:0:0:
302,148,83774,1,2,0:0:0:0:
289,107,83852,1,2,0:0:0:0:
310,68,83931,6,0,B|336:134|280:176|280:176|226:171|208:203,1,202.500007724762,4|0,3:2|0:0,0:0:0:0:
265,256,84243,1,8,0:0:0:0:
135,135,84399,2,0,P|94:100|27:87,1,107.999996704102,0|0,0:0|3:2,0:0:0:0:
199,28,84712,1,0,3:2:0:0:
186,277,84868,2,0,B|149:274|112:309|112:309|148:272|138:226,1,161.999995056153,8|0,0:0|0:0,0:0:0:0:
67,214,85181,6,0,L|274:258,1,202.500007724762,2|0,3:2|0:0,0:0:0:0:
338,270,85493,1,8,0:0:0:0:
487,150,85649,2,0,L|369:174,1,107.999996704102,0|0,0:0|3:2,0:0:0:0:
496,290,85962,1,0,3:2:0:0:
286,105,86118,2,0,B|268:52|320:18|320:18|305:55|316:81,1,161.999995056153,8|0,0:0|0:0,0:0:0:0:
387,56,86431,6,0,B|322:12|264:56|264:56|244:115|185:113,2,233.999989288331,2|8|0,3:2|0:0|3:2,0:0:0:0:
187,36,87212,1,0,3:2:0:0:
427,153,87368,2,0,B|466:137|455:92|455:92|442:122|415:127,1,116.999994644165,8|0,0:0|0:0,0:0:0:0:
231,221,87681,6,0,B|356:194|356:194|369:219|391:226,1,175.499991966248,2|0,3:2|0:0,0:0:0:0:
359,299,87993,2,0,P|336:292|318:274,1,45,8|0,0:0|0:0,0:0:0:0:
134,191,88149,2,0,L|157:300,1,107.999996704102,0|0,0:0|3:2,0:0:0:0:
36,262,88462,1,0,3:2:0:0:
189,113,88618,2,0,B|172:49|107:49|107:49|144:70|150:96,1,161.999995056153,8|0,0:0|0:0,0:0:0:0:
231,221,88931,6,0,B|253:127|348:113|348:113|369:142|407:149,2,233.999989288331,6|8|0,3:2|0:0|3:2,0:0:0:0:
74,127,89712,1,0,3:2:0:0:
156,296,89868,2,0,L|134:191,1,107.999996704102,8|0,0:0|0:0,0:0:0:0:
502,110,90181,6,0,B|533:173|475:212|475:212|424:213|412:254,1,188.999994232178,2|0,3:2|0:0,0:0:0:0:
482,323,90493,2,0,L|472:276,1,33.7500012874604,8|0,0:0|0:0,0:0:0:0:
416,73,90649,2,0,B|424:32|470:32|470:32|447:45|437:70,1,107.999996704102,0|0,0:0|3:2,0:0:0:0:
329,203,90962,1,0,3:2:0:0:
218,31,91118,1,8,0:0:0:0:
218,31,91431,6,0,L|421:74,1,202.500007724762,6|0,3:2|0:0,0:0:0:0:
502,110,91743,2,0,L|492:63,1,45,8|0,0:0|0:0,0:0:0:0:
210,131,91899,2,0,L|69:160,1,135.000005149842,4|0,3:2|0:0,0:0:0:0:
329,203,92212,1,8,0:0:0:0:
344,206,92290,1,8,0:0:0:0:
359,209,92368,1,8,0:0:0:0:
99,315,92524,6,0,B|55:273|101:199|175:236|175:236|170:256|174:272,1,202.500007724762,4|0,3:2|0:0,0:0:0:0:
164,360,92837,2,0,P|147:378|124:395,1,33.7500012874604,0|0,3:2|0:0,0:0:0:0:
253,267,92993,6,0,L|331:283,1,67.5,8|0,0:0|0:0,0:0:0:0:
393,292,93306,1,2,3:2:0:0:
275,121,93462,1,2,3:2:0:0:
512,61,93618,2,0,L|502:107,1,45,10|0,0:0|0:0,0:0:0:0:
483,186,93774,2,0,L|473:232,1,45,2|0,0:0|0:0,0:0:0:0:
256,384,93931,6,0,L|209:164,1,216,14|0,3:2|0:0,0:0:0:0:
197,100,94243,5,8,0:0:0:0:
106,202,94399,1,0,3:2:0:0:
319,280,94556,5,8,0:0:0:0:
254,43,94712,1,0,3:2:0:0:
23,180,94868,5,8,0:0:0:0:
46,264,95024,1,0,3:2:0:0:
332,62,95181,5,8,0:0:0:0:
332,62,95493,5,8,0:0:0:0:
176,20,95649,1,0,3:2:0:0:
106,202,95806,5,8,0:0:0:0:
275,121,95962,1,0,3:2:0:0:
400,324,96118,5,10,0:0:0:0:
357,303,96196,1,2,0:0:0:0:
315,283,96274,1,2,3:2:0:0:
273,263,96352,1,2,0:0:0:0:
231,243,96430,1,10,0:0:0:0:
231,243,96743,5,8,0:0:0:0:
261,360,96899,1,2,3:2:0:0:
420,162,97056,5,8,0:0:0:0:
357,303,97212,1,0,3:2:0:0:
72,98,97368,5,10,0:0:0:0:
176,325,97524,1,0,3:2:0:0:
483,84,97681,6,0,L|342:54,1,116.999994644165,10|0,0:0|3:2,0:0:0:0:
43,233,97993,2,0,L|183:203,1,116.999994644165,8|0,0:0|3:2,0:0:0:0:
420,162,98306,5,8,0:0:0:0:
199,26,98462,1,0,3:2:0:0:
199,26,98540,1,0,3:2:0:0:
199,26,98618,2,0,L|213:89,1,58.4999973220826,8|0,0:0|0:0,0:0:0:0:
261,360,98774,1,0,3:2:0:0:
399,281,98931,6,0,B|232:245|232:245|215:268|191:279,1,216,12|0,0:0|0:0,0:0:0:0:
157,208,99243,5,8,0:0:0:0:
119,351,99399,1,0,3:2:0:0:
292,154,99556,5,8,0:0:0:0:
364,378,99712,1,0,3:2:0:0:
104,89,99868,5,8,0:0:0:0:
14,353,100024,1,0,3:2:0:0:
399,281,100181,5,8,0:0:0:0:
399,281,100493,5,8,0:0:0:0:
292,154,100649,2,0,L|354:167,1,53.9999983520508,2|0,3:2|0:0,0:0:0:0:
232,40,100806,6,0,B|121:63|121:63|114:79|99:92,1,144,8|0,0:0|3:2,0:0:0:0:
49,33,101040,1,2,0:0:0:0:
49,33,101118,2,0,L|39:-13,1,33.7500012874604,8|0,0:0|0:0,0:0:0:0:
179,141,101274,2,0,L|169:187,1,33.7500012874604,8|0,0:0|0:0,0:0:0:0:
129,384,101431,5,6,3:2:0:0:
129,384,102681,6,0,L|125:368,2,16.8750006437302,0|0|0,1:2|3:2|3:2,0:0:0:0:
200,326,102837,1,0,3:2:0:0:
383,284,102993,6,0,L|386:268,2,16.8750006437302,0|0|0,1:2|3:2|3:2,0:0:0:0:
312,226,103149,1,0,3:2:0:0:
131,286,103306,6,0,L|121:239,1,33.7500012874604,0|0,1:2|0:0,0:0:0:0:
196,204,103462,2,0,L|205:250,1,33.7500012874604,0|0,1:2|0:0,0:0:0:0:
56,317,103618,1,0,3:2:0:0:
273,114,103774,6,0,B|398:87|398:87|413:113|444:125,1,175.499991966248,4|0,3:2|0:0,0:0:0:0:
404,192,104087,2,0,P|385:186|363:161,1,45,2|0,3:2|0:0,0:0:0:0:
471,53,104243,2,0,B|496:49|520:20|520:20|500:52|503:72,1,116.999994644165,10|0,0:0|0:0,0:0:0:0:
312,226,104556,1,2,3:2:0:0:
223,21,104712,1,2,3:2:0:0:
431,120,104868,1,8,0:0:0:0:
196,204,105024,6,0,B|146:153|82:169|82:169|71:195|44:207,1,175.499991966248,2|0,3:2|0:0,0:0:0:0:
14,136,105337,2,0,L|4:91,1,45,2|0,3:2|0:0,0:0:0:0:
123,252,105493,2,0,L|99:361,1,90,10|0,0:0|0:0,0:0:0:0:
229,384,105806,1,2,3:2:0:0:
417,268,105962,1,2,3:2:0:0:
196,204,106118,1,8,0:0:0:0:
345,384,106274,6,0,L|308:211,1,161.999995056153,2|0,3:2|0:0,0:0:0:0:
328,149,106587,2,0,P|352:156|375:176,1,45,2|0,3:2|0:0,0:0:0:0:
417,268,106743,2,0,P|445:232|509:221,1,90,10|0,0:0|0:0,0:0:0:0:
445,373,107056,1,2,3:2:0:0:
213,293,107212,1,2,3:2:0:0:
446,140,107368,1,8,0:0:0:0:
277,67,107524,6,0,L|313:239,1,161.999995056153,2|0,3:2|0:0,0:0:0:0:
339,312,107837,2,0,L|292:302,1,45,2|0,3:2|0:0,0:0:0:0:
139,224,107993,2,0,L|227:205,1,90,10|2,0:0|0:0,0:0:0:0:
85,336,108306,1,2,3:2:0:0:
140,115,108462,1,2,3:2:0:0:
310,225,108618,1,8,0:0:0:0:
24,129,108774,6,0,B|17:49|104:43|104:43|68:64|60:104,1,188.999994232178,6|0,3:2|0:0,0:0:0:0:
68,195,109087,2,0,P|39:211|-1:206,1,45,2|0,3:2|0:0,0:0:0:0:
188,48,109243,2,0,L|276:66,1,90,10|0,0:0|0:0,0:0:0:0:
476,122,109556,1,2,3:2:0:0:
329,2,109712,1,2,3:2:0:0:
389,243,109868,1,8,0:0:0:0:
512,46,110024,6,0,B|452:18|407:64|407:64|401:97|366:115,1,175.499991966248,2|0,3:2|0:0,0:0:0:0:
285,110,110337,2,0,L|275:63,1,45,2|0,3:2|0:0,0:0:0:0:
162,0,110493,2,0,L|180:88,1,90,10|0,0:0|0:0,0:0:0:0:
219,294,110806,1,2,3:2:0:0:
28,213,110962,1,2,3:2:0:0:
285,110,111118,1,8,0:0:0:0:
107,327,111274,6,0,L|143:154,1,161.999995056153,2|0,3:2|0:0,0:0:0:0:
93,103,111587,2,0,L|48:112,1,45,2|0,3:2|0:0,0:0:0:0:
236,211,111743,2,0,L|345:234,1,90,10|0,0:0|0:0,0:0:0:0:
479,252,112056,1,2,3:2:0:0:
376,384,112212,1,2,3:2:0:0:
408,154,112368,1,8,0:0:0:0:
288,379,112524,6,0,B|303:301|405:293|405:293|435:340|499:334,1,233.999989288331,2|2,3:2|3:2,0:0:0:0:
107,327,112993,2,0,P|75:288|32:270,1,90,10|0,0:0|0:0,0:0:0:0:
13,371,113306,1,2,3:2:0:0:
208,293,113462,1,2,3:2:0:0:
6,189,113618,1,8,0:0:0:0:
151,115,113774,6,0,L|104:334,1,215.999993408203,6|2,3:2|3:2,0:0:0:0:
235,69,114243,1,10,0:0:0:0:
113,15,114399,1,0,3:2:0:0:
113,15,114477,1,0,3:2:0:0:
113,15,114556,2,0,L|159:24,1,45,8|0,0:0|0:0,0:0:0:0:
277,155,114712,1,0,3:2:0:0:
277,155,114790,1,0,3:2:0:0:
277,155,114869,2,0,L|309:119,1,45,8|0,0:0|0:0,0:0:0:0:
456,39,115024,2,0,L|469:81,1,45,4|0,3:2|0:0,0:0:0:0:
512,277,115181,5,2,0:3:0:0:
480,278,115259,1,2,0:3:0:0:
454,258,115337,1,2,3:3:0:0:
449,220,115415,1,2,0:3:0:0:
475,191,115493,5,8,0:3:0:0:
429,202,115571,1,8,0:3:0:0:
383,213,115649,1,4,0:3:0:0:
337,224,115727,1,4,0:3:0:0:
310,269,115806,5,8,0:0:0:0:
264,258,115884,1,8,0:3:0:0:
218,247,115962,1,4,0:3:0:0:
172,236,116040,1,4,0:3:0:0:
122,206,116118,6,0,L|131:252,1,45,8|0,0:0|0:0,0:0:0:0:
153,384,116274,1,0,3:2:0:0:
370,147,125181,5,8,3:2:0:0:
136,250,125337,1,8,3:2:0:0:
83,143,125806,5,8,3:2:0:0:
424,272,125962,1,8,3:2:0:0:
260,211,126118,6,0,L|251:170,1,36,2|0,0:0|0:0,0:0:0:0:
285,64,126743,6,0,L|225:345,1,288,14|0,3:2|3:2,0:0:0:0:
136,250,127212,2,0,P|111:227|78:226,1,67.5000025749208,2|8,3:2|0:0,0:0:0:0:
224,345,127524,6,0,B|259:288|338:302|338:302|353:333|388:350,1,180,2|0,3:2|3:2,0:0:0:0:
477,257,127993,2,0,L|410:271,1,67.5000025749208,10|0,0:0|0:0,0:0:0:0:
323,218,128306,2,0,L|345:222,1,22.5,2|0,3:2|0:0,0:0:0:0:
303,138,128462,2,0,L|325:142,1,22.5,0|0,3:2|0:0,0:0:0:0:
443,169,128618,2,0,B|468:46|468:46|430:38,1,161.999995056153,10|0,0:0|0:0,0:0:0:0:
422,55,128931,6,0,L|515:74,1,67.5000025749208,2|0,3:2|0:0,0:0:0:0:
273,38,129243,1,10,0:0:0:0:
223,154,129399,2,0,L|316:134,1,80.9999975280763,2|2,0:0|3:2,0:0:0:0:
74,115,129712,2,0,L|83:68,1,45,2|0,3:2|0:0,0:0:0:0:
2,79,129868,1,8,0:0:0:0:
170,20,130024,6,0,L|130:207,1,180,2|2,3:2|3:2,0:0:0:0:
93,363,130493,2,0,P|63:329|20:317,1,90,10|0,0:0|0:0,0:0:0:0:
206,242,130806,1,2,3:2:0:0:
241,384,130962,1,0,3:2:0:0:
321,239,131118,2,0,B|323:188|264:184|264:184|289:208|291:251,1,135,10|0,0:0|0:0,0:0:0:0:
206,242,131431,6,0,L|440:192,1,233.999989288331,6|8,3:2|0:0,0:0:0:0:
446,356,131899,2,0,P|411:330|394:289,1,90,2|0,0:0|3:2,0:0:0:0:
479,108,132212,1,0,3:2:0:0:
244,81,132368,2,0,B|242:30|301:26|301:26|276:50|274:93,1,135,10|0,0:0|0:0,0:0:0:0:
354,84,132681,6,0,L|169:44,1,188.999994232178,6|0,3:2|0:0,0:0:0:0:
85,27,132993,2,0,L|92:60,1,33.7500012874604,10|0,0:0|0:0,0:0:0:0:
127,187,133149,2,0,L|146:93,2,67.5000025749208,2|0|0,0:0|3:2|3:2,0:0:0:0:
54,384,133618,6,0,P|59:373|72:362,1,22.5,10|0,0:0|0:0,0:0:0:0:
132,312,133774,2,0,P|143:311|160:316,1,22.5,2|0,0:0|0:0,0:0:0:0:
241,361,133931,6,0,B|144:346|141:268|141:268|175:261|196:227,1,202.500007724762,6|0,3:2|0:0,0:0:0:0:
212,169,134243,2,0,L|274:182,1,45,10|0,0:0|0:0,0:0:0:0:
495,199,134399,2,0,B|561:155|514:73|514:73|501:112|470:124,1,202.500007724762,6|0,3:2|0:0,0:0:0:0:
436,54,134712,1,2,3:2:0:0:
438,257,134868,2,0,P|454:274|485:285,1,45,8|0,0:0|0:0,0:0:0:0:
410,126,135024,6,0,L|190:172,1,202.500007724762,6|0,3:2|0:0,0:0:0:0:
127,187,135337,2,0,L|136:140,1,45,0|0,3:2|0:0,0:0:0:0:
74,0,135493,1,8,0:0:0:0:
74,0,135806,5,10,0:0:0:0:
65,38,135884,1,8,0:0:0:0:
57,77,135962,1,10,0:0:0:0:
49,115,136040,1,8,0:0:0:0:
41,154,136118,1,10,0:0:0:0:
33,192,136196,1,8,0:0:0:0:
24,231,136274,1,10,0:0:0:0:
16,269,136352,1,8,0:0:0:0:
8,308,136431,6,0,B|54:260|115:303|115:303|130:346|175:346,1,188.999994232178,6|0,3:2|0:0,0:0:0:0:
187,270,136743,1,8,0:0:0:0:
309,323,136899,2,0,P|271:345|248:384,2,90,2|0|0,0:0|3:2|3:2,0:0:0:0:
504,276,137368,2,0,L|394:252,1,90,10|0,0:0|0:0,0:0:0:0:
381,81,137681,6,0,P|444:69|486:118,1,135,2|0,3:2|0:0,0:0:0:0:
500,194,137993,1,8,0:0:0:0:
317,206,138149,2,0,L|297:112,2,90,2|0|0,0:0|3:2|3:2,0:0:0:0:
187,270,138618,2,0,P|138:225|72:217,1,135,10|0,0:0|0:0,0:0:0:0:
209,135,138931,6,0,P|147:212|55:211,1,180,2|8,3:2|0:0,0:0:0:0:
88,27,139399,2,0,L|107:120,1,90,2|0,0:0|3:2,0:0:0:0:
6,95,139712,1,2,3:2:0:0:
188,27,139868,2,0,L|276:45,1,90,10|0,0:0|0:0,0:0:0:0:
487,80,140181,5,2,3:2:0:0:
489,67,140259,1,2,0:0:0:0:
483,50,140337,1,2,0:0:0:0:
463,37,140415,1,2,0:0:0:0:
434,39,140493,1,10,0:0:0:0:
413,58,140571,1,2,0:0:0:0:
406,86,140649,1,2,0:0:0:0:
419,112,140727,1,2,0:0:0:0:
450,129,140806,6,0,L|405:138,1,45,2|0,3:2|0:0,0:0:0:0:
365,232,140962,1,2,3:2:0:0:
365,232,141040,1,2,0:0:0:0:
365,232,141118,2,0,L|410:223,1,45,10|0,0:0|0:0,0:0:0:0:
306,146,141274,1,0,0:0:0:0:
327,362,141431,6,0,B|349:303|432:300|432:300|443:324|472:334,1,175.499991966248,6|0,3:2|0:0,0:0:0:0:
500,261,141743,1,8,0:0:0:0:
405,384,141899,1,2,0:0:0:0:
283,280,142056,2,0,P|259:242|220:219,1,90,0|0,3:2|3:2,0:0:0:0:
40,333,142368,2,0,P|108:340|150:275,1,135,10|0,0:0|0:0,0:0:0:0:
122,205,142681,6,0,L|103:116,1,90,2|0,3:2|0:0,0:0:0:0:
201,136,142993,1,8,0:0:0:0:
5,108,143149,2,0,L|23:19,2,90,2|0|0,0:0|3:2|3:2,0:0:0:0:
188,37,143618,2,0,B|115:21|115:21|111:42,1,90,10|0,0:0|0:0,0:0:0:0:
286,153,143931,6,0,L|426:123,1,135,2|0,3:2|0:0,0:0:0:0:
497,107,144243,1,10,0:0:0:0:
417,251,144399,2,0,P|436:211|475:191,1,90,2|0,0:0|3:2,0:0:0:0:
511,308,144712,1,2,3:2:0:0:
378,384,144868,2,0,P|358:344|319:324,1,90,10|0,0:0|0:0,0:0:0:0:
144,384,145181,6,0,L|177:227,1,135,0|0,3:2|0:0,0:0:0:0:
177,172,145493,2,0,L|130:181,1,45,8|0,0:0|0:0,0:0:0:0:
23,286,145649,2,0,L|69:295,1,45,8|0,0:0|0:0,0:0:0:0:
245,336,145806,1,0,3:2:0:0:
245,336,145884,1,0,1:2:0:0:
245,336,145962,1,0,3:2:0:0:
417,251,146118,5,8,0:0:0:0:
407,207,146196,1,8,0:0:0:0:
373,179,146274,1,8,0:0:0:0:
329,176,146352,1,8,0:0:0:0:
292,200,146431,6,0,P|276:168|236:143,1,67.5000025749208,4|0,3:2|0:0,0:0:0:0:
367,139,146743,2,0,P|340:117|326:87,1,67.5000025749208,0|0,3:2|0:0,0:0:0:0:
469,358,147056,2,0,P|404:318|317:317,1,161.999995056153,8|0,0:0|0:0,0:0:0:0:
245,336,147368,1,0,3:2:0:0:
160,127,147681,6,0,P|176:95|216:70,1,67.5000025749208,0|0,3:2|0:0,0:0:0:0:
85,66,147993,2,0,P|112:44|126:14,1,67.5000025749208,0|0,3:2|0:0,0:0:0:0:
6,281,148306,2,0,P|71:241|158:240,1,161.999995056153,8|0,0:0|0:0,0:0:0:0:
230,259,148618,1,0,3:2:0:0:
413,35,148931,6,0,P|441:17|474:16,1,67.5000025749208,4|0,3:2|0:0,0:0:0:0:
435,130,149243,2,0,P|468:129|496:111,1,67.5000025749208,0|0,3:2|0:0,0:0:0:0:
309,22,149556,2,0,L|345:194,1,161.999995056153,8|0,0:0|0:0,0:0:0:0:
363,258,149868,1,0,3:2:0:0:
77,254,150181,6,0,P|43:254|15:272,1,67.5000025749208,0|0,3:2|0:0,0:0:0:0:
98,348,150493,2,0,P|70:366|37:367,1,67.5000025749208,0|0,3:2|0:0,0:0:0:0:
169,203,150806,2,0,L|203:362,1,161.999995056153,8|0,0:0|0:0,0:0:0:0:
290,383,151118,6,0,L|280:336,1,40.4999987640381,0|0,3:2|0:0,0:0:0:0:
268,266,151431,5,12,0:0:0:0:
394,317,151587,1,0,3:2:0:0:
394,317,151743,1,0,3:2:0:0:
169,203,151899,5,12,0:0:0:0:
36,269,152056,1,0,3:2:0:0:
36,269,152212,1,0,3:2:0:0:
246,123,152368,5,12,0:0:0:0:
416,192,152524,1,0,3:2:0:0:
416,192,152681,1,0,3:2:0:0:
197,26,152837,5,12,0:0:0:0:
0,129,152993,1,0,3:2:0:0:
0,129,153149,1,0,3:2:0:0:
268,266,153306,5,10,0:0:0:0:
335,14,153462,1,0,3:2:0:0:
128,306,153618,5,10,0:0:0:0:
42,17,153774,1,0,3:2:0:0:
319,199,153931,5,12,3:2:0:0:
274,189,154009,1,0,3:2:0:0:
230,180,154087,1,0,3:2:0:0:
186,170,154165,1,0,3:2:0:0:
142,161,154243,2,0,L|151:114,1,45,0|0,3:2|0:0,0:0:0:0:
335,14,154399,5,8,3:2:0:0:
380,24,154477,1,0,3:2:0:0:
424,33,154555,1,0,3:2:0:0:
468,43,154633,1,0,3:2:0:0:
512,52,154712,2,0,L|502:98,1,45,0|0,3:2|0:0,0:0:0:0:
267,114,154868,5,8,3:2:0:0:
289,109,154946,1,0,3:2:0:0:
311,104,155024,1,0,3:2:0:0:
333,99,155102,1,0,3:2:0:0:
355,95,155180,5,10,3:2:0:0:
253,384,155337,1,10,0:0:0:0:
253,384,155806,5,2,0:0:0:0:
247,367,155884,1,2,0:0:0:0:
224,355,155962,1,2,0:0:0:0:
193,354,156040,1,2,0:0:0:0:
168,373,156118,2,0,B|169:299|97:292|97:292|150:318|149:364,1,202.500007724762,4|0,0:1|0:0,0:0:0:0:
67,367,156431,6,0,B|169:340|175:245|175:245|140:227|129:189,1,229.500004377365,6|0,3:2|0:0,0:0:0:0:
139,129,156743,1,8,0:0:0:0:
313,145,156899,2,0,L|203:168,1,107.999996704102,0|0,0:0|3:2,0:0:0:0:
373,45,157212,1,0,3:2:0:0:
471,280,157368,2,0,B|519:241|494:186|494:186|494:228|473:245,1,161.999995056153,8|0,0:0|0:0,0:0:0:0:
393,316,157681,6,0,P|430:360|478:368,1,107.999996704102,2|0,3:2|0:0,0:0:0:0:
404,185,157993,1,8,0:0:0:0:
240,248,158149,2,0,B|333:228|333:228|346:247|374:254,1,125.999996154785,0|0,0:0|3:2,0:0:0:0:
228,384,158462,1,0,3:2:0:0:
30,302,158618,2,0,L|53:192,1,107.999996704102,8|0,0:0|0:0,0:0:0:0:
203,56,158931,6,0,B|129:3|45:38|45:38|33:79|-11:85,2,233.999989288331,2|8|0,3:2|0:0|3:2,0:0:0:0:
404,185,159712,1,0,3:2:0:0:
331,0,159868,2,0,L|307:109,1,107.999996704102,8|0,0:0|0:0,0:0:0:0:
117,292,160181,6,0,B|134:232|208:224|208:224|224:247|254:251,1,161.999995056153,2|0,3:2|0:0,0:0:0:0:
223,324,160493,2,0,P|205:321|189:310,1,33.7500012874604,8|0,0:0|0:0,0:0:0:0:
82,181,160649,2,0,B|61:140|17:151|17:151|44:165|51:185,1,107.999996704102,0|0,0:0|3:2,0:0:0:0:
273,180,160962,1,0,3:2:0:0:
77,361,161118,2,0,B|36:354|0:381|0:381|35:354|37:308,1,161.999995056153,8|0,0:0|0:0,0:0:0:0:
117,292,161431,6,0,L|367:345,2,233.999989288331,6|8|0,3:2|0:0|3:2,0:0:0:0:
273,180,162212,1,0,3:2:0:0:
420,384,162368,2,0,P|441:335|487:310,1,107.999996704102,8|0,0:0|0:0,0:0:0:0:
365,156,162681,6,0,B|359:223|423:246|423:246|448:230|475:231,1,161.999995056153,2|0,3:2|0:0,0:0:0:0:
475,154,162993,2,0,P|451:155|422:169,1,33.7500012874604,8|0,0:0|0:0,0:0:0:0:
279,289,163149,2,0,P|236:255|186:237,1,107.999996704102,0|0,0:0|3:2,0:0:0:0:
0,215,163462,1,0,3:2:0:0:
148,83,163618,2,0,B|147:46|180:13|180:13|146:46|106:47,1,161.999995056153,8|0,0:0|0:0,0:0:0:0:
22,0,163931,6,0,L|58:172,1,161.999995056153,2|0,3:2|0:0,0:0:0:0:
121,205,164243,2,0,P|138:183|175:167,1,45,8|0,0:0|0:0,0:0:0:0:
333,103,164399,2,0,L|207:76,1,107.999996704102,0|0,0:0|3:2,0:0:0:0:
273,180,164712,1,0,3:2:0:0:
471,84,164868,2,0,B|455:26|388:23|388:23|421:43|419:65,1,161.999995056153,8|0,0:0|0:0,0:0:0:0:
512,164,165181,5,2,3:2:0:0:
512,164,165493,6,0,L|475:336,1,161.999995056153,8|0,0:0|0:0,0:0:0:0:
389,357,165806,2,0,L|398:313,1,45,0|0,3:2|0:0,0:0:0:0:
298,254,165962,2,0,L|307:297,1,45,0|0,3:2|0:0,0:0:0:0:
173,384,166118,5,8,0:0:0:0:
157,355,166196,1,2,0:0:0:0:
172,326,166274,1,2,0:0:0:0:
204,324,166352,1,2,0:0:0:0:
224,349,166431,6,0,B|87:320|87:320|86:283|57:260,1,202.500007724762,4|0,3:2|0:0,0:0:0:0:
5,320,166743,1,8,0:0:0:0:
298,254,166899,2,0,L|407:230,1,107.999996704102,0|0,0:0|3:2,0:0:0:0:
389,357,167212,1,0,3:2:0:0:
203,234,167368,2,0,B|209:181|267:168|267:168|229:185|219:223,1,161.999995056153,8|0,0:0|0:0,0:0:0:0:
298,254,167681,6,0,P|238:173|144:139,1,202.500007724762,2|0,3:2|0:0,0:0:0:0:
68,138,167993,1,8,0:0:0:0:
257,88,168149,2,0,P|301:59|319:9,1,107.999996704102,0|0,0:0|3:2,0:0:0:0:
151,28,168462,1,0,3:2:0:0:
347,178,168618,2,0,B|378:122|442:128|442:128|455:156|486:165,1,161.999995056153,8|0,0:0|0:0,0:0:0:0:
512,86,168931,6,0,L|462:320,2,233.999989288331,2|8|0,3:2|0:0|3:2,0:0:0:0:
347,178,169712,1,0,3:2:0:0:
399,384,169868,2,0,P|373:334|318:310,1,107.999996704102,8|0,0:0|0:0,0:0:0:0:
53,248,170181,6,0,B|92:276|141:243|141:243|154:203|206:199,1,161.999995056153,2|0,3:2|0:0,0:0:0:0:
253,296,170493,2,0,P|227:290|215:278,1,45,8|0,0:0|0:0,0:0:0:0:
88,173,170649,2,0,L|111:63,1,107.999996704102,0|0,0:0|3:2,0:0:0:0:
0,122,170962,1,0,3:2:0:0:
243,32,171118,2,0,B|290:8|316:64|311:65|338:112|382:91,1,161.999995056153,8|0,0:0|0:0,0:0:0:0:
426,32,171431,6,0,P|312:58|207:108,2,233.999989288331,6|8|0,3:2|0:0|3:2,0:0:0:0:
279,212,172212,1,0,3:2:0:0:
110,67,172368,2,0,B|96:30|55:24|55:24|69:43|68:65,1,107.999996704102,8|0,0:0|0:0,0:0:0:0:
156,320,172681,6,0,L|119:147,1,161.999995056153,2|0,3:2|0:0,0:0:0:0:
36,148,172993,2,0,L|45:194,1,45,8|0,0:0|0:0,0:0:0:0:
228,384,173149,2,0,B|248:360|234:327|234:327|232:355|215:373,1,107.999996704102,0|0,0:0|3:2,0:0:0:0:
80,379,173462,1,0,3:2:0:0:
279,212,173618,1,8,0:0:0:0:
279,212,173931,6,0,L|498:258,1,202.500007724762,6|0,3:2|0:0,0:0:0:0:
512,163,174243,2,0,L|467:172,1,45,8|0,0:0|0:0,0:0:0:0:
190,237,174399,2,0,L|49:266,1,135.000005149842,4|0,3:2|0:0,0:0:0:0:
351,140,174712,1,8,0:0:0:0:
365,143,174790,1,8,0:0:0:0:
380,146,174868,1,8,0:0:0:0:
149,110,175024,6,0,B|75:74|108:-11|108:-11|104:30|129:52,1,202.500007724762,4|0,3:2|0:0,0:0:0:0:
43,126,175337,2,0,P|22:139|-2:146,1,45,0|0,3:2|0:0,0:0:0:0:
186,0,175493,6,0,L|232:9,1,40.4999987640381,8|0,0:0|0:0,0:0:0:0:
312,22,175806,5,2,3:2:0:0:
190,237,175962,1,2,3:2:0:0:
223,92,176118,5,10,0:0:0:0:
290,150,176274,1,2,0:0:0:0:
11,356,176431,6,0,B|28:269|118:276|118:276|135:316|186:320,1,229.500004377365,14|0,3:2|0:0,0:0:0:0:
239,381,176743,5,8,0:0:0:0:
190,237,176899,1,0,3:2:0:0:
448,145,177056,5,8,0:0:0:0:
391,364,177212,1,0,3:2:0:0:
101,269,177368,5,8,0:0:0:0:
118,175,177524,1,0,3:2:0:0:
420,255,177681,5,8,0:0:0:0:
420,255,177993,5,8,0:0:0:0:
180,319,178149,1,0,3:2:0:0:
35,206,178306,5,8,0:0:0:0:
275,270,178462,1,0,3:2:0:0:
448,145,178618,5,10,0:0:0:0:
472,109,178696,1,2,0:0:0:0:
452,70,178774,1,2,3:2:0:0:
408,70,178852,1,2,0:0:0:0:
389,109,178930,1,10,0:0:0:0:
389,109,179243,5,8,0:0:0:0:
342,0,179399,1,2,3:2:0:0:
146,221,179556,5,8,0:0:0:0:
219,53,179712,1,0,3:2:0:0:
372,350,179868,5,10,0:0:0:0:
290,141,180024,1,0,3:2:0:0:
105,384,180181,6,0,L|78:258,1,116.999994644165,10|0,0:0|3:2,0:0:0:0:
389,109,180493,2,0,L|362:234,1,116.999994644165,8|0,0:0|3:2,0:0:0:0:
10,349,180806,5,8,0:0:0:0:
121,127,180962,1,0,3:2:0:0:
121,127,181040,1,0,3:2:0:0:
121,127,181118,2,0,L|183:140,1,58.4999973220826,8|0,0:0|0:0,0:0:0:0:
505,199,181274,1,0,3:2:0:0:
242,365,181431,6,0,L|295:114,1,229.500004377365,12|0,0:0|0:0,0:0:0:0:
305,66,181743,5,8,0:0:0:0:
364,223,181899,1,0,3:2:0:0:
159,220,182056,5,8,0:0:0:0:
389,109,182212,1,0,3:2:0:0:
340,341,182368,5,8,0:0:0:0:
201,17,182524,1,0,3:2:0:0:
56,369,182681,5,8,0:0:0:0:
56,369,182993,5,8,0:0:0:0:
159,220,183149,2,0,L|80:236,1,58.4999973220826,2|0,3:2|0:0,0:0:0:0:
289,140,183306,2,0,B|390:161|390:161|406:141|429:139,1,144,8|0,0:0|3:2,0:0:0:0:
406,65,183540,1,2,0:0:0:0:
406,65,183618,2,0,P|389:67|371:78,1,33.7500012874604,8|0,0:0|0:0,0:0:0:0:
257,280,183774,2,0,L|247:233,1,33.7500012874604,8|0,0:0|0:0,0:0:0:0:
201,17,183931,5,6,3:2:0:0:
201,17,185181,5,0,3:2:0:0:
17,144,185649,5,0,3:2:0:0:
97,153,185806,2,0,P|86:107|61:71,1,80.9999975280763,0|0,3:2|3:2,0:0:0:0:
68,78,186431,1,0,3:2:0:0:
180,225,186899,6,0,P|188:210|201:199,2,26.9999991760254,0|0|0,3:2|3:2|3:2,0:0:0:0:
180,225,187524,5,0,3:2:0:0:
154,331,187681,2,0,P|119:305|75:295,1,80.9999975280763,2|0,3:2|3:2,0:0:0:0:
83,295,188306,1,0,3:2:0:0:
256,192,188774,5,0,3:2:0:0:
256,192,189399,2,0,L|262:160,2,26.9999991760254,0|0|0,3:2|3:2|3:2,0:0:0:0:
334,33,190024,5,2,0:0:0:0:
334,33,190102,1,2,0:0:0:0:
334,33,190181,2,0,P|366:77|448:88,1,135,2|0,3:2|3:2,0:0:0:0:
441,89,190806,1,0,3:2:0:0:
483,175,190962,6,0,P|490:164|503:158,12,22.5,2|2|2|2|2|2|2|2|2|2|2|2|0,0:0|0:0|0:0|0:0|3:2|0:0|0:0|0:0|0:0|0:0|0:0|0:0|3:2,0:0:0:0:
392,162,192056,6,0,P|410:228|421:302,1,135,2|0,0:0|3:2,0:0:0:0:
415,371,192602,5,2,0:0:0:0:
415,371,192681,2,0,B|401:320|443:293|502:295|508:329|508:329|477:333|458:356,1,202.500007724762,2|0,3:2|3:2,0:0:0:0:
271,351,193462,6,0,L|239:344,2,26.9999991760254,2|2|2,0:0|0:0|0:0,0:0:0:0:
392,162,193931,5,8,3:2:0:0:
107,240,194087,1,8,3:2:0:0:
70,147,194556,5,8,3:2:0:0:
421,260,194712,1,8,3:2:0:0:
169,161,194868,6,0,L|175:129,3,22.5,2|2|2|2,0:3|0:3|0:3|0:3,0:0:0:0:
280,43,195181,6,0,L|226:293,1,242.999992584229,6|0,3:2|0:0,0:0:0:0:
201,372,195493,2,0,B|167:313|91:311|91:311|79:340|49:346,1,175.499991966248,8|0,0:0|0:0,0:0:0:0:
16,279,195806,1,0,3:2:0:0:
173,138,195962,1,0,3:2:0:0:
22,60,196118,2,0,L|45:169,1,90,8|0,0:0|0:0,0:0:0:0:
299,353,196431,6,0,B|333:290|408:311|408:311|375:311|349:334,1,175.499991966248,2|0,3:2|0:0,0:0:0:0:
299,247,196743,2,0,P|286:232|276:208,1,33.7500012874604,8|0,0:0|0:0,0:0:0:0:
280,43,196899,2,0,B|333:54|333:54|337:60|337:60|408:75,2,107.999996704102,2|0|0,0:0|3:2|3:2,0:0:0:0:
490,100,197368,2,0,B|509:43|436:10|436:10|464:42|465:76,1,161.999995056153,10|0,0:0|0:0,0:0:0:0:
376,161,197681,6,0,B|341:222|416:252|416:248|418:244|498:240|489:307,2,215.999993408203,2|8|0,3:2|0:0|3:2,0:0:0:0:
512,188,198462,1,0,3:2:0:0:
421,379,198618,2,0,B|383:322|320:328|320:328|308:353|288:359,1,161.999995056153,10|0,0:0|0:0,0:0:0:0:
246,290,198931,6,0,L|73:326,1,161.999995056153,2|0,3:2|0:0,0:0:0:0:
0,337,199243,2,0,L|9:290,1,45,8|0,0:0|0:0,0:0:0:0:
51,130,199399,2,0,B|62:182|62:182|66:190|66:190|80:253,2,107.999996704102,2|0|0,0:0|3:2|3:2,0:0:0:0:
226,211,199868,2,0,B|290:202|288:140|288:140|278:173|244:185,1,161.999995056153,8|0,0:0|0:0,0:0:0:0:
212,115,200181,6,0,L|415:158,1,202.500007724762,4|0,3:2|0:0,0:0:0:0:
494,150,200493,2,0,P|479:108|442:84,1,90,10|0,0:0|0:0,0:0:0:0:
418,338,200806,2,0,P|432:296|469:272,1,90,2|0,3:2|3:2,0:0:0:0:
308,384,201118,2,0,P|293:364|256:345,1,45,10|0,0:0|0:0,0:0:0:0:
116,278,201274,1,0,0:0:0:0:
319,267,201431,6,0,B|250:233|197:293|197:293|184:355|115:360,2,233.999989288331,2|8|0,3:2|0:0|3:2,0:0:0:0:
116,278,202212,1,0,3:2:0:0:
0,210,202368,1,10,0:0:0:0:
3,195,202446,1,0,0:0:0:0:
6,181,202524,1,2,0:0:0:0:
9,167,202602,1,2,0:0:0:0:
12,152,202681,6,0,B|134:177|134:177|151:158|179:151,1,161.999995056153,2|0,3:2|0:0,0:0:0:0:
144,83,202993,2,0,P|122:88|103:112,1,33.7500012874604,10|0,0:0|0:0,0:0:0:0:
205,228,203149,1,2,0:0:0:0:
205,228,203227,1,2,0:0:0:0:
205,228,203306,1,2,3:2:0:0:
356,76,203462,2,0,L|309:85,1,33.7500012874604,0|0,3:2|0:0,0:0:0:0:
221,105,203618,1,8,0:0:0:0:
429,295,203774,5,2,0:0:0:0:
429,295,203852,1,2,0:0:0:0:
429,295,203931,2,0,B|458:154|458:154|505:164,1,175.499991966248,2|0,3:2|0:0,0:0:0:0:
506,189,204243,2,0,L|417:170,1,90,8|0,0:0|0:0,0:0:0:0:
507,79,204556,1,0,3:2:0:0:
360,234,204712,2,0,P|329:199|282:181,1,90,2|8,3:2|0:0,0:0:0:0:
73,44,205024,5,2,0:0:0:0:
73,44,205102,1,2,0:0:0:0:
73,44,205181,2,0,L|129:310,2,270.000010299683,6|8|0,3:2|0:0|3:2,0:0:0:0:
0,214,205962,1,0,3:2:0:0:
212,301,206118,2,0,L|202:254,1,45,8|0,0:0|0:0,0:0:0:0:
170,76,206274,5,2,0:0:0:0:
170,76,206352,1,2,0:0:0:0:
170,76,206431,2,0,B|208:17|293:56|293:56|306:90|347:98,1,188.999994232178,0|0,3:2|0:0,0:0:0:0:
399,19,206743,2,0,B|405:1|433:-6|433:-6|379:-15|364:30,1,125.999996154785,8|0,0:0|0:0,0:0:0:0:
411,260,207056,6,0,B|442:261|442:261|465:240,1,62.9999980773926,2|0,3:2|0:0,0:0:0:0:
435,151,207212,2,0,B|403:149|403:149|380:170,1,62.9999980773926,2|0,3:2|0:0,0:0:0:0:
171,346,207368,6,0,B|139:347|139:347|116:326,1,62.9999980773926,10|0,0:0|0:0,0:0:0:0:
147,237,207524,2,0,B|178:235|178:235|201:256,1,62.9999980773926,2|0,0:0|0:0,0:0:0:0:
341,384,207681,6,0,L|307:227,1,135.000005149842,2|0,3:2|0:0,0:0:0:0:
257,168,207915,1,2,0:0:0:0:
257,168,207993,2,0,L|269:110,1,58.4999973220826,8|0,0:0|0:0,0:0:0:0:
206,22,208149,2,0,L|198:55,1,33.7500012874604,2|0,0:0|0:0,0:0:0:0:
147,237,208306,6,0,B|132:247|120:263|120:263|58:248|58:248|44:213|0:207,1,161.999995056153,2|0,3:2|3:2,0:0:0:0:
41,132,208540,1,2,0:0:0:0:
41,132,208618,2,0,P|72:142|95:162,1,58.4999973220826,8|0,0:0|0:0,0:0:0:0:
185,305,208774,2,0,L|177:338,1,33.7500012874604,2|0,0:0|0:0,0:0:0:0:
371,316,208931,6,0,B|362:298|365:279|365:279|322:227|236:243|236:243|263:264|264:298,1,229.500004377365,2|0,3:2|0:0,0:0:0:0:
449,291,209243,2,0,P|471:277|488:251,1,45,10|0,0:0|0:0,0:0:0:0:
393,104,209399,2,0,L|419:229,1,116.999994644165,2|0,0:0|3:2,0:0:0:0:
499,57,209712,6,0,L|506:23,1,33.7500012874604,2|0,3:2|0:0,0:0:0:0:
310,156,209868,2,0,P|267:123|214:117,1,107.999996704102,10|0,0:0|0:0,0:0:0:0:
13,209,210181,5,6,3:2:0:0:
38,212,210259,1,2,0:0:0:0:
63,199,210337,1,2,0:0:0:0:
73,175,210415,1,2,0:0:0:0:
67,153,210493,5,10,0:0:0:0:
42,200,210571,1,2,0:0:0:0:
51,250,210649,1,2,0:0:0:0:
96,285,210727,1,2,0:0:0:0:
153,284,210806,5,2,3:2:0:0:
169,282,210884,1,2,0:0:0:0:
183,288,210962,1,2,3:2:0:0:
191,298,211040,1,2,0:0:0:0:
241,304,211118,5,10,0:0:0:0:
253,313,211196,1,2,0:0:0:0:
259,328,211274,1,2,0:0:0:0:
257,340,211352,1,2,0:0:0:0:
218,384,211431,5,2,3:2:0:0:
184,348,211509,1,2,0:0:0:0:
191,298,211587,1,2,0:0:0:0:
226,258,211665,1,2,0:0:0:0:
280,250,211743,1,10,0:0:0:0:
325,227,211821,1,2,0:0:0:0:
334,184,211899,1,2,0:0:0:0:
316,149,211977,1,2,0:0:0:0:
284,139,212056,5,2,3:2:0:0:
274,144,212134,1,2,0:0:0:0:
271,155,212212,2,0,P|296:160|329:150,1,53.9999983520508,2|2,3:2|0:0,0:0:0:0:
452,58,212368,1,10,0:0:0:0:
452,46,212446,1,2,0:0:0:0:
444,38,212524,2,0,P|426:57|418:90,1,53.9999983520508,2|2,0:0|0:0,0:0:0:0:
194,179,212681,6,0,B|141:91|52:114|52:114|32:151|-3:155,1,229.500004377365,6|0,3:2|0:0,0:0:0:0:
54,223,212993,2,0,P|77:209|98:186,1,45,8|0,0:0|0:0,0:0:0:0:
355,4,213149,6,0,L|318:176,1,153.000002918243,6|0,3:2|0:0,0:0:0:0:
82,350,213462,1,8,0:0:0:0:
99,290,213540,1,8,0:0:0:0:
157,275,213618,1,8,0:0:0:0:
405,358,213774,6,0,B|419:286|354:238|354:238|286:252|260:207,1,229.500004377365,6|0,3:2|0:0,0:0:0:0:
323,153,214087,2,0,L|369:143,1,33.7500012874604,0|0,3:2|0:0,0:0:0:0:
115,44,214243,6,0,L|36:27,1,67.5,8|0,0:0|0:0,0:0:0:0:
50,110,214556,6,0,L|96:119,1,33.7500012874604,0|0,3:2|0:0,0:0:0:0:
205,141,214712,2,0,L|251:150,1,33.7500012874604,0|0,3:2|0:0,0:0:0:0:
476,187,214868,2,0,L|466:140,3,33.7500012874604,10|2|2|2,0:0|0:3|0:3|0:3,0:0:0:0:
479,204,215181,5,2,0:0:0:0:
256,192,225181,5,4,3:2:0:0:
256,192,225493,6,0,L|264:231,5,36,2|2|2|2|2|2,0:0|0:0|0:0|0:0|0:0|0:0,0:0:0:0:
361,62,227368,5,2,3:2:0:0:
361,62,227681,6,0,L|352:101,6,36,2|2|2|2|2|2|2,3:2|0:0|0:0|0:0|0:0|0:0|0:0,0:0:0:0:
158,357,229868,5,2,0:0:0:0:
158,357,229946,1,2,0:0:0:0:
158,357,230024,1,2,0:0:0:0:
158,357,230102,1,2,0:0:0:0:
158,357,230181,6,0,L|166:317,7,36,6|2|2|2|2|2|2|2,3:2|0:0|0:0|0:0|0:0|0:0|0:0|3:2,0:0:0:0:
256,192,232681,5,2,3:2:0:0:
194,244,233931,6,0,B|177:289|118:304|118:304|97:287|60:282|60:282|115:275|142:242,1,236.250009012223,6|0,3:2|0:0,0:0:0:0:
325,153,234556,2,0,B|342:108|401:93|401:93|422:110|459:115|459:115|404:122|377:155,1,236.250009012223,6|0,3:2|0:0,0:0:0:0:
263,226,235181,6,0,L|249:163,1,63,6|0,3:2|0:0,0:0:0:0:
9,140,236431,5,0,1:0:0:0:
17,142,236509,1,0,1:0:0:0:
25,145,236587,1,0,1:0:0:0:
36,147,236665,1,0,1:0:0:0:
50,150,236743,1,8,0:0:0:0:
65,155,236821,1,0,1:0:0:0:
81,158,236899,1,0,1:0:0:0:
101,163,236977,1,0,1:0:0:0:
122,167,237056,1,8,0:0:0:0:
146,172,237134,1,0,1:0:0:0:
174,178,237212,1,0,1:0:0:0:
202,184,237290,1,0,1:0:0:0:
239,192,237368,1,8,0:0:0:0:
285,202,237446,1,0,1:0:0:0:
350,217,237524,1,0,1:0:0:0:
423,235,237602,1,0,1:0:0:0:
497,250,237681,5,8,3:2:0:0:
467,195,237759,1,0,3:2:0:0:
418,179,237837,1,0,3:2:0:0:
376,191,237915,1,0,3:2:0:0:
350,217,237993,1,0,3:2:0:0:
341,239,238071,1,0,3:2:0:0:
342,257,238149,5,8,3:2:0:0:
400,232,238227,1,0,3:2:0:0:
418,179,238306,1,0,3:2:0:0:
403,127,238384,1,0,3:2:0:0:
368,96,238462,1,0,3:2:0:0:
325,88,238540,1,0,3:2:0:0:
264,110,238618,1,8,3:2:0:0:
211,91,238696,1,0,3:2:0:0:
196,39,238774,1,0,3:2:0:0:
223,5,238852,1,0,3:2:0:0:
256,0,238931,5,10,3:2:0:0:
192,352,239087,1,10,3:2:0:0:
192,352,239556,5,2,0:2:0:0:
188,341,239634,1,2,0:2:0:0:
192,328,239712,1,2,0:2:0:0:
206,319,239790,1,2,0:2:0:0:
226,318,239868,1,2,0:2:0:0:
257,334,239946,1,2,0:2:0:0:
293,338,240024,1,2,0:2:0:0:
326,309,240102,1,2,0:2:0:0:
320,263,240181,6,0,L|257:276,1,33.7500012874604,10|0,3:2|0:0,0:0:0:0:
20,327,240337,1,10,3:2:0:0:
203,159,241118,6,0,B|260:100|213:31|213:31|227:72|208:104,1,202.500007724762,6|0,3:2|0:0,0:0:0:0:
109,61,241431,6,0,L|172:74,1,33.7500012874604,10|0,3:2|0:0,0:0:0:0:
419,120,241587,1,10,3:2:0:0:
419,120,241899,6,2,L|426:83,1,36,2|0,0:0|0:0,0:1:0:0:
288,326,242368,6,0,L|341:75,1,229.500004377365,6|0,3:2|0:0,0:0:0:0:
351,24,242681,5,12,0:0:0:0:
124,153,242837,1,0,3:2:0:0:
124,153,242993,1,0,3:2:0:0:
109,61,243149,5,12,0:0:0:0:
396,218,243306,1,0,3:2:0:0:
396,218,243462,1,0,3:2:0:0:
418,120,243618,5,12,0:0:0:0:
79,305,243774,1,0,3:2:0:0:
327,384,243931,5,8,3:2:0:0:
359,343,244009,1,8,3:2:0:0:
344,302,244087,1,4,3:2:0:0:
315,287,244165,1,0,3:2:0:0:
284,288,244243,1,0,3:2:0:0:
269,300,244321,1,0,3:2:0:0:
263,311,244399,5,10,3:2:0:0:
311,320,244477,1,2,3:2:0:0:
344,302,244556,1,2,3:2:0:0:
368,263,244634,1,2,3:2:0:0:
392,234,244712,1,2,3:2:0:0:
424,233,244790,1,2,3:2:0:0:
441,242,244868,6,0,B|365:281|327:212|333:210|297:136|230:176,1,242.999992584229,14|0,0:0|0:0,0:0:0:0:
79,305,245181,6,0,L|138:23,2,270.000010299683,6|8|0,3:2|0:0|3:2,0:0:0:0:
0,132,245962,1,0,3:2:0:0:
265,53,246118,2,0,B|252:-5|188:-17|188:-17|218:9|217:44,1,175.499991966248,8|0,0:0|0:0,0:0:0:0:
336,134,246431,6,0,B|366:67|447:69|447:69|462:93|494:105,1,175.499991966248,2|0,3:2|0:0,0:0:0:0:
457,175,246743,2,0,P|438:170|410:145,1,45,8|0,0:0|0:0,0:0:0:0:
134,40,246899,2,0,L|160:165,1,116.999994644165,0|0,0:0|3:2,0:0:0:0:
198,384,247212,1,0,3:2:0:0:
382,282,247368,2,0,B|377:247|391:225|391:225|376:247|335:252,1,116.999994644165,8|0,0:0|0:0,0:0:0:0:
62,291,247681,6,0,B|4:271|7:190|86:188|86:188|97:216|130:225,1,202.500007724762,6|0,3:2|0:0,0:0:0:0:
121,346,247993,2,0,P|102:364|78:373,1,45,8|0,0:0|0:0,0:0:0:0:
158,154,248149,2,0,L|298:183,1,135.000005149842,0|0,0:0|3:2,0:0:0:0:
93,107,248462,1,0,3:2:0:0:
341,251,248618,2,0,P|361:234|374:206,1,45,8|0,0:0|0:0,0:0:0:0:
330,21,248774,1,0,0:0:0:0:
498,106,248931,6,0,B|491:64|445:35|401:60|401:60|382:98|345:97,1,188.999994232178,2|0,3:2|0:0,0:0:0:0:
275,104,249243,2,0,B|244:85|251:46|251:46|261:75|283:85,1,107.999996704102,8|0,0:0|0:0,0:0:0:0:
416,153,249556,2,0,P|432:164|446:185,1,33.7500012874604,0|0,3:2|0:0,0:0:0:0:
512,257,249712,2,0,P|509:277|498:299,1,33.7500012874604,0|0,3:2|0:0,0:0:0:0:
374,378,249868,1,10,0:0:0:0:
353,353,249946,1,2,0:0:0:0:
357,323,250024,1,2,0:0:0:0:
382,312,250102,1,2,0:0:0:0:
405,327,250181,6,0,B|220:287|220:287|212:263|192:249,1,229.500004377365,6|0,3:2|0:0,0:0:0:0:
238,187,250493,2,0,P|259:200|277:228,1,45,8|0,0:0|0:0,0:0:0:0:
68,374,250649,2,0,P|93:327|148:311,1,107.999996704102,0|0,0:0|3:2,0:0:0:0:
282,384,250962,1,0,3:2:0:0:
122,231,251118,2,0,B|66:202|78:131|78:131|96:171|138:175,1,175.499991966248,8|0,0:0|0:0,0:0:0:0:
151,94,251431,6,0,P|81:152|-2:165,1,175.499991966248,2|0,3:2|0:0,0:0:0:0:
51,23,251743,2,0,P|73:27|92:40,1,45,8|0,0:0|0:0,0:0:0:0:
238,187,251899,2,0,L|264:61,1,116.999994644165,0|0,0:0|3:2,0:0:0:0:
122,231,252212,1,0,3:2:0:0:
402,294,252368,2,0,B|385:228|310:225|310:225|299:250|264:263,1,175.499991966248,8|0,0:0|0:0,0:0:0:0:
161,327,252681,6,0,B|91:327|47:378|47:378|70:320|20:251,2,251.999992309571,2|8|0,3:2|0:0|3:2,0:0:0:0:
238,187,253462,1,0,3:2:0:0:
70,25,253618,2,0,L|93:134,1,107.999996704102,8|0,0:0|0:0,0:0:0:0:
377,159,253931,6,0,B|432:133|422:63|422:63|418:100|396:118,1,161.999995056153,2|0,3:2|0:0,0:0:0:0:
477,174,254243,2,0,P|492:191|519:201,1,45,8|0,0:0|0:0,0:0:0:0:
343,61,254399,2,0,L|217:87,1,107.999996704102,0|0,0:0|3:2,0:0:0:0:
0,126,254712,1,0,3:2:0:0:
157,0,254868,2,0,L|147:46,1,45,8|0,0:0|0:0,0:0:0:0:
95,265,255024,1,0,0:0:0:0:
242,208,255181,6,0,B|69:171|69:171|51:202|12:208,2,233.999989288331,6|8|0,3:2|0:0|3:2,0:0:0:0:
482,259,255962,1,0,3:2:0:0:
329,362,256118,2,0,B|297:344|303:299|303:299|316:321|343:329,1,116.999994644165,8|0,0:0|0:0,0:0:0:0:
506,178,256431,6,0,B|444:157|408:207|408:207|392:254|347:254,1,175.499991966248,2|0,3:2|0:0,0:0:0:0:
334,182,256743,2,0,P|317:164|287:149,1,45,8|0,0:0|0:0,0:0:0:0:
191,69,256899,2,0,L|296:46,1,107.999996704102,0|0,0:0|3:2,0:0:0:0:
242,208,257212,1,0,3:2:0:0:
73,18,257368,1,8,0:0:0:0:
73,18,257681,6,0,B|112:205|112:205|83:223|72:247,1,242.999992584229,6|0,3:2|0:0,0:0:0:0:
3,210,257993,2,0,P|11:189|37:171,1,45,8|0,0:0|0:0,0:0:0:0:
203,349,258149,2,0,B|159:344|129:364|129:364|151:338|144:292,1,153.000002918243,4|0,3:2|0:0,0:0:0:0:
487,244,258462,1,8,0:0:0:0:
491,266,258540,1,8,0:0:0:0:
496,288,258618,1,8,0:0:0:0:
242,208,258774,6,0,B|231:134|316:121|316:121|377:144|411:97,1,229.500004377365,4|0,3:2|0:0,0:0:0:0:
342,8,259087,2,0,L|355:70,1,45,0|0,3:2|0:0,0:0:0:0:
397,257,259243,6,0,L|409:314,1,44.5499998640442,8|0,0:0|0:0,0:0:0:0:
427,374,259556,5,2,3:2:0:0:
239,292,259712,1,2,3:2:0:0:
426,180,259868,5,10,0:0:0:0:
151,281,260024,1,2,0:0:0:0:
342,384,260181,6,0,L|288:133,1,256.499993150711,14|0,3:2|0:0,0:0:0:0:
274,46,260493,5,8,0:0:0:0:
80,158,260649,1,0,3:2:0:0:
30,33,260806,5,8,0:0:0:0:
362,85,260962,1,0,3:2:0:0:
239,292,261118,5,8,0:0:0:0:
219,196,261274,1,0,3:2:0:0:
512,239,261431,5,8,0:0:0:0:
512,239,261743,5,8,0:0:0:0:
443,317,261899,1,0,3:2:0:0:
198,108,262056,5,8,0:0:0:0:
315,254,262212,1,0,3:2:0:0:
494,24,262368,5,10,0:0:0:0:
480,64,262446,1,2,0:0:0:0:
467,105,262524,1,2,3:2:0:0:
454,145,262602,1,2,0:0:0:0:
441,186,262680,1,10,0:0:0:0:
441,186,262993,5,8,0:0:0:0:
274,46,263149,1,2,3:2:0:0:
95,283,263306,5,8,0:0:0:0:
319,158,263462,1,0,3:2:0:0:
447,376,263618,5,10,0:0:0:0:
230,241,263774,1,0,3:2:0:0:
441,186,263931,6,0,L|427:248,1,53.9999983520508,10|0,0:0|0:0,0:0:0:0:
251,341,264087,1,0,3:2:0:0:
365,384,264243,2,0,L|335:243,1,135.000005149842,8|0,0:0|3:2,0:0:0:0:
326,34,264556,6,0,L|263:47,1,53.9999983520508,8|0,0:0|0:0,0:0:0:0:
0,94,264712,1,0,3:2:0:0:
213,168,264868,2,0,L|224:115,1,53.9999983520508,8|0,0:0|0:0,0:0:0:0:
146,26,265024,2,0,L|134:78,1,53.9999983520508,0|0,3:2|0:0,0:0:0:0:
131,312,265181,6,0,B|81:227|-16:261|-16:261|29:281|45:324,1,242.999992584229,14|0,0:0|0:0,0:0:0:0:
74,384,265493,5,10,0:0:0:0:
336,251,265649,1,0,3:2:0:0:
213,168,265806,5,10,0:0:0:0:
251,341,265962,1,0,3:2:0:0:
501,114,266118,5,10,0:0:0:0:
444,354,266274,1,0,3:2:0:0:
95,187,266431,5,10,0:0:0:0:
95,187,266743,5,10,0:0:0:0:
50,80,266899,1,2,3:2:0:0:
212,14,267056,5,10,0:0:0:0:
144,277,267212,1,0,3:2:0:0:
352,345,267368,5,8,0:0:0:0:
271,91,267524,1,0,3:2:0:0:
486,0,267681,6,0,B|453:152|453:152|484:171|497:199,1,202.500007724762,10|0,3:2|0:0,0:0:0:0:
436,246,267993,6,0,P|420:227|384:212,1,45,10|0,0:0|0:0,0:0:0:0:
271,91,268149,2,0,P|246:95|215:119,1,45,2|0,3:2|0:0,0:0:0:0:
103,342,268306,6,0,L|86:263,1,67.5000025749208,10|0,0:0|0:0,0:0:0:0:
10,334,268462,1,0,3:2:0:0:
238,184,268618,6,0,L|221:262,1,67.5000025749208,10|0,0:0|0:0,0:0:0:0:
324,233,268774,1,0,3:2:0:0:
37,211,268931,5,8,0:0:0:0:
34,148,269009,1,0,3:2:0:0:
77,115,269087,1,0,3:2:0:0:
125,116,269165,1,0,3:2:0:0:
156,145,269243,2,0,L|146:191,1,45,0|0,3:2|3:2,0:0:0:0:
230,324,269399,5,8,0:0:0:0:
268,375,269477,1,0,3:2:0:0:
325,384,269555,1,0,3:2:0:0:
375,376,269633,1,0,3:2:0:0:
412,349,269711,2,0,L|402:302,1,45,0|0,3:2|3:2,0:0:0:0:
368,74,269868,5,8,0:0:0:0:
410,40,269946,1,8,0:0:0:0:
463,54,270024,1,8,0:0:0:0:
483,104,270102,1,8,0:0:0:0:
456,150,270181,2,0,L|377:133,1,67.5000025749208,14|0,0:0|0:0,0:0:0:0:
163,152,270337,5,0,3:2:0:0:
163,152,270415,1,0,3:2:0:0:
163,152,270493,2,0,P|156:120|146:73,1,67.5000025749208,8|0,0:0|0:0,0:0:0:0:
238,331,270649,1,0,3:2:0:0:
238,331,270727,1,0,3:2:0:0:
238,331,270805,2,0,P|244:299|254:252,1,67.5000025749208,8|0,0:0|0:0,0:0:0:0:
44,272,270962,5,0,3:2:0:0:
52,280,271040,1,0,3:2:0:0:
59,286,271118,2,0,L|137:269,1,67.5000025749208,8|0,0:0|0:0,0:0:0:0:
334,189,271274,5,0,3:2:0:0:
326,181,271352,1,0,3:2:0:0:
319,174,271431,2,0,L|240:157,1,67.5000025749208,8|0,0:0|0:0,0:0:0:0:
384,343,271587,1,0,3:2:0:0:
398,349,271665,1,0,3:2:0:0:
412,349,271743,2,0,P|439:333|464:296,1,67.5000025749208,8|0,0:0|0:0,0:0:0:0:
421,114,271899,5,0,3:2:0:0:
425,101,271977,1,0,3:2:0:0:
439,94,272056,1,8,0:0:0:0:
453,92,272134,1,0,3:2:0:0:
470,95,272212,1,0,3:2:0:0:
481,103,272290,1,0,3:2:0:0:
488,117,272368,5,10,0:0:0:0:
455,141,272446,1,2,3:2:0:0:
401,133,272524,1,2,3:2:0:0:
365,82,272602,1,2,3:2:0:0:
373,17,272681,2,0,P|348:43|307:50,1,67.5000025749208,14|0,0:0|0:0,0:0:0:0:
44,36,272837,5,0,3:2:0:0:
56,29,272915,1,0,3:2:0:0:
69,28,272993,2,0,P|105:44|121:76,1,67.5000025749208,8|0,0:0|0:0,0:0:0:0:
78,277,273149,1,0,3:2:0:0:
65,270,273227,1,0,3:2:0:0:
58,259,273305,2,0,P|53:219|73:189,1,67.5000025749208,8|0,0:0|0:0,0:0:0:0:
270,128,273462,1,0,3:2:0:0:
270,141,273540,1,0,3:2:0:0:
264,153,273618,2,0,P|232:176|196:174,1,67.5000025749208,8|0,0:0|0:0,0:0:0:0:
231,28,273774,5,0,3:2:0:0:
242,32,273852,1,0,3:2:0:0:
252,36,273931,2,0,L|330:52,1,67.5000025749208,8|0,0:0|0:0,0:0:0:0:
493,200,274087,1,0,3:2:0:0:
482,203,274165,1,0,3:2:0:0:
472,207,274244,2,0,L|393:223,1,67.5000025749208,8|0,0:0|0:0,0:0:0:0:
207,374,274399,1,0,3:2:0:0:
202,368,274477,1,0,3:2:0:0:
196,362,274556,5,8,0:0:0:0:
225,362,274634,1,0,3:2:0:0:
259,348,274712,1,0,3:2:0:0:
275,309,274790,1,0,3:2:0:0:
259,265,274868,1,8,0:0:0:0:
207,252,274946,1,0,3:2:0:0:
152,277,275024,1,0,3:2:0:0:
115,334,275102,1,0,3:2:0:0:
45,348,275181,6,0,P|32:316|7:287,1,67.5000025749208,12|0,0:0|0:0,0:0:0:0:
164,150,275337,1,0,3:2:0:0:
150,149,275415,1,0,3:2:0:0:
138,154,275493,2,0,P|116:180|104:211,1,67.5000025749208,8|0,0:0|0:0,0:0:0:0:
316,203,275649,5,0,3:2:0:0:
312,189,275727,1,0,3:2:0:0:
308,177,275806,2,0,L|291:98,1,67.5000025749208,8|0,0:0|0:0,0:0:0:0:
469,0,275962,1,0,3:2:0:0:
465,14,276040,1,0,3:2:0:0:
462,26,276119,2,0,L|445:104,1,67.5000025749208,8|0,0:0|0:0,0:0:0:0:
413,291,276274,5,0,3:2:0:0:
416,276,276352,1,0,3:2:0:0:
424,267,276431,2,0,P|450:250|507:258,1,67.5000025749208,8|0,0:0|0:0,0:0:0:0:
302,380,276587,1,0,3:2:0:0:
287,384,276665,1,0,3:2:0:0:
275,382,276744,2,0,P|246:367|226:313,1,67.5000025749208,8|0,0:0|0:0,0:0:0:0:
65,174,276899,2,0,L|48:252,1,67.5000025749208,0|0,3:2|3:2,0:0:0:0:
301,303,277056,5,8,0:0:0:0:
347,250,277134,1,0,3:2:0:0:
333,191,277212,1,0,3:2:0:0:
274,166,277290,1,0,3:2:0:0:
232,136,277368,1,8,0:0:0:0:
219,91,277446,1,0,3:2:0:0:
230,48,277524,1,0,3:2:0:0:
258,28,277602,1,0,3:2:0:0:
300,93,277681,5,14,0:0:0:0:
342,7,278931,6,0,L|335:38,2,16.8750006437302,0|0|0,1:2|3:2|3:2,0:0:0:0:
411,57,279087,1,0,3:2:0:0:
155,134,279243,6,0,L|161:165,2,16.8750006437302,0|0|0,1:2|3:2|3:2,0:0:0:0:
86,184,279399,1,0,3:2:0:0:
323,241,279556,6,0,L|313:287,1,33.7500012874604,0|0,1:2|0:0,0:0:0:0:
389,340,279712,2,0,L|398:293,1,33.7500012874604,0|0,1:2|0:0,0:0:0:0:
277,374,279868,1,0,3:2:0:0:
86,184,280024,6,0,L|125:371,1,175.499991966248,4|0,3:2|0:0,0:0:0:0:
47,384,280337,2,0,L|37:337,1,45,2|0,3:2|0:0,0:0:0:0:
225,193,280493,2,0,B|212:217|226:246|226:246|201:224|179:227,1,107.999996704102,10|0,0:0|0:0,0:0:0:0:
325,38,280806,1,2,3:2:0:0:
512,139,280962,1,2,3:2:0:0:
302,207,281118,1,8,0:0:0:0:
457,15,281274,6,0,L|420:187,1,175.499991966248,2|0,3:2|0:0,0:0:0:0:
453,259,281587,2,0,P|477:248|492:226,1,45,2|0,3:2|0:0,0:0:0:0:
278,129,281743,2,0,B|245:109|250:67|250:67|258:93|284:106,1,116.999994644165,10|0,0:0|0:0,0:0:0:0:
373,250,282056,1,2,3:2:0:0:
170,384,282212,1,2,3:2:0:0:
225,193,282368,1,8,0:0:0:0:
329,336,282524,6,0,B|288:269|215:278|215:278|197:303|163:307,1,175.499991966248,2|0,3:2|0:0,0:0:0:0:
104,326,282837,2,0,P|78:314|61:299,1,45,2|0,3:2|0:0,0:0:0:0:
143,155,282993,2,0,L|123:248,1,90,10|0,0:0|0:0,0:0:0:0:
6,184,283306,1,2,3:2:0:0:
209,83,283462,1,2,3:2:0:0:
36,19,283618,1,8,0:0:0:0:
225,193,283774,6,0,B|292:174|286:101|286:101|276:137|244:155,1,175.499991966248,2|0,3:2|0:0,0:0:0:0:
338,221,284087,2,0,P|360:242|383:254,1,45,2|0,3:2|0:0,0:0:0:0:
493,149,284243,2,0,L|383:172,1,90,10|2,0:0|0:0,0:0:0:0:
310,309,284556,1,2,3:2:0:0:
398,81,284712,1,2,3:2:0:0:
492,270,284868,1,8,0:0:0:0:
225,193,285024,6,0,B|160:161|118:212|118:212|101:258|56:257,1,188.999994232178,6|0,3:2|0:0,0:0:0:0:
6,169,285337,2,0,P|33:174|53:194,1,45,2|0,3:2|0:0,0:0:0:0:
160,357,285493,2,0,L|183:247,1,90,10|0,0:0|0:0,0:0:0:0:
49,357,285806,1,2,3:2:0:0:
264,271,285962,1,2,3:2:0:0:
101,128,286118,1,8,0:0:0:0:
245,373,286274,6,0,B|370:347|370:347|377:324|398:305,1,175.499991966248,2|0,3:2|0:0,0:0:0:0:
492,384,286587,2,0,P|470:377|448:348,1,45,2|0,3:2|0:0,0:0:0:0:
445,247,286743,2,0,B|469:256|507:224|507:224|473:263|472:293,1,135.000005149842,10|0,0:0|0:0,0:0:0:0:
264,271,287056,1,2,3:2:0:0:
455,144,287212,1,2,3:2:0:0:
220,83,287368,1,8,0:0:0:0:
366,236,287524,6,0,L|324:51,1,175.499991966248,2|0,3:2|0:0,0:0:0:0:
420,20,287837,2,0,L|409:68,1,45,2|0,3:2|0:0,0:0:0:0:
240,186,287993,2,0,P|191:162|135:168,1,90,10|0,0:0|0:0,0:0:0:0:
22,351,288306,1,2,3:2:0:0:
172,251,288462,1,2,3:2:0:0:
32,137,288618,1,8,0:0:0:0:
258,40,288774,6,0,P|233:119|139:162,1,175.499991966248,2|0,3:2|0:0,0:0:0:0:
73,67,289087,2,0,P|98:86|108:108,1,45,2|0,3:2|0:0,0:0:0:0:
264,271,289243,2,0,P|305:237|358:225,1,107.999996704102,10|0,0:0|0:0,0:0:0:0:
428,376,289556,1,2,3:2:0:0:
312,148,289712,1,2,3:2:0:0:
508,204,289868,1,8,0:0:0:0:
160,371,290024,6,0,L|219:89,1,288,6|2,3:2|3:2,0:0:0:0:
23,217,290493,1,10,0:0:0:0:
278,364,290649,1,0,3:2:0:0:
278,364,290727,1,0,3:2:0:0:
278,364,290806,2,0,P|298:344|333:333,1,58.4999973220826,8|0,0:0|0:0,0:0:0:0:
448,264,290962,1,0,3:2:0:0:
448,264,291040,1,0,3:2:0:0:
448,264,291119,2,0,P|483:254|502:296,1,58.4999973220826,8|0,0:0|0:0,0:0:0:0:
299,205,291274,2,0,L|311:147,1,58.4999973220826,4|0,3:2|0:0,0:0:0:0:
201,22,291431,5,2,0:3:0:0:
187,45,291509,1,2,0:3:0:0:
194,73,291587,1,2,3:2:0:0:
219,89,291665,1,2,0:3:0:0:
247,82,291743,5,8,0:3:0:0:
194,98,291821,1,8,0:3:0:0:
166,140,291899,1,4,0:3:0:0:
164,184,291977,1,4,0:3:0:0:
181,215,292056,5,8,0:0:0:0:
146,189,292134,1,8,0:3:0:0:
116,178,292212,1,4,0:3:0:0:
86,179,292290,1,4,0:3:0:0:
68,189,292368,6,0,L|130:175,1,58.4999973220826,8|0,0:0|0:0,0:0:0:0:
415,132,292524,6,0,L|441:126,1,26.9999991760254,4|0,3:2|0:0,0:0:0:0:
140,229,293931,6,0,P|107:239|76:249,1,67.5000025749208,10|0,3:2|0:0,0:0:0:0:
346,272,294087,2,0,P|374:297|396:318,1,67.5,10|0,3:2|0:0,0:0:0:0:
281,72,294399,6,0,P|286:40|295:4,1,67.5000025749208,10|0,3:2|0:0,0:0:0:0:
114,64,294712,6,0,P|140:87|164:110,1,67.5000025749208,10|0,3:2|0:0,0:0:0:0:
435,132,294868,2,0,P|401:143|371:154,1,67.5000025749208,10|0,3:2|0:0,0:0:0:0:
230,310,295024,5,10,3:2:0:0:
