osu file format v14

[General]
AudioFilename: audio.mp3
AudioLeadIn: 0
PreviewTime: 61404
Countdown: 0
SampleSet: Soft
StackLeniency: 0.4
Mode: 0
LetterboxInBreaks: 0
WidescreenStoryboard: 0

[Editor]
Bookmarks: 170542,180542,191232,246059
DistanceSpacing: 0.8
BeatDivisor: 4
GridSize: 16
TimelineZoom: 1.6

[Metadata]
Title:Brave Star
TitleUnicode:Brave Star
Artist:AZURE FACTORY
ArtistUnicode:AZURE FACTORY
Creator:gazimal
Version:Starry Sky
Source:
Tags:トライアド・シネマ M3 31 j-rock japanese rock Age17 真崎エリカ Masaki Erika Erica Kanui iRedi Triad Cinema Highend Color Kurata kurane jrock 倉田くらね m3-31
BeatmapID:3954955
BeatmapSetID:1916692

[Difficulty]
HPDrainRate:5
CircleSize:4
OverallDifficulty:9
ApproachRate:9.4
SliderMultiplier:1.8
SliderTickRate:1

[Events]
//Background and Video events
0,0,"100339305_p0_master1200 (1)_waifu2x_art_noise3_scale.png",0,0
//Break Periods
2,180742,191381
//Storyboard Layer 0 (Background)
//Storyboard Layer 1 (Fail)
//Storyboard Layer 2 (Pass)
//Storyboard Layer 3 (Foreground)
//Storyboard Layer 4 (Overlay)
//Storyboard Sound Samples

[TimingPoints]
-147,344.827586206897,4,2,0,45,1,0
887,-333.333333333333,4,2,1,45,0,0
1232,-166.666666666667,4,2,9,45,0,0
2611,-166.666666666667,4,2,1,45,0,0
3990,-166.666666666667,4,2,9,45,0,0
5370,-166.666666666667,4,2,1,45,0,0
6059,-250.000000000001,4,2,1,45,0,0
6749,-166.666666666667,4,2,9,45,0,0
6835,-166.666666666667,4,2,9,55,0,0
7611,-250.000000000001,4,2,1,55,0,0
9508,-250.000000000001,4,2,9,55,0,0
10715,-250.000000000001,4,2,1,55,0,0
11921,-200.000000000001,4,2,1,55,0,0
12266,-200.000000000001,4,1,1,70,0,0
13473,-133.333333333333,4,1,1,70,0,0
20542,-90.9090909090909,4,1,1,70,0,0
20887,-76.9230769230769,4,2,1,70,0,0
21749,-66.6666666666667,4,2,1,70,0,0
22094,-100,4,2,1,70,0,0
22784,-333.333333333333,4,2,2,45,0,0
22956,-333.333333333333,4,2,1,45,0,0
23215,-333.333333333333,4,2,1,5,0,0
23301,-133.333333333333,4,2,1,55,0,0
25370,-133.333333333333,4,2,2,55,0,0
25542,-133.333333333333,4,2,1,55,0,0
25715,-133.333333333333,4,2,2,55,0,0
25887,-133.333333333333,4,2,1,55,0,0
28301,-166.666666666667,4,2,1,55,0,0
28818,-100,4,2,1,55,0,0
30887,-100,4,2,2,55,0,0
31059,-100,4,2,1,55,0,0
31232,-133.333333333333,4,2,2,55,0,0
31404,-133.333333333333,4,2,1,55,0,0
31921,-133.333333333333,4,2,1,55,0,0
32956,-100,4,2,9,45,0,0
33042,-100,4,2,1,55,0,0
34335,-83.3333333333333,4,2,1,60,0,0
34594,-333.333333333333,4,2,1,5,0,0
34680,-133.333333333333,4,2,1,60,0,0
35197,-100,4,2,1,60,0,0
35801,-333.333333333333,4,2,1,5,0,0
35887,-133.333333333333,4,2,1,60,0,0
36059,-100,4,2,1,60,0,0
36577,-133.333333333333,4,2,1,60,0,0
37094,-83.3333333333333,4,2,1,60,0,0
37353,-333.333333333333,4,2,1,5,0,0
37439,-133.333333333333,4,2,1,60,0,0
38818,-100,4,2,1,60,0,0
39163,-100,4,2,9,45,0,0
39249,-100,4,2,1,60,0,0
39853,-83.3333333333333,4,2,1,60,0,0
40111,-333.333333333333,4,2,1,5,0,0
40197,-133.333333333333,4,2,1,60,0,0
40542,-133.333333333333,4,2,3,60,0,0
40715,-133.333333333333,4,2,1,60,0,0
41059,-83.3333333333333,4,2,1,60,0,0
41318,-333.333333333333,4,2,1,5,0,0
41404,-133.333333333333,4,2,1,60,0,0
41921,-100,4,2,1,60,0,0
42611,-83.3333333333333,4,2,1,60,0,0
42870,-333.333333333333,4,2,1,5,0,0
42956,-133.333333333333,4,2,1,60,0,0
43904,-133.333333333333,4,2,1,5,0,0
45197,-133.333333333333,4,2,1,60,0,0
45370,-133.333333333333,4,2,1,75,0,0
47439,-71.4285714285714,4,2,1,75,0,0
47784,-133.333333333333,4,2,1,75,0,0
50887,-71.4285714285714,4,2,1,65,0,0
51146,-333.333333333333,4,2,1,5,0,0
51232,-133.333333333333,4,2,1,65,0,0
51404,-100,4,2,1,65,0,0
53646,-76.9230769230769,4,2,1,65,0,0
54249,-333.333333333333,4,2,1,5,0,0
54335,-90.9090909090909,4,2,1,65,0,0
54680,-100,4,2,1,65,0,0
55370,-76.9230769230769,4,2,1,65,0,0
55715,-100,4,2,1,65,0,0
55887,-333.333333333333,4,2,1,65,0,0
56146,-333.333333333333,4,2,1,5,0,0
56232,-111.111111111111,4,2,1,65,0,0
56404,-100,4,2,1,60,0,0
57094,-133.333333333333,4,2,1,60,0,0
59163,-76.9230769230769,4,2,1,60,0,0
59680,-76.9230769230769,4,2,1,65,0,0
59853,-76.9230769230769,4,2,1,70,0,0
60025,-76.9230769230769,4,2,1,75,0,0
60197,-76.9230769230769,4,2,1,80,0,0
60370,-76.9230769230769,4,2,1,85,0,0
61577,-76.9230769230769,4,2,1,60,0,0
61921,-66.6666666666667,4,2,1,80,0,1
62180,-333.333333333333,4,2,1,5,0,1
62266,-100,4,2,1,80,0,1
62439,-83.3333333333333,4,2,1,80,0,1
63128,-76.9230769230769,4,2,1,80,0,1
63646,-83.3333333333333,4,2,1,80,0,1
64680,-76.9230769230769,4,2,1,80,0,1
64939,-76.9230769230769,4,2,1,5,0,1
65025,-100,4,2,1,80,0,1
65887,-76.9230769230769,4,2,1,80,0,1
66404,-83.3333333333333,4,2,1,80,0,1
67439,-71.4285714285714,4,2,1,80,0,1
67697,-76.9230769230769,4,2,1,5,0,1
67784,-100,4,2,1,80,0,1
67956,-76.9230769230769,4,2,1,80,0,1
68473,-100,4,2,1,80,0,1
69163,-58.8235294117647,4,2,1,80,0,1
69508,-250,4,2,1,80,0,1
69853,-200,4,2,1,80,0,1
70111,-76.9230769230769,4,2,1,5,0,1
70197,-55.5555555555556,4,2,1,80,0,1
70456,-76.9230769230769,4,2,1,5,0,1
70542,-100,4,2,1,80,0,1
70715,-250,4,2,1,80,0,1
71232,-133.333333333333,4,2,1,80,0,1
71577,-100,4,2,1,80,0,1
72094,-58.8235294117647,4,2,1,80,0,1
72353,-76.9230769230769,4,2,1,5,0,1
72439,-58.8235294117647,4,2,1,80,0,1
73215,-76.9230769230769,4,2,1,5,0,1
73301,-100,4,2,1,80,0,1
73473,-83.3333333333333,4,2,1,80,0,1
74163,-76.9230769230769,4,2,1,80,0,1
74680,-83.3333333333333,4,2,1,80,0,1
75715,-76.9230769230769,4,2,1,80,0,1
75973,-76.9230769230769,4,2,1,5,0,1
76059,-100,4,2,1,80,0,1
76232,-133.333333333333,4,2,1,80,0,1
76490,-76.9230769230769,4,2,1,5,0,1
76577,-133.333333333333,4,2,1,80,0,1
76663,-76.9230769230769,4,2,1,5,0,1
76749,-133.333333333333,4,2,1,80,0,1
76835,-76.9230769230769,4,2,1,5,0,1
76921,-133.333333333333,4,2,1,80,0,1
77094,-66.6666666666667,4,2,1,80,0,1
77266,-76.9230769230769,4,2,1,5,0,1
77353,-66.6666666666667,4,2,1,80,0,1
77525,-76.9230769230769,4,2,1,5,0,1
77611,-66.6666666666667,4,2,1,80,0,1
77697,-76.9230769230769,4,2,1,5,0,1
77784,-66.6666666666667,4,2,1,80,0,1
77956,-76.9230769230769,4,2,1,5,0,1
78042,-66.6666666666667,4,2,1,80,0,1
78215,-76.9230769230769,4,2,1,5,0,1
78301,-66.6666666666667,4,2,1,80,0,1
78387,-76.9230769230769,4,2,1,5,0,1
78473,-76.9230769230769,4,2,1,80,0,1
81490,-76.9230769230769,4,2,1,5,0,1
81577,-76.9230769230769,4,2,1,80,0,1
82697,-76.9230769230769,4,2,1,5,0,1
82784,-100,4,2,1,80,0,1
82956,-66.6666666666667,4,2,1,80,0,1
83215,-76.9230769230769,4,2,1,5,0,1
83301,-133.333333333333,4,2,1,80,0,1
83990,-66.6666666666667,4,2,1,70,0,0
84249,-76.9230769230769,4,2,1,5,0,0
84335,-83.3333333333333,4,2,1,70,0,0
85025,-133.333333333333,4,2,1,70,0,0
85197,-83.3333333333333,4,2,1,70,0,0
86404,-100,4,2,1,70,0,0
86749,-66.6666666666667,4,2,1,70,0,0
87008,-76.9230769230769,4,2,1,5,0,0
87094,-76.9230769230769,4,2,1,70,0,0
87353,-76.9230769230769,4,2,1,5,0,0
87439,-76.9230769230769,4,2,1,70,0,0
87784,-133.333333333333,4,2,1,70,0,0
87956,-76.9230769230769,4,2,1,70,0,0
88473,-100,4,2,1,70,0,0
88990,-133.333333333333,4,2,1,70,0,0
89508,-76.9230769230769,4,2,1,70,0,0
89766,-76.9230769230769,4,2,1,5,0,0
89853,-76.9230769230769,4,2,1,70,0,0
90111,-76.9230769230769,4,2,1,5,0,0
90197,-76.9230769230769,4,2,1,70,0,0
90542,-133.333333333333,4,2,1,70,0,0
90715,-83.3333333333333,4,2,1,70,0,0
93473,-66.6666666666667,4,2,1,70,0,0
93990,-333.333333333333,4,2,1,70,0,0
94249,-76.9230769230769,4,2,1,5,0,0
94335,-83.3333333333333,4,2,1,70,0,0
95025,-83.3333333333333,4,2,9,35,0,0
95111,-83.3333333333333,4,2,1,50,0,0
96404,-1000,4,2,1,50,0,0
97784,-1000,4,2,9,50,0,0
97870,-1000,4,2,1,50,0,0
99163,-500,4,2,1,50,0,0
100542,-500,4,2,9,50,0,0
100628,-500,4,2,1,50,0,0
101921,-1000,4,2,1,50,0,0
104508,-250,4,2,1,50,0,0
104594,-76.9230769230769,4,2,1,5,0,0
105542,-250,4,2,1,50,0,0
105715,-250,4,2,1,60,0,0
105973,-76.9230769230769,4,2,1,5,0,0
106059,-76.9230769230769,4,2,1,60,0,0
106318,-76.9230769230769,4,2,1,5,0,0
106404,-76.9230769230769,4,2,1,60,0,0
106577,-100,4,2,1,60,0,0
108818,-76.9230769230769,4,2,1,60,0,0
109077,-76.9230769230769,4,2,1,5,0,0
109163,-76.9230769230769,4,2,1,60,0,0
109335,-100,4,2,1,60,0,0
111232,-133.333333333333,4,2,1,60,0,0
111577,-90.9090909090909,4,2,1,60,0,0
113646,-200,4,2,1,60,0,0
113732,-76.9230769230769,4,2,1,5,0,0
113818,-200,4,2,1,60,0,0
113904,-76.9230769230769,4,2,1,5,0,0
113990,-200,4,2,1,60,0,0
114077,-76.9230769230769,4,2,1,5,0,0
114163,-200,4,2,1,60,0,0
114249,-76.9230769230769,4,2,1,5,0,0
114335,-83.3333333333333,4,2,1,60,0,0
114594,-76.9230769230769,4,2,1,5,0,0
114680,-83.3333333333333,4,2,1,60,0,0
116059,-100,4,2,1,60,0,0
116749,-200,4,2,1,60,0,0
117094,-200,4,2,1,75,0,0
119163,-71.4285714285714,4,2,1,75,0,0
119508,-133.333333333333,4,2,1,75,0,0
122611,-76.9230769230769,4,2,1,65,0,0
122870,-76.9230769230769,4,2,1,5,0,0
122956,-133.333333333333,4,2,1,65,0,0
123128,-100,4,2,1,65,0,0
125370,-76.9230769230769,4,2,1,65,0,0
125973,-76.9230769230769,4,2,1,5,0,0
126059,-76.9230769230769,4,2,1,65,0,0
126577,-100,4,2,1,65,0,0
127784,-133.333333333333,4,2,1,65,0,0
128042,-76.9230769230769,4,2,1,5,0,0
128128,-100,4,2,1,65,0,0
128818,-133.333333333333,4,2,1,65,0,0
130197,-100,4,2,1,65,0,0
130887,-76.9230769230769,4,2,1,65,0,0
131146,-76.9230769230769,4,2,1,5,0,0
131232,-100,4,2,1,65,0,0
131921,-133.333333333333,4,2,1,65,0,0
132094,-83.3333333333333,4,2,1,65,0,0
132956,-100,4,2,1,65,0,0
133646,-66.6666666666667,4,2,1,80,0,1
133904,-66.6666666666667,4,2,1,5,0,1
133990,-100,4,2,1,80,0,1
134163,-83.3333333333333,4,2,1,80,0,1
134508,-66.6666666666667,4,2,1,80,0,1
134853,-76.9230769230769,4,2,1,80,0,1
135370,-83.3333333333333,4,2,1,80,0,1
136404,-71.4285714285714,4,2,1,80,0,1
136663,-66.6666666666667,4,2,1,5,0,1
136749,-133.333333333333,4,2,1,80,0,1
137266,-100,4,2,1,80,0,1
137611,-76.9230769230769,4,2,1,80,0,1
138128,-83.3333333333333,4,2,1,80,0,1
139163,-71.4285714285714,4,2,1,80,0,1
139421,-66.6666666666667,4,2,1,5,0,1
139508,-100,4,2,1,80,0,1
139680,-71.4285714285714,4,2,1,80,0,1
140197,-100,4,2,1,80,0,1
140887,-58.8235294117647,4,2,1,80,0,1
141146,-66.6666666666667,4,2,1,5,0,1
141232,-250,4,2,1,80,0,1
141577,-200,4,2,1,80,0,1
141835,-66.6666666666667,4,2,1,5,0,1
141921,-58.8235294117647,4,2,1,80,0,1
142180,-66.6666666666667,4,2,1,5,0,1
142266,-100,4,2,1,80,0,1
142439,-250,4,2,1,80,0,1
142956,-133.333333333333,4,2,1,80,0,1
143301,-100,4,2,1,80,0,1
143818,-58.8235294117647,4,2,1,80,0,1
144077,-66.6666666666667,4,2,1,5,0,1
144163,-58.8235294117647,4,2,1,80,0,1
144939,-66.6666666666667,4,2,1,5,0,1
145025,-100,4,2,1,80,0,1
145197,-76.9230769230769,4,2,1,80,0,1
145887,-76.9230769230769,4,2,1,80,0,1
146404,-83.3333333333333,4,2,1,80,0,1
147439,-76.9230769230769,4,2,1,80,0,1
147697,-66.6666666666667,4,2,1,5,0,1
147784,-100,4,2,1,80,0,1
147956,-133.333333333333,4,2,1,80,0,1
148215,-66.6666666666667,4,2,1,5,0,1
148301,-133.333333333333,4,2,1,80,0,1
148387,-66.6666666666667,4,2,1,5,0,1
148473,-133.333333333333,4,2,1,80,0,1
148559,-66.6666666666667,4,2,1,5,0,1
148646,-133.333333333333,4,2,1,80,0,1
148818,-58.8235294117647,4,2,1,80,0,1
148990,-66.6666666666667,4,2,1,5,0,1
149077,-58.8235294117647,4,2,1,80,0,1
149249,-66.6666666666667,4,2,1,5,0,1
149335,-58.8235294117647,4,2,1,80,0,1
149421,-66.6666666666667,4,2,1,5,0,1
149508,-58.8235294117647,4,2,1,80,0,1
149680,-66.6666666666667,4,2,1,5,0,1
149766,-58.8235294117647,4,2,1,80,0,1
149939,-66.6666666666667,4,2,1,5,0,1
150025,-58.8235294117647,4,2,1,80,0,1
150111,-66.6666666666667,4,2,1,5,0,1
150197,-76.9230769230769,4,2,1,80,0,1
153215,-66.6666666666667,4,2,1,5,0,1
153301,-76.9230769230769,4,2,1,80,0,1
153990,-100,4,2,1,80,0,1
154163,-76.9230769230769,4,2,1,80,0,1
154421,-66.6666666666667,4,2,1,5,0,1
154508,-100,4,2,1,80,0,1
154680,-83.3333333333333,4,2,1,80,0,1
155715,-83.3333333333333,4,2,1,80,0,0
165197,-66.6666666666667,4,2,1,80,0,0
166577,-83.3333333333333,4,2,1,75,0,0
167956,-76.9230769230769,4,2,1,75,0,0
168215,-66.6666666666667,4,2,1,5,0,0
168301,-100,4,2,1,75,0,0
168473,-83.3333333333333,4,2,1,75,0,0
168732,-66.6666666666667,4,2,1,5,0,0
168818,-333.333333333333,4,2,1,75,0,0
168904,-66.6666666666667,4,2,1,5,0,0
168990,-333.333333333333,4,2,1,75,0,0
169077,-66.6666666666667,4,2,1,5,0,0
169163,-333.333333333333,4,2,1,75,0,0
169249,-66.6666666666667,4,2,1,5,0,0
169335,-333.333333333333,4,2,1,75,0,0
169421,-66.6666666666667,4,2,1,5,0,0
169508,-333.333333333333,4,2,1,75,0,0
170542,-100,4,2,1,75,0,0
170715,-55.5555555555556,4,2,1,75,0,0
170973,-66.6666666666667,4,2,1,5,0,0
171059,-333.333333333333,4,2,1,75,0,0
171146,-66.6666666666667,4,2,1,5,0,0
171232,-333.333333333333,4,2,1,75,0,0
171318,-66.6666666666667,4,2,1,5,0,0
171404,-333.333333333333,4,2,1,75,0,0
171490,-66.6666666666667,4,2,1,5,0,0
171577,-333.333333333333,4,2,1,75,0,0
171663,-66.6666666666667,4,2,1,5,0,0
171749,-333.333333333333,4,2,1,75,0,0
171835,-66.6666666666667,4,2,1,5,0,0
171921,-333.333333333333,4,2,1,75,0,0
172008,-66.6666666666667,4,2,1,5,0,0
172094,-333.333333333333,4,2,1,75,0,0
172180,-66.6666666666667,4,2,1,75,0,0
173732,-66.6666666666667,4,2,1,5,0,0
173818,-66.6666666666667,4,2,1,75,0,0
174680,-200,4,2,1,75,0,0
176232,-83.3333333333333,4,2,1,75,0,0
176577,-125,4,2,1,75,0,0
176921,-166.666666666667,4,2,1,75,0,0
177439,-333.333333333334,4,2,1,75,0,0
177784,-333.333333333334,4,2,1,60,0,0
178301,-500.000000000003,4,2,1,45,0,0
179508,-250.000000000001,4,2,1,45,0,0
179680,-250.000000000001,4,2,2,45,0,0
180197,-250.000000000001,4,2,1,45,0,0
180542,-250.000000000001,4,2,9,45,0,0
191921,-125,4,2,1,45,0,0
191965,-125,4,2,1,5,0,0
192439,-125,4,2,1,45,0,0
192482,-125,4,2,1,5,0,0
192784,-125,4,2,1,45,0,0
192827,-125,4,2,1,5,0,0
193646,-1000,4,2,1,45,0,0
194680,-125,4,2,1,45,0,0
194723,-125,4,2,1,5,0,0
195197,-125,4,2,1,45,0,0
195240,-125,4,2,1,5,0,0
195542,-125,4,2,1,45,0,0
195585,-125,4,2,1,5,0,0
196577,-500,4,2,1,45,0,0
197094,-166.666666666667,4,2,9,45,0,0
197180,-166.666666666667,4,2,1,45,0,0
197956,-250.000000000001,4,2,1,45,0,0
199853,-200.000000000001,4,2,9,45,0,0
199939,-200.000000000001,4,2,1,45,0,0
202266,-200.000000000001,4,2,1,60,0,0
202611,-200.000000000001,4,2,1,70,0,0
203818,-58.8235294117647,4,2,1,70,0,0
204163,-100,4,2,1,70,0,0
204853,-1000,4,2,1,70,0,0
205284,-1000,4,2,1,5,0,0
205370,-1000,4,2,1,70,0,0
206577,-58.8235294117647,4,2,1,75,0,0
206835,-58.8235294117647,4,2,1,5,0,0
206921,-100,4,2,1,75,0,0
208128,-71.4285714285714,4,2,1,75,0,0
208387,-58.8235294117647,4,2,1,5,0,0
208473,-200,4,2,1,55,0,0
208818,-133.333333333333,4,2,1,60,0,0
209163,-100,4,2,1,65,0,0
209508,-100,4,2,1,70,0,0
209853,-80,4,2,1,75,0,0
210197,-66.6666666666667,4,2,1,80,0,0
210542,-57.1428571428571,4,2,1,85,0,0
210887,-57.1428571428571,4,2,1,90,0,0
212094,-57.1428571428571,4,2,1,70,0,0
212266,-55.5555555555556,4,2,1,90,0,1
212525,-55.5555555555556,4,2,1,5,0,1
212611,-100,4,2,1,90,0,1
212784,-55.5555555555556,4,2,1,90,0,1
213042,-55.5555555555556,4,2,1,5,0,1
213128,-55.5555555555556,4,2,1,90,0,1
213646,-66.6666666666667,4,2,1,85,0,1
213904,-55.5555555555556,4,2,1,5,0,1
213990,-100,4,2,1,85,0,1
214163,-83.3333333333333,4,2,1,85,0,1
214853,-76.9230769230769,4,2,1,85,0,1
215111,-55.5555555555556,4,2,1,5,0,1
215197,-100,4,2,1,85,0,1
215370,-76.9230769230769,4,2,1,85,0,1
216404,-66.6666666666667,4,2,1,85,0,1
216663,-55.5555555555556,4,2,1,5,0,1
216749,-100,4,2,1,85,0,1
216921,-133.333333333333,4,2,1,85,0,1
217094,-133.333333333333,4,2,1,85,0,1
217180,-55.5555555555556,4,2,1,5,0,1
217266,-133.333333333333,4,2,1,85,0,1
217353,-55.5555555555556,4,2,1,5,0,1
217439,-133.333333333333,4,2,1,85,0,1
217525,-55.5555555555556,4,2,1,5,0,1
217611,-133.333333333333,4,2,1,85,0,1
217784,-58.8235294117647,4,2,1,85,0,1
217956,-55.5555555555556,4,2,1,5,0,1
218042,-58.8235294117647,4,2,1,85,0,1
218215,-55.5555555555556,4,2,1,5,0,1
218301,-29.4117647058824,4,2,1,85,0,1
218387,-55.5555555555556,4,2,1,5,0,1
218473,-58.8235294117647,4,2,1,85,0,1
218646,-55.5555555555556,4,2,1,5,0,1
218732,-58.8235294117647,4,2,1,85,0,1
218904,-55.5555555555556,4,2,1,5,0,1
218990,-29.4117647058824,4,2,1,85,0,1
219077,-55.5555555555556,4,2,1,5,0,1
219163,-117.647058823529,4,2,1,85,0,1
220197,-83.3333333333333,4,2,1,85,0,1
220370,-66.6666666666667,4,2,1,85,0,1
220628,-55.5555555555556,4,2,1,5,0,1
220715,-100,4,2,1,85,0,1
220887,-83.3333333333333,4,2,1,85,0,1
221921,-66.6666666666667,4,2,1,85,0,1
222180,-55.5555555555556,4,2,1,5,0,1
222266,-76.9230769230769,4,2,1,85,0,1
222525,-55.5555555555556,4,2,1,5,0,1
222611,-76.9230769230769,4,2,1,85,0,1
222956,-100,4,2,1,85,0,1
223128,-71.4285714285714,4,2,1,85,0,1
223387,-55.5555555555556,4,2,1,5,0,1
223473,-71.4285714285714,4,2,1,85,0,1
226146,-55.5555555555556,4,2,1,5,0,1
226232,-71.4285714285714,4,2,1,85,0,1
228646,-62.5,4,2,1,85,0,1
229508,-125,4,2,1,85,0,1
230197,-58.8235294117647,4,2,1,70,0,0
230456,-58.8235294117647,4,2,1,5,0,0
230542,-83.3333333333333,4,2,1,70,0,0
231232,-133.333333333333,4,2,1,70,0,0
231404,-83.3333333333333,4,2,1,70,0,0
232956,-71.4285714285714,4,2,1,70,0,0
233215,-58.8235294117647,4,2,1,5,0,0
233301,-71.4285714285714,4,2,1,70,0,0
233646,-83.3333333333333,4,2,1,70,0,0
233904,-58.8235294117647,4,2,1,5,0,0
233990,-133.333333333333,4,2,1,70,0,0
234163,-58.8235294117647,4,2,1,70,0,0
234421,-58.8235294117647,4,2,1,5,0,0
234508,-133.333333333333,4,2,1,70,0,0
234680,-83.3333333333333,4,2,1,70,0,0
235715,-71.4285714285714,4,2,1,70,0,0
235973,-58.8235294117647,4,2,1,5,0,0
236059,-83.3333333333333,4,2,1,70,0,0
238990,-71.4285714285714,4,2,1,70,0,0
239249,-58.8235294117647,4,2,1,5,0,0
239335,-133.333333333333,4,2,1,70,0,0
239680,-71.4285714285714,4,2,1,70,0,0
240197,-333.333333333333,4,2,1,70,0,0
240456,-58.8235294117647,4,2,1,5,0,0
240542,-111.111111111111,4,2,1,70,0,0
241232,-111.111111111111,4,1,1,70,0,0
249508,-71.4285714285714,4,2,1,70,0,0
249766,-58.8235294117647,4,2,1,5,0,0
249853,-76.9230769230769,4,2,1,70,0,0
250111,-58.8235294117647,4,2,1,5,0,0
250197,-133.333333333333,4,2,1,70,0,0
250715,-62.5,4,2,1,70,0,0
250973,-58.8235294117647,4,2,1,5,0,0
251059,-133.333333333333,4,2,1,70,0,0

[Colours]
Combo1 : 248,223,124
Combo2 : 192,192,192

[HitObjects]
54,307,887,6,0,L|60:338,1,26.9999991760254,2|0,0:0|0:0,0:0:0:0:
153,384,1232,6,0,B|152:323|237:295|350:325|397:165|250:52|143:177|218:238,1,431.999986816407,2|2,0:0|0:0,0:0:0:0:
205,224,3301,1,2,0:0:0:0:
512,96,3990,6,0,P|324:76|142:24,1,377.999988464356,2|0,0:0|0:0,0:0:0:0:
14,185,5370,6,0,B|32:219|18:264|18:264|32:219|79:205,1,161.999995056153,2|2,0:0|0:0,0:0:0:0:
258,358,6232,2,0,L|212:348,2,36,0|2|0,0:0|0:0|0:0,0:0:0:0:
384,384,6749,6,0,B|365:310|430:277|486:291|486:291|484:320|496:338,1,215.999993408203,2|0,0:0|0:0,0:0:0:0:
400,221,7611,6,0,L|357:212,2,36,2|0|2,0:0|0:0|0:0,0:0:0:0:
281,179,8301,2,0,L|238:187,2,36,2|0|2,0:0|0:0|0:0,0:0:0:0:
162,221,8990,2,0,L|119:212,2,36,2|0|2,0:0|0:0|0:0,0:0:0:0:
357,133,9508,6,0,B|381:105|377:53|367:-18|307:-41|231:-24|203:38|247:118|310:133|381:71|375:71|408:19|460:33|497:71,1,468,2|0,0:0|0:0,0:0:0:0:
449,154,11921,6,0,L|442:122,3,22.5,2|2|2|2,0:0|0:0|0:0|0:0,0:0:0:0:
512,208,12266,5,6,3:2:0:0:
509,220,12352,1,0,0:0:0:0:
506,233,12438,1,0,0:0:0:0:
503,245,12524,1,0,0:0:0:0:
501,258,12610,1,0,3:2:0:0:
498,270,12697,1,0,0:0:0:0:
495,283,12783,1,0,0:0:0:0:
493,296,12869,1,0,0:0:0:0:
490,308,12955,1,0,3:2:0:0:
487,321,13041,1,0,0:0:0:0:
485,333,13128,1,0,0:0:0:0:
482,346,13214,1,0,0:0:0:0:
479,358,13300,1,0,3:2:0:0:
477,371,13386,1,0,0:0:0:0:
474,384,13473,2,0,L|440:376,1,33.7500012874604,8|0,0:2|0:0,0:0:0:0:
327,359,13646,5,2,3:2:0:0:
305,342,13732,1,0,0:0:0:0:
298,315,13818,1,0,0:0:0:0:
309,290,13904,1,0,0:0:0:0:
334,277,13990,1,0,3:2:0:0:
361,283,14077,1,0,0:0:0:0:
375,308,14163,1,2,0:2:0:0:
349,310,14249,1,0,0:0:0:0:
324,312,14335,1,0,3:2:0:0:
298,315,14421,1,0,0:0:0:0:
273,318,14508,2,0,L|239:321,1,33.7500012874604,8|0,0:2|0:0,0:0:0:0:
127,375,14680,5,2,3:2:0:0:
110,371,14766,1,0,0:0:0:0:
93,367,14852,1,0,0:0:0:0:
77,364,14938,1,0,0:0:0:0:
60,360,15025,5,6,3:2:0:0:
81,360,15111,1,0,0:0:0:0:
101,353,15197,1,0,0:0:0:0:
118,339,15283,1,0,0:0:0:0:
129,320,15369,1,10,3:2:0:0:
134,299,15456,1,0,0:0:0:0:
130,278,15542,1,0,0:0:0:0:
120,259,15628,1,0,0:0:0:0:
104,245,15714,1,8,3:2:0:0:
84,237,15800,1,0,0:0:0:0:
62,236,15887,1,2,0:2:0:0:
42,242,15973,1,0,0:0:0:0:
25,256,16059,1,0,3:2:0:0:
13,274,16145,1,0,0:0:0:0:
8,295,16232,2,0,P|22:285|40:263,1,33.7500012874604,8|0,0:2|0:0,0:0:0:0:
136,173,16404,5,0,3:2:0:0:
131,152,16490,1,0,0:0:0:0:
127,131,16576,1,2,0:2:0:0:
122,111,16662,1,0,0:0:0:0:
118,90,16748,1,0,3:2:0:0:
114,69,16835,1,0,0:0:0:0:
109,49,16921,1,0,0:0:0:0:
105,28,17007,1,0,0:0:0:0:
106,16,17093,5,2,3:2:0:0:
106,16,17180,1,0,0:0:0:0:
106,16,17266,2,0,L|43:29,1,33.7500012874604,8|0,0:2|0:0,0:0:0:0:
6,115,17439,2,0,L|68:101,3,33.7500012874604,2|0|0|0,3:2|0:0|0:0|0:0,0:0:0:0:
192,45,17784,5,6,3:2:0:0:
216,50,17870,1,0,0:0:0:0:
241,55,17956,1,0,0:0:0:0:
266,60,18042,1,0,0:0:0:0:
291,66,18128,2,0,L|277:128,3,33.7500012874604,8|0|0|0,3:2|0:0|0:0|0:0,0:0:0:0:
302,196,18473,5,8,3:2:0:0:
322,214,18559,1,0,0:0:0:0:
349,219,18645,1,0,0:0:0:0:
375,208,18731,1,0,0:0:0:0:
390,185,18817,1,0,3:2:0:0:
391,157,18904,1,0,0:0:0:0:
377,133,18990,2,0,L|439:120,1,33.7500012874604,8|0,0:2|0:0,0:0:0:0:
457,30,19163,5,2,3:2:0:0:
429,36,19249,1,0,0:0:0:0:
402,42,19336,1,0,0:0:0:0:
374,48,19422,1,0,0:0:0:0:
347,54,19508,1,8,3:2:0:0:
319,60,19594,1,0,0:0:0:0:
291,66,19680,2,0,L|304:128,1,33.7500012874604,2|0,0:2|0:0,0:0:0:0:
215,159,19853,5,2,3:2:0:0:
152,171,19939,1,2,0:2:0:0:
99,146,20025,1,10,0:2:0:0:
79,93,20111,1,2,0:2:0:0:
92,42,20197,1,2,3:2:0:0:
129,15,20284,1,2,0:2:0:0:
168,11,20370,1,2,0:2:0:0:
193,20,20456,1,2,0:2:0:0:
201,35,20542,6,0,L|187:97,1,49.5000015106202,6|0,3:2|0:0,0:0:0:0:
257,223,20715,1,0,0:0:0:0:
265,206,20801,1,0,0:0:0:0:
262,189,20887,2,0,P|239:167|201:158,1,58.4999973220826,8|0,0:2|0:0,0:0:0:0:
285,328,21059,1,0,1:2:0:0:
295,343,21145,1,0,1:2:0:0:
311,349,21232,2,0,P|341:340|368:311,1,58.4999973220826,8|0,3:2|0:0,0:0:0:0:
180,299,21405,1,0,3:2:0:0:
442,356,21577,2,0,P|449:325|438:287,1,58.4999973220826,8|0,0:0|0:0,0:0:0:0:
379,139,21749,6,0,B|369:162|343:175|343:175|511:139,1,202.500007724762,12|0,3:2|0:0,0:0:0:0:
298,99,22094,2,0,L|235:85,1,45,8|0,3:2|0:0,0:0:0:0:
42,51,22266,1,8,0:0:0:0:
50,58,22784,5,2,0:0:0:0:
50,58,22870,1,2,0:0:0:0:
50,58,22956,2,0,L|60:106,1,40.4999987640381,2|0,0:3|0:0,0:0:0:0:
151,134,23301,6,0,L|117:-22,3,135.000005149842,2|0|0|0,3:2|3:2|3:2|3:2,0:0:0:0:
71,189,24508,1,0,0:0:0:0:
71,189,24680,6,0,P|40:202|23:231,2,67.5000025749208,2|0|0,3:2|0:0|3:2,0:0:0:0:
208,266,25197,2,0,P|177:252|160:223,1,67.5000025749208,2|2,0:0|3:2,0:0:0:0:
278,171,25542,1,2,0:3:0:0:
278,171,25628,1,0,0:0:0:0:
278,171,25715,2,0,P|295:158|321:149,1,33.7500012874604,2|2,3:2|0:0,0:0:0:0:
332,74,25887,5,2,0:3:0:0:
332,74,25973,1,0,0:0:0:0:
332,74,26059,2,0,P|358:82|391:120,1,67.5000025749208,2|0,3:2|0:0,0:0:0:0:
451,212,26404,1,0,3:2:0:0:
451,212,26577,2,0,L|357:192,2,67.5000025749208,0|0|0,0:0|3:2|0:0,0:0:0:0:
306,152,27094,2,0,L|212:172,1,67.5000025749208,0|0,3:2|0:0,0:0:0:0:
14,204,27439,6,0,B|2:164|41:144|41:144|90:143|104:97,2,135.000005149842,2|0|2,3:2|3:2|3:2,0:0:0:0:
38,66,28301,2,0,L|27:14,2,53.9999983520508,2|0|0,0:3|3:2|0:0,0:0:0:0:
91,230,28818,6,0,B|88:255|62:274|62:274|120:232|199:257,2,180,2|0|0,3:2|3:2|3:2,0:0:0:0:
18,207,29680,1,0,0:0:0:0:
18,207,29853,1,0,3:2:0:0:
130,328,30025,1,0,0:0:0:0:
244,204,30197,6,0,B|239:180|250:158|250:158|239:179|213:188,2,90,2|0|0,3:2|0:0|3:2,0:0:0:0:
266,338,30715,2,0,P|302:311|345:301,1,90,2|2,0:0|3:2,0:0:0:0:
437,327,31059,1,2,0:3:0:0:
437,327,31146,1,0,0:0:0:0:
437,327,31232,2,0,L|429:293,1,33.7500012874604,2|2,3:2|0:0,0:0:0:0:
498,223,31404,5,2,0:3:0:0:
498,223,31490,1,0,0:0:0:0:
498,223,31577,2,0,L|512:289,1,67.5000025749208,2|0,3:2|0:0,0:0:0:0:
346,374,31921,2,0,B|301:385|285:357|292:355|267:307|232:329,2,135.000005149842,0|0|0,3:2|3:2|3:2,0:0:0:0:
346,374,32784,1,0,0:0:0:0:
176,262,32956,6,0,B|122:238|100:294|105:295|83:357|33:338,2,180,2|0|0,3:2|3:2|3:2,0:0:0:0:
429,294,33818,1,8,0:0:0:0:
431,238,33904,1,0,1:2:0:0:
405,201,33990,1,8,0:3:0:0:
363,184,34077,1,8,0:3:0:0:
328,190,34163,1,4,0:3:0:0:
306,203,34249,1,4,0:3:0:0:
295,221,34335,6,0,B|362:200|372:134|372:134|348:113|344:89,1,161.999995056153,6|0,3:2|0:0,0:0:0:0:
418,68,34680,2,0,L|480:54,1,33.7500012874604,8|0,0:0|0:0,0:0:0:0:
348,28,34853,1,0,1:0:0:0:
348,28,34939,1,0,1:2:0:0:
348,28,35025,1,0,1:0:0:0:
496,148,35197,2,0,B|513:136|517:104|517:104|501:126|480:133,1,90,2|0,3:2|0:0,0:0:0:0:
295,221,35542,6,0,P|245:186|170:181,1,135,8|0,0:0|0:0,0:0:0:0:
130,119,35887,2,0,P|111:131|101:149,1,33.7500012874604,0|0,3:2|0:0,0:0:0:0:
33,213,36059,2,0,L|13:119,2,90,8|0|2,0:0|0:0|3:2,0:0:0:0:
182,291,36577,1,2,3:2:0:0:
112,240,36749,2,0,L|97:306,1,67.5000025749208,10|2,0:0|0:0,0:0:0:0:
284,384,37094,6,0,B|306:325|382:325|382:325|396:346|423:353,1,161.999995056153,4|0,3:2|0:0,0:0:0:0:
449,282,37439,2,0,L|456:248,1,33.7500012874604,8|0,0:0|0:0,0:0:0:0:
496,355,37611,1,0,1:0:0:0:
496,355,37697,1,0,1:2:0:0:
496,355,37784,1,0,1:2:0:0:
370,247,37956,2,0,L|384:180,1,67.5000025749208,2|0,3:2|0:0,0:0:0:0:
195,336,38301,6,0,L|208:398,3,33.7500012874604,8|0|0|0,0:0|1:2|1:0|1:2,0:0:0:0:
284,384,38646,6,0,L|277:351,1,33.7500012874604,0|0,3:2|0:0,0:0:0:0:
160,256,38818,2,0,P|117:286|70:302,1,90,8|0,0:0|1:2,0:0:0:0:
82,299,39077,1,0,1:2:0:0:
82,299,39163,1,2,3:2:0:0:
5,194,39335,5,0,1:2:0:0:
16,194,39421,1,0,1:2:0:0:
24,199,39508,1,8,0:0:0:0:
60,177,39594,1,8,0:0:0:0:
73,133,39680,1,8,0:0:0:0:
58,88,39766,1,8,0:0:0:0:
17,73,39853,6,0,L|175:39,1,161.999995056153,6|0,3:2|0:0,0:0:0:0:
246,0,40197,2,0,L|279:7,1,33.7500012874604,8|0,0:0|0:0,0:0:0:0:
281,88,40370,1,0,1:2:0:0:
281,88,40456,1,0,1:2:0:0:
281,88,40542,2,0,L|247:80,1,33.7500012874604,2|0,0:0|0:0,0:0:0:0:
424,24,40715,1,2,3:2:0:0:
424,24,41059,6,0,L|384:211,1,161.999995056153,10|0,0:0|0:0,0:0:0:0:
461,225,41404,2,0,L|468:191,1,33.7500012874604,2|0,3:2|0:0,0:0:0:0:
301,258,41577,1,8,0:0:0:0:
488,326,41749,1,0,1:2:0:0:
488,326,41835,1,0,1:2:0:0:
488,326,41921,2,0,B|519:307|519:280|519:280|504:296|488:302,1,90,2|2,3:2|0:3,0:0:0:0:
339,340,42266,5,8,0:0:0:0:
341,351,42352,1,0,1:2:0:0:
343,362,42438,1,0,1:2:0:0:
346,373,42524,1,0,1:2:0:0:
348,384,42611,6,0,B|324:338|373:308|373:308|422:297|420:251,1,161.999995056153,2|0,3:2|0:0,0:0:0:0:
390,182,42956,2,0,L|356:189,1,33.7500012874604,10|0,0:0|0:0,0:0:0:0:
189,230,43128,1,0,1:0:0:0:
189,230,43215,1,0,1:2:0:0:
189,230,43301,1,0,3:2:0:0:
274,124,43473,6,0,L|266:157,1,33.7500012874604,2|0,3:2|0:0,0:0:0:0:
191,74,43646,1,0,0:0:0:0:
365,73,43818,6,0,L|357:39,1,33.7500012874604,10|0,0:0|0:0,0:0:0:0:
398,189,45197,5,0,3:2:0:0:
398,189,45284,1,0,3:2:0:0:
398,189,45370,1,6,3:2:0:0:
152,259,45542,1,2,3:2:0:0:
284,36,45715,1,2,3:2:0:0:
394,332,45887,1,10,0:0:0:0:
226,298,46059,6,0,L|233:264,1,33.7500012874604,0|0,3:2|0:0,0:0:0:0:
295,343,46232,2,0,L|302:309,1,33.7500012874604,0|0,3:2|0:0,0:0:0:0:
65,327,46404,5,6,3:2:0:0:
308,227,46577,1,2,3:2:0:0:
47,88,46749,1,2,3:2:0:0:
157,384,46921,1,10,0:0:0:0:
247,151,47094,6,0,L|239:184,1,33.7500012874604,0|0,3:2|0:0,0:0:0:0:
176,105,47266,2,0,L|168:138,1,33.7500012874604,0|0,3:2|0:0,0:0:0:0:
40,245,47439,6,0,L|165:218,1,125.999996154785,10|2,0:0|3:2,0:0:0:0:
341,234,47784,2,0,L|307:226,1,33.7500012874604,10|0,0:0|0:0,0:0:0:0:
418,169,47956,2,0,L|384:161,1,33.7500012874604,2|0,3:2|0:0,0:0:0:0:
320,96,48128,5,6,3:2:0:0:
384,320,48301,1,2,3:2:0:0:
501,129,48473,1,2,3:2:0:0:
163,218,48646,1,10,0:0:0:0:
301,260,48818,6,0,L|308:226,1,33.7500012874604,0|0,3:2|0:0,0:0:0:0:
214,317,48990,2,0,L|221:283,1,33.7500012874604,0|0,3:2|0:0,0:0:0:0:
176,105,49163,5,6,3:2:0:0:
112,329,49336,1,2,3:2:0:0:
71,153,49508,1,2,3:2:0:0:
71,153,49594,1,0,0:0:0:0:
71,153,49680,2,0,L|133:139,1,33.7500012874604,10|0,0:0|0:0,0:0:0:0:
320,96,49853,6,0,L|312:62,1,33.7500012874604,0|0,3:2|0:0,0:0:0:0:
407,153,50025,2,0,L|399:119,1,33.7500012874604,0|0,3:2|0:0,0:0:0:0:
251,4,50197,5,10,0:0:0:0:
197,36,50284,1,2,0:0:0:0:
187,94,50370,1,2,3:2:0:0:
211,141,50456,1,2,0:0:0:0:
248,155,50542,1,10,0:0:0:0:
272,167,50628,1,2,0:0:0:0:
276,181,50715,1,2,3:2:0:0:
267,191,50801,1,2,0:0:0:0:
256,192,50887,6,0,B|290:118|375:126|375:126|391:151|432:162,1,188.999994232178,6|0,3:2|0:0,0:0:0:0:
374,223,51232,2,0,P|355:216|340:203,1,33.7500012874604,8|0,0:0|0:0,0:0:0:0:
187,94,51404,2,0,P|148:68|97:54,1,90,2|0,0:3|3:2,0:0:0:0:
370,38,51749,2,0,P|325:42|283:59,1,90,2|8,0:3|0:0,0:0:0:0:
288,53,52008,1,0,0:0:0:0:
293,47,52094,1,2,0:3:0:0:
496,37,52266,6,0,L|456:224,2,180,0|8|0,3:2|0:0|3:2,0:0:0:0:
344,207,53128,1,2,0:3:0:0:
443,371,53301,1,10,0:0:0:0:
443,371,53387,1,2,0:0:0:0:
443,371,53473,1,2,0:3:0:0:
275,322,53646,6,0,L|389:297,1,116.999994644165,4|0,3:2|0:0,0:0:0:0:
220,195,53990,2,0,B|171:167|128:203|128:203|106:248|55:246,1,175.499991966248,8|0,0:0|0:0,0:0:0:0:
34,170,54335,2,0,B|26:157|3:148|3:148|45:145|60:183,1,99.0000030212403,0|2,3:2|0:3,0:0:0:0:
187,273,54680,5,8,0:0:0:0:
187,273,54766,1,2,0:0:0:0:
187,273,54853,2,0,L|167:366,1,90,2|0,0:3|3:2,0:0:0:0:
69,245,55197,1,2,0:3:0:0:
333,213,55370,2,0,B|329:171|291:158|291:158|310:185|306:210,1,116.999994644165,8|0,0:0|3:2,0:0:0:0:
363,291,55628,1,0,1:0:0:0:
363,291,55715,2,0,P|385:280|400:260,1,45,0|0,1:0|0:0,0:0:0:0:
491,151,55887,6,0,L|481:105,1,40.4999987640381,2|0,3:2|0:0,0:0:0:0:
504,154,56232,6,0,L|496:115,1,40.4999987640381,0|0,1:0|0:0,0:0:0:0:
402,64,56404,6,0,P|323:22|234:24,1,180,6|0,3:2|3:2,0:0:0:0:
86,117,56921,1,0,0:0:0:0:
173,199,57094,2,0,B|195:94|195:94|176:82|167:64,1,135.000005149842,8|0,0:0|3:2,0:0:0:0:
0,199,57611,2,0,L|13:261,1,33.7500012874604,0|0,1:0|0:0,0:0:0:0:
102,268,57784,2,0,L|82:174,2,67.5000025749208,0|8|0,3:2|0:0|3:2,0:0:0:0:
35,379,58301,1,0,0:0:0:0:
224,299,58473,2,0,L|190:291,1,33.7500012874604,8|0,0:0|0:0,0:0:0:0:
126,360,58646,2,0,L|192:374,2,67.5000025749208,0|0|0,3:2|0:0|3:2,0:0:0:0:
448,192,59163,5,6,3:2:0:0:
448,192,59508,5,8,3:2:0:0:
384,352,59680,1,8,3:2:0:0:
257,57,59853,5,8,3:2:0:0:
338,251,60025,1,8,3:2:0:0:
8,173,60197,5,8,3:2:0:0:
235,211,60370,1,10,3:2:0:0:
235,211,60715,6,0,L|172:224,1,58.4999973220826,2|8,3:2|3:3,0:0:0:0:
422,27,60887,1,10,0:0:0:0:
422,27,61577,5,2,0:0:0:0:
461,15,61663,1,2,0:0:0:0:
499,32,61749,1,2,0:0:0:0:
512,78,61835,1,2,0:0:0:0:
485,113,61921,6,0,L|265:66,1,202.500007724762,6|0,3:2|0:0,0:0:0:0:
206,55,62266,2,0,L|220:127,1,45,8|0,0:0|0:0,0:0:0:0:
303,291,62439,2,0,L|329:165,1,107.999996704102,0|2,0:0|3:3,0:0:0:0:
184,373,62784,1,0,3:2:0:0:
434,292,62956,1,8,0:0:0:0:
235,211,63128,6,0,B|172:162|92:208|92:208|72:266|14:266,1,233.999989288331,6|0,3:2|3:2,0:0:0:0:
184,373,63646,2,0,L|157:247,1,107.999996704102,8|0,0:0|1:2,0:0:0:0:
161,267,63904,1,0,1:2:0:0:
161,267,63990,1,2,3:3:0:0:
405,136,64163,1,0,0:0:0:0:
354,384,64335,1,8,0:0:0:0:
235,211,64508,1,0,0:0:0:0:
512,90,64680,6,0,L|472:277,1,175.499991966248,6|0,3:2|0:0,0:0:0:0:
374,281,65025,2,0,L|387:218,1,45,8|0,0:0|0:0,0:0:0:0:
425,47,65197,1,0,1:2:0:0:
425,47,65284,1,0,1:2:0:0:
425,47,65370,1,2,3:3:0:0:
256,128,65542,2,0,L|318:114,1,45,0|0,3:2|0:0,0:0:0:0:
315,25,65715,2,0,L|252:38,1,45,8|0,0:0|0:0,0:0:0:0:
72,73,65887,6,0,B|90:-25|196:-19|196:-19|170:12|179:49,1,233.999989288331,6|0,3:2|3:2,0:0:0:0:
106,221,66404,2,0,L|0:198,1,107.999996704102,8|0,0:0|1:2,0:0:0:0:
0,198,66663,1,0,1:2:0:0:
0,198,66749,1,0,3:2:0:0:
167,124,66921,1,0,3:2:0:0:
70,365,67094,1,8,0:0:0:0:
300,304,67266,5,2,0:0:0:0:
300,304,67353,1,2,0:0:0:0:
300,304,67439,2,0,B|253:241|182:260|182:260|164:291|130:302,1,188.999994232178,6|0,3:2|0:0,0:0:0:0:
176,371,67784,2,0,P|196:359|217:335,1,45,8|0,0:0|0:0,0:0:0:0:
344,215,67956,2,0,B|362:216|393:186|393:186|365:218|367:243,1,116.999994644165,0|2,0:0|3:3,0:0:0:0:
106,221,68301,1,0,3:2:0:0:
397,3,68473,2,0,L|406:47,1,45,8|0,0:0|0:0,0:0:0:0:
442,246,68646,5,6,3:2:0:0:
442,246,68990,5,0,3:2:0:0:
167,124,69163,2,0,B|177:64|142:15|142:15|177:64|248:66,1,229.500004377365,10|0,0:0|0:0,0:0:0:0:
312,96,69508,2,0,L|318:64,1,18,4|0,3:2|0:0,0:0:0:0:
478,18,69680,1,0,3:2:0:0:
244,146,69853,6,0,L|262:231,1,67.5,8|0,0:0|0:0,0:0:0:0:
265,335,70197,6,0,B|262:363|240:376|240:376|306:331|382:313|382:313|399:333|432:337,1,242.999992584229,6|0,3:2|0:0,0:0:0:0:
193,312,70542,2,0,L|130:298,1,45,10|0,0:0|0:0,0:0:0:0:
442,246,70715,2,0,L|435:277,1,18,2|0,0:0|0:0,0:0:0:0:
494,150,70887,2,0,L|498:181,1,18,2|0,3:3|0:0,0:0:0:0:
504,42,71059,2,0,L|518:70,1,18,2|0,3:2|0:0,0:0:0:0:
408,24,71232,2,0,L|427:61,1,33.7500012874604,8|0,0:0|0:0,0:0:0:0:
314,8,71404,1,2,3:2:0:0:
384,160,71577,6,0,L|339:150,1,45,14|0,0:0|0:0,0:0:0:0:
89,104,71749,1,8,0:3:0:0:
78,102,71835,1,4,0:3:0:0:
67,100,71921,1,0,3:2:0:0:
257,87,72094,2,0,B|273:118|255:165|203:170|202:167|201:165|170:143|105:171|108:213,1,229.500004377365,14|0,0:0|0:0,0:0:0:0:
121,288,72439,5,10,3:2:0:0:
158,313,72525,1,10,0:0:0:0:
201,301,72611,1,10,0:0:0:0:
221,273,72697,1,10,0:0:0:0:
212,247,72784,1,10,0:0:0:0:
193,244,72870,1,10,0:0:0:0:
181,253,72956,6,0,L|431:306,1,229.500004377365,6|0,3:2|0:0,0:0:0:0:
488,316,73301,2,0,L|474:253,1,45,8|0,0:0|0:0,0:0:0:0:
362,44,73473,2,0,L|335:169,1,107.999996704102,0|2,0:0|3:2,0:0:0:0:
472,119,73818,1,0,3:2:0:0:
248,3,73990,1,8,0:0:0:0:
298,289,74163,6,0,B|404:278|416:189|416:189|398:223|357:234,1,233.999989288331,4|0,3:2|3:2,0:0:0:0:
181,253,74680,2,0,L|203:358,1,107.999996704102,8|0,0:0|0:0,0:0:0:0:
203,358,74939,1,0,1:0:0:0:
203,358,75025,1,0,3:2:0:0:
285,211,75197,1,0,3:2:0:0:
29,158,75370,1,8,0:0:0:0:
80,379,75542,1,0,0:0:0:0:
216,123,75715,6,0,B|80:94|80:94|104:113|107:127,1,175.499991966248,6|0,3:2|0:0,0:0:0:0:
285,211,76059,2,0,L|347:197,1,45,8|0,0:0|0:0,0:0:0:0:
461,181,76232,5,2,0:0:0:0:
461,181,76318,1,2,0:0:0:0:
461,181,76404,2,0,P|445:173|433:162,1,33.7500012874604,2|0,3:2|0:0,0:0:0:0:
390,94,76577,2,0,P|404:84|420:79,1,33.7500012874604,2|0,3:2|0:0,0:0:0:0:
501,75,76749,2,0,P|502:91|498:108,1,33.7500012874604,10|0,0:0|0:0,0:0:0:0:
288,66,76921,5,0,3:2:0:0:
288,66,77008,1,0,3:2:0:0:
288,66,77094,2,0,B|262:18|202:20|202:20|189:36|173:44,1,135.000005149842,6|0,3:2|0:0,0:0:0:0:
139,205,77353,2,0,B|193:206|221:153|221:153|214:134|215:116,1,135.000005149842,2|0,3:2|0:0,0:0:0:0:
97,62,77611,2,0,P|107:94|134:115,1,67.5000025749208,2|0,3:2|0:0,0:0:0:0:
329,201,77784,6,0,B|384:185|387:128|387:128|380:155|363:168,1,135.000005149842,12|0,0:0|0:0,0:0:0:0:
278,324,78042,2,0,B|319:364|369:338|369:338|342:345|323:337,1,135.000005149842,2|0,3:2|0:0,0:0:0:0:
200,227,78301,2,0,P|170:208|132:205,1,67.5000025749208,2|0,3:2|0:0,0:0:0:0:
49,373,78473,6,0,L|299:319,2,233.999989288331,6|8|2,3:2|0:0|3:3,0:0:0:0:
138,204,79335,1,0,3:2:0:0:
39,125,79508,2,0,L|52:187,1,58.4999973220826,8|0,0:0|0:0,0:0:0:0:
94,9,79680,2,0,L|120:134,1,116.999994644165,6|0,3:2|0:0,0:0:0:0:
374,204,80025,1,0,3:2:0:0:
473,125,80198,2,0,L|459:187,1,58.4999973220826,8|0,0:0|0:0,0:0:0:0:
418,9,80370,2,0,L|404:71,1,58.4999973220826,0|0,1:2|1:2,0:0:0:0:
254,158,80542,5,2,3:2:0:0:
205,133,80628,1,2,0:0:0:0:
190,88,80715,1,2,3:2:0:0:
205,44,80801,1,2,0:0:0:0:
240,19,80887,1,10,0:0:0:0:
277,21,80973,1,2,0:0:0:0:
299,34,81059,1,2,0:0:0:0:
306,50,81146,1,2,0:0:0:0:
304,65,81232,6,0,L|116:25,1,175.499991966248,6|0,3:2|0:0,0:0:0:0:
27,1,81577,2,0,L|53:126,1,116.999994644165,8|0,0:0|0:0,0:0:0:0:
33,348,81921,1,2,3:3:0:0:
251,263,82094,1,0,3:2:0:0:
0,185,82266,1,8,0:0:0:0:
141,379,82439,6,0,L|177:207,1,175.499991966248,6|0,3:2|0:0,0:0:0:0:
97,174,82784,2,0,L|83:236,1,45,0|0,3:2|0:0,0:0:0:0:
284,367,82956,6,0,B|325:297|415:306|415:306|430:329|462:337,1,202.500007724762,8|0,0:0|0:0,0:0:0:0:
482,260,83301,2,0,L|495:197,1,33.7500012874604,2|2,3:2|0:0,0:0:0:0:
378,384,83473,1,10,0:0:0:0:
278,227,83646,1,10,0:0:0:0:
303,185,83732,1,10,0:0:0:0:
346,179,83818,1,10,0:0:0:0:
380,198,83904,1,10,0:0:0:0:
386,232,83990,6,0,B|342:181|392:131|392:131|458:119|463:63,1,202.500007724762,6|0,3:2|0:0,0:0:0:0:
389,30,84335,2,0,B|367:26|350:9|350:9|350:48|401:53,1,107.999996704102,8|0,0:0|0:0,0:0:0:0:
489,226,84680,1,2,3:2:0:0:
310,99,84853,1,0,3:2:0:0:
283,337,85025,2,0,L|345:323,1,33.7500012874604,8|0,0:0|0:0,0:0:0:0:
386,232,85197,6,0,L|166:278,1,215.999993408203,6|0,3:2|3:2,0:0:0:0:
213,79,85715,2,0,B|219:41|259:33|259:33|239:52|238:65,1,107.999996704102,8|0,0:0|0:0,0:0:0:0:
238,64,85973,1,0,1:2:0:0:
238,64,86059,1,2,3:2:0:0:
51,8,86232,1,0,3:2:0:0:
106,174,86404,2,0,L|125:80,1,90,8|0,0:0|0:0,0:0:0:0:
72,253,86749,6,0,B|59:286|82:315|129:314|131:310|131:306|182:285|215:319|201:355,1,202.500007724762,6|0,3:2|0:0,0:0:0:0:
110,373,87094,2,0,B|86:355|89:322|124:300|127:302|130:305|178:296|186:255|163:238,1,175.499991966248,8|0,0:0|0:0,0:0:0:0:
106,174,87439,1,0,3:2:0:0:
314,274,87611,1,0,3:2:0:0:
238,64,87784,2,0,L|230:97,1,33.7500012874604,8|0,0:0|0:0,0:0:0:0:
416,75,87956,6,0,B|397:-27|287:1|287:1|316:24|316:51,1,233.999989288331,6|0,3:2|3:2,0:0:0:0:
453,226,88473,2,0,P|475:187|512:162,1,90,10|0,0:0|1:2,0:0:0:0:
391,359,88818,1,2,3:2:0:0:
276,175,88990,2,0,L|262:237,1,33.7500012874604,10|8,3:2|0:0,0:0:0:0:
77,320,89163,1,8,0:0:0:0:
63,312,89249,1,8,0:0:0:0:
58,299,89335,1,8,0:0:0:0:
60,286,89421,1,8,0:0:0:0:
71,278,89508,6,0,B|205:249|205:249|220:271|246:280,1,175.499991966248,6|0,3:2|0:0,0:0:0:0:
276,175,89853,2,0,L|236:362,1,175.499991966248,8|0,0:0|0:0,0:0:0:0:
161,383,90197,1,0,3:2:0:0:
371,254,90370,1,0,3:2:0:0:
195,106,90542,2,0,L|208:168,1,33.7500012874604,8|0,0:0|0:0,0:0:0:0:
84,28,90715,6,0,L|130:247,1,215.999993408203,6|0,3:2|3:2,0:0:0:0:
298,73,91232,2,0,B|287:35|239:33|239:33|263:47|270:74,1,107.999996704102,8|0,0:0|0:0,0:0:0:0:
276,175,91577,1,0,3:2:0:0:
499,133,91749,1,0,3:2:0:0:
408,6,91921,2,0,L|381:131,1,107.999996704102,8|0,0:0|3:2,0:0:0:0:
385,111,92180,1,0,3:2:0:0:
385,111,92266,5,6,3:2:0:0:
161,27,92439,1,0,3:2:0:0:
213,321,92611,1,0,3:2:0:0:
44,252,92784,5,14,0:0:0:0:
192,213,92956,1,0,3:2:0:0:
340,174,93128,1,0,3:2:0:0:
312,305,93301,2,0,L|298:242,1,53.9999983520508,8|0,0:0|0:0,0:0:0:0:
443,302,93473,6,0,B|433:355|382:360|382:360|398:338|397:309,1,135.000005149842,6|0,3:2|0:0,0:0:0:0:
396,122,93818,5,0,3:2:0:0:
396,122,93904,1,0,3:2:0:0:
396,122,93990,2,0,P|408:105|425:96,1,40.4999987640381,8|0,0:0|0:0,0:0:0:0:
425,96,94335,6,0,L|362:82,1,53.9999983520508,10|0,3:2|0:0,0:0:0:0:
78,24,94508,1,10,3:2:0:0:
78,24,95025,5,2,0:0:0:0:
254,208,96404,6,0,L|261:172,2,36,2|2|2,0:0|0:0|0:0,0:0:0:0:
254,208,98473,1,0,0:0:0:0:
254,208,99163,6,0,L|266:265,2,54,2|2|2,0:0|0:0|0:0,0:0:0:0:
254,208,100542,1,2,0:0:0:0:
254,208,101232,1,2,0:0:0:0:
254,208,101921,6,0,L|261:172,2,36,2|2|2,0:0|0:0|0:0,0:0:0:0:
254,208,104508,6,0,L|258:184,1,18,2|0,0:0|0:0,0:0:0:0:
86,31,105542,5,0,3:2:0:0:
86,31,105628,1,0,3:2:0:0:
86,31,105715,2,0,L|100:97,1,54,8|0,0:0|0:0,0:0:0:0:
133,255,106059,6,0,B|160:125|160:125|143:147|125:155,1,175.499991966248,6|0,3:2|0:0,0:0:0:0:
52,146,106404,1,8,0:0:0:0:
254,208,106577,2,0,P|291:183|335:174,1,90,0|0,0:0|3:2,0:0:0:0:
454,203,106921,1,0,3:2:0:0:
299,84,107094,1,8,0:0:0:0:
494,39,107266,1,0,3:2:0:0:
494,39,107611,5,0,3:2:0:0:
407,133,107784,2,0,L|384:27,2,90,8|0|0,0:0|0:0|3:2,0:0:0:0:
254,208,108301,1,0,3:2:0:0:
445,247,108473,2,0,L|454:203,1,45,8|0,0:0|0:0,0:0:0:0:
335,174,108646,1,0,0:0:0:0:
278,347,108818,6,0,B|302:287|375:285|375:285|389:316|430:327,1,175.499991966248,6|0,3:2|0:0,0:0:0:0:
488,316,109163,1,8,0:0:0:0:
200,384,109335,2,0,P|169:348|127:330,1,90,0|0,0:0|3:2,0:0:0:0:
0,302,109680,1,0,3:2:0:0:
189,240,109853,1,8,0:0:0:0:
23,161,110025,1,2,3:2:0:0:
23,161,110370,5,2,3:2:0:0:
85,265,110542,2,0,L|106:163,2,90,8|2|0,0:0|0:0|3:2,0:0:0:0:
83,99,111059,1,0,3:2:0:0:
183,157,111232,2,0,L|174:117,1,33.7500012874604,8|0,0:0|0:0,0:0:0:0:
153,0,111404,1,0,0:0:0:0:
313,137,111577,6,0,B|360:164|409:120|409:120|432:59|497:72,2,198.000006042481,6|8|0,3:2|0:0|3:2,0:0:0:0:
488,151,112439,1,0,3:2:0:0:
344,66,112611,1,8,0:0:0:0:
354,282,112784,6,0,B|411:290|436:327|436:327|432:280|494:228,1,198.000006042481,2|0,3:2|3:2,0:0:0:0:
313,137,113301,1,8,0:0:0:0:
253,283,113473,5,2,0:0:0:0:
253,283,113559,1,2,0:0:0:0:
253,283,113646,2,0,L|258:310,1,22.5,2|0,3:2|0:0,0:0:0:0:
173,341,113818,2,0,L|152:359,1,22.5,2|0,3:2|0:0,0:0:0:0:
82,300,113990,2,0,L|55:291,1,22.5,10|0,0:0|0:0,0:0:0:0:
72,200,114163,2,0,L|66:172,1,22.5,2|0,0:0|0:0,0:0:0:0:
136,95,114335,6,0,L|170:259,1,161.999995056153,6|0,3:2|0:0,0:0:0:0:
253,283,114680,2,0,B|290:261|276:217|276:217|271:245|261:252,1,107.999996704102,10|2,0:0|0:0,0:0:0:0:
334,363,115025,1,0,3:2:0:0:
512,292,115197,1,2,3:2:0:0:
362,213,115370,1,8,0:0:0:0:
417,369,115542,6,0,L|463:149,1,215.999993408203,6|0,3:2|3:2,0:0:0:0:
253,283,116059,2,0,P|216:260|168:253,1,90,8|0,0:0|0:0,0:0:0:0:
16,273,116404,1,8,0:0:0:0:
62,247,116490,1,8,0:0:0:0:
81,196,116577,1,8,0:0:0:0:
67,143,116663,1,8,0:0:0:0:
22,110,116749,2,0,L|61:101,1,22.5,8|8,0:3|0:3,0:0:0:0:
136,85,116921,2,0,L|175:76,1,22.5,4|4,0:3|0:3,0:0:0:0:
250,60,117094,5,14,3:2:0:0:
170,253,117266,1,2,3:2:0:0:
184,0,117439,1,2,3:2:0:0:
352,255,117611,1,10,0:0:0:0:
440,194,117784,6,0,L|400:185,1,22.5,0|0,3:2|0:0,0:0:0:0:
326,169,117956,2,0,L|286:160,1,22.5,0|0,3:2|0:0,0:0:0:0:
217,145,118128,5,14,3:2:0:0:
303,345,118301,1,2,3:2:0:0:
283,85,118474,1,2,3:2:0:0:
118,348,118646,1,10,0:0:0:0:
34,283,118818,6,0,L|73:274,1,22.5,0|0,3:2|0:0,0:0:0:0:
148,258,118990,2,0,L|187:249,1,22.5,0|0,3:2|0:0,0:0:0:0:
440,194,119163,6,0,L|411:327,1,125.999996154785,10|2,0:0|3:2,0:0:0:0:
283,85,119508,2,0,L|273:41,1,33.7500012874604,10|0,0:0|0:0,0:0:0:0:
353,0,119680,2,0,L|362:43,1,33.7500012874604,2|0,3:2|0:0,0:0:0:0:
331,170,119853,5,14,3:2:0:0:
89,116,120025,1,2,3:2:0:0:
128,360,120197,1,2,3:2:0:0:
283,85,120370,1,10,0:0:0:0:
102,237,120542,6,0,L|95:204,1,33.7500012874604,0|0,3:2|0:0,0:0:0:0:
172,152,120715,2,0,L|179:185,1,33.7500012874604,0|0,3:2|0:0,0:0:0:0:
276,384,120887,5,14,3:2:0:0:
326,169,121059,1,2,3:2:0:0:
468,328,121232,5,2,3:2:0:0:
468,328,121318,1,0,3:2:0:0:
468,328,121404,2,0,L|432:320,1,33.7500012874604,10|0,0:0|0:0,0:0:0:0:
274,249,121577,6,0,L|267:282,1,33.7500012874604,0|0,3:2|0:0,0:0:0:0:
344,334,121749,2,0,L|351:301,1,33.7500012874604,0|0,3:2|0:0,0:0:0:0:
466,158,121921,5,10,0:0:0:0:
489,150,122007,1,2,0:0:0:0:
509,165,122093,1,10,3:2:0:0:
510,189,122179,1,10,0:0:0:0:
492,205,122267,1,10,0:0:0:0:
450,196,122353,1,10,0:0:0:0:
409,187,122439,1,10,3:2:0:0:
368,178,122525,1,10,0:0:0:0:
326,168,122611,6,0,P|302:235|381:215,1,175.499991966248,6|0,3:2|0:0,0:0:0:0:
409,107,122956,2,0,L|354:93,1,33.7500012874604,8|0,0:0|0:0,0:0:0:0:
206,72,123128,2,0,P|247:49|267:7,1,90,2|0,0:3|3:2,0:0:0:0:
164,232,123473,2,0,P|123:209|103:167,1,90,2|8,0:3|0:0,0:0:0:0:
110,166,123732,1,2,0:0:0:0:
116,160,123818,1,2,0:3:0:0:
218,376,123990,6,0,P|142:327|54:311,2,180,0|8|0,3:2|0:0|3:2,0:0:0:0:
449,337,124853,1,2,0:3:0:0:
252,224,125025,1,10,0:0:0:0:
252,224,125111,1,2,0:0:0:0:
252,224,125197,1,2,0:3:0:0:
332,384,125370,6,0,L|357:262,1,116.999994644165,4|0,3:2|0:0,0:0:0:0:
461,139,125715,2,0,B|520:159|498:240|431:224|431:224|415:201|400:200,1,175.499991966248,8|0,0:0|0:0,0:0:0:0:
375,102,126059,2,0,B|389:63|429:63|429:63|399:74|393:99,1,116.999994644165,0|2,3:2|0:3,0:0:0:0:
252,224,126404,5,10,0:0:0:0:
252,224,126490,1,2,0:0:0:0:
252,224,126577,2,0,P|212:202|169:190,1,90,2|0,0:3|3:2,0:0:0:0:
8,182,126921,1,2,0:3:0:0:
89,38,127094,2,0,L|108:127,1,90,8|0,0:0|3:2,0:0:0:0:
70,339,127439,2,0,L|23:329,1,45,0|0,1:0|0:0,0:0:0:0:
169,190,127611,1,2,3:2:0:0:
201,287,127784,6,0,L|91:263,1,101.250003862381,0|0,1:2|0:0,0:0:0:0:
228,384,128128,2,0,B|256:323|339:318|339:318|355:346|390:350,1,180,6|0,3:2|3:2,0:0:0:0:
505,253,128646,1,0,0:0:0:0:
435,183,128818,2,0,B|413:280|413:280|435:293|444:314,1,135.000005149842,8|0,0:0|3:2,0:0:0:0:
512,146,129335,2,0,L|503:106,1,33.7500012874604,0|0,1:0|0:0,0:0:0:0:
483,7,129508,5,0,3:2:0:0:
353,106,129680,2,0,L|423:91,2,67.5000025749208,8|0|0,0:0|3:2|0:0,0:0:0:0:
258,38,130197,2,0,L|359:16,1,90,8|0,0:0|3:2,0:0:0:0:
222,172,130542,1,8,0:0:0:0:
93,53,130715,5,0,3:2:0:0:
95,46,130772,5,0,1:2:0:0:
97,39,130830,5,0,1:2:0:0:
99,32,130887,6,0,B|107:63|107:63|30:139|30:139|46:174,1,175.499991966248,6|0,3:2|0:0,0:0:0:0:
131,208,131232,2,0,B|138:177|138:177|121:154|121:154|125:182|111:202,1,90,8|0,0:0|0:0,0:0:0:0:
33,370,131577,1,0,3:2:0:0:
279,271,131749,1,0,3:2:0:0:
64,245,131921,2,0,L|71:278,1,33.7500012874604,8|0,0:0|0:0,0:0:0:0:
178,384,132094,6,0,L|226:157,1,215.999993408203,6|0,3:2|3:2,0:0:0:0:
396,170,132611,1,10,0:2:0:0:
403,176,132697,1,2,0:0:0:0:
418,180,132784,1,2,0:0:0:0:
434,176,132870,1,2,0:0:0:0:
446,160,132956,2,0,P|426:141|404:132,1,45,8|0,0:0|0:0,0:0:0:0:
287,51,133128,2,0,P|260:58|241:73,1,45,0|0,3:2|0:0,0:0:0:0:
64,245,133301,5,8,0:0:0:0:
19,220,133387,1,8,0:0:0:0:
0,175,133473,1,8,0:0:0:0:
7,127,133559,1,8,0:0:0:0:
43,94,133646,6,0,B|99:41|170:90|170:90|185:137|223:140,1,202.500007724762,6|0,3:2|0:0,0:0:0:0:
290,138,133990,2,0,L|280:184,1,45,8|0,0:0|0:0,0:0:0:0:
373,378,134163,2,0,B|408:365|412:318|412:318|391:342|367:344,1,107.999996704102,0|2,0:0|3:3,0:0:0:0:
202,272,134508,2,0,B|165:238|165:238|143:243,1,67.5000025749208,0|0,3:2|0:0,0:0:0:0:
42,338,134680,1,8,0:0:0:0:
345,275,134853,6,0,L|116:323,1,233.999989288331,6|0,3:2|3:2,0:0:0:0:
407,180,135370,2,0,L|524:204,1,107.999996704102,8|0,0:0|1:2,0:0:0:0:
512,202,135628,1,0,1:2:0:0:
512,202,135715,1,2,3:3:0:0:
385,84,135887,1,0,3:2:0:0:
345,275,136059,1,8,0:0:0:0:
512,108,136232,1,0,0:0:0:0:
212,22,136404,6,0,B|197:52|196:92|250:111|250:111|297:106|318:147,1,188.999994232178,6|0,3:2|0:0,0:0:0:0:
247,220,136749,2,0,L|256:173,1,33.7500012874604,8|0,0:0|0:0,0:0:0:0:
299,34,136921,1,0,1:2:0:0:
299,34,137008,1,0,1:2:0:0:
299,34,137094,1,2,3:3:0:0:
49,117,137266,2,0,P|26:112|7:102,1,45,0|0,3:2|0:0,0:0:0:0:
43,11,137439,2,0,P|65:15|84:25,1,45,8|0,0:0|0:0,0:0:0:0:
170,217,137611,6,0,B|165:235|171:256|171:256|79:266|77:193|77:193|113:179|125:138,1,233.999989288331,6|0,3:2|3:2,0:0:0:0:
397,153,138128,2,0,P|443:125|496:118,1,107.999996704102,8|0,0:0|1:2,0:0:0:0:
496,118,138387,1,0,1:2:0:0:
496,118,138473,1,0,3:2:0:0:
299,34,138646,1,0,3:2:0:0:
397,267,138818,1,8,0:0:0:0:
129,158,138990,5,2,0:0:0:0:
129,158,139077,1,2,0:0:0:0:
129,158,139163,2,0,B|146:77|231:83|231:83|247:106|280:112,1,188.999994232178,6|0,3:2|0:0,0:0:0:0:
339,16,139508,2,0,P|317:21|299:33,1,45,8|0,0:0|0:0,0:0:0:0:
325,227,139680,2,0,L|354:86,1,125.999996154785,0|2,0:0|3:3,0:0:0:0:
470,205,140025,1,0,3:2:0:0:
210,176,140197,2,0,L|221:230,1,45,8|0,0:0|0:0,0:0:0:0:
254,384,140370,1,6,3:2:0:0:
254,384,140715,5,0,3:2:0:0:
461,297,140887,2,0,B|288:260|288:260|269:290|228:299,1,229.500004377365,10|0,0:0|0:0,0:0:0:0:
324,344,141232,2,0,L|347:350,1,18,4|0,3:2|0:0,0:0:0:0:
269,109,141404,1,0,3:2:0:0:
152,234,141577,6,0,L|230:217,1,67.5,8|0,0:0|0:0,0:0:0:0:
127,97,141921,6,0,B|23:134|69:218|69:218|81:178|115:161,1,229.500004377365,6|0,3:2|0:0,0:0:0:0:
39,58,142266,2,0,P|22:38|-4:26,1,45,10|0,0:0|0:0,0:0:0:0:
152,234,142439,2,0,L|147:257,1,18,2|0,0:0|0:0,0:0:0:0:
248,293,142611,2,0,L|265:309,1,18,2|0,3:3|0:0,0:0:0:0:
347,239,142784,2,0,L|369:231,1,18,2|0,3:2|0:0,0:0:0:0:
386,149,142956,2,0,L|424:138,1,33.7500012874604,8|0,0:0|0:0,0:0:0:0:
269,109,143128,1,2,3:2:0:0:
452,281,143301,6,0,L|463:226,1,45,14|0,0:0|0:0,0:0:0:0:
500,55,143473,1,8,0:3:0:0:
502,47,143559,1,4,0:3:0:0:
504,39,143646,1,0,3:2:0:0:
347,239,143818,2,0,B|287:171|200:181|200:181|182:214|139:226,1,229.500004377365,14|0,0:0|0:0,0:0:0:0:
88,261,144163,5,10,3:2:0:0:
47,222,144249,1,10,0:0:0:0:
49,176,144335,1,10,0:0:0:0:
70,146,144421,1,10,0:0:0:0:
95,137,144508,1,10,0:0:0:0:
114,139,144594,1,10,0:0:0:0:
126,145,144680,6,0,L|174:371,1,229.500004377365,6|0,3:2|0:0,0:0:0:0:
36,369,145025,2,0,L|80:359,1,45,8|0,0:0|0:0,0:0:0:0:
362,336,145197,2,0,B|396:331|408:286|408:286|387:315|362:315,1,116.999994644165,0|2,0:0|3:2,0:0:0:0:
173,369,145542,1,0,3:2:0:0:
126,145,145715,1,8,0:0:0:0:
291,264,145887,6,0,B|122:228|122:228|164:226|187:194,1,233.999989288331,4|0,3:2|3:2,0:0:0:0:
391,130,146404,2,0,L|508:105,1,107.999996704102,8|0,0:0|0:0,0:0:0:0:
496,107,146663,1,0,1:0:0:0:
496,107,146749,1,0,3:2:0:0:
368,223,146921,1,0,3:2:0:0:
242,0,147094,1,8,0:0:0:0:
460,39,147266,1,0,0:0:0:0:
177,205,147439,6,0,B|153:139|81:145|81:145|60:174|17:179,1,175.499991966248,6|0,3:2|0:0,0:0:0:0:
17,101,147784,2,0,L|5:46,1,45,8|0,0:0|0:0,0:0:0:0:
67,249,147956,5,2,0:0:0:0:
67,249,148042,1,2,0:0:0:0:
67,249,148128,2,0,P|82:242|96:233,1,33.7500012874604,2|0,3:2|0:0,0:0:0:0:
205,223,148301,2,0,P|191:212|176:204,1,33.7500012874604,2|0,3:2|0:0,0:0:0:0:
114,117,148473,2,0,P|111:133|112:150,1,33.7500012874604,10|0,0:0|0:0,0:0:0:0:
204,359,148646,5,0,3:2:0:0:
204,359,148732,1,0,3:2:0:0:
204,359,148818,2,0,B|183:300|124:299|124:299|158:309|169:323,1,153.000002918243,6|0,3:2|0:0,0:0:0:0:
276,287,149077,2,0,B|316:239|287:188|287:188|296:222|289:239,1,153.000002918243,2|0,3:2|0:0,0:0:0:0:
374,313,149335,2,0,P|408:314|450:295,1,76.5000014591217,2|0,3:2|0:0,0:0:0:0:
456,56,149508,6,0,B|482:45|482:45|487:-7|487:-7|450:31|450:31|455:55,1,153.000002918243,12|0,0:0|0:0,0:0:0:0:
470,157,149766,2,0,B|465:185|465:185|508:216|508:216|494:164|494:164|470:156,1,153.000002918243,2|0,3:2|0:0,0:0:0:0:
374,118,150025,2,0,B|350:100|350:100|297:124,1,76.5000014591217,2|0,3:2|0:0,0:0:0:0:
103,264,150197,6,0,L|54:35,2,233.999989288331,6|8|2,3:2|0:0|3:3,0:0:0:0:
198,133,151059,1,0,3:2:0:0:
245,229,151232,2,0,L|182:215,1,58.4999973220826,8|0,0:0|0:0,0:0:0:0:
300,329,151404,2,0,L|174:302,1,116.999994644165,6|0,3:2|0:0,0:0:0:0:
459,73,151749,1,0,3:2:0:0:
412,169,151922,2,0,L|474:155,1,58.4999973220826,8|0,0:0|0:0,0:0:0:0:
365,265,152094,2,0,L|427:251,1,58.4999973220826,0|0,1:2|1:2,0:0:0:0:
351,83,152266,5,2,3:2:0:0:
304,52,152353,1,2,0:0:0:0:
250,55,152439,1,2,3:2:0:0:
210,88,152525,1,2,0:0:0:0:
196,125,152611,1,10,0:0:0:0:
171,143,152697,1,2,0:0:0:0:
145,142,152784,1,2,0:0:0:0:
130,132,152870,1,2,0:0:0:0:
129,119,152956,6,0,B|189:93|233:140|233:140|240:179|281:191,1,175.499991966248,6|0,3:2|0:0,0:0:0:0:
342,142,153301,2,0,B|336:115|350:83|350:83|336:115|302:123,1,116.999994644165,8|0,0:0|0:0,0:0:0:0:
287,358,153646,1,2,3:3:0:0:
508,236,153818,1,0,3:2:0:0:
340,227,153990,2,0,L|351:281,1,45,8|0,0:0|0:0,0:0:0:0:
457,373,154163,6,0,L|418:193,1,175.499991966248,6|0,3:2|0:0,0:0:0:0:
418,121,154508,2,0,L|464:130,1,45,0|0,3:2|0:0,0:0:0:0:
279,49,154680,2,0,L|173:71,1,107.999996704102,8|0,0:0|0:0,0:0:0:0:
32,286,155025,5,2,3:2:0:0:
46,294,155111,1,2,0:0:0:0:
69,298,155197,1,10,0:0:0:0:
100,291,155284,1,10,0:0:0:0:
137,265,155370,1,10,0:0:0:0:
147,210,155456,1,10,0:0:0:0:
126,155,155542,1,10,0:0:0:0:
68,132,155628,1,10,0:0:0:0:
9,157,155715,5,6,3:2:0:0:
202,345,155887,1,2,3:2:0:0:
237,252,156059,1,0,3:2:0:0:
69,213,156233,5,14,0:0:0:0:
328,139,156405,1,0,3:2:0:0:
265,63,156577,1,0,3:2:0:0:
459,251,156749,5,12,0:0:0:0:
231,156,156921,1,2,3:2:0:0:
265,63,157093,1,0,3:2:0:0:
69,213,157266,5,14,0:0:0:0:
328,139,157439,1,0,3:2:0:0:
265,63,157611,1,0,3:2:0:0:
459,251,157784,6,0,L|472:188,1,53.9999983520508,8|0,0:0|0:0,0:0:0:0:
231,156,157956,1,0,3:2:0:0:
360,0,158128,2,0,L|371:52,1,53.9999983520508,8|0,0:0|0:0,0:0:0:0:
435,339,158301,1,0,3:2:0:0:
493,113,158473,5,12,3:2:0:0:
294,229,158646,1,2,3:2:0:0:
136,38,158818,1,2,3:2:0:0:
69,213,158990,5,12,0:0:0:0:
328,139,159163,1,0,3:2:0:0:
265,63,159335,1,2,3:2:0:0:
171,370,159508,5,12,0:0:0:0:
298,308,159680,1,0,3:2:0:0:
69,213,159853,1,0,3:2:0:0:
59,209,159939,1,0,3:2:0:0:
49,205,160025,5,8,0:0:0:0:
147,123,160197,1,0,3:2:0:0:
394,217,160370,1,2,3:2:0:0:
298,308,160542,5,8,0:0:0:0:
362,74,160715,1,2,3:2:0:0:
366,64,160801,1,0,3:2:0:0:
369,53,160887,1,10,0:0:0:0:
253,0,161059,1,2,3:2:0:0:
298,308,161232,5,14,3:2:0:0:
185,238,161404,1,0,3:2:0:0:
33,323,161577,1,0,3:2:0:0:
304,175,161749,5,12,0:0:0:0:
43,92,161921,1,2,3:2:0:0:
38,85,162008,1,2,0:0:0:0:
32,76,162094,1,2,3:2:0:0:
166,4,162266,5,12,0:0:0:0:
107,280,162439,1,2,3:2:0:0:
30,187,162611,1,2,3:2:0:0:
227,82,162784,5,12,0:0:0:0:
304,175,162956,1,0,3:2:0:0:
107,280,163128,1,0,3:2:0:0:
353,15,163301,6,0,L|334:101,1,53.9999983520508,10|0,0:0|0:0,0:0:0:0:
193,187,163473,1,2,3:2:0:0:
428,148,163646,5,10,0:0:0:0:
425,161,163732,1,2,0:0:0:0:
422,174,163818,1,2,3:2:0:0:
419,187,163904,1,2,0:0:0:0:
416,200,163990,5,12,0:0:0:0:
227,82,164163,1,0,3:2:0:0:
269,373,164335,1,0,3:2:0:0:
0,254,164508,5,14,0:0:0:0:
193,187,164680,1,0,3:2:0:0:
158,343,164853,1,0,3:2:0:0:
9,99,165025,5,14,0:0:0:0:
4,89,165111,1,2,0:0:0:0:
0,80,165197,2,0,L|148:111,1,135.000005149842,0|0,3:2|0:0,0:0:0:0:
345,96,165542,1,0,3:2:0:0:
345,96,165628,1,0,3:2:0:0:
345,96,165715,2,0,B|340:46|287:30|287:30|309:57|306:90,1,135.000005149842,8|0,0:0|0:0,0:0:0:0:
311,256,166059,5,8,0:3:0:0:
315,312,166146,1,8,0:3:0:0:
359,336,166232,1,8,0:3:0:0:
403,336,166318,1,8,0:3:0:0:
436,349,166404,1,4,0:3:0:0:
447,368,166490,1,4,0:3:0:0:
447,384,166577,6,0,B|388:340|426:271|426:271|491:264|501:208,1,215.999993408203,6|0,3:2|3:2,0:0:0:0:
407,84,167094,2,0,L|431:201,1,107.999996704102,8|0,0:0|0:0,0:0:0:0:
432,182,167353,1,0,1:2:0:0:
436,173,167439,1,0,3:2:0:0:
304,66,167611,1,0,3:2:0:0:
478,4,167784,1,8,0:0:0:0:
293,173,167956,6,0,B|152:142|152:142|145:113|122:94,1,175.499991966248,4|0,3:2|0:0,0:0:0:0:
179,43,168301,2,0,P|203:61|212:84,1,45,0|0,3:2|0:0,0:0:0:0:
286,272,168473,2,0,B|359:275|364:205|364:205|353:237|317:253,1,161.999995056153,8|0,0:0|0:0,0:0:0:0:
153,307,168818,6,0,P|156:315|165:325,1,13.4999995880127,2|0,3:2|0:0,0:0:0:0:
45,282,168990,6,0,P|38:287|30:299,1,13.4999995880127,2|0,3:2|0:0,0:0:0:0:
35,171,169163,6,0,P|27:166|14:162,1,13.4999995880127,10|0,0:0|0:0,0:0:0:0:
137,126,169335,6,0,P|139:117|138:103,1,13.4999995880127,6|0,3:2|0:0,0:0:0:0:
210,208,169508,5,2,0:0:0:0:
212,212,169594,1,2,0:0:0:0:
215,214,169680,1,2,3:2:0:0:
219,213,169766,1,2,0:0:0:0:
223,212,169852,1,10,0:0:0:0:
225,210,169939,1,2,0:0:0:0:
226,206,170025,1,2,0:0:0:0:
225,201,170111,1,2,1:2:0:0:
222,199,170197,1,2,3:2:0:0:
219,197,170283,1,0,0:0:0:0:
214,198,170370,1,2,3:2:0:0:
212,201,170456,1,0,0:0:0:0:
210,204,170542,6,0,P|234:218|252:246,1,45,10|0,0:0|0:0,0:0:0:0:
354,381,170715,2,0,B|361:280|469:259|469:259|432:279|423:316,1,242.999992584229,6|0,3:2|0:0,0:0:0:0:
427,301,171059,6,0,P|427:312|429:323,1,13.4999995880127,2|0,3:2|0:0,0:0:0:0:
334,193,171232,6,0,P|331:204|330:214,1,13.4999995880127,10|0,0:0|0:0,0:0:0:0:
283,44,171404,6,0,P|276:53|272:63,1,13.4999995880127,6|0,3:2|0:0,0:0:0:0:
204,216,171577,6,0,P|209:205|214:196,1,13.4999995880127,2|0,0:0|0:0,0:0:0:0:
98,257,171749,6,0,P|100:245|103:235,1,13.4999995880127,0|0,3:2|0:0,0:0:0:0:
13,333,171921,6,0,P|11:321|10:311,1,13.4999995880127,10|0,0:0|0:0,0:0:0:0:
101,372,172094,5,6,3:2:0:0:
101,372,172180,2,0,L|57:168,1,202.500007724762,2|2,0:0|3:2,0:0:0:0:
88,34,172611,2,0,B|78:80|37:81|37:81|73:68|82:39,1,135.000005149842,10|0,0:0|0:0,0:0:0:0:
17,8,172870,1,2,1:2:0:0:
17,8,172956,1,0,3:2:0:0:
130,125,173128,1,0,3:2:0:0:
283,44,173301,1,8,0:0:0:0:
423,0,173473,6,0,B|445:27|441:65|401:81|397:80|393:79|359:76|324:112|357:157,1,202.500007724762,6|0,3:2|0:0,0:0:0:0:
401,224,173818,5,2,3:2:0:0:
439,217,173904,1,2,0:0:0:0:
455,190,173990,1,10,0:0:0:0:
451,169,174077,1,2,0:0:0:0:
438,159,174163,1,2,0:0:0:0:
318,227,174335,5,2,3:2:0:0:
305,263,174421,1,2,0:0:0:0:
320,290,174507,1,2,3:2:0:0:
340,297,174594,1,2,0:0:0:0:
355,291,174680,2,0,P|338:298|331:314,1,22.5,10|0,0:0|0:0,0:0:0:0:
252,339,174853,2,0,P|250:356|260:371,1,22.5,2|0,0:0|0:0,0:0:0:0:
446,384,175025,5,6,3:2:0:0:
434,297,175197,1,2,0:0:0:0:
353,220,175370,1,2,3:2:0:0:
226,204,175542,1,2,0:0:0:0:
109,299,175715,1,10,0:0:0:0:
189,237,175887,1,2,0:0:0:0:
187,118,176059,1,2,3:2:0:0:
111,25,176232,6,0,B|98:-10|55:-7|55:-7|77:6|87:22,1,107.999996704102,10|0,0:0|3:2,0:0:0:0:
251,66,176577,2,0,B|270:42|251:14|251:14|250:35|243:48,1,72,10|0,0:0|3:2,0:0:0:0:
256,192,176921,2,0,B|276:195|286:174|286:174|273:181|263:181,1,53.9999983520508,2|8,0:0|0:0,0:0:0:0:
152,265,177266,6,0,B|155:274|167:273|167:273|160:270|158:265,1,26.9999991760254,8|0,0:3|0:0,0:0:0:0:
34,224,177439,6,0,B|27:231|33:241|33:241|34:234|36:229,1,26.9999991760254,4|0,0:3|0:0,0:0:0:0:
15,113,177784,5,6,3:2:0:0:
15,113,178301,6,0,B|22:117|32:108|32:108|22:113|16:107,2,36,2|2|2,0:0|0:0|0:0,0:0:0:0:
251,216,179681,5,2,0:0:0:0:
251,216,179767,1,2,0:0:0:0:
251,216,179853,2,0,L|261:168,2,36,2|2|2,0:0|0:0|0:3,0:0:0:0:
251,216,180542,5,2,0:0:0:0:
396,268,191921,6,0,P|400:278|411:289,1,18,2|0,0:0|0:0,0:0:0:0:
268,126,192439,6,0,P|256:125|242:128,1,18,2|0,0:0|0:0,0:0:0:0:
349,84,192784,6,0,P|344:73|333:62,1,18,2|0,0:0|0:0,0:0:0:0:
396,268,193646,6,0,P|401:279|411:289,2,18,2|0|0,0:0|0:0|0:0,0:0:0:0:
124,274,194680,6,0,P|117:283|113:297,1,18,2|0,0:0|0:0,0:0:0:0:
182,92,195198,6,0,P|177:81|166:70,1,18,2|0,0:0|0:0,0:0:0:0:
259,141,195543,6,0,P|265:131|269:117,1,18,2|0,0:0|0:0,0:0:0:0:
124,274,196577,6,0,P|117:283|113:297,2,18,2|0|0,0:0|0:0|0:0,0:0:0:0:
106,144,197094,6,0,B|83:62|-8:86|-8:86|40:98|56:145,1,215.999993408203,2|0,0:0|0:0,0:0:0:0:
218,194,197956,6,0,L|257:185,2,36,2|0|2,0:0|0:0|0:0,0:0:0:0:
325,134,198646,2,0,L|364:142,2,36,2|0|2,0:0|0:0|0:0,0:0:0:0:
432,194,199335,2,0,L|471:185,2,36,2|0|2,0:0|0:0|0:0,0:0:0:0:
265,366,199853,6,0,B|203:341|198:260|198:260|202:341|129:408|6:388|-29:291|12:210|12:210|25:254|72:267,1,585,2|0,0:0|0:0,0:0:0:0:
292,282,202266,5,2,0:0:0:0:
308,278,202352,1,2,0:0:0:0:
325,274,202438,1,2,0:0:0:0:
341,271,202524,1,2,0:0:0:0:
358,267,202610,5,8,3:2:0:0:
86,188,202784,1,8,3:2:0:0:
86,188,203646,5,0,3:2:0:0:
306,176,203818,6,0,B|300:80|202:81|202:81|249:96|260:133,1,229.500004377365,6|0,3:2|0:0,0:0:0:0:
371,97,204163,2,0,L|394:92,1,22.5,10|0,3:2|0:0,0:0:0:0:
182,160,204853,6,0,L|158:164,1,22.5
86,188,205370,5,10,3:2:0:0:
402,316,205542,1,10,3:2:0:0:
402,316,206404,5,0,3:2:0:0:
182,304,206577,6,0,B|188:208|286:209|286:209|239:224|228:261,1,229.500004377365,14|0,3:2|0:0,0:0:0:0:
86,188,206921,2,0,L|39:178,1,45,8|0,0:0|0:0,0:0:0:0:
256,16,207094,1,0,3:2:0:0:
256,16,207439,5,8,0:3:0:0:
204,62,207554,5,8,0:3:0:0:
218,131,207669,5,8,0:3:0:0:
271,145,207784,5,4,0:3:0:0:
280,169,207899,5,4,0:3:0:0:
272,188,208013,5,4,0:3:0:0:
256,192,208128,6,0,L|299:-11,1,188.999994232178,14|0,3:2|0:0,0:0:0:0:
464,89,208473,6,0,P|479:84|495:82,1,22.5,8|0,3:2|0:0,0:0:0:0:
370,42,208646,2,0,P|385:37|401:35,1,22.5,8|0,3:2|0:0,0:0:0:0:
268,101,208818,2,0,P|281:90|294:80,1,33.7500012874604,8|0,3:2|0:0,0:0:0:0:
152,96,208990,2,0,P|164:85|178:75,1,33.7500012874604,8|0,3:2|0:0,0:0:0:0:
142,239,209163,2,0,P|152:218|163:198,1,45,8|0,3:2|0:0,0:0:0:0:
12,292,209335,2,0,P|22:271|33:251,1,45,8|0,3:2|0:0,0:0:0:0:
44,70,209508,6,0,P|22:63|0:57,1,45,8|0,3:2|0:0,0:0:0:0:
137,12,209680,2,0,P|117:4|95:0,1,45,8|0,3:2|0:0,0:0:0:0:
267,100,209853,2,0,P|246:83|222:68,1,56.25,8|0,3:2|0:0,0:0:0:0:
390,94,210025,2,0,P|370:73|347:57,1,56.25,8|0,3:2|0:0,0:0:0:0:
364,279,210198,2,0,P|349:248|326:223,1,67.5000025749208,8|0,3:2|0:0,0:0:0:0:
494,304,210370,2,0,P|480:274|461:246,1,67.5000025749208,8|0,3:2|0:0,0:0:0:0:
171,341,210542,6,0,P|187:309|220:275,1,78.7500007510185,8|0,3:2|0:0,0:0:0:0:
32,384,210715,2,0,P|46:354|73:313,1,78.7500007510185,8|0,3:2|0:0,0:0:0:0:
256,192,210887,5,10,3:2:0:0:
264,200,212094,5,0,3:2:0:0:
264,200,212180,1,0,3:2:0:0:
264,200,212266,2,0,B|220:113|115:129|115:129|94:168|55:175,1,242.999992584229,6|0,3:2|0:0,0:0:0:0:
40,102,212611,6,0,L|30:55,1,45,2|0,3:2|0:0,0:0:0:0:
114,0,212784,6,0,L|170:266,1,242.999992584229,14|0,0:0|0:0,0:0:0:0:
146,314,213128,1,8,0:3:0:0:
210,351,213215,1,8,0:3:0:0:
269,337,213301,1,4,0:3:0:0:
302,292,213387,1,4,0:3:0:0:
302,245,213473,1,0,3:2:0:0:
288,219,213559,1,0,3:2:0:0:
264,200,213646,6,0,B|419:166|419:166|427:140|449:125,1,202.500007724762,6|0,3:2|0:0,0:0:0:0:
399,66,213990,2,0,P|376:83|363:103,1,45,8|0,0:0|0:0,0:0:0:0:
472,293,214163,2,0,L|495:183,1,107.999996704102,0|2,0:0|3:2,0:0:0:0:
293,117,214508,1,0,3:2:0:0:
373,356,214680,1,8,0:0:0:0:
150,272,214853,6,0,B|143:204|229:178|229:178|246:196|266:199,1,175.499991966248,4|0,3:2|0:0,0:0:0:0:
116,360,215197,2,0,P|90:347|71:319,1,45,0|0,3:2|0:0,0:0:0:0:
69,196,215370,2,0,B|74:152|123:143|123:143|99:158|92:181,1,116.999994644165,8|0,0:0|0:0,0:0:0:0:
98,167,215628,1,0,1:0:0:0:
98,167,215715,1,0,3:2:0:0:
0,74,215887,1,0,3:2:0:0:
42,271,216059,1,8,0:0:0:0:
293,117,216232,1,0,0:0:0:0:
168,17,216404,6,0,L|210:215,1,202.500007724762,6|0,3:2|0:0,0:0:0:0:
145,307,216749,2,0,L|135:260,1,45,8|0,0:0|0:0,0:0:0:0:
347,56,216921,5,2,0:0:0:0:
347,56,217008,1,2,0:0:0:0:
347,56,217094,2,0,P|332:43|306:35,1,33.7500012874604,2|0,3:2|0:0,0:0:0:0:
425,141,217266,2,0,P|428:122|423:95,1,33.7500012874604,2|0,3:2|0:0,0:0:0:0:
434,245,217439,2,0,P|452:238|472:220,1,33.7500012874604,10|0,0:0|0:0,0:0:0:0:
143,271,217611,5,0,3:2:0:0:
143,271,217697,1,0,3:2:0:0:
143,271,217784,6,0,B|104:268|71:294|71:294|104:268|107:230,1,153.000002918243,6|0,3:2|0:0,0:0:0:0:
273,44,218042,2,0,B|306:23|317:-17|317:-17|306:23|325:56,1,153.000002918243,2|0,3:2|0:0,0:0:0:0:
301,302,218301,6,0,B|286:338|300:377|300:377|286:338|251:322,1,153.000002918243,2|0,3:2|0:0,0:0:0:0:
126,109,218473,6,0,B|116:70|81:47|81:47|116:70|153:62,1,153.000002918243,12|0,0:0|0:0,0:0:0:0:
381,163,218732,2,0,B|410:188|452:186|452:186|410:188|385:216,1,153.000002918243,2|0,3:2|0:0,0:0:0:0:
143,271,218990,6,0,B|104:268|71:294|71:294|104:268|107:230,1,153.000002918243,2|0,3:2|0:0,0:0:0:0:
273,44,219163,6,0,B|306:23|317:-17|317:-17|306:23|325:56,2,153.000002918243,6|8|2,3:2|0:0|3:3,0:0:0:0:
247,199,220025,5,0,3:2:0:0:
439,104,220197,2,0,L|426:42,1,53.9999983520508,8|0,0:0|0:0,0:0:0:0:
194,21,220370,6,0,B|177:81|230:117|230:117|281:111|312:148,1,202.500007724762,6|0,3:2|0:0,0:0:0:0:
247,199,220715,2,0,P|237:221|215:245,1,45,0|0,3:2|0:0,0:0:0:0:
75,293,220887,2,0,P|123:314|154:358,1,107.999996704102,8|0,0:0|1:2,0:0:0:0:
141,369,221146,1,0,1:2:0:0:
84,347,221232,5,2,3:2:0:0:
75,293,221318,1,2,0:0:0:0:
98,242,221404,1,2,3:2:0:0:
151,226,221490,1,2,0:0:0:0:
196,244,221577,1,10,0:0:0:0:
236,250,221663,1,2,0:0:0:0:
257,232,221749,1,2,0:0:0:0:
257,210,221835,1,2,0:0:0:0:
247,199,221921,6,0,B|222:280|302:306|302:306|278:279|276:243,1,202.500007724762,6|0,3:2|0:0,0:0:0:0:
209,85,222266,2,0,B|187:12|115:31|115:31|147:40|165:66,1,175.499991966248,8|0,0:0|0:0,0:0:0:0:
320,116,222611,1,2,3:3:0:0:
511,50,222784,1,0,3:2:0:0:
395,256,222956,2,0,L|385:209,1,45,8|0,0:0|0:0,0:0:0:0:
422,15,223128,6,0,L|461:202,1,188.999994232178,6|0,3:2|0:0,0:0:0:0:
480,276,223473,1,0,3:2:0:0:
247,199,223646,2,0,B|173:151|119:217|119:217|95:279|30:269,1,251.999992309571,8|0,0:0|3:2,0:0:0:0:
8,45,224163,5,8,0:0:0:0:
30,10,224249,1,8,0:0:0:0:
70,0,224335,1,8,0:0:0:0:
107,18,224421,1,8,0:0:0:0:
123,55,224507,1,8,0:0:0:0:
110,95,224594,1,8,0:0:0:0:
75,115,224680,6,0,L|200:88,1,125.999996154785,6|0,3:2|0:0,0:0:0:0:
476,40,225025,1,8,0:0:0:0:
190,264,225197,1,0,3:2:0:0:
341,7,225370,1,8,0:0:0:0:
421,335,225542,1,0,3:2:0:0:
198,88,225715,1,8,0:0:0:0:
414,179,225887,6,0,B|261:146|261:146|247:165|218:170,1,188.999994232178,6|0,3:2|0:0,0:0:0:0:
153,161,226232,1,0,3:2:0:0:
230,378,226404,1,8,0:0:0:0:
376,90,226577,1,0,0:0:0:0:
190,264,226749,5,2,3:2:0:0:
149,221,226835,1,2,0:0:0:0:
153,161,226921,1,2,3:2:0:0:
185,113,227008,1,2,0:0:0:0:
238,95,227094,1,10,0:0:0:0:
285,78,227180,1,2,0:0:0:0:
294,41,227266,1,2,1:2:0:0:
281,13,227353,1,2,1:2:0:0:
256,0,227439,5,6,3:2:0:0:
350,296,227611,1,0,0:0:0:0:
52,182,227784,5,8,0:0:0:0:
376,90,227956,1,0,3:2:0:0:
43,349,228128,5,8,0:0:0:0:
136,21,228301,1,0,3:2:0:0:
350,296,228473,1,8,0:0:0:0:
52,182,228646,1,6,3:2:0:0:
52,182,228990,5,0,3:2:0:0:
307,0,229163,2,0,L|277:140,1,144,8|0,0:0|0:0,0:0:0:0:
203,324,229508,6,0,P|190:328|180:336,1,18,2|2,3:2|0:0,0:0:0:0:
211,347,229594,6,0,P|204:358|203:371,1,18,2|2,0:0|0:0,0:0:0:0:
230,360,229680,6,0,P|234:372|241:382,1,18,2|2,3:2|0:0,0:0:0:0:
260,351,229766,6,0,P|271:357|284:358,1,18,2|2,0:0|0:0,0:0:0:0:
275,316,229853,5,8,0:0:0:0:
288,241,229939,1,8,0:0:0:0:
360,213,230025,1,8,0:0:0:0:
420,258,230111,1,8,0:0:0:0:
415,333,230197,6,0,L|190:285,1,229.500004377365,6|0,3:2|0:0,0:0:0:0:
112,242,230542,2,0,B|123:208|166:209|166:209|143:218|133:236,1,107.999996704102,8|0,0:0|0:0,0:0:0:0:
70,359,230887,1,2,3:2:0:0:
0,175,231059,1,0,3:2:0:0:
225,101,231232,2,0,L|215:147,1,33.7500012874604,8|0,0:0|0:0,0:0:0:0:
112,242,231404,6,0,L|158:22,1,215.999993408203,6|0,3:2|3:2,0:0:0:0:
342,103,231921,2,0,B|336:68|294:57|294:57|310:77|309:96,1,107.999996704102,8|0,0:0|0:0,0:0:0:0:
308,90,232180,1,0,1:2:0:0:
308,90,232266,1,2,3:2:0:0:
512,35,232439,1,0,3:2:0:0:
455,207,232611,2,0,L|428:81,1,107.999996704102,8|0,0:0|0:0,0:0:0:0:
266,307,232956,6,0,B|304:232|382:248|382:248|399:279|432:289,1,188.999994232178,6|0,3:2|0:0,0:0:0:0:
494,287,233301,2,0,B|494:318|522:343|522:343|489:325|462:336,1,125.999996154785,8|0,0:0|0:0,0:0:0:0:
211,384,233646,2,0,P|152:329|73:314,1,161.999995056153,0|0,3:2|0:0,0:0:0:0:
28,249,233990,2,0,P|8:264|-4:282,1,33.7500012874604,8|0,0:0|0:0,0:0:0:0:
186,201,234163,6,0,B|269:145|219:65|219:65|227:104|206:136,1,229.500004377365,6|0,3:2|0:0,0:0:0:0:
289,209,234508,2,0,P|304:223|327:231,1,33.7500012874604,0|0,3:2|0:0,0:0:0:0:
452,131,234680,2,0,L|326:157,1,107.999996704102,10|0,0:0|1:2,0:0:0:0:
352,147,234939,1,0,1:2:0:0:
356,140,235025,1,2,3:2:0:0:
505,228,235197,1,10,3:2:0:0:
362,384,235370,5,8,0:0:0:0:
344,348,235456,1,8,0:0:0:0:
358,312,235542,1,8,0:0:0:0:
395,298,235628,1,8,0:0:0:0:
430,316,235715,6,0,B|361:349|323:310|323:310|302:268|252:272,1,188.999994232178,6|0,3:2|0:0,0:0:0:0:
226,352,236059,2,0,B|222:368|201:381|201:381|241:384|254:338,1,107.999996704102,8|2,0:0|0:0,0:0:0:0:
44,153,236404,1,0,3:2:0:0:
130,333,236577,1,0,3:2:0:0:
190,120,236749,1,8,0:0:0:0:
13,247,236921,6,0,L|232:200,1,215.999993408203,6|0,3:2|3:2,0:0:0:0:
399,26,237439,2,0,L|372:151,1,107.999996704102,8|0,0:0|0:0,0:0:0:0:
376,131,237697,1,0,1:2:0:0:
376,131,237784,1,0,3:2:0:0:
494,84,237956,1,0,3:2:0:0:
297,4,238128,1,8,0:0:0:0:
354,279,238301,5,0,3:2:0:0:
354,279,238387,1,0,3:2:0:0:
354,279,238473,1,6,3:2:0:0:
115,181,238646,1,0,3:2:0:0:
399,26,238818,1,0,3:2:0:0:
216,272,238990,6,0,L|176:87,1,188.999994232178,14|0,0:0|0:0,0:0:0:0:
165,9,239335,2,0,L|211:18,1,33.7500012874604,0|0,3:2|0:0,0:0:0:0:
33,200,239508,2,0,L|-13:209,1,33.7500012874604,8|0,0:0|0:0,0:0:0:0:
354,279,239680,6,0,L|494:308,1,125.999996154785,6|0,3:2|0:0,0:0:0:0:
126,368,240025,5,0,3:2:0:0:
126,368,240111,1,0,3:2:0:0:
126,368,240197,2,0,L|80:377,1,40.4999987640381,8|0,0:0|0:0,0:0:0:0:
60,360,240542,6,0,L|106:350,1,40.4999987640381,10|0,3:2|0:0,0:0:0:0:
237,308,240715,1,8,0:3:0:0:
251,293,240801,1,8,0:3:0:0:
251,272,240887,1,8,0:3:0:0:
240,258,240973,1,4,0:3:0:0:
227,257,241059,1,4,0:3:0:0:
217,263,241146,1,4,0:3:0:0:
216,272,241232,5,6,3:2:0:0:
227,269,241318,1,0,0:0:0:0:
239,267,241404,1,0,0:0:0:0:
250,264,241490,1,0,0:0:0:0:
262,262,241576,1,0,3:2:0:0:
273,259,241663,1,0,0:0:0:0:
285,257,241749,1,0,0:0:0:0:
296,254,241835,1,0,0:0:0:0:
308,252,241921,1,0,3:2:0:0:
320,249,242007,1,0,0:0:0:0:
331,247,242094,1,0,0:0:0:0:
343,245,242180,1,0,0:0:0:0:
354,242,242266,1,0,3:2:0:0:
366,240,242352,1,0,0:0:0:0:
377,237,242438,1,8,0:2:0:0:
389,235,242525,1,0,0:0:0:0:
400,232,242611,1,2,3:2:0:0:
412,230,242697,1,0,0:0:0:0:
424,227,242783,1,0,0:0:0:0:
435,225,242869,1,0,0:0:0:0:
447,223,242956,1,0,3:2:0:0:
458,220,243042,1,0,0:0:0:0:
470,218,243128,1,2,0:2:0:0:
481,215,243214,1,0,0:0:0:0:
493,213,243300,5,2,3:2:0:0:
456,193,243387,1,0,0:0:0:0:
434,157,243473,1,10,0:2:0:0:
449,121,243559,1,0,0:0:0:0:
487,104,243646,1,2,3:2:0:0:
501,77,243732,1,0,0:0:0:0:
495,59,243818,1,2,0:2:0:0:
483,48,243904,1,0,0:0:0:0:
471,48,243991,5,6,3:2:0:0:
458,68,244077,1,0,0:0:0:0:
443,85,244163,1,0,0:0:0:0:
424,100,244249,1,0,0:0:0:0:
404,112,244335,1,10,3:2:0:0:
381,119,244422,1,0,0:0:0:0:
358,123,244508,1,0,0:0:0:0:
335,123,244594,1,0,0:0:0:0:
311,118,244680,1,8,3:2:0:0:
289,109,244766,1,0,0:0:0:0:
269,97,244853,1,2,0:2:0:0:
251,82,244939,1,0,0:0:0:0:
237,63,245025,1,0,3:2:0:0:
222,44,245111,1,0,0:0:0:0:
204,29,245197,1,8,0:2:0:0:
184,16,245284,1,0,0:0:0:0:
162,8,245370,1,0,3:2:0:0:
139,3,245456,1,0,0:0:0:0:
115,3,245542,1,2,0:2:0:0:
92,7,245628,1,0,0:0:0:0:
69,14,245715,1,0,3:2:0:0:
49,26,245801,1,0,0:0:0:0:
30,40,245887,1,0,0:0:0:0:
15,58,245973,1,0,0:0:0:0:
3,78,246059,6,0,L|12:124,1,40.4999987640381,2|0,3:2|0:0,0:0:0:0:
112,178,246232,2,0,L|121:131,1,40.4999987640381,8|0,0:2|0:0,0:0:0:0:
12,266,246404,1,2,3:2:0:0:
15,286,246490,1,0,0:0:0:0:
20,308,246576,1,0,0:0:0:0:
24,329,246662,1,0,0:0:0:0:
30,347,246749,5,6,3:2:0:0:
53,321,246835,1,0,0:0:0:0:
82,303,246921,1,0,0:0:0:0:
115,292,247007,1,0,0:0:0:0:
150,289,247093,1,8,3:2:0:0:
184,295,247180,1,0,0:0:0:0:
215,310,247266,1,0,0:0:0:0:
242,331,247352,1,0,0:0:0:0:
269,352,247439,1,8,3:2:0:0:
300,367,247525,1,0,0:0:0:0:
334,373,247612,1,0,0:0:0:0:
369,370,247698,1,0,0:0:0:0:
402,359,247784,1,0,3:2:0:0:
431,341,247870,1,0,0:0:0:0:
455,316,247957,5,8,0:2:0:0:
411,322,248043,1,0,0:0:0:0:
370,305,248128,1,2,3:2:0:0:
343,270,248215,1,0,0:0:0:0:
338,226,248301,1,0,0:0:0:0:
355,186,248388,1,0,0:0:0:0:
390,159,248474,1,8,3:2:0:0:
434,154,248560,1,0,0:0:0:0:
474,172,248646,1,2,0:2:0:0:
500,208,248732,1,0,0:0:0:0:
505,251,248818,6,0,L|458:241,1,40.4999987640381,2|2,3:2|0:2,0:0:0:0:
247,219,248990,2,0,L|279:183,1,40.4999987640381,10|2,0:2|0:2,0:0:0:0:
422,7,249163,5,2,3:2:0:0:
428,26,249249,1,2,0:2:0:0:
434,45,249335,1,2,0:2:0:0:
440,64,249422,1,2,0:2:0:0:
446,83,249508,6,0,B|401:36|348:69|348:69|322:115|274:107,1,188.999994232178,6|0,3:2|0:0,0:0:0:0:
208,71,249853,2,0,B|228:24|212:-15|212:-15|229:23|285:34,1,175.499991966248,8|0,0:2|1:2,0:0:0:0:
208,152,250197,6,0,P|193:167|156:175,1,33.7500012874604,8|0,3:2|0:0,0:0:0:0:
59,220,250370,2,0,P|53:199|65:163,1,33.7500012874604,0|0,3:2|0:0,0:0:0:0:
74,56,250542,2,0,P|94:61|119:89,1,33.7500012874604,8|0,0:0|0:0,0:0:0:0:
273,188,250715,6,0,B|253:279|160:276|160:276|202:263|216:224,1,216,14|0,3:2|0:0,0:0:0:0:
276,264,251059,6,0,L|322:273,1,33.7500012874604,10|0,3:2|0:0,0:0:0:0:
512,307,251232,1,10,0:0:0:0:
