osu file format v14

[General]
AudioFilename: audio.mp3
AudioLeadIn: 0
PreviewTime: 61421
Countdown: 0
SampleSet: Soft
StackLeniency: 0.7
Mode: 0
LetterboxInBreaks: 0
WidescreenStoryboard: 1

[Editor]
Bookmarks: 176,4175,9841,17507,20174,29840,39173,40506,48505,51505,53505,56171,61504,64171,72171,74838,79504,85504,86838,91004
DistanceSpacing: 0.9
BeatDivisor: 4
GridSize: 16
TimelineZoom: 1.4

[Metadata]
Title:Kimi dake no Princess
TitleUnicode:キミだけのプリンセス
Artist:AZKi, Omaru Polka
ArtistUnicode:AZKi・尾丸ポルカ
Creator:tomatas95
Version:Will you entrust your life to me, Senpai?
Source:ガラス姫と鏡の従者
Tags:eroge Princess only for you Princess of glass and Retinue of mirrors Glass Hime to Kagami no Juusha yuiko hololive virtual youtuber vtuber giga video game japanese visual novel vn op opening galgame shirahane suou Tansa j-pop pop jpop game version production
BeatmapID:3664368
BeatmapSetID:1769796

[Difficulty]
HPDrainRate:5.5
CircleSize:4
OverallDifficulty:9
ApproachRate:9.3
SliderMultiplier:1.8
SliderTickRate:1

[Events]
//Background and Video events
Video,-1100,"DownBadForPrincesses.mp4"
0,0,"OrihimeDanceFestival.jpg",0,0
//Break Periods
//Storyboard Layer 0 (Background)
//Storyboard Layer 1 (Fail)
//Storyboard Layer 2 (Pass)
//Storyboard Layer 3 (Foreground)
//Storyboard Layer 4 (Overlay)
//Storyboard Sound Samples

[TimingPoints]
176,333.333333333333,4,2,1,40,1,0
176,-166.666666666667,4,2,1,40,0,0
842,-166.666666666667,4,2,1,45,0,0
1509,-166.666666666667,4,2,1,50,0,0
2175,-166.666666666667,4,2,1,55,0,0
2509,-166.666666666667,4,2,1,30,0,0
2842,-166.666666666667,4,2,1,40,0,0
3509,-111.111111111111,4,2,1,50,0,0
3675,-111.111111111111,4,2,1,60,0,0
3842,-111.111111111111,4,2,1,65,0,0
4009,-111.111111111111,4,2,2,60,0,0
4092,-111.111111111111,4,2,3,55,0,0
4175,333.333333333333,4,2,1,40,1,0
4175,-100,4,2,3,70,0,0
4258,-100,4,2,1,70,0,0
4508,-100,4,2,1,75,0,0
4591,-100,4,2,1,70,0,0
4841,-100,4,2,1,75,0,0
4924,-100,4,2,1,70,0,0
5091,-100,4,2,1,65,0,0
5174,-100,4,2,1,75,0,0
5258,-100,4,2,1,60,0,0
5341,-100,4,2,1,55,0,0
5424,-100,4,2,1,50,0,0
5508,-100,4,2,4,75,0,0
5591,-100,4,2,1,70,0,0
5841,-100,4,2,1,75,0,0
5924,-100,4,2,1,70,0,0
6174,-100,4,2,1,75,0,0
6258,-100,4,2,1,70,0,0
6508,-100,4,2,1,75,0,0
6591,-100,4,2,1,70,0,0
6841,-100,4,2,1,60,0,0
6924,-100,4,2,1,55,0,0
7174,-100,4,2,5,75,0,0
7258,-100,4,2,1,70,0,0
7508,-100,4,2,1,75,0,0
7591,-100,4,2,1,70,0,0
7841,-100,4,2,1,75,0,0
7924,-100,4,2,1,70,0,0
8174,-100,4,2,6,80,0,0
8258,-100,4,2,1,75,0,0
8508,-100,4,2,1,80,0,0
8591,-100,4,2,1,75,0,0
8841,-100,4,2,1,80,0,0
8924,-100,4,2,1,75,0,0
9174,-100,4,2,1,80,0,0
9257,-100,4,2,1,75,0,0
9508,-100,4,2,1,15,0,0
9674,-111.111111111111,4,2,1,45,0,0
9758,-111.111111111111,4,2,1,5,0,0
9841,-58.8235294117647,4,2,2,75,0,0
10007,-58.8235294117647,4,2,1,70,0,0
10174,-100,4,2,1,70,0,0
10674,-100,4,2,1,75,0,0
10840,-100,4,2,1,70,0,0
12007,-100,4,2,1,75,0,0
12174,-250,4,2,1,70,0,0
12424,-111.111111111111,4,2,1,5,0,0
12507,-66.6666666666667,4,2,3,80,0,0
12840,-100,4,2,1,70,0,0
13340,-71.4285714285714,4,2,4,75,0,0
13674,-100,4,2,1,70,0,0
14007,-100,4,2,1,75,0,0
14174,-100,4,2,1,80,0,0
14340,-100,4,2,1,70,0,0
14840,-100,4,2,1,60,0,0
15174,-66.6666666666667,4,2,6,75,0,0
15340,-66.6666666666667,4,2,1,70,0,0
15508,-100,4,2,1,65,0,0
15674,-100,4,2,1,70,0,0
15840,-100,4,2,1,75,0,0
16007,-76.9230769230769,4,2,3,75,0,0
16258,-76.9230769230769,4,2,3,5,0,0
16340,-100,4,2,1,70,0,0
17340,-100,4,2,1,75,0,0
17507,-100,4,2,5,80,0,0
17674,-100,4,2,2,75,0,0
18174,-100,4,2,1,70,0,0
18590,-111.111111111111,4,2,1,5,0,0
18674,-125,4,2,2,80,0,0
18840,-125,4,2,2,70,0,0
19007,-125,4,2,2,65,0,0
19174,-125,4,2,2,60,0,0
19340,-125,4,2,2,55,0,0
19507,-125,4,2,2,50,0,0
19674,-125,4,2,2,45,0,0
19840,-125,4,2,2,40,0,0
20007,-125,4,2,2,35,0,0
20174,333.333333333333,7,2,1,65,1,0
20174,-125,4,2,1,65,0,0
20340,-125,4,2,2,60,0,0
20840,-125,4,2,2,65,0,0
21174,-125,4,2,2,60,0,0
21340,-125,4,2,2,65,0,0
21590,-125,4,2,2,60,0,0
22507,-111.111111111111,4,2,2,65,0,0
22757,-111.111111111111,4,2,1,5,0,0
22840,-125,4,2,2,60,0,0
23673,-125,4,2,2,65,0,0
23923,-125,4,2,2,60,0,0
24340,-125,4,2,2,65,0,0
24507,-125,4,2,2,60,0,0
24840,-111.111111111111,4,2,2,65,0,0
25007,-111.111111111111,4,2,2,60,0,0
25090,-111.111111111111,4,2,1,5,0,0
25173,-125,4,2,2,60,0,0
25507,-125,4,2,2,65,0,0
25840,-125,4,2,2,60,0,0
26007,-111.111111111111,4,2,2,65,0,0
26257,-111.111111111111,4,2,2,60,0,0
26340,-125,4,2,2,60,0,0
26673,-125,4,2,2,65,0,0
27007,-125,4,2,2,60,0,0
27173,-111.111111111111,4,2,2,65,0,0
27423,-111.111111111111,4,2,1,5,0,0
27506,-125,4,2,2,60,0,0
27840,-125,4,2,2,65,0,0
28173,-125,4,2,2,60,0,0
28340,-83.3333333333333,4,2,3,75,0,0
28590,-83.3333333333333,4,2,2,70,0,0
28673,-100,4,2,2,70,0,0
29173,-100,4,2,7,75,0,0
29340,-100,4,2,1,5,0,0
29840,333.333333333333,4,2,1,70,1,0
29840,-111.111111111111,4,2,1,70,0,0
30173,-125,4,2,2,60,0,0
31006,-125,4,2,2,65,0,0
31340,-125,4,2,2,60,0,0
31839,-125,4,2,2,65,0,0
32173,-125,4,2,2,60,0,0
32506,-111.111111111111,4,2,2,65,0,0
32839,-125,4,2,2,60,0,0
33173,-125,4,2,2,65,0,0
33506,-125,4,2,2,60,0,0
33673,-125,4,2,2,65,0,0
34006,-125,4,2,2,60,0,0
34506,-125,4,2,2,65,0,0
34839,-125,4,2,2,60,0,0
35173,-111.111111111111,4,2,1,65,0,0
35506,-125,4,2,2,60,0,0
36339,-125,4,2,2,65,0,0
36672,-125,4,2,2,60,0,0
37173,-125,4,2,2,65,0,0
37506,-125,4,2,2,60,0,0
37839,-100,4,2,6,70,0,0
38172,-125,4,2,2,65,0,0
38506,-125,4,2,1,65,0,0
38589,-111.111111111111,4,2,1,5,0,0
38673,-125,4,2,2,65,0,0
38839,-125,4,2,2,70,0,0
39006,-125,4,2,1,65,0,0
39089,-125,4,2,2,60,0,0
39173,-100,4,2,3,65,0,0
39506,-100,4,2,1,65,0,0
39673,-100,4,2,1,60,0,0
39839,-100,4,2,1,65,0,0
40006,-100,4,2,2,55,0,0
40173,-250,4,2,2,50,0,0
40423,-111.111111111111,4,2,1,5,0,0
40506,333.333333333333,3,2,1,65,1,0
40506,-100,4,2,5,65,0,0
40839,-142.857142857143,4,2,5,65,0,0
41006,-142.857142857143,4,2,1,55,0,0
42506,-142.857142857143,4,2,1,60,0,0
43006,-142.857142857143,4,2,1,55,0,0
43506,-142.857142857143,4,2,1,45,0,0
43839,-142.857142857143,4,2,1,50,0,0
44172,-142.857142857143,4,2,1,55,0,0
44839,-142.857142857143,4,2,1,45,0,0
45505,-142.857142857143,4,2,1,55,0,0
45839,-142.857142857143,4,2,1,45,0,0
46505,-142.857142857143,4,2,1,55,0,0
47005,-142.857142857143,4,2,1,45,0,0
47505,-142.857142857143,4,2,1,55,0,0
48505,-125,4,2,1,60,0,0
48672,-125,4,2,1,55,0,0
49005,-125,4,2,1,60,0,0
49172,-125,4,2,1,55,0,0
49339,-125,4,2,1,60,0,0
49755,-111.111111111111,4,2,1,5,0,0
49839,-125,4,2,1,55,0,0
50505,-125,4,2,1,60,0,0
50672,-125,4,2,1,55,0,0
51172,-125,4,2,1,60,0,0
51505,-153.846153846154,4,2,2,60,0,0
51672,-153.846153846154,4,2,2,15,0,0
51839,-153.846153846154,4,2,2,20,0,0
52005,-153.846153846154,4,2,2,25,0,0
52172,-153.846153846154,4,2,2,30,0,0
52339,-153.846153846154,4,2,2,35,0,0
52505,-153.846153846154,4,2,2,40,0,0
52672,-153.846153846154,4,2,2,45,0,0
52839,-153.846153846154,4,2,2,50,0,0
53005,-153.846153846154,4,2,2,55,0,0
53172,-153.846153846154,4,2,2,60,0,0
53339,-153.846153846154,4,2,2,70,0,0
53505,333.333333333333,4,2,1,65,1,0
53505,-111.111111111111,4,2,1,65,0,0
53671,-111.111111111111,4,2,2,65,0,0
55838,-111.111111111111,4,2,2,60,0,0
56171,-90.9090909090908,4,2,2,70,0,0
56505,-100,4,2,2,65,0,0
56838,-90.9090909090908,4,2,2,65,0,0
57005,-90.9090909090908,4,2,2,60,0,0
57172,-100,4,2,2,60,0,0
57338,-90.9090909090908,4,2,2,65,0,0
57672,-100,4,2,2,65,0,0
58671,-100,4,2,2,60,0,0
58838,-83.3333333333333,4,2,2,70,0,0
59088,-111.111111111111,4,2,1,5,0,0
59171,-83.3333333333333,4,2,1,70,0,0
60004,-55.5555555555556,4,2,5,75,0,0
60254,-111.111111111111,4,2,1,5,0,0
60338,-76.9230769230769,4,2,1,75,0,0
60421,-111.111111111111,4,2,1,5,0,0
60504,-76.9230769230769,4,2,1,75,0,0
60671,-76.9230769230769,4,2,1,5,0,0
60838,-99.9999999999999,4,2,1,60,0,0
61004,-99.9999999999999,4,2,1,65,0,0
61171,-99.9999999999999,4,2,1,70,0,0
61338,-99.9999999999999,4,2,1,75,0,0
61421,-99.9999999999999,4,2,2,75,0,0
61504,333.333333333333,4,2,1,85,1,0
61504,-58.8235294117647,4,2,4,85,0,1
61671,-58.8235294117647,4,2,1,75,0,1
61838,-90.9090909090909,4,2,1,75,0,1
62171,-90.9090909090909,4,2,1,80,0,1
62838,-90.9090909090909,4,2,1,85,0,1
63671,-90.9090909090909,4,2,1,70,0,1
63838,-90.9090909090909,4,2,1,75,0,1
64004,-90.9090909090909,4,2,1,80,0,1
64171,-90.9090909090909,4,2,1,85,0,1
64838,-90.9090909090909,4,2,1,80,0,1
65504,-90.9090909090909,4,2,3,85,0,1
65671,-90.9090909090909,4,2,1,85,0,1
66004,-83.3333333333333,4,2,1,85,0,1
66171,-83.3333333333333,4,2,1,80,0,1
66338,-90.9090909090909,4,2,1,80,0,1
66504,-71.4285714285714,4,2,1,80,0,1
66671,-71.4285714285714,4,2,1,75,0,1
66838,-71.4285714285714,4,2,5,85,0,1
67171,-90.9090909090909,4,2,1,80,0,1
68171,-90.9090909090909,4,2,1,85,0,1
68338,-90.9090909090909,4,2,1,80,0,1
69504,-83.3333333333333,4,2,6,85,0,1
69838,-90.9090909090909,4,2,1,80,0,1
70004,-90.9090909090909,4,2,1,55,0,1
70171,-90.9090909090909,4,2,1,60,0,1
70338,-90.9090909090909,4,2,1,65,0,1
70504,-90.9090909090909,4,2,1,70,0,1
70671,-90.9090909090909,4,2,1,75,0,1
70838,-90.9090909090909,4,2,1,80,0,1
71338,-90.9090909090909,4,2,1,75,0,1
71421,-90.9090909090909,4,2,2,70,0,1
71503,-90.9090909090909,4,2,7,80,0,0
71838,-90.9090909090909,4,2,1,70,0,0
72170,-58.8235294117647,4,2,2,80,0,1
72338,-58.8235294117647,4,2,1,70,0,1
72838,-58.8235294117647,4,2,1,75,0,1
73504,-58.8235294117647,4,2,1,80,0,1
74171,-58.8235294117647,4,2,1,85,0,1
74338,-58.8235294117647,4,2,1,70,0,1
74504,-58.8235294117647,4,2,1,75,0,1
74671,-58.8235294117647,4,2,1,80,0,1
74838,-76.9230769230769,4,2,1,85,0,1
75421,-90.9090909090909,4,2,1,85,0,1
75504,-66.6666666666667,4,2,1,85,0,1
76171,-66.6666666666667,4,2,3,80,0,1
76338,-66.6666666666667,4,2,1,80,0,1
76504,-76.9230769230769,4,2,1,80,0,1
76588,-52.6315789473684,4,2,1,5,0,1
76671,-52.6315789473684,4,2,4,85,0,1
77004,-90.9090909090909,4,2,1,80,0,1
77171,-71.4285714285714,4,2,1,80,0,1
77504,-55.5555555555556,4,2,5,85,0,1
77838,-90.9090909090909,4,2,1,80,0,1
78838,-90.9090909090909,4,2,1,65,0,1
79004,-90.9090909090909,4,2,1,70,0,1
79171,-90.9090909090909,4,2,1,75,0,1
79338,-90.9090909090909,4,2,1,80,0,1
79504,-66.6666666666667,4,2,6,85,0,1
79838,-66.6666666666667,4,2,1,80,0,1
80087,-100,4,2,1,80,0,0
80170,-62.5,4,2,7,75,0,1
80338,-62.5,4,2,1,70,0,1
80420,-100,4,2,1,5,0,0
80503,-55.5555555555556,4,2,7,80,0,1
80671,-55.5555555555556,4,2,1,75,0,1
80753,-100,4,2,1,5,0,0
80837,-50,4,2,7,85,0,1
81004,-50,4,2,1,80,0,1
81087,-100,4,2,1,5,0,0
81170,-45.4545454545455,4,2,7,90,0,1
81338,-45.4545454545455,4,2,1,85,0,1
81420,-250.000000000001,4,2,1,5,0,0
81504,-250.000000000001,4,2,1,60,0,0
81754,-250.000000000001,4,2,1,5,0,0
81837,-41.6666666666667,4,2,4,90,0,1
82004,-41.6666666666667,4,2,1,85,0,1
82171,-71.4285714285714,4,2,1,85,0,1
82338,-90.9090909090909,4,2,1,85,0,1
82671,-90.9090909090909,4,2,1,80,0,1
82754,-90.9090909090909,4,2,2,75,0,1
82837,-333.333333333333,4,2,2,80,0,0
82921,-100,4,2,2,80,0,0
83004,-100,4,2,1,60,0,0
84171,-100,4,2,1,70,0,0
84338,-100,4,2,1,60,0,0
85171,-142.857142857143,4,2,1,60,0,0
85338,-142.857142857143,4,2,1,55,0,0
86838,-200,4,2,11,80,0,0
86920,-200,4,2,11,80,0,0
87171,-200,4,2,11,75,0,0
87504,-200,4,2,11,70,0,0
87838,-200,4,2,11,65,0,0
88171,-200,4,2,11,60,0,0
88504,-200,4,2,11,55,0,0
88838,-200,4,2,11,50,0,0
89171,-200,4,2,11,45,0,0
89504,-200,4,2,11,40,0,0
89838,-200,4,2,11,35,0,0
90004,-200,4,2,11,30,0,0
90171,-200,4,2,11,25,0,0
90338,-200,4,2,11,20,0,0
90504,-200,4,2,11,15,0,0
90671,-200,4,2,11,10,0,0
90838,-200,4,2,11,8,0,0
91004,-100,4,2,11,5,0,0

[Colours]
Combo1 : 247,202,119
Combo2 : 249,172,241
Combo3 : 249,244,162
Combo4 : 140,245,251

[HitObjects]
63,342,176,6,0,B|37:352|37:352|-3:334,2,53.9999983520508,2|0|2,0:0|0:0|0:0,0:0:0:0:
38,272,675,1,2,0:0:0:0:
147,334,842,2,0,B|173:344|173:344|213:326,2,53.9999983520508,2|0|2,0:0|0:0|0:0,0:0:0:0:
172,264,1341,1,2,0:0:0:0:
30,218,1509,6,0,L|38:276,1,53.9999983520508,2|0,0:0|0:0,0:0:0:0:
172,264,1842,2,0,L|164:206,1,53.9999983520508,2|0,0:0|0:0,0:0:0:0:
32,76,2175,1,2,0:0:0:0:
32,76,2509,5,2,0:0:0:0:
125,49,2675,1,2,0:0:0:0:
218,22,2842,2,0,P|227:70|239:150,1,107.999996704102,2|2,0:0|0:0,0:0:0:0:
217,292,3509,5,0,3:3:0:0:
215,279,3592,1,0,3:0:0:0:
214,266,3675,2,0,P|210:246|206:226,1,40.4999987640381,8|8,0:0|0:0,0:0:0:0:
291,344,3842,2,0,P|275:356|260:370,1,40.4999987640381,8|4,0:0|3:0,0:0:0:0:
321,239,4009,2,0,P|339:246|359:252,1,40.4999987640381,4|4,3:0|3:0,0:0:0:0:
466,384,4175,5,6,3:2:0:0:
437,349,4258,1,0,3:0:0:0:
429,306,4341,1,0,3:0:0:0:
443,264,4424,1,0,3:0:0:0:
476,234,4508,1,8,0:0:0:0:
504,199,4591,1,0,3:0:0:0:
512,156,4674,1,0,3:0:0:0:
498,114,4757,1,0,3:0:0:0:
465,84,4841,6,0,L|456:15,1,45,8|0,0:0|3:0,0:0:0:0:
294,91,5008,2,0,L|299:135,1,45,0|0,3:0|3:0,0:0:0:0:
376,2,5174,2,0,L|331:7,1,45,8|0,0:0|3:0,0:0:0:0:
383,173,5341,2,0,L|427:167,1,45,0|0,3:0|3:0,0:0:0:0:
242,363,5508,5,4,3:2:0:0:
218,325,5591,1,0,3:0:0:0:
216,281,5674,1,0,3:0:0:0:
236,241,5757,1,0,3:0:0:0:
274,217,5841,1,8,0:0:0:0:
297,179,5924,1,0,3:0:0:0:
299,135,6007,1,0,3:0:0:0:
279,95,6090,1,0,3:0:0:0:
241,71,6174,6,0,P|220:79|201:91,1,45,8|0,0:0|3:0,0:0:0:0:
97,217,6341,1,0,3:0:0:0:
98,203,6424,1,0,3:0:0:0:
101,189,6508,2,0,P|104:166|102:144,1,45,8|0,0:0|3:0,0:0:0:0:
46,18,6675,2,0,P|63:31|83:41,1,45,8|0,3:0|3:0,3:0:0:0:
2,239,6841,5,12,0:0:0:0:
5,261,6924,1,0,3:0:0:0:
9,283,7007,1,0,3:0:0:0:
12,305,7090,1,0,3:0:0:0:
15,330,7174,5,6,3:2:0:0:
48,301,7257,1,0,3:0:0:0:
92,294,7340,1,0,3:0:0:0:
133,311,7423,1,0,3:0:0:0:
159,348,7507,1,8,0:0:0:0:
192,376,7591,1,0,3:0:0:0:
236,383,7674,1,0,3:0:0:0:
277,366,7757,1,0,3:0:0:0:
303,329,7841,2,0,P|303:304|295:270,1,45,8|0,0:0|3:0,0:0:0:0:
430,340,8008,2,0,P|426:362|426:384,1,45,0|0,3:0|3:0,0:0:0:0:
223,305,8174,5,14,3:2:0:0:
217,261,8257,1,0,3:0:0:0:
237,221,8340,1,0,3:0:0:0:
276,200,8424,1,0,3:0:0:0:
320,203,8508,2,0,P|321:177|316:139,1,45,8|0,3:0|3:0,0:0:0:0:
512,25,8674,5,0,3:0:0:0:
471,7,8757,1,0,3:0:0:0:
427,14,8840,1,4,3:3:0:0:
394,44,8924,1,0,3:0:0:0:
383,87,9007,1,0,3:0:0:0:
396,129,9090,1,0,3:0:0:0:
431,157,9174,1,4,3:3:0:0:
463,186,9258,1,0,3:0:0:0:
475,229,9341,1,0,3:0:0:0:
461,272,9424,1,0,3:0:0:0:
217,261,9674,6,0,L|209:206,1,40.4999987640381,2|0,0:1|0:0,0:0:0:0:
57,114,9841,6,0,B|84:42|198:42|213:141|213:141|164:138|137:184,1,306.000005836487,6|0,3:2|3:0,0:0:0:0:
111,378,10341,1,0,3:0:0:0:
298,303,10507,1,10,0:0:0:0:
140,261,10674,1,0,3:0:0:0:
140,274,10757,1,0,3:0:0:0:
141,287,10840,1,2,0:0:0:0:
16,384,11007,1,0,3:0:0:0:
40,210,11174,6,0,P|52:253|58:324,1,90,10|0,0:0|0:0,0:0:0:0:
203,177,11507,1,0,3:0:0:0:
7,47,11674,1,0,3:0:0:0:
40,210,11840,1,10,0:0:0:0:
170,14,12007,1,10,0:0:0:0:
180,16,12090,1,8,0:0:0:0:
190,18,12174,6,0,L|248:25,1,54,6|0,3:2|0:0,0:0:0:0:
301,154,12507,6,0,B|366:81|323:-2|323:-2|334:58|282:110,1,270.000010299683,12|0,0:0|3:0,0:0:0:0:
105,112,13007,1,0,3:0:0:0:
297,92,13174,1,8,0:0:0:0:
152,361,13340,6,0,B|218:394|256:344|256:344|285:258|374:275,1,251.999992309571,4|0,3:2|3:0,0:0:0:0:
185,285,13840,1,10,0:0:0:0:
350,369,14007,1,2,0:0:0:0:
506,269,14174,1,2,3:2:0:0:
431,314,14340,1,0,3:0:0:0:
470,138,14507,1,8,0:0:0:0:
430,238,14673,1,8,0:0:0:0:
430,224,14758,1,8,0:0:0:0:
431,210,14840,5,2,3:2:0:0:
506,269,15007,1,2,0:0:0:0:
512,67,15174,2,0,B|458:37|391:90|391:90|385:85|385:85|319:135|258:104,1,270.000010299683,12|2,0:0|3:2,0:0:0:0:
305,34,15674,1,2,3:2:0:0:
222,178,15840,1,2,0:0:0:0:
105,4,16008,6,0,L|84:178,1,175.499991966248,8|0,0:2|0:0,0:0:0:0:
84,191,16341,1,2,3:2:0:0:
8,70,16507,1,8,0:0:0:0:
176,115,16674,1,2,0:0:0:0:
180,102,16757,1,2,0:0:0:0:
183,89,16840,2,0,L|196:-21,1,90,0|2,3:2|3:2,0:0:0:0:
113,289,17174,1,10,0:0:0:0:
7,216,17340,1,8,0:0:0:0:
7,202,17424,1,8,0:0:0:0:
6,188,17507,5,6,3:2:0:0:
218,361,17674,1,2,0:0:0:0:
19,384,17840,1,10,0:0:0:0:
206,191,18007,1,0,3:0:0:0:
467,257,18174,1,4,3:3:0:0:
333,362,18340,1,8,0:0:0:0:
334,348,18424,1,8,0:0:0:0:
333,334,18507,2,0,L|340:259,1,45,8|0,0:0|0:0,0:0:0:0:
494,41,18674,6,0,B|420:109|317:32|391:42|303:-31|218:-53|142:-22|26:180|249:282|338:203|358:129,1,648,6|0,3:2|3:2,0:0:0:0:
356,135,20340,6,0,L|504:153,1,144,2|2,0:0|0:0,0:0:0:0:
425,281,20840,1,0,3:0:0:0:
348,240,21007,1,2,3:2:0:0:
496,235,21174,1,2,0:0:0:0:
427,366,21340,2,0,L|283:349,1,144,10|0,0:0|3:0,0:0:0:0:
97,298,21840,5,10,0:0:0:0:
90,384,22007,1,2,3:2:0:0:
183,302,22173,1,2,0:0:0:0:
101,209,22340,1,10,0:0:0:0:
8,291,22507,2,0,B|4:250|4:250|7:227|7:227|1:153,1,121.499996292114,2|0,3:2|0:0,0:0:0:0:
4,159,22840,6,0,P|5:121|-2:73,1,72,10|0,0:0|3:0,0:0:0:0:
122,23,23173,1,2,3:2:0:0:
112,116,23340,1,2,3:2:0:0:
101,209,23507,1,2,0:0:0:0:
122,33,23673,2,0,B|163:39|187:15|187:15|224:-2|262:19,1,144,10|2,0:0|3:2,0:0:0:0:
435,29,24173,5,10,0:0:0:0:
258,16,24340,1,2,3:2:0:0:
344,109,24507,1,2,0:0:0:0:
346,22,24673,1,10,0:0:0:0:
342,196,24840,2,0,L|466:185,1,121.499996292114,2|0,3:2|0:0,0:0:0:0:
473,186,25173,2,0,P|480:226|480:271,1,72,10|0,0:0|3:0,0:0:0:0:
394,359,25507,5,2,3:2:0:0:
368,278,25673,1,2,3:2:0:0:
342,196,25840,1,2,0:0:0:0:
471,365,26007,2,0,L|301:349,1,161.999995056153,10|2,0:0|3:2,0:0:0:0:
161,272,26507,1,10,0:0:0:0:
233,384,26673,2,0,B|214:345|233:311|233:311|255:276|235:237,1,144,2|10,3:2|0:0,0:0:0:0:
192,66,27173,6,0,B|184:109|184:109|190:132|190:132|176:200,1,121.499996292114,2|0,3:2|0:0,0:0:0:0:
179,195,27507,2,0,B|142:184|142:184|104:199,1,72,10|0,0:0|3:0,0:0:0:0:
76,291,27840,1,2,3:2:0:0:
164,272,28007,1,2,3:2:0:0:
47,376,28173,1,2,0:0:0:0:
18,221,28340,6,0,B|4:114|4:114|28:46|105:52,1,215.999993408203,12|0,0:0|3:0,0:0:0:0:
84,128,28840,1,10,0:0:0:0:
286,71,29007,1,2,3:2:0:0:
488,14,29173,1,4,3:2:0:0:
488,14,29840,6,0,B|464:109|464:109|466:75|432:52,1,161.999995056153,6|8,3:2|0:0,0:0:0:0:
286,71,30340,1,2,3:2:0:0:
285,60,30423,1,8,0:0:0:0:
283,49,30506,1,2,3:2:0:0:
436,55,30673,1,2,0:0:0:0:
360,10,30840,1,8,0:0:0:0:
371,107,31006,6,0,P|381:159|393:262,1,144,2|0,3:2|3:2,0:0:0:0:
491,382,31506,1,10,0:0:0:0:
481,290,31673,1,2,3:2:0:0:
335,352,31839,2,0,L|420:343,1,72,2|0,3:2|0:0,0:0:0:0:
184,273,32173,1,10,0:0:0:0:
248,383,32339,1,2,0:0:0:0:
249,372,32422,1,8,0:0:0:0:
251,359,32506,6,0,P|259:287|279:196,1,161.999995056153,2|10,3:2|0:0,0:0:0:0:
364,91,33006,1,2,3:2:0:0:
425,147,33173,1,2,3:2:0:0:
340,256,33340,1,2,0:0:0:0:
279,200,33507,1,10,0:0:0:0:
303,35,33673,6,0,L|152:26,1,144,2|0,3:2|3:0,0:0:0:0:
0,21,34173,2,0,P|4:56|3:92,1,72,10|0,0:0|3:0,0:0:0:0:
156,97,34506,2,0,P|154:61|159:25,1,72,2|0,3:2|0:0,0:0:0:0:
75,148,34839,1,8,0:0:0:0:
78,64,35006,1,2,0:0:0:0:
49,224,35173,6,0,B|88:241|127:209|127:209|188:202|215:242,1,161.999995056153,4|10,3:2|0:0,0:0:0:0:
247,298,35673,1,2,3:2:0:0:
246,310,35756,1,8,0:0:0:0:
246,320,35839,1,2,3:2:0:0:
336,302,36006,1,2,0:0:0:0:
200,226,36173,1,10,0:0:0:0:
202,382,36339,6,0,P|131:371|54:366,1,144,2|0,3:2|3:0,0:0:0:0:
0,267,36839,2,0,P|35:264|71:259,1,72,10|0,0:0|3:0,0:0:0:0:
82,258,37089,1,8,0:0:0:0:
92,256,37173,2,0,L|76:155,1,72,2|0,3:2|0:0,0:0:0:0:
0,22,37506,1,10,0:0:0:0:
10,55,37589,1,8,0:0:0:0:
37,79,37672,1,8,0:0:0:0:
72,84,37756,1,8,0:0:0:0:
108,63,37839,6,0,B|146:78|185:42|185:42|190:44|190:44|230:6|275:25,1,180,6|8,3:2|0:0,0:0:0:0:
401,83,38339,1,8,0:0:0:0:
402,72,38423,1,8,0:0:0:0:
405,61,38506,2,0,L|412:12,1,36,4|0,3:3|0:0,0:0:0:0:
466,145,38673,1,8,0:0:0:0:
442,160,38756,1,8,0:0:0:0:
414,168,38839,1,8,0:0:0:0:
385,167,38923,1,8,0:0:0:0:
358,157,39006,1,4,3:3:0:0:
336,139,39089,1,4,3:3:0:0:
317,115,39173,6,0,B|275:100|275:100|210:124,1,90,6|0,3:2|0:0,0:0:0:0:
144,325,39506,1,2,0:0:0:0:
116,238,39673,1,4,3:0:0:0:
278,181,39839,1,2,0:0:0:0:
250,268,40006,1,4,3:0:0:0:
407,384,40173,2,0,L|415:319,1,54,4|0,3:0|0:0,0:0:0:0:
512,240,40506,6,0,B|441:262|414:331|414:331|399:246|330:210,1,270,6|0,3:2|0:0,0:0:0:0:
433,130,41172,2,0,P|429:161|430:193,1,62.9999980773926,2|0,0:0|0:0,0:0:0:0:
489,64,41506,6,0,B|438:39|395:64|395:64|350:92|299:66,1,188.999994232178,2|2,0:0|0:0,0:0:0:0:
268,0,42172,1,2,0:0:0:0:
349,0,42339,1,2,0:0:0:0:
229,71,42506,2,0,B|196:115|215:161|215:161|255:200|242:250,1,188.999994232178,2|0,0:0|0:0,0:0:0:0:
163,227,43172,2,0,L|90:214,1,62.9999980773926,2|0,0:0|0:0,0:0:0:0:
19,384,43506,5,2,0:0:0:0:
9,358,43672,1,2,0:0:0:0:
88,303,43839,5,2,0:0:0:0:
98,352,44005,1,2,0:0:0:0:
176,384,44172,5,2,0:0:0:0:
191,301,44338,1,2,0:0:0:0:
255,355,44505,6,0,P|309:336|385:321,2,125.999996154785,2|2|2,0:0|0:0|0:0,0:0:0:0:
332,186,45505,2,0,P|272:206|210:218,2,125.999996154785,2|2|2,0:0|0:0|0:0,0:0:0:0:
406,56,46505,2,0,B|384:97|412:142|412:142|437:185|412:236,1,188.999994232178,2|0,0:0|0:0,0:0:0:0:
412,235,47339,5,2,0:0:0:0:
427,330,47505,2,0,L|422:371,2,31.4999990386963,2|2|2,0:0|0:0|0:0,0:0:0:0:
507,276,47839,1,2,0:0:0:0:
335,301,48172,1,2,0:0:0:0:
335,301,48505,6,0,P|283:305|242:403,1,144,2|2,0:0|0:3,0:0:0:0:
62,299,49005,2,0,P|114:303|155:401,1,144,2|0,0:0|0:0,0:0:0:0:
202,270,49505,2,0,L|212:162,1,108,2|0,0:0|0:0,0:0:0:0:
213,151,49839,6,0,P|256:158|290:147,1,72,2|0,0:0|0:0,0:0:0:0:
87,215,50172,2,0,P|43:222|9:211,1,72,2|0,0:0|0:0,0:0:0:0:
73,34,50505,6,0,B|32:55|20:108|53:148|53:148|48:100|88:74,1,216,2|2,0:0|0:3,0:0:0:0:
130,134,51172,2,0,L|219:123,1,72,2|0,0:0|0:0,0:0:0:0:
316,0,51505,6,0,B|323:57|276:69|252:67|252:67|297:101|276:162|276:162|274:248|383:280|405:128|276:161|276:161|221:193|227:253|227:253|263:268|283:325|250:363,1,701.999967864992,4|0,3:3|3:0,0:0:0:0:
249,363,53671,6,0,P|315:353|416:361,1,161.999995056153,2|2,0:0|0:0,0:0:0:0:
460,207,54171,1,2,3:2:0:0:
512,298,54338,2,0,L|332:267,1,161.999995056153,2|2,0:0|0:0,0:0:0:0:
186,237,54838,5,0,3:0:0:0:
352,270,55005,1,2,0:0:0:0:
260,301,55171,1,2,3:2:0:0:
279,207,55338,1,2,0:0:0:0:
298,113,55505,2,0,P|296:71|289:21,1,80.9999975280763,2|0,3:2|0:0,0:0:0:0:
500,147,55838,1,2,3:2:0:0:
371,42,56005,1,2,0:2:0:0:
444,0,56171,6,0,B|465:40|436:91|436:91|403:143|427:187,1,198.000006042481,2|8,3:2|0:0,0:0:0:0:
503,303,56671,1,2,0:0:0:0:
507,315,56755,1,8,0:0:0:0:
509,329,56838,2,0,B|468:366|409:331|409:331|385:279|336:279,1,198.000006042481,2|2,3:2|0:0,0:0:0:0:
105,360,57338,6,0,B|145:397|204:362|204:362|228:310|277:310,1,198.000006042481,10|0,0:0|3:0,0:0:0:0:
334,356,57838,1,10,0:0:0:0:
142,184,58004,1,0,3:0:0:0:
141,198,58088,1,8,0:0:0:0:
142,212,58171,2,0,L|152:311,1,90,2|0,0:0|3:0,0:0:0:0:
0,91,58504,1,8,0:0:0:0:
12,47,58587,1,8,0:0:0:0:
48,21,58670,1,8,0:0:0:0:
92,23,58754,1,8,0:0:0:0:
122,63,58838,6,0,B|184:53|184:53|194:40|194:40|278:26,1,161.999995056153,2|0,3:2|0:0,0:0:0:0:
300,18,59171,5,8,0:0:0:0:
345,275,59338,1,0,3:0:0:0:
412,3,59504,5,8,0:0:0:0:
343,295,59671,1,2,3:2:0:0:
512,54,59838,1,10,0:0:0:0:
341,315,60004,6,0,B|315:237|220:250|220:250|273:254|294:304,1,242.999992584229,6|0,3:2|0:0,0:0:0:0:
205,384,60338,2,0,L|218:327,1,58.4999973220826,10|0,0:2|0:0,0:0:0:0:
304,29,60504,1,10,0:0:0:0:
304,29,60838,5,0,3:0:0:0:
305,42,60921,1,0,3:0:0:0:
307,55,61004,2,0,P|301:91|300:125,1,45,8|8,0:0|0:0,0:0:0:0:
172,252,61171,2,0,P|169:229|165:207,1,45,8|8,0:0|0:0,0:0:0:0:
32,30,61338,2,0,P|38:66|39:100,1,45,4|4,3:0|3:0,0:0:0:0:
81,326,61504,6,0,B|52:292|7:300|7:300|120:258|104:374|229:322,1,306.000005836487,4|10,3:2|0:0,0:0:0:0:
264,248,62004,1,2,0:0:0:0:
452,377,62171,5,2,3:2:0:0:
512,305,62338,1,2,0:0:0:0:
440,245,62504,1,10,0:0:0:0:
380,317,62671,1,2,0:0:0:0:
399,32,62838,5,2,3:2:0:0:
472,92,63005,1,2,0:0:0:0:
412,164,63171,1,10,0:0:0:0:
340,104,63338,1,2,0:0:0:0:
89,11,63504,5,2,3:2:0:0:
8,62,63671,1,2,0:0:0:0:
0,210,63838,1,8,0:0:0:0:
111,343,64004,2,0,L|119:270,1,49.5000015106202,8|8,0:0|0:0,0:0:0:0:
173,61,64171,6,0,P|219:51|278:45,1,99.0000030212403,2|0,3:2|0:0,0:0:0:0:
393,272,64504,2,0,P|346:262|288:256,1,99.0000030212403,10|2,0:0|0:0,0:0:0:0:
280,258,64754,1,8,0:0:0:0:
266,263,64838,2,0,L|255:156,1,99.0000030212403,2|0,3:2|0:0,0:0:0:0:
453,29,65171,2,0,L|463:127,1,99.0000030212403,10|0,0:0|0:0,0:0:0:0:
496,337,65504,5,6,3:2:0:0:
463,127,65671,1,2,0:0:0:0:
269,46,65838,1,10,0:0:0:0:
296,257,66004,6,0,B|246:224|190:272|190:272|175:331|118:342,1,215.999993408203,2|2,0:0|0:0,0:0:0:0:
28,384,66421,1,2,0:0:0:0:
26,366,66504,2,0,P|23:329|8:279,1,62.9999980773926,10|8,0:0|0:0,0:0:0:0:
117,196,66671,2,0,P|110:227|109:259,1,62.9999980773926,8|8,0:0|0:0,0:0:0:0:
24,64,66838,6,0,B|60:13|150:37|140:118|140:118|103:105|65:132,1,251.999992309571,6|10,3:2|0:0,0:0:0:0:
17,303,67338,2,0,L|30:174,1,99.0000030212403,2|2,0:0|3:2,0:0:0:0:
201,14,67671,1,2,3:2:0:0:
222,110,67838,1,10,0:0:0:0:
243,206,68004,1,2,0:0:0:0:
396,16,68171,5,2,3:2:0:0:
308,113,68338,2,0,L|298:14,1,99.0000030212403,2|10,0:0|0:0,0:0:0:0:
412,241,68671,1,2,0:0:0:0:
363,172,68838,2,0,B|410:155|410:155|474:183,1,99.0000030212403,2|0,3:2|0:0,0:0:0:0:
512,384,69171,1,10,0:0:0:0:
490,340,69254,1,8,0:0:0:0:
447,316,69337,1,8,0:0:0:0:
399,323,69420,1,8,0:0:0:0:
363,355,69504,6,0,B|321:373|270:325|270:325|264:329|264:329|214:283|166:302,1,215.999993408203,6|10,3:2|0:0,0:0:0:0:
104,367,70004,1,2,0:0:0:0:
0,312,70171,1,2,3:2:0:0:
0,149,70338,1,2,0:0:0:0:
135,0,70504,1,10,0:0:0:0:
408,48,70671,1,2,0:0:0:0:
363,355,70838,5,2,3:2:0:0:
363,335,70921,1,8,0:0:0:0:
363,315,71004,2,0,P|363:282|370:250,1,49.5000015106202,8|8,0:0|0:0,0:0:0:0:
235,80,71171,2,0,P|238:104|238:129,1,49.5000015106202,8|0,0:0|0:0,0:0:0:0:
84,348,71337,2,0,P|83:315|76:283,1,49.5000015106202,4|4,3:0|3:0,0:0:0:0:
34,15,71503,1,4,3:2:0:0:
34,15,71838,6,0,L|44:74,1,49.5000015106202,8|8,0:0|0:0,0:0:0:0:
230,178,72004,2,0,L|238:129,1,49.5000015106202,8|8,0:0|0:0,0:0:0:0:
451,19,72171,5,4,3:2:0:0:
504,90,72338,1,2,0:0:0:0:
414,278,72504,5,10,0:0:0:0:
467,349,72671,1,2,0:0:0:0:
416,101,72838,5,10,0:0:0:0:
369,186,73004,1,2,3:2:0:0:
281,142,73171,1,10,0:0:0:0:
324,54,73338,1,2,3:2:0:0:
469,180,73504,5,10,0:0:0:0:
405,3,73671,1,2,0:0:0:0:
226,61,73838,1,10,0:0:0:0:
287,243,74004,1,2,0:0:0:0:
63,384,74171,5,10,0:0:0:0:
0,316,74338,1,2,3:2:0:0:
0,162,74504,1,10,0:0:0:0:
151,2,74671,1,2,3:2:0:0:
459,102,74838,6,0,P|447:158|441:242,1,116.999994644165,2|0,3:2|0:0,0:0:0:0:
195,384,75171,2,0,P|190:330|176:268,1,116.999994644165,10|0,0:0|0:0,0:0:0:0:
177,253,75421,1,8,0:0:0:0:
175,233,75504,2,0,B|112:207|112:207|43:246,1,135.000005149842,10|0,0:0|3:0,0:0:0:0:
380,280,75838,2,0,B|443:306|443:306|512:267,1,135.000005149842,10|0,0:0|3:0,0:0:0:0:
255,21,76171,5,6,3:2:0:0:
274,338,76338,1,8,0:0:0:0:
276,314,76421,1,8,0:0:0:0:
277,290,76504,2,0,L|284:230,1,58.4999973220826,8|0,0:0|0:0,0:0:0:0:
512,45,76671,6,0,B|473:-23|342:4|323:85|323:85|380:60|426:109,1,341.999990867615,4|0,3:2|0:0,0:0:0:0:
361,235,77088,1,8,0:0:0:0:
361,216,77171,2,0,P|359:171|367:126,1,62.9999980773926,8|8,0:0|0:0,0:0:0:0:
161,15,77338,2,0,P|163:46|161:77,1,62.9999980773926,8|8,0:0|0:0,0:0:0:0:
21,303,77504,6,0,B|11:352|45:382|85:375|107:351|138:301|113:239|26:272|63:146,1,323.999990112305,6|10,3:2|0:0,0:0:0:0:
44,0,78004,1,2,3:2:0:0:
44,14,78088,1,8,0:0:0:0:
45,28,78171,1,0,0:0:0:0:
176,201,78338,1,2,3:2:0:0:
61,151,78504,1,10,0:0:0:0:
161,77,78671,1,2,0:0:0:0:
239,339,78838,5,2,3:2:0:0:
322,376,79004,1,2,0:0:0:0:
505,255,79171,5,10,0:0:0:0:
313,286,79337,1,2,0:0:0:0:
377,10,79504,6,0,L|413:292,1,270.000010299683,6|10,3:2|0:0,0:0:0:0:
208,99,80004,1,10,0:0:0:0:
208,99,80088,1,10,0:0:0:0:
208,99,80171,22,0,B|269:56|219:-1|219:-1|148:12|158:78,1,216,10|0,0:1|0:0,0:0:0:0:
33,161,80504,22,0,B|-34:114|20:50|20:50|98:65|87:138,1,242.999992584229,10|0,0:1|0:0,0:0:0:0:
217,259,80838,22,0,B|291:209|229:136|229:136|140:154|153:237,1,270,10|0,0:1|0:0,0:0:0:0:
59,384,81171,22,0,B|-23:328|44:247|44:247|144:266|129:359,1,297.000009063721,10|0,0:1|0:0,0:0:0:0:
324,384,81504,6,0,L|329:326,1,54,2|0,3:1|0:0,0:0:0:0:
484,222,81838,6,0,B|452:146|330:150|319:255|319:255|370:250|400:298,1,323.999990112305,12|8,0:0|0:0,0:0:0:0:
475,363,82171,2,0,P|472:327|479:291,1,62.9999980773926,8|8,0:0|0:0,0:0:0:0:
501,44,82338,5,8,0:0:0:0:
468,77,82421,1,8,0:0:0:0:
424,91,82504,1,8,0:0:0:0:
378,79,82587,1,8,0:0:0:0:
345,47,82671,2,0,L|282:40,1,49.5000015106202,0|0,3:0|3:0,0:0:0:0:
11,21,82838,5,6,3:2:0:0:
8,35,83171,1,0,3:0:0:0:
4,48,83504,1,0,3:0:0:0:
1,62,83838,1,0,3:0:0:0:
109,285,84171,5,2,3:2:0:0:
112,271,84504,1,0,3:0:0:0:
116,258,84837,1,0,3:0:0:0:
120,242,85171,2,0,L|127:168,1,62.9999980773926,0|0,3:0|0:0,0:0:0:0:
126,170,85421,1,2,0:0:0:0:
127,161,85504,1,0,3:0:0:0:
127,161,86838,6,0,B|78:150|43:82|110:-1|233:44|239:112|220:209|220:209|331:149|307:39|307:39|380:35|404:125|404:125|433:207|570:200|508:4|394:130|394:130|352:185|386:263,1,1125,4|0,0:0|0:0,0:0:0:0:
