osu file format v14

[General]
AudioFilename: audio.mp3
AudioLeadIn: 0
PreviewTime: 61421
Countdown: 0
SampleSet: Soft
StackLeniency: 0.5
Mode: 0
LetterboxInBreaks: 0
WidescreenStoryboard: 1

[Editor]
Bookmarks: 176,4175,9508,20174,29840,40506,48505,53505,61504,91004
DistanceSpacing: 0.3
BeatDivisor: 4
GridSize: 32
TimelineZoom: 1.4

[Metadata]
Title:Kimi dake no Princess
TitleUnicode:キミだけのプリンセス
Artist:AZKi, Omaru Polka
ArtistUnicode:AZKi・尾丸ポルカ
Creator:tomatas95
Version:Suou's Expert
Source:ガラス姫と鏡の従者
Tags:eroge Princess only for you Princess of glass and Retinue of mirrors Glass Hime to Kagami no Juusha yuiko hololive virtual youtuber vtuber giga video game japanese visual novel vn op opening galgame shirahane suou Tansa j-pop pop jpop game version production
BeatmapID:3664375
BeatmapSetID:1769796

[Difficulty]
HPDrainRate:5.2
CircleSize:4.2
OverallDifficulty:8.7
ApproachRate:9.2
SliderMultiplier:2
SliderTickRate:1

[Events]
//Background and Video events
Video,-1100,"DownBadForPrincesses.mp4"
0,0,"BernadetteDanceFestival.jpg",0,0
//Break Periods
//Storyboard Layer 0 (Background)
//Storyboard Layer 1 (Fail)
//Storyboard Layer 2 (Pass)
//Storyboard Layer 3 (Foreground)
//Storyboard Layer 4 (Overlay)
//Storyboard Sound Samples

[TimingPoints]
176,333.333333333333,4,2,1,40,1,0
842,-100,4,2,1,45,0,0
1509,-100,4,2,1,50,0,0
2175,-100,4,2,1,55,0,0
2509,-100,4,2,1,30,0,0
2842,-100,4,2,1,40,0,0
3509,-100,4,2,1,50,0,0
3675,-100,4,2,1,60,0,0
3842,-100,4,2,1,65,0,0
4009,-100,4,2,2,60,0,0
4092,-100,4,2,3,55,0,0
4175,333.333333333333,4,2,3,70,1,0
4175,-117.647058823529,4,2,3,70,0,0
4258,-117.647058823529,4,2,1,70,0,0
4508,-117.647058823529,4,2,1,75,0,0
4591,-117.647058823529,4,2,1,70,0,0
4841,-117.647058823529,4,2,1,75,0,0
4924,-117.647058823529,4,2,1,70,0,0
5091,-117.647058823529,4,2,1,65,0,0
5174,-117.647058823529,4,2,1,75,0,0
5258,-117.647058823529,4,2,1,60,0,0
5341,-117.647058823529,4,2,1,55,0,0
5424,-117.647058823529,4,2,1,50,0,0
5508,-117.647058823529,4,2,4,75,0,0
5591,-117.647058823529,4,2,1,70,0,0
5841,-117.647058823529,4,2,1,75,0,0
5924,-117.647058823529,4,2,1,70,0,0
6174,-117.647058823529,4,2,1,75,0,0
6258,-117.647058823529,4,2,1,70,0,0
6508,-117.647058823529,4,2,1,75,0,0
6591,-117.647058823529,4,2,1,70,0,0
6841,-117.647058823529,4,2,1,60,0,0
6924,-117.647058823529,4,2,1,55,0,0
7174,-117.647058823529,4,2,5,75,0,0
7258,-117.647058823529,4,2,1,70,0,0
7508,-117.647058823529,4,2,1,75,0,0
7591,-117.647058823529,4,2,1,70,0,0
7841,-117.647058823529,4,2,1,75,0,0
7924,-117.647058823529,4,2,1,70,0,0
8174,-117.647058823529,4,2,6,80,0,0
8258,-117.647058823529,4,2,1,75,0,0
8508,-117.647058823529,4,2,1,80,0,0
8591,-117.647058823529,4,2,1,75,0,0
8841,-117.647058823529,4,2,1,80,0,0
8924,-117.647058823529,4,2,1,75,0,0
9174,-117.647058823529,4,2,1,80,0,0
9257,-117.647058823529,4,2,1,75,0,0
9508,-117.647058823529,4,2,1,15,0,0
9674,-117.647058823529,4,2,1,45,0,0
9758,-117.647058823529,4,2,1,5,0,0
9841,-100,4,2,2,75,0,0
10007,-100,4,2,1,70,0,0
10091,-117.647058823529,4,2,1,5,0,0
10174,-111.111111111111,4,2,1,70,0,0
10674,-111.111111111111,4,2,1,75,0,0
10840,-111.111111111111,4,2,1,70,0,0
11091,-117.647058823529,4,2,1,5,0,0
11174,-111.111111111111,4,2,1,70,0,0
12007,-111.111111111111,4,2,1,75,0,0
12174,-200,4,2,1,70,0,0
12424,-117.647058823529,4,2,1,5,0,0
12507,-100,4,2,3,80,0,0
12758,-117.647058823529,4,2,1,5,0,0
12840,-111.111111111111,4,2,1,70,0,0
13340,-111.111111111111,4,2,4,75,0,0
13674,-111.111111111111,4,2,1,70,0,0
14007,-111.111111111111,4,2,1,75,0,0
14174,-111.111111111111,4,2,1,80,0,0
14340,-111.111111111111,4,2,1,70,0,0
14840,-200,4,2,1,60,0,0
15091,-117.647058823529,4,2,1,5,0,0
15174,-100,4,2,6,75,0,0
15340,-100,4,2,1,70,0,0
15424,-117.647058823529,4,2,1,5,0,0
15507,-111.111111111111,4,2,1,65,0,0
15674,-111.111111111111,4,2,1,70,0,0
15840,-111.111111111111,4,2,1,75,0,0
16007,-111.111111111111,4,2,3,75,0,0
16258,-117.647058823529,4,2,1,5,0,0
16340,-111.111111111111,4,2,1,70,0,0
16924,-117.647058823529,4,2,1,5,0,0
17008,-111.111111111111,4,2,1,70,0,0
17340,-111.111111111111,4,2,1,75,0,0
17507,-111.111111111111,4,2,5,80,0,0
17674,-111.111111111111,4,2,2,75,0,0
18174,-111.111111111111,4,2,1,70,0,0
18258,-117.647058823529,4,2,1,5,0,0
18341,-111.111111111111,4,2,1,70,0,0
18674,-333.333333333333,4,2,2,80,0,0
18840,-333.333333333333,4,2,2,70,0,0
19007,-333.333333333333,4,2,2,65,0,0
19174,-333.333333333333,4,2,2,60,0,0
19340,-333.333333333333,4,2,2,55,0,0
19507,-333.333333333333,4,2,2,50,0,0
19674,-333.333333333333,4,2,2,45,0,0
19840,-333.333333333333,4,2,2,40,0,0
20007,-333.333333333333,4,2,2,35,0,0
20174,333.333333333333,7,2,1,65,1,0
20174,-117.647058823529,7,2,1,65,0,0
20340,-117.647058823529,7,2,2,60,0,0
20840,-117.647058823529,7,2,2,65,0,0
21174,-117.647058823529,7,2,2,60,0,0
21340,-117.647058823529,7,2,2,65,0,0
21590,-117.647058823529,7,2,2,60,0,0
22507,-117.647058823529,7,2,1,65,0,0
22757,-117.647058823529,4,2,1,5,0,0
22840,-117.647058823529,7,2,2,60,0,0
23673,-117.647058823529,7,2,2,65,0,0
23923,-117.647058823529,7,2,2,60,0,0
24340,-117.647058823529,7,2,2,65,0,0
24507,-117.647058823529,7,2,2,60,0,0
24840,-117.647058823529,7,2,2,65,0,0
25007,-117.647058823529,7,2,2,60,0,0
25090,-117.647058823529,4,2,1,5,0,0
25173,-117.647058823529,7,2,2,60,0,0
25507,-117.647058823529,7,2,2,65,0,0
25840,-117.647058823529,7,2,2,60,0,0
26007,-117.647058823529,7,2,2,65,0,0
26257,-117.647058823529,7,2,2,60,0,0
26673,-117.647058823529,7,2,2,65,0,0
27007,-117.647058823529,7,2,2,60,0,0
27173,-117.647058823529,7,2,2,65,0,0
27423,-117.647058823529,4,2,1,5,0,0
27507,-117.647058823529,7,2,2,60,0,0
27840,-117.647058823529,7,2,2,65,0,0
28173,-117.647058823529,7,2,2,60,0,0
28340,-117.647058823529,7,2,3,75,0,0
28590,-117.647058823529,7,2,2,70,0,0
28757,-117.647058823529,4,2,1,5,0,0
28840,-117.647058823529,7,2,2,70,0,0
29173,-117.647058823529,7,2,7,75,0,0
29340,-117.647058823529,7,2,1,5,0,0
29840,333.333333333333,4,2,1,70,1,0
29840,-117.647058823529,4,2,1,70,0,0
30173,-117.647058823529,4,2,2,60,0,0
31006,-117.647058823529,4,2,2,65,0,0
31340,-117.647058823529,4,2,2,60,0,0
31839,-117.647058823529,4,2,2,65,0,0
32173,-117.647058823529,4,2,2,60,0,0
32506,-117.647058823529,4,2,2,65,0,0
32839,-117.647058823529,4,2,2,60,0,0
33173,-117.647058823529,4,2,2,65,0,0
33506,-117.647058823529,4,2,2,60,0,0
33673,-117.647058823529,4,2,2,65,0,0
34006,-117.647058823529,4,2,2,60,0,0
34173,-200,4,2,2,60,0,0
34423,-117.647058823529,4,2,1,5,0,0
34506,-117.647058823529,4,2,2,65,0,0
34839,-117.647058823529,4,2,2,60,0,0
35173,-117.647058823529,4,2,1,65,0,0
35506,-117.647058823529,4,2,2,60,0,0
36339,-117.647058823529,4,2,2,65,0,0
36672,-117.647058823529,4,2,2,60,0,0
37173,-117.647058823529,4,2,2,65,0,0
37506,-117.647058823529,4,2,2,60,0,0
37839,-117.647058823529,4,2,6,70,0,0
38173,-117.647058823529,4,2,2,65,0,0
38506,-117.647058823529,4,2,1,65,0,0
38673,-117.647058823529,4,2,2,65,0,0
38839,-117.647058823529,4,2,2,70,0,0
39006,-117.647058823529,4,2,1,65,0,0
39089,-117.647058823529,4,2,2,60,0,0
39173,-133.333333333333,4,2,3,65,0,0
39506,-133.333333333333,4,2,1,65,0,0
39673,-133.333333333333,4,2,1,60,0,0
39839,-133.333333333333,4,2,1,65,0,0
40006,-133.333333333333,4,2,2,55,0,0
40173,-133.333333333333,4,2,2,50,0,0
40422,-117.647058823529,4,2,1,5,0,0
40506,333.333333333333,3,2,5,65,1,0
40506,-200,3,2,5,65,0,0
41006,-200,3,2,1,55,0,0
42506,-200,3,2,1,60,0,0
43006,-200,3,2,1,55,0,0
43506,-200,3,2,1,45,0,0
43839,-200,3,2,1,50,0,0
44172,-200,3,2,1,55,0,0
44839,-200,3,2,1,45,0,0
45505,-200,3,2,1,55,0,0
45839,-200,3,2,1,45,0,0
46505,-200,3,2,1,55,0,0
47005,-200,3,2,1,45,0,0
47505,-200,3,2,1,55,0,0
48506,-166.666666666667,3,2,1,60,0,0
48672,-166.666666666667,3,2,1,55,0,0
49005,-166.666666666667,3,2,1,60,0,0
49172,-166.666666666667,3,2,1,55,0,0
49339,-166.666666666667,3,2,1,60,0,0
49839,-166.666666666667,3,2,1,55,0,0
50505,-166.666666666667,3,2,1,60,0,0
50672,-166.666666666667,3,2,1,55,0,0
51172,-166.666666666667,3,2,1,60,0,0
51506,-333.333333333334,3,2,2,60,0,0
51672,-333.333333333334,3,2,2,15,0,0
51839,-333.333333333334,3,2,2,20,0,0
52005,-333.333333333334,3,2,2,25,0,0
52172,-333.333333333334,3,2,2,30,0,0
52339,-333.333333333334,3,2,2,35,0,0
52505,-333.333333333334,3,2,2,40,0,0
52672,-333.333333333334,3,2,2,45,0,0
52839,-333.333333333334,3,2,2,50,0,0
53005,-333.333333333334,3,2,2,55,0,0
53172,-333.333333333334,3,2,2,60,0,0
53339,-333.333333333334,3,2,2,70,0,0
53505,333.333333333333,4,2,1,65,1,0
53505,-133.333333333333,4,2,1,65,0,0
53671,-133.333333333333,4,2,2,65,0,0
55838,-133.333333333333,4,2,2,60,0,0
56171,-117.647058823529,4,2,2,70,0,0
56505,-117.647058823529,4,2,2,65,0,0
57005,-117.647058823529,4,2,2,60,0,0
57338,-117.647058823529,4,2,2,65,0,0
58671,-117.647058823529,4,2,2,60,0,0
58838,-117.647058823529,4,2,2,70,0,0
59171,-117.647058823529,4,2,1,70,0,0
60004,-117.647058823529,4,2,5,75,0,0
60254,-117.647058823529,4,2,1,5,0,0
60338,-117.647058823529,4,2,1,75,0,0
60671,-117.647058823529,4,2,1,5,0,0
60838,-117.647058823529,4,2,1,60,0,0
61004,-117.647058823529,4,2,1,65,0,0
61171,-117.647058823529,4,2,1,70,0,0
61338,-117.647058823529,4,2,1,75,0,0
61421,-117.647058823529,4,2,2,75,0,0
61504,333.333333333333,4,2,1,85,1,0
61504,-100,4,2,4,85,0,1
61671,-100,4,2,1,75,0,1
62171,-100,4,2,1,80,0,1
62838,-100,4,2,1,85,0,1
63671,-100,4,2,1,70,0,1
63838,-100,4,2,1,75,0,1
64004,-100,4,2,1,80,0,1
64171,-100,4,2,1,85,0,1
64421,-100,4,2,1,5,0,1
64504,-100,4,2,1,85,0,1
64838,-100,4,2,1,80,0,1
65088,-100,4,2,1,5,0,1
65171,-100,4,2,1,80,0,1
65504,-100,4,2,3,85,0,1
65671,-100,4,2,1,85,0,1
66171,-100,4,2,1,80,0,1
66671,-100,4,2,1,75,0,1
66838,-100,4,2,5,85,0,1
67171,-100,4,2,1,80,0,1
68171,-100,4,2,1,85,0,1
68338,-100,4,2,1,80,0,1
69504,-100,4,2,6,85,0,1
69838,-100,4,2,1,80,0,1
70004,-100,4,2,1,55,0,1
70171,-100,4,2,1,60,0,1
70338,-100,4,2,1,65,0,1
70504,-100,4,2,1,70,0,1
70671,-100,4,2,1,75,0,1
70838,-100,4,2,1,80,0,1
71338,-100,4,2,1,75,0,1
71421,-100,4,2,2,70,0,1
71504,-100,4,2,7,80,0,1
71838,-100,4,2,1,70,0,1
72171,-100,4,2,2,80,0,1
72338,-100,4,2,1,70,0,1
72838,-100,4,2,1,75,0,1
73504,-100,4,2,1,80,0,1
74171,-100,4,2,1,85,0,1
74338,-100,4,2,1,70,0,1
74504,-100,4,2,1,75,0,1
74671,-100,4,2,1,80,0,1
74838,-100,4,2,1,85,0,1
75088,-100,4,2,1,5,0,1
75171,-100,4,2,1,85,0,1
75754,-100,4,2,1,5,0,1
75838,-100,4,2,1,85,0,1
76171,-100,4,2,3,80,0,1
76338,-100,4,2,1,80,0,1
76671,-100,4,2,4,85,0,1
77004,-100,4,2,1,80,0,1
77504,-100,4,2,5,85,0,1
77838,-100,4,2,1,80,0,1
78838,-100,4,2,1,65,0,1
79004,-100,4,2,1,70,0,1
79171,-100,4,2,1,75,0,1
79338,-100,4,2,1,80,0,1
79504,-100,4,2,6,85,0,1
79838,-100,4,2,1,80,0,1
80171,-133.333333333333,4,2,7,75,0,1
80338,-133.333333333333,4,2,1,70,0,1
80421,-100,4,2,1,5,0,1
80504,-111.111111111111,4,2,7,80,0,1
80671,-111.111111111111,4,2,1,75,0,1
80754,-100,4,2,1,5,0,1
80838,-86.9565217391304,4,2,7,85,0,1
81004,-86.9565217391304,4,2,1,80,0,1
81088,-100,4,2,1,5,0,1
81171,-76.9230769230769,4,2,7,90,0,1
81338,-76.9230769230769,4,2,1,85,0,1
81421,-100,4,2,1,5,0,1
81504,-333.333333333333,4,2,1,60,0,1
81754,-100,4,2,1,5,0,1
81838,-90.9090909090909,4,2,4,90,0,1
82004,-90.9090909090909,4,2,1,85,0,1
82088,-100,4,2,1,5,0,1
82171,-100,4,2,1,85,0,1
82671,-90.9090909090909,4,2,1,80,0,1
82754,-90.9090909090909,4,2,2,75,0,1
82837,-333.333333333333,4,2,2,80,0,0
83004,-333.333333333333,4,2,1,60,0,0
84171,-333.333333333333,4,2,1,70,0,0
84338,-333.333333333333,4,2,1,60,0,0
85338,-333.333333333333,4,2,1,55,0,0
86838,-400,4,2,11,80,0,0
86920,-400,4,2,11,75,0,0
87171,-400,4,2,11,75,0,0
87504,-400,4,2,11,70,0,0
87838,-400,4,2,11,65,0,0
88171,-400,4,2,11,60,0,0
88504,-400,4,2,11,55,0,0
88838,-400,4,2,11,50,0,0
89171,-400,4,2,11,45,0,0
89504,-400,4,2,11,40,0,0
89838,-400,4,2,11,35,0,0
90004,-400,4,2,11,30,0,0
90171,-400,4,2,11,25,0,0
90338,-400,4,2,11,20,0,0
90504,-400,4,2,11,15,0,0
90671,-400,4,2,11,10,0,0
90838,-400,4,2,11,8,0,0
91004,-400,4,2,11,5,0,0

[Colours]
Combo1 : 247,202,119
Combo2 : 249,172,241
Combo3 : 249,244,162
Combo4 : 140,245,251

[HitObjects]
108,251,176,5,2,0:0:0:0:
201,287,842,5,2,0:0:0:0:
278,224,1509,5,2,0:0:0:0:
371,260,2175,5,2,0:0:0:0:
448,197,2841,5,2,0:0:0:0:
431,98,3509,5,0,3:3:0:0:
409,67,3592,1,0,3:0:0:0:
376,51,3675,1,8,0:0:0:0:
338,51,3758,1,8,0:0:0:0:
306,69,3842,1,8,0:0:0:0:
231,200,4009,1,4,3:0:0:0:
238,206,4092,1,4,3:0:0:0:
245,212,4175,5,6,3:2:0:0:
255,237,4258,1,0,3:0:0:0:
251,265,4341,1,0,3:0:0:0:
231,285,4425,1,0,3:0:0:0:
212,304,4508,1,8,0:0:0:0:
208,333,4591,1,0,3:0:0:0:
218,359,4674,2,0,L|275:375,3,42.5000008106232,0|0|8|0,3:0|3:0|0:0|3:0,0:0:0:0:
331,307,5008,1,0,3:0:0:0:
335,301,5091,1,0,3:0:0:0:
339,296,5174,2,0,L|396:280,1,42.5000008106232,8|0,0:0|3:0,0:0:0:0:
449,342,5341,2,0,L|433:399,1,42.5000008106232,0|0,3:0|3:0,0:0:0:0:
337,206,5508,5,4,3:2:0:0:
444,138,5674,1,0,3:0:0:0:
450,141,5757,1,0,3:0:0:0:
456,144,5840,1,8,0:0:0:0:
343,74,6008,1,0,3:0:0:0:
337,77,6091,1,0,3:0:0:0:
331,80,6174,1,8,0:0:0:0:
438,12,6341,1,0,3:0:0:0:
444,15,6424,1,0,3:0:0:0:
450,18,6507,1,8,0:0:0:0:
337,206,6674,1,0,3:0:0:0:
331,209,6757,1,0,3:0:0:0:
325,212,6841,5,12,0:0:0:0:
291,212,6924,1,0,3:0:0:0:
264,192,7007,1,0,3:0:0:0:
255,160,7091,1,0,3:0:0:0:
268,129,7175,1,2,3:2:0:0:
280,98,7258,1,0,3:0:0:0:
271,65,7342,1,0,3:0:0:0:
244,45,7425,1,0,3:0:0:0:
211,46,7508,2,0,L|198:110,1,42.5000008106232,8|0,0:0|3:0,0:0:0:0:
114,137,7674,1,0,3:0:0:0:
110,147,7758,1,0,3:0:0:0:
107,157,7841,2,0,L|155:201,1,42.5000008106232,8|0,0:0|3:0,0:0:0:0:
150,274,8008,1,0,3:0:0:0:
156,282,8092,1,0,3:0:0:0:
163,290,8175,1,14,3:2:0:0:
453,343,8341,6,0,L|382:330,1,42.5000008106232,0|0,3:0|3:0,0:0:0:0:
329,320,8508,2,0,L|258:307,1,42.5000008106232,8|0,3:0|3:0,0:0:0:0:
205,297,8674,2,0,L|134:284,1,42.5000008106232,0|0,3:0|3:0,0:0:0:0:
299,164,8841,5,4,3:3:0:0:
313,179,8924,1,0,3:0:0:0:
316,200,9007,1,0,3:0:0:0:
307,219,9091,1,0,3:0:0:0:
289,229,9174,2,0,L|218:216,1,42.5000008106232,4|0,3:3|3:0,0:0:0:0:
156,130,9341,2,0,L|85:143,1,42.5000008106232,0|0,3:0|3:0,0:0:0:0:
113,149,9674,6,0,L|154:141,1,42.5000008106232,2|0,0:1|0:0,0:0:0:0:
326,45,9841,6,0,B|261:16|223:75|223:75|282:93,1,150,6|0,3:2|0:0,0:0:0:0:
263,96,10174,2,0,L|235:-8,1,89.9999972534181,0|0,3:0|3:0,0:0:0:0:
226,191,10507,1,10,0:0:0:0:
398,128,10674,1,0,3:0:0:0:
398,128,10757,1,0,3:0:0:0:
398,128,10840,6,0,B|418:154|454:162|454:162|428:193|425:232,1,134.999995880127,2|0,0:0|0:0,0:0:0:0:
416,252,11174,2,0,P|464:264|511:279,1,89.9999972534181,10|0,0:0|0:0,0:0:0:0:
290,378,11507,2,0,P|337:362|385:350,1,89.9999972534181,0|0,3:0|3:0,0:0:0:0:
325,197,11840,1,10,0:0:0:0:
161,315,12007,1,10,0:0:0:0:
161,315,12090,1,8,0:0:0:0:
161,315,12174,6,0,P|198:302|236:293,1,75,6|0,3:2|0:0,0:0:0:0:
309,279,12507,6,0,P|285:207|266:135,1,150,12|0,0:0|0:0,0:0:0:0:
246,117,12840,2,0,P|280:83|327:88,1,89.9999972534181,0|0,3:0|3:0,0:0:0:0:
184,219,13174,1,8,0:0:0:0:
58,24,13340,1,6,3:2:0:0:
58,24,13424,1,2,0:0:0:0:
58,24,13507,6,0,P|116:44|98:159,1,179.999994506836,0|10,0:0|0:0,0:0:0:0:
0,344,14007,1,2,0:0:0:0:
0,344,14091,1,8,0:0:0:0:
0,344,14174,2,0,P|20:285|135:303,1,179.999994506836,2|8,3:2|0:0,0:0:0:0:
271,364,14674,1,8,0:0:0:0:
271,364,14757,1,8,0:0:0:0:
271,364,14840,6,0,P|234:372|198:382,1,75,2|0,3:2|0:0,0:0:0:0:
194,365,15174,6,0,P|267:348|339:327,1,150,12|0,0:0|3:0,0:0:0:0:
363,343,15507,1,2,3:2:0:0:
425,271,15673,1,2,3:2:0:0:
393,181,15840,1,2,0:0:0:0:
223,239,16007,6,0,P|149:256|77:277,1,134.999995880127,14|0,0:0|0:0,0:0:0:0:
71,293,16340,1,2,3:2:0:0:
140,156,16507,1,8,0:0:0:0:
8,66,16674,2,0,P|81:48|153:27,1,134.999995880127,2|0,0:0|0:0,0:0:0:0:
161,12,17007,1,2,3:2:0:0:
294,167,17174,1,10,0:0:0:0:
280,53,17340,1,8,0:0:0:0:
280,53,17424,1,8,0:0:0:0:
280,53,17507,5,6,3:2:0:0:
202,236,17674,1,2,0:0:0:0:
400,213,17840,1,10,0:0:0:0:
188,122,18007,5,0,3:0:0:0:
307,281,18174,2,0,L|294:337,1,44.999998626709,4|0,3:3|0:0,0:0:0:0:
386,98,18340,1,8,0:0:0:0:
415,76,18423,1,8,0:0:0:0:
452,75,18508,1,8,0:0:0:0:
482,97,18591,1,8,0:0:0:0:
493,132,18674,6,0,B|529:209|476:268|441:236|389:306|438:376,1,269.999991760254,6|0,3:2|3:2,0:0:0:0:
510,333,20340,5,2,0:0:0:0:
405,182,20507,2,0,P|363:169|307:206,1,85.0000016212464,8|2,0:0|0:0,0:0:0:0:
304,221,20757,1,8,0:0:0:0:
304,221,20840,1,0,3:0:0:0:
224,101,21007,2,0,B|201:137|201:137|226:186,1,85.0000016212464,2|2,3:2|0:0,0:0:0:0:
324,26,21340,6,0,P|239:17|156:0,1,170.000003242493,10|0,0:0|3:0,0:0:0:0:
12,81,21840,1,10,0:0:0:0:
126,156,22007,1,2,3:2:0:0:
126,156,22090,1,8,0:0:0:0:
126,156,22173,2,0,P|112:115|103:74,1,85.0000016212464,2|10,0:0|0:0,0:0:0:0:
0,221,22507,6,0,P|24:293|40:369,1,127.50000243187,2|0,3:2|0:0,0:0:0:0:
29,381,22840,2,0,P|69:367|110:358,1,85.0000016212464,10|0,0:0|3:0,0:0:0:0:
149,371,23090,1,0,3:0:0:0:
149,371,23173,1,2,3:2:0:0:
226,236,23340,2,0,P|185:249|144:258,1,85.0000016212464,2|2,3:2|0:0,0:0:0:0:
287,384,23673,6,0,P|304:300|329:219,1,170.000003242493,10|2,0:0|3:2,0:0:0:0:
460,79,24173,1,10,0:0:0:0:
485,180,24340,2,0,P|444:167|402:158,1,85.0000016212464,2|2,3:2|0:0,0:0:0:0:
229,65,24673,1,10,0:0:0:0:
229,65,24757,1,8,0:0:0:0:
229,65,24840,6,0,P|287:81|331:38,1,127.50000243187,2|0,3:2|0:0,0:0:0:0:
359,1,25173,2,0,P|346:41|337:83,1,85.0000016212464,10|0,0:0|3:0,0:0:0:0:
338,116,25423,1,0,3:0:0:0:
338,116,25507,1,2,3:2:0:0:
222,179,25673,2,0,P|181:165|140:157,1,85.0000016212464,2|2,3:2|0:0,0:0:0:0:
332,266,26007,6,0,P|251:261|210:337,1,170.000003242493,10|2,0:0|3:2,0:0:0:0:
374,383,26507,1,10,0:0:0:0:
425,239,26673,1,2,3:2:0:0:
425,239,26757,1,8,0:0:0:0:
425,238,26840,2,0,P|411:197|402:156,1,85.0000016212464,0|10,0:0|0:0,0:0:0:0:
292,336,27173,6,0,P|276:274|256:213,1,127.50000243187,2|0,3:2|0:0,0:0:0:0:
232,191,27507,2,0,P|190:199|145:168,1,85.0000016212464,10|0,0:0|3:0,0:0:0:0:
133,151,27757,1,0,3:0:0:0:
133,151,27840,1,2,3:2:0:0:
35,310,28007,2,0,P|64:278|118:277,1,85.0000016212464,2|2,3:2|0:0,0:0:0:0:
28,55,28340,6,0,P|48:105|29:189,1,127.50000243187,12|10,0:0|0:0,0:0:0:0:
39,198,28673,2,0,L|-6:217,1,42.5000008106232,0|0,3:0|0:0,0:0:0:0:
142,55,28840,1,10,0:0:0:0:
219,274,29007,1,2,3:2:0:0:
379,40,29173,5,4,3:2:0:0:
379,40,29840,6,0,P|313:87|326:166,1,170.000003242493,6|8,3:2|0:0,0:0:0:0:
382,255,30340,1,2,3:2:0:0:
382,255,30423,1,8,0:0:0:0:
382,255,30506,2,0,P|340:265|300:278,1,85.0000016212464,2|2,3:2|0:0,0:0:0:0:
421,168,30840,1,8,0:0:0:0:
247,197,31006,6,0,P|262:280|274:365,1,170.000003242493,2|0,3:2|3:2,0:0:0:0:
106,279,31506,1,10,0:0:0:0:
56,355,31673,1,2,3:2:0:0:
56,355,31756,1,8,0:0:0:0:
56,355,31839,2,0,P|115:373|167:340,1,127.50000243187,2|0,3:2|0:0,0:0:0:0:
194,325,32173,2,0,P|186:283|180:241,1,85.0000016212464,10|2,0:0|0:0,0:0:0:0:
10,144,32506,6,0,B|57:198|121:158|121:158|99:94,1,170.000003242493,2|10,3:2|0:0,0:0:0:0:
232,13,33006,1,2,3:2:0:0:
232,13,33090,1,8,0:0:0:0:
232,13,33173,2,0,L|207:125,1,85.0000016212464,2|2,3:2|0:0,0:0:0:0:
126,25,33506,1,10,0:0:0:0:
207,192,33673,6,0,P|289:170|372:151,1,170.000003242493,2|0,3:2|3:0,0:0:0:0:
508,87,34173,6,0,P|471:78|435:68,1,75,10|0,0:0|0:0,0:0:0:0:
483,0,34506,6,0,B|513:93|430:70|471:180,1,170.000003242493,2|8,3:2|0:0,0:0:0:0:
331,228,35006,1,2,0:0:0:0:
512,357,35173,6,0,P|481:305|370:328,1,170.000003242493,4|10,3:2|0:0,0:0:0:0:
217,216,35673,1,2,3:2:0:0:
217,216,35756,1,8,0:0:0:0:
217,215,35839,2,0,P|230:255|241:296,1,85.0000016212464,2|2,3:2|0:0,0:0:0:0:
288,144,36173,1,10,0:0:0:0:
309,358,36339,6,0,P|228:331|146:308,1,170.000003242493,2|0,3:2|3:0,0:0:0:0:
31,152,36839,1,10,0:0:0:0:
15,258,37006,1,0,3:0:0:0:
15,258,37089,1,8,0:0:0:0:
15,258,37173,2,0,P|55:244|96:233,1,85.0000016212464,2|0,3:2|0:0,0:0:0:0:
291,108,37506,2,0,P|224:89|157:67,1,127.50000243187,10|8,0:0|0:0,0:0:0:0:
112,0,37839,6,0,P|138:80|161:162,1,170.000003242493,6|8,3:2|0:0,0:0:0:0:
281,242,38339,1,8,0:0:0:0:
282,232,38423,1,8,0:0:0:0:
284,223,38506,5,4,3:3:0:0:
242,217,38589,1,0,3:0:0:0:
210,243,38672,1,8,0:0:0:0:
204,284,38756,1,8,0:0:0:0:
187,306,38839,5,8,0:0:0:0:
182,326,38922,1,8,0:0:0:0:
189,346,39005,1,4,3:3:0:0:
205,359,39089,1,4,3:3:0:0:
237,374,39173,6,0,P|317:347|394:329,1,150.000005722046,6|2,3:2|0:0,0:0:0:0:
512,212,39673,1,4,3:0:0:0:
426,179,39839,1,2,0:0:0:0:
340,146,40006,1,4,3:0:0:0:
340,146,40089,1,4,3:0:0:0:
340,146,40173,2,0,P|286:164|232:177,1,112.500004291535,4|0,3:0|0:0,0:0:0:0:
195,199,40506,6,0,B|220:113|143:133|185:37,1,150,6|0,3:2|0:0,0:0:0:0:
242,3,41173,2,0,P|270:12|299:18,1,50,2|0,0:0|0:0,0:0:0:0:
420,6,41506,6,0,P|393:47|423:98,1,100,2|0,0:0|0:0,0:0:0:0:
481,153,42006,1,2,0:0:0:0:
395,188,42173,2,0,P|367:176|338:168,1,50,2|2,0:0|0:0,0:0:0:0:
233,71,42506,6,0,B|200:84|188:128|188:128|155:101|109:106,1,150,2|0,0:0|0:0,0:0:0:0:
29,102,43173,1,2,0:0:0:0:
29,101,43506,6,0,P|41:73|45:44,1,50,2|2,0:0|0:0,0:0:0:0:
129,193,43839,2,0,P|116:220|112:249,1,50,2|2,0:0|0:0,0:0:0:0:
92,323,44173,1,2,0:0:0:0:
30,263,44339,1,2,0:0:0:0:
176,298,44506,6,0,P|233:282|292:271,1,100,2|2,0:0|0:0,0:0:0:0:
397,110,45173,2,0,P|411:135|403:171,1,50,2|0,0:0|0:0,0:0:0:0:
443,249,45506,6,0,P|385:233|326:222,1,100,2|2,0:0|0:0,0:0:0:0:
178,30,46173,2,0,P|164:55|172:91,1,50,2|0,0:0|0:0,0:0:0:0:
90,176,46506,6,0,P|147:160|288:141,1,200,2|0,0:0|0:0,0:0:0:0:
355,72,47339,1,2,0:0:0:0:
414,142,47506,2,0,L|405:182,3,25,2|2|2|0,0:0|0:0|0:0|0:0,0:0:0:0:
397,197,47839,2,0,P|426:224|493:208,1,100,2|2,0:0|0:0,0:0:0:0:
355,72,48506,6,0,P|296:60|238:45,1,119.999996337891,2|2,0:0|0:3,0:0:0:0:
185,117,49006,2,0,P|142:108|87:166,1,119.999996337891,2|0,0:0|0:0,0:0:0:0:
29,78,49506,5,2,0:0:0:0:
29,77,49839,2,0,P|37:48|41:18,1,59.9999981689454,2|0,0:0|0:0,0:0:0:0:
89,155,50173,2,0,P|59:161|32:172,1,59.9999981689454,2|0,0:0|0:0,0:0:0:0:
127,65,50506,6,0,P|147:87|171:105,1,59.9999981689454,2|2,0:0|0:3,0:0:0:0:
231,184,50839,2,0,P|260:177|287:166,1,59.9999981689454,2|2,0:3|0:3,0:0:0:0:
386,153,51173,2,0,P|394:124|398:94,1,59.9999981689454,2|0,0:0|0:0,0:0:0:0:
512,253,51506,6,0,B|429:201|348:255|348:352|348:352|424:388|454:314,1,359.999989013672,4|0,3:3|3:0,0:0:0:0:
288,254,53671,6,0,P|247:267|207:282,1,75.0000028610231,2|0,0:0|3:0,0:0:0:0:
68,341,54005,1,2,0:0:0:0:
177,384,54171,1,2,3:2:0:0:
106,226,54338,2,0,P|125:153|140:79,1,150.000005722046,2|2,0:0|0:0,0:0:0:0:
37,141,54838,1,0,3:0:0:0:
204,190,55005,6,0,P|239:177|275:165,1,75.0000028610231,2|2,0:0|3:2,0:0:0:0:
420,0,55338,1,2,0:0:0:0:
456,128,55505,2,0,P|402:79|331:94,1,150.000005722046,2|2,3:2|3:2,0:0:0:0:
209,67,56005,1,2,0:2:0:0:
311,0,56171,6,0,P|290:82|274:166,1,170.000003242493,2|8,3:2|0:0,0:0:0:0:
309,367,56671,1,2,0:0:0:0:
309,367,56755,1,8,0:0:0:0:
309,367,56838,2,0,P|319:325|327:283,1,85.0000016212464,2|0,3:2|3:0,0:0:0:0:
221,339,57171,1,2,0:0:0:0:
365,190,57338,6,0,P|335:242|218:237,1,170.000003242493,10|0,0:0|3:0,0:0:0:0:
89,132,57838,1,10,0:0:0:0:
188,100,58004,1,0,3:0:0:0:
188,100,58088,1,8,0:0:0:0:
188,100,58171,2,0,P|177:141|169:183,1,85.0000016212464,2|0,0:0|3:0,0:0:0:0:
57,332,58505,1,8,0:0:0:0:
39,320,58588,1,8,0:0:0:0:
28,302,58671,1,8,0:0:0:0:
26,281,58755,1,8,0:0:0:0:
34,262,58838,6,0,P|94:248|143:285,1,127.50000243187,2|0,3:2|0:0,0:0:0:0:
162,305,59171,5,8,0:0:0:0:
269,153,59338,1,0,3:0:0:0:
224,361,59504,5,8,0:0:0:0:
272,140,59671,1,2,3:2:0:0:
322,364,59838,5,10,0:0:0:0:
275,127,60004,2,0,P|194:154|130:169,1,127.50000243187,6|0,3:2|0:0,0:0:0:0:
71,175,60338,5,10,0:2:0:0:
322,0,60504,1,10,0:0:0:0:
322,0,60838,5,0,3:0:0:0:
358,21,60921,1,0,3:0:0:0:
378,58,61004,1,8,0:0:0:0:
377,100,61088,1,8,0:0:0:0:
356,136,61171,1,8,0:0:0:0:
160,31,61338,1,4,3:0:0:0:
160,31,61421,1,4,3:0:0:0:
160,31,61504,6,0,P|110:24|61:12,1,100,4|2,3:2|0:0,0:0:0:0:
196,251,61838,2,0,P|244:239|294:232,1,100,10|2,0:0|0:0,0:0:0:0:
365,266,62088,1,2,0:0:0:0:
365,266,62171,1,2,3:2:0:0:
221,129,62338,1,2,0:0:0:0:
154,372,62504,2,0,P|202:360|252:353,1,100,10|2,0:0|0:0,0:0:0:0:
493,306,62838,5,2,3:2:0:0:
294,232,63004,1,2,0:0:0:0:
458,97,63171,1,10,0:0:0:0:
259,23,63337,1,2,0:0:0:0:
389,253,63504,6,0,B|419:203|381:148|352:166|321:102|370:51,1,200,2|8,3:2|0:0,0:0:0:0:
171,0,64004,1,8,0:0:0:0:
171,0,64088,1,8,0:0:0:0:
171,0,64171,6,0,P|115:72|170:138,1,150,2|0,3:2|0:0,0:0:0:0:
184,175,64504,2,0,L|280:150,1,100,10|0,0:0|0:0,0:0:0:0:
109,384,64838,6,0,P|165:312|110:246,1,150,2|0,3:2|0:0,0:0:0:0:
96,209,65171,2,0,L|0:234,1,100,10|0,0:0|0:0,0:0:0:0:
245,379,65504,5,6,3:2:0:0:
184,175,65671,1,2,0:0:0:0:
77,314,65838,1,10,0:0:0:0:
16,110,66004,2,0,P|33:54|46:-2,1,100,2|0,0:0|3:0,0:0:0:0:
335,34,66338,1,2,0:0:0:0:
342,42,66421,1,2,0:0:0:0:
348,51,66504,1,10,0:0:0:0:
340,86,66588,1,8,0:0:0:0:
313,112,66671,1,8,0:0:0:0:
277,119,66754,1,8,0:0:0:0:
243,105,66838,6,0,P|316:118|388:139,1,150,6|0,3:2|0:0,0:0:0:0:
450,184,67171,1,10,0:0:0:0:
267,296,67338,2,0,B|217:250|161:290|161:290|160:346|104:385,1,200,2|2,0:0|3:2,0:0:0:0:
283,195,67838,1,10,0:0:0:0:
232,384,68004,1,2,0:0:0:0:
67,287,68171,6,0,P|59:237|48:188,1,100,2|2,3:2|0:0,0:0:0:0:
161,3,68504,1,10,0:0:0:0:
180,244,68671,1,2,0:0:0:0:
14,77,68838,2,0,L|197:124,1,150,2|0,3:2|0:0,0:0:0:0:
233,131,69171,1,10,0:0:0:0:
98,342,69338,1,8,0:0:0:0:
98,342,69421,1,8,0:0:0:0:
98,342,69504,6,0,B|47:337|2:372|2:372|44:331|40:252,1,200,6|10,3:2|0:0,0:0:0:0:
97,55,70004,1,2,0:0:0:0:
233,290,70171,5,2,3:2:0:0:
3,149,70338,1,2,0:0:0:0:
240,21,70504,1,10,0:0:0:0:
160,154,70671,1,2,0:0:0:0:
378,31,70838,5,2,3:2:0:0:
408,51,70921,1,8,0:0:0:0:
420,86,71004,1,8,0:0:0:0:
409,120,71087,1,8,0:0:0:0:
379,143,71171,1,8,0:0:0:0:
369,147,71253,1,4,3:0:0:0:
360,151,71338,1,4,3:0:0:0:
352,155,71421,1,4,3:0:0:0:
344,160,71504,1,4,3:2:0:0:
344,160,71838,6,0,P|354:182|361:207,1,50,8|8,0:0|0:0,0:0:0:0:
355,358,72004,2,0,P|332:349|307:342,1,50,8|8,0:0|0:0,0:0:0:0:
101,302,72171,6,0,P|149:288|197:277,1,100,4|2,3:2|0:0,0:0:0:0:
1,124,72504,2,0,P|49:112|97:99,1,100,10|2,0:0|0:0,0:0:0:0:
166,67,72754,1,2,0:0:0:0:
166,67,72838,1,10,0:0:0:0:
8,256,73004,1,2,3:2:0:0:
255,196,73171,2,0,P|206:182|158:171,1,100,10|2,0:0|3:2,0:0:0:0:
385,375,73504,5,10,0:0:0:0:
385,153,73671,1,2,0:0:0:0:
255,332,73837,1,10,0:0:0:0:
465,264,74004,1,2,0:0:0:0:
255,196,74171,6,0,P|211:220|168:246,1,100,10|2,0:0|3:2,0:0:0:0:
290,85,74504,1,10,0:0:0:0:
350,264,74671,1,2,3:2:0:0:
127,98,74838,6,0,P|66:84|23:171,1,150,2|0,3:2|0:0,0:0:0:0:
4,222,75171,2,0,B|50:245|50:245|85:187,1,100,10|0,0:0|0:0,0:0:0:0:
254,13,75504,6,0,P|315:-1|358:86,1,150,10|0,0:0|0:0,0:0:0:0:
377,137,75837,2,0,B|331:160|331:160|296:102,1,100,10|0,0:0|3:0,0:0:0:0:
512,79,76171,5,6,3:2:0:0:
431,270,76338,1,8,0:0:0:0:
363,62,76504,1,8,0:0:0:0:
282,253,76671,2,0,P|298:300|310:349,1,100,4|0,3:2|0:0,0:0:0:0:
115,229,77004,1,0,0:0:0:0:
105,222,77088,1,8,0:0:0:0:
96,215,77171,1,8,0:0:0:0:
130,203,77254,1,8,0:0:0:0:
166,212,77337,1,8,0:0:0:0:
192,238,77420,1,8,0:0:0:0:
200,274,77504,6,0,P|129:300|62:333,1,150,6|0,3:2|0:0,0:0:0:0:
0,384,77838,1,10,0:0:0:0:
77,136,78004,1,2,3:2:0:0:
77,136,78088,1,8,0:0:0:0:
77,136,78171,2,0,P|94:182|115:228,1,100,0|2,0:0|3:2,0:0:0:0:
122,19,78504,1,10,0:0:0:0:
0,215,78671,1,2,0:0:0:0:
260,305,78838,5,2,3:2:0:0:
77,136,79004,1,2,0:0:0:0:
315,63,79171,1,10,0:0:0:0:
216,167,79338,1,2,0:0:0:0:
441,9,79504,6,0,P|411:104|388:201,1,200,6|10,3:2|0:0,0:0:0:0:
133,93,80004,1,10,0:0:0:0:
133,93,80088,1,10,0:0:0:0:
133,93,80171,6,0,B|98:55|127:14|127:14|163:39,1,112.500004291535,10|0,0:1|0:0,0:0:0:0:
110,172,80504,6,0,B|53:197|17:149|17:149|59:117,1,134.999995880127,10|0,0:1|0:0,0:0:0:0:
175,222,80838,6,0,B|211:286|148:332|148:332|100:284,1,172.500003290176,10|0,0:1|0:0,0:0:0:0:
237,170,81171,6,0,B|307:129|357:199|357:199|305:251,1,194.999991073609,10|0,0:1|0:0,0:0:0:0:
208,99,81504,6,0,L|218:52,1,44.999998626709,2|0,3:1|0:0,0:0:0:0:
273,9,81838,6,0,L|237:174,1,165.000005035401,12|8,0:0|0:0,0:0:0:0:
193,238,82170,2,0,L|251:248,1,50,8|8,0:0|0:0,0:0:0:0:
440,144,82338,1,8,0:0:0:0:
470,111,82421,1,8,0:0:0:0:
470,66,82504,1,8,0:0:0:0:
439,34,82587,1,8,0:0:0:0:
394,33,82671,1,0,3:0:0:0:
361,61,82754,1,0,3:0:0:0:
357,106,82838,6,0,L|389:354,1,239.999992675781,6|2,3:2|3:2,0:0:0:0:
256,192,84254,12,0,85504,3:0:0:0:
260,133,86838,6,0,B|312:140|360:108|360:108|311:143|291:231|303:284|349:329|409:349|488:312|501:248|506:199|482:139|436:117|395:158|385:194|397:223,1,625,4|0,0:0|0:0,0:0:0:0:
