osu file format v14

[General]
AudioFilename: audio.mp3
AudioLeadIn: 0
PreviewTime: 61421
Countdown: 0
SampleSet: Soft
StackLeniency: 0.7
Mode: 0
LetterboxInBreaks: 0
WidescreenStoryboard: 1

[Editor]
Bookmarks: 176,4175,9841,17507,20174,29840,39173,40506,48505,51505,53505,56171,61504,64171,72171,74838,85504,86838,91004
DistanceSpacing: 0.9
BeatDivisor: 4
GridSize: 32
TimelineZoom: 1.4

[Metadata]
Title:Kimi dake no Princess
TitleUnicode:キミだけのプリンセス
Artist:AZKi, Omaru Polka
ArtistUnicode:AZKi・尾丸ポルカ
Creator:tomatas95
Version:Normal
Source:ガラス姫と鏡の従者
Tags:eroge Princess only for you Princess of glass and Retinue of mirrors Glass Hime to Kagami no Juusha yuiko hololive virtual youtuber vtuber giga video game japanese visual novel vn op opening galgame shirahane suou Tansa j-pop pop jpop game version production
BeatmapID:3664374
BeatmapSetID:1769796

[Difficulty]
HPDrainRate:3
CircleSize:3
OverallDifficulty:4
ApproachRate:5
SliderMultiplier:1.1
SliderTickRate:1

[Events]
//Background and Video events
Video,-1100,"DownBadForPrincesses.mp4"
0,0,"HimeAnriKawaii.jpg",0,0
//Break Periods
//Storyboard Layer 0 (Background)
//Storyboard Layer 1 (Fail)
//Storyboard Layer 2 (Pass)
//Storyboard Layer 3 (Foreground)
//Storyboard Layer 4 (Overlay)
//Storyboard Sound Samples

[TimingPoints]
176,333.333333333333,4,2,1,40,1,0
176,-111.111111111111,4,2,1,40,0,0
842,-111.111111111111,4,2,1,45,0,0
1509,-111.111111111111,4,2,1,50,0,0
2175,-111.111111111111,4,2,1,55,0,0
2509,-111.111111111111,4,2,1,30,0,0
2842,-111.111111111111,4,2,1,40,0,0
3509,-111.111111111111,4,2,1,50,0,0
3675,-111.111111111111,4,2,1,60,0,0
3842,-111.111111111111,4,2,1,65,0,0
4009,-111.111111111111,4,2,2,60,0,0
4092,-111.111111111111,4,2,3,55,0,0
4175,333.333333333333,4,2,3,70,1,0
4175,-100,4,2,3,70,0,0
4258,-100,4,2,1,70,0,0
4508,-100,4,2,1,75,0,0
4591,-100,4,2,1,70,0,0
4841,-100,4,2,1,75,0,0
4924,-100,4,2,1,70,0,0
5091,-100,4,2,1,65,0,0
5174,-100,4,2,1,75,0,0
5258,-100,4,2,1,60,0,0
5341,-100,4,2,1,55,0,0
5424,-100,4,2,1,50,0,0
5508,-100,4,2,4,75,0,0
5591,-100,4,2,1,70,0,0
5841,-100,4,2,1,75,0,0
5924,-100,4,2,1,70,0,0
6174,-100,4,2,1,75,0,0
6258,-100,4,2,1,70,0,0
6508,-100,4,2,1,75,0,0
6591,-100,4,2,1,70,0,0
6841,-100,4,2,1,60,0,0
6924,-100,4,2,1,55,0,0
7174,-100,4,2,5,75,0,0
7258,-100,4,2,1,70,0,0
7508,-100,4,2,1,75,0,0
7591,-100,4,2,1,70,0,0
7841,-100,4,2,1,75,0,0
7924,-100,4,2,1,70,0,0
8174,-100,4,2,6,80,0,0
8258,-100,4,2,1,75,0,0
8508,-100,4,2,1,80,0,0
8591,-100,4,2,1,75,0,0
8841,-100,4,2,1,80,0,0
8924,-100,4,2,1,75,0,0
9174,-100,4,2,1,80,0,0
9257,-100,4,2,1,75,0,0
9508,-100,4,2,1,15,0,0
9674,-100,4,2,1,45,0,0
9841,-100,4,2,2,75,0,0
10007,-100,4,2,1,70,0,0
10674,-100,4,2,1,75,0,0
10840,-100,4,2,1,70,0,0
12007,-100,4,2,1,75,0,0
12174,-100,4,2,1,70,0,0
12507,-100,4,2,3,80,0,0
12840,-100,4,2,1,70,0,0
13340,-100,4,2,4,75,0,0
13674,-100,4,2,1,70,0,0
14007,-100,4,2,1,75,0,0
14174,-100,4,2,1,80,0,0
14340,-100,4,2,1,70,0,0
14840,-100,4,2,1,60,0,0
15174,-100,4,2,6,75,0,0
15340,-100,4,2,1,70,0,0
15507,-100,4,2,1,65,0,0
15674,-100,4,2,1,70,0,0
15840,-100,4,2,1,75,0,0
16007,-100,4,2,3,75,0,0
16340,-100,4,2,1,70,0,0
17340,-100,4,2,1,75,0,0
17507,-100,4,2,5,80,0,0
17674,-100,4,2,2,75,0,0
18174,-100,4,2,1,70,0,0
18674,-100,4,2,2,80,0,0
18840,-100,4,2,2,70,0,0
19007,-100,4,2,2,65,0,0
19174,-100,4,2,2,60,0,0
19340,-100,4,2,2,55,0,0
19507,-100,4,2,2,50,0,0
19674,-100,4,2,2,45,0,0
19840,-100,4,2,2,40,0,0
20007,-100,4,2,2,35,0,0
20174,333.333333333333,7,2,1,65,1,0
20174,-111.111111111111,4,2,1,65,0,0
20340,-111.111111111111,4,2,2,60,0,0
20840,-111.111111111111,4,2,2,65,0,0
21174,-111.111111111111,4,2,2,60,0,0
21340,-111.111111111111,4,2,2,65,0,0
21590,-111.111111111111,4,2,2,60,0,0
22507,-111.111111111111,4,2,2,65,0,0
22840,-111.111111111111,4,2,2,60,0,0
23673,-111.111111111111,4,2,2,65,0,0
23923,-111.111111111111,4,2,2,60,0,0
24340,-111.111111111111,4,2,2,65,0,0
24507,-111.111111111111,4,2,2,60,0,0
24840,-111.111111111111,4,2,2,65,0,0
25007,-111.111111111111,4,2,2,60,0,0
25507,-111.111111111111,4,2,2,65,0,0
25840,-111.111111111111,4,2,2,60,0,0
26007,-111.111111111111,4,2,2,65,0,0
26257,-111.111111111111,4,2,2,60,0,0
26673,-111.111111111111,4,2,2,65,0,0
27007,-111.111111111111,4,2,2,60,0,0
27173,-111.111111111111,4,2,2,65,0,0
27507,-111.111111111111,4,2,2,60,0,0
27840,-111.111111111111,4,2,2,65,0,0
28173,-111.111111111111,4,2,2,60,0,0
28340,-111.111111111111,4,2,3,75,0,0
28590,-111.111111111111,4,2,2,70,0,0
29173,-111.111111111111,4,2,7,75,0,0
29340,-111.111111111111,4,2,1,5,0,0
29840,333.333333333333,4,2,1,70,1,0
29840,-111.111111111111,4,2,1,70,0,0
30173,-111.111111111111,4,2,2,60,0,0
31006,-111.111111111111,4,2,2,65,0,0
31340,-111.111111111111,4,2,2,60,0,0
31839,-111.111111111111,4,2,2,65,0,0
32173,-111.111111111111,4,2,2,60,0,0
32506,-111.111111111111,4,2,2,65,0,0
32839,-111.111111111111,4,2,2,60,0,0
33173,-111.111111111111,4,2,2,65,0,0
33506,-111.111111111111,4,2,2,60,0,0
33673,-111.111111111111,4,2,2,65,0,0
34006,-111.111111111111,4,2,2,60,0,0
34506,-111.111111111111,4,2,2,65,0,0
34839,-111.111111111111,4,2,2,60,0,0
35173,-111.111111111111,4,2,1,65,0,0
35506,-111.111111111111,4,2,2,60,0,0
36339,-111.111111111111,4,2,2,65,0,0
36672,-111.111111111111,4,2,2,60,0,0
37173,-111.111111111111,4,2,2,65,0,0
37506,-111.111111111111,4,2,2,60,0,0
37839,-111.111111111111,4,2,6,70,0,0
38173,-111.111111111111,4,2,2,65,0,0
38506,-111.111111111111,4,2,1,65,0,0
38673,-111.111111111111,4,2,2,65,0,0
38839,-111.111111111111,4,2,2,70,0,0
39006,-111.111111111111,4,2,1,65,0,0
39089,-111.111111111111,4,2,2,60,0,0
39173,-100,4,2,3,65,0,0
39506,-100,4,2,1,65,0,0
39673,-100,4,2,1,60,0,0
39839,-100,4,2,1,65,0,0
40006,-100,4,2,2,55,0,0
40173,-100,4,2,2,50,0,0
40506,333.333333333333,3,2,1,65,1,0
40506,-111.111111111111,4,2,5,65,0,0
41006,-111.111111111111,4,2,1,55,0,0
42506,-111.111111111111,4,2,1,60,0,0
43006,-111.111111111111,4,2,1,55,0,0
43506,-111.111111111111,4,2,1,45,0,0
43839,-111.111111111111,4,2,1,50,0,0
44172,-111.111111111111,4,2,1,55,0,0
44839,-111.111111111111,4,2,1,45,0,0
45505,-111.111111111111,4,2,1,55,0,0
45839,-111.111111111111,4,2,1,45,0,0
46505,-111.111111111111,4,2,1,55,0,0
47005,-111.111111111111,4,2,1,45,0,0
47505,-111.111111111111,4,2,1,55,0,0
48505,-111.111111111111,4,2,1,60,0,0
48672,-111.111111111111,4,2,1,55,0,0
49005,-111.111111111111,4,2,1,60,0,0
49172,-111.111111111111,4,2,1,55,0,0
49339,-111.111111111111,4,2,1,60,0,0
49839,-111.111111111111,4,2,1,55,0,0
50505,-111.111111111111,4,2,1,60,0,0
50672,-111.111111111111,4,2,1,55,0,0
51172,-111.111111111111,4,2,1,60,0,0
51505,-111.111111111111,4,2,2,60,0,0
51672,-111.111111111111,4,2,2,15,0,0
51839,-111.111111111111,4,2,2,20,0,0
52005,-111.111111111111,4,2,2,25,0,0
52172,-111.111111111111,4,2,2,30,0,0
52339,-111.111111111111,4,2,2,35,0,0
52505,-111.111111111111,4,2,2,40,0,0
52672,-111.111111111111,4,2,2,45,0,0
52839,-111.111111111111,4,2,2,50,0,0
53005,-111.111111111111,4,2,2,55,0,0
53172,-111.111111111111,4,2,2,60,0,0
53339,-111.111111111111,4,2,2,70,0,0
53505,333.333333333333,4,2,1,65,1,0
53505,-100,4,2,1,65,0,0
53671,-100,4,2,2,65,0,0
55838,-100,4,2,2,60,0,0
56171,-100,4,2,2,70,0,0
56505,-100,4,2,2,65,0,0
57005,-100,4,2,2,60,0,0
57338,-100,4,2,2,65,0,0
58671,-100,4,2,2,60,0,0
58838,-100,4,2,2,70,0,0
59171,-100,4,2,1,70,0,0
60004,-100,4,2,5,75,0,0
60338,-100,4,2,1,75,0,0
60671,-100,4,2,1,5,0,0
60838,-100,4,2,1,60,0,0
61004,-100,4,2,1,65,0,0
61171,-100,4,2,1,70,0,0
61338,-100,4,2,1,75,0,0
61421,-100,4,2,2,75,0,0
61504,333.333333333333,4,2,1,85,1,0
61504,-90.9090909090909,4,2,4,85,0,1
61671,-90.9090909090909,4,2,1,75,0,1
62171,-90.9090909090909,4,2,1,80,0,1
62838,-90.9090909090909,4,2,1,85,0,1
63671,-90.9090909090909,4,2,1,70,0,1
63838,-90.9090909090909,4,2,1,75,0,1
64004,-90.9090909090909,4,2,1,80,0,1
64171,-90.9090909090909,4,2,1,85,0,1
64838,-90.9090909090909,4,2,1,80,0,1
65504,-90.9090909090909,4,2,3,85,0,1
65671,-90.9090909090909,4,2,1,85,0,1
66171,-90.9090909090909,4,2,1,80,0,1
66671,-90.9090909090909,4,2,1,75,0,1
66838,-90.9090909090909,4,2,5,85,0,1
67171,-90.9090909090909,4,2,1,80,0,1
68171,-90.9090909090909,4,2,1,85,0,1
68338,-90.9090909090909,4,2,1,80,0,1
69504,-90.9090909090909,4,2,6,85,0,1
69838,-90.9090909090909,4,2,1,80,0,1
70004,-90.9090909090909,4,2,1,55,0,1
70171,-90.9090909090909,4,2,1,60,0,1
70338,-90.9090909090909,4,2,1,65,0,1
70504,-90.9090909090909,4,2,1,70,0,1
70671,-90.9090909090909,4,2,1,75,0,1
70838,-90.9090909090909,4,2,1,80,0,1
71338,-90.9090909090909,4,2,1,75,0,1
71421,-90.9090909090909,4,2,2,70,0,1
71503,-90.9090909090909,4,2,7,80,0,0
71838,-90.9090909090909,4,2,1,70,0,0
72170,-90.9090909090909,4,2,2,80,0,1
72338,-90.9090909090909,4,2,1,70,0,1
72838,-90.9090909090909,4,2,1,75,0,1
73504,-90.9090909090909,4,2,1,80,0,1
74171,-90.9090909090909,4,2,1,85,0,1
74338,-90.9090909090909,4,2,1,70,0,1
74504,-90.9090909090909,4,2,1,75,0,1
74671,-90.9090909090909,4,2,1,80,0,1
74838,-90.9090909090909,4,2,1,85,0,1
76171,-90.9090909090909,4,2,3,80,0,1
76338,-90.9090909090909,4,2,1,80,0,1
76671,-90.9090909090909,4,2,4,85,0,1
77004,-90.9090909090909,4,2,1,80,0,1
77504,-90.9090909090909,4,2,5,85,0,1
77838,-90.9090909090909,4,2,1,80,0,1
78838,-90.9090909090909,4,2,1,65,0,1
79004,-90.9090909090909,4,2,1,70,0,1
79171,-90.9090909090909,4,2,1,75,0,1
79338,-90.9090909090909,4,2,1,80,0,1
79504,-90.9090909090909,4,2,6,85,0,1
79838,-90.9090909090909,4,2,1,80,0,1
80087,-100,4,2,1,80,0,0
80170,-90.9090909090909,4,2,7,75,0,1
80338,-90.9090909090909,4,2,1,70,0,1
80420,-100,4,2,1,70,0,0
80503,-90.9090909090909,4,2,7,80,0,1
80671,-90.9090909090909,4,2,1,75,0,1
80753,-100,4,2,1,75,0,0
80837,-90.9090909090909,4,2,7,85,0,1
81004,-90.9090909090909,4,2,1,80,0,1
81087,-100,4,2,1,80,0,0
81170,-90.9090909090909,4,2,7,90,0,1
81338,-90.9090909090909,4,2,1,85,0,1
81420,-90.9090909090909,4,2,1,85,0,0
81504,-90.9090909090909,4,2,1,60,0,0
81837,-90.9090909090909,4,2,4,90,0,1
82004,-90.9090909090909,4,2,1,85,0,1
82671,-90.9090909090909,4,2,1,80,0,1
82754,-90.9090909090909,4,2,2,75,0,1
82837,-100,4,2,2,80,0,0
83004,-100,4,2,1,60,0,0
84171,-100,4,2,1,70,0,0
84338,-100,4,2,1,60,0,0
85338,-100,4,2,1,55,0,0
86838,-100,4,2,11,80,0,0
86920,-100,4,2,11,80,0,0
87171,-100,4,2,11,75,0,0
87504,-100,4,2,11,70,0,0
87838,-100,4,2,11,65,0,0
88171,-100,4,2,11,60,0,0
88504,-100,4,2,11,55,0,0
88838,-100,4,2,11,50,0,0
89171,-100,4,2,11,45,0,0
89504,-100,4,2,11,40,0,0
89838,-100,4,2,11,35,0,0
90004,-100,4,2,11,30,0,0
90171,-100,4,2,11,25,0,0
90338,-100,4,2,11,20,0,0
90504,-100,4,2,11,15,0,0
90671,-100,4,2,11,10,0,0
90838,-100,4,2,11,8,0,0
91004,-100,4,2,11,5,0,0

[Colours]
Combo1 : 247,202,119
Combo2 : 249,172,241
Combo3 : 249,244,162
Combo4 : 140,245,251

[HitObjects]
28,318,176,6,0,L|37:377,2,49.4999984893799,2|0|2,0:0|0:0|0:0,0:0:0:0:
35,274,675,1,0,0:0:0:0:
35,274,842,2,0,L|20:176,1,98.9999969787599,2|2,0:0|0:0,0:0:0:0:
99,136,1509,2,0,L|90:77,2,49.4999984893799,2|0|2,0:0|0:0|0:0,0:0:0:0:
141,162,2008,1,0,0:0:0:0:
141,162,2175,2,0,L|155:259,1,98.9999969787599,2|2,0:0|0:0,0:0:0:0:
168,348,2842,5,2,0:0:0:0:
251,381,3175,1,2,0:0:0:0:
322,326,3509,2,0,P|321:296|314:276,1,49.4999984893799,0|8,3:3|0:0,0:0:0:0:
308,233,3842,2,0,P|333:217|347:201,1,49.4999984893799,8|4,0:0|3:0,0:0:0:0:
389,178,4175,6,0,B|418:181|442:200|442:200|458:185|494:173,1,110,6|8,3:2|0:0,0:0:0:0:
505,131,4674,1,0,3:0:0:0:
486,38,5008,1,0,3:0:0:0:
486,38,5174,2,0,P|459:46|428:38,1,55,8|0,0:0|3:0,0:0:0:0:
385,25,5508,2,0,P|331:11|262:36,1,110,4|8,3:2|0:0,0:0:0:0:
254,68,6008,1,0,3:0:0:0:
254,68,6174,2,0,L|264:134,2,55,8|0|8,0:0|3:0|0:0,0:0:0:0:
163,26,6841,6,0,B|125:23|125:23|104:9|104:9|48:11,1,110,12|2,0:0|3:2,0:0:0:0:
16,36,7341,1,0,3:0:0:0:
16,36,7508,2,0,P|9:65|6:102,1,55,8|0,0:0|3:0,0:0:0:0:
23,136,7841,2,0,P|29:165|33:202,1,55,8|0,0:0|3:0,0:0:0:0:
20,238,8174,1,14,3:2:0:0:
57,329,8508,2,0,P|87:326|118:334,1,55,8|0,3:0|3:0,0:0:0:0:
155,353,8841,2,0,P|170:318|189:302,1,55,4|0,3:3|3:0,0:0:0:0:
217,271,9174,2,0,P|194:240|190:215,1,55,4|0,3:3|3:0,0:0:0:0:
309,135,9841,6,0,B|350:134|350:134|370:145|370:145|422:137,1,110,6|0,3:2|3:0,0:0:0:0:
467,153,10341,1,0,3:0:0:0:
467,153,10507,2,0,L|476:210,1,55,10|0,0:0|3:0,0:0:0:0:
483,256,10840,2,0,L|503:384,1,110,2|10,0:0|0:0,0:0:0:0:
403,341,11507,2,0,P|402:311|394:286,2,55,0|0|10,3:0|3:0|0:0,0:0:0:0:
364,370,12007,1,10,0:0:0:0:
364,370,12174,1,6,3:2:0:0:
265,382,12507,6,0,B|265:302|265:302|236:255,1,110,12|0,0:0|3:0,0:0:0:0:
199,273,13007,2,0,L|139:281,1,55,0|8,3:0|0:0,0:0:0:0:
95,289,13340,2,0,P|79:246|101:175,1,110,4|0,3:2|3:0,0:0:0:0:
116,141,13840,1,10,0:0:0:0:
54,63,14174,2,0,L|-3:70,2,55,2|0|8,3:2|3:0|0:0,0:0:0:0:
89,27,14674,1,8,0:0:0:0:
89,27,14840,2,0,L|143:20,1,55,2|2,3:2|0:0,0:0:0:0:
191,34,15174,1,12,0:0:0:0:
287,53,15507,6,0,P|286:25|294:-6,2,55,2|2|2,3:2|3:2|0:0,0:0:0:0:
280,102,16007,2,0,P|293:155|294:210,1,110,14|2,0:0|3:2,0:0:0:0:
303,263,16507,1,8,0:0:0:0:
303,263,16674,2,0,P|355:278|404:304,1,110,2|2,0:0|3:2,0:0:0:0:
443,334,17174,1,10,0:0:0:0:
498,251,17507,2,0,L|509:184,1,55,6|2,3:2|0:0,0:0:0:0:
480,154,17840,2,0,L|491:87,1,55,10|0,0:0|3:0,0:0:0:0:
451,66,18174,2,0,L|462:-1,2,55,4|8|8,3:3|0:0|0:0,0:0:0:0:
404,84,18674,6,0,B|332:68|354:119|284:136|214:95|255:65|255:10|147:-7|102:56|102:56|94:136|153:171|188:159,1,495,6|0,3:2|3:2,0:0:0:0:
254,202,20507,5,8,0:0:0:0:
256,289,20840,2,0,P|285:286|327:295,2,49.4999984893799,0|2|2,3:0|3:2|0:0,0:0:0:0:
229,324,21340,2,0,L|115:333,1,98.9999969787599,10|0,0:0|3:0,0:0:0:0:
94,358,21840,1,10,0:0:0:0:
8,332,22173,2,0,L|3:389,2,49.4999984893799,2|10|2,0:0|0:0|3:2,0:0:0:0:
13,242,22840,5,10,0:0:0:0:
96,211,23173,2,0,L|100:154,2,49.4999984893799,2|2|2,3:2|3:2|0:0,0:0:0:0:
114,251,23673,2,0,P|154:241|216:259,1,98.9999969787599,10|2,0:0|3:2,0:0:0:0:
243,282,24173,1,10,0:0:0:0:
299,351,24507,2,0,L|351:344,1,49.4999984893799,2|10,0:0|0:0,0:0:0:0:
387,365,24840,2,0,L|495:350,1,98.9999969787599,2|10,3:2|0:0,0:0:0:0:
458,266,25507,6,0,L|510:259,2,49.4999984893799,2|2|2,3:2|3:2|0:0,0:0:0:0:
416,249,26007,2,0,P|408:204|426:149,1,98.9999969787599,10|2,0:0|3:2,0:0:0:0:
449,119,26507,1,10,0:0:0:0:
449,119,26673,1,2,3:2:0:0:
475,36,27007,1,10,0:0:0:0:
475,36,27173,2,0,L|373:30,1,98.9999969787599,2|10,3:2|0:0,0:0:0:0:
288,47,27840,2,0,P|287:17|277:-13,2,49.4999984893799,2|2|2,3:2|3:2|0:0,0:0:0:0:
293,91,28340,6,0,P|274:146|272:204,1,98.9999969787599,12|0,0:0|3:0,0:0:0:0:
263,230,28840,2,0,P|237:245|216:269,1,49.4999984893799,10|2,0:0|3:2,0:0:0:0:
211,302,29173,1,4,3:2:0:0:
51,381,29840,6,0,B|44:342|44:342|47:322|47:322|38:265,1,98.9999969787599,6|8,3:2|0:0,0:0:0:0:
48,242,30340,1,2,3:2:0:0:
48,242,30506,2,0,P|21:243|-14:236,2,49.4999984893799,2|2|8,3:2|0:0|0:0,0:0:0:0:
82,213,31006,1,2,3:2:0:0:
160,170,31340,2,0,P|187:171|222:164,2,49.4999984893799,0|10|2,3:2|0:0|3:2,0:0:0:0:
129,137,31840,1,2,3:2:0:0:
41,121,32173,2,0,P|40:95|25:56,1,49.4999984893799,10|2,0:0|0:0,0:0:0:0:
18,30,32506,6,0,L|119:35,1,98.9999969787599,2|10,3:2|0:0,0:0:0:0:
204,53,33173,2,0,L|206:3,2,49.4999984893799,2|2|10,3:2|0:0|0:0,0:0:0:0:
222,93,33673,2,0,P|272:106|329:81,1,98.9999969787599,2|0,3:2|3:0,0:0:0:0:
347,59,34173,1,10,0:0:0:0:
425,17,34506,1,2,3:2:0:0:
492,74,34839,2,0,L|485:136,1,49.4999984893799,8|2,0:0|0:0,0:0:0:0:
503,164,35173,6,0,L|489:283,1,98.9999969787599,4|10,3:2|0:0,0:0:0:0:
464,346,35839,2,0,P|496:344|520:352,2,49.4999984893799,2|2|10,3:2|0:0|0:0,0:0:0:0:
425,367,36339,2,0,L|326:355,1,98.9999969787599,2|0,3:2|3:0,0:0:0:0:
283,368,36839,1,10,0:0:0:0:
232,295,37173,1,2,3:2:0:0:
299,236,37506,2,0,L|348:241,1,49.4999984893799,10|8,0:0|0:0,0:0:0:0:
392,248,37839,6,0,P|386:203|404:150,1,98.9999969787599,6|8,3:2|0:0,0:0:0:0:
431,119,38339,1,8,0:0:0:0:
431,119,38506,2,0,P|389:101|352:59,1,98.9999969787599,4|8,3:3|0:0,0:0:0:0:
274,2,39173,1,6,3:2:0:0:
182,40,39506,1,2,0:0:0:0:
169,139,39839,1,2,0:0:0:0:
249,200,40173,1,4,3:0:0:0:
342,162,40506,6,0,P|336:200|337:278,1,98.9999969787599,6|0,3:2|0:0,0:0:0:0:
315,347,41172,1,2,0:0:0:0:
227,330,41506,2,0,P|176:294|89:265,1,148.49999546814,2|2,0:0|0:0,0:0:0:0:
51,274,42172,1,2,0:0:0:0:
23,188,42506,6,0,B|27:141|-1:97|-1:97|4:40|73:32,1,197.99999395752,2|2,0:0|0:0,0:0:0:0:
153,53,43506,2,0,P|152:25|159:1,2,49.4999984893799,2|2|2,0:0|0:0|0:0,0:0:0:0:
180,88,44006,2,0,P|200:74|224:67,2,49.4999984893799,2|2|2,0:0|0:0|0:0,0:0:0:0:
157,126,44505,1,2,0:0:0:0:
154,215,44839,1,2,0:0:0:0:
230,263,45172,1,2,0:0:0:0:
308,221,45505,6,0,P|308:171|301:122,2,98.9999969787599,2|2|2,0:0|0:0|0:0,0:0:0:0:
397,215,46505,2,0,P|395:140|405:67,1,148.49999546814,2|2,0:0|0:0,0:0:0:0:
499,72,47339,1,2,0:0:0:0:
499,72,47505,2,0,L|506:20,2,49.4999984893799,2|2|2,0:0|0:0|0:0,0:0:0:0:
498,161,48172,1,2,0:0:0:0:
497,250,48505,6,0,P|489:302|492:355,1,98.9999969787599,2|2,0:0|0:3,0:0:0:0:
454,373,49005,2,0,P|412:340|365:316,1,98.9999969787599,2|0,0:0|0:0,0:0:0:0:
332,340,49505,1,2,0:0:0:0:
284,267,49839,1,2,0:0:0:0:
322,186,50172,1,2,0:0:0:0:
412,179,50505,6,0,B|418:81|418:81|399:33|316:45,1,197.99999395752,2|2,0:0|0:0,0:0:0:0:
244,48,51505,2,0,B|167:71|147:170|147:170|160:73|109:10|24:2|24:2|-31:62|2:156|55:170,1,593.999981872559,4|0,3:3|3:0,0:0:0:0:
19,262,53838,5,0,3:0:0:0:
61,357,54171,1,2,3:2:0:0:
61,357,54338,2,0,P|95:350|128:355,1,55,2|0,0:0|3:0,0:0:0:0:
164,357,54671,2,0,P|168:309|142:247,1,110,2|2,0:0|0:0,0:0:0:0:
141,202,55171,1,2,3:2:0:0:
215,136,55505,2,0,P|254:163|321:171,1,110,2|2,3:2|3:2,0:0:0:0:
368,175,56005,1,2,0:2:0:0:
368,175,56171,6,0,L|483:165,1,110,2|8,3:2|0:0,0:0:0:0:
509,210,56671,1,2,0:0:0:0:
509,210,56838,1,2,3:2:0:0:
494,357,57338,2,0,B|448:371|418:335|418:335|370:316|340:339,1,165,10|10,0:0|0:0,0:0:0:0:
306,373,58004,1,0,3:0:0:0:
306,373,58171,2,0,L|238:367,1,55,2|0,0:0|3:0,0:0:0:0:
202,374,58504,1,8,0:0:0:0:
102,367,58838,6,0,P|100:332|89:295,1,55,2|0,3:2|0:0,0:0:0:0:
92,263,59171,2,0,P|121:243|147:215,1,55,8|0,0:0|3:0,0:0:0:0:
177,202,59504,2,0,P|208:217|245:226,2,55,8|2|10,0:0|3:2|0:0,0:0:0:0:
164,153,60004,1,6,3:2:0:0:
225,75,60338,1,10,0:2:0:0:
225,75,60504,1,10,0:0:0:0:
146,14,60838,2,0,P|113:18|82:12,1,55,0|8,3:0|0:0,0:0:0:0:
42,24,61171,2,0,P|28:54|8:78,1,55,8|4,0:0|3:0,0:0:0:0:
11,119,61504,6,0,P|20:168|24:256,1,121.000003692627,4|10,3:2|0:0,0:0:0:0:
57,330,62171,2,0,P|27:328|-6:341,2,60.5000018463135,2|2|10,3:2|0:0|0:0,0:0:0:0:
103,358,62671,1,2,0:0:0:0:
103,358,62838,2,0,P|132:362|162:356,1,60.5000018463135,2|2,3:2|0:0,0:0:0:0:
207,338,63171,2,0,L|188:212,1,121.000003692627,10|2,0:0|3:2,0:0:0:0:
257,150,63838,2,0,L|247:83,1,60.5000018463135,8|8,0:0|0:0,0:0:0:0:
247,41,64171,5,2,3:2:0:0:
341,21,64504,1,10,0:0:0:0:
406,93,64838,1,2,3:2:0:0:
360,178,65171,1,10,0:0:0:0:
266,209,65504,2,0,L|256:149,2,60.5000018463135,6|2|10,3:2|0:0|0:0,0:0:0:0:
274,256,66004,2,0,B|283:337|283:337|319:355,1,121.000003692627,2|2,0:0|0:0,0:0:0:0:
363,371,66504,1,10,0:0:0:0:
459,365,66838,6,0,P|445:309|465:240,1,121.000003692627,6|10,3:2|0:0,0:0:0:0:
494,215,67338,2,0,P|503:155|484:99,1,121.000003692627,2|2,0:0|3:2,0:0:0:0:
475,51,67838,1,10,0:0:0:0:
380,32,68171,1,2,3:2:0:0:
380,32,68338,2,0,L|257:23,1,121.000003692627,2|2,0:0|0:0,0:0:0:0:
210,23,68838,1,2,3:2:0:0:
115,2,69171,1,10,0:0:0:0:
30,48,69504,6,0,B|25:89|25:89|31:117|31:117|18:191,1,121.000003692627,6|10,3:2|0:0,0:0:0:0:
45,215,70004,1,2,0:0:0:0:
45,215,70171,2,0,P|83:210|110:222,1,60.5000018463135,2|2,3:2|0:0,0:0:0:0:
149,232,70504,2,0,P|163:196|187:179,1,60.5000018463135,10|2,0:0|0:0,0:0:0:0:
227,171,70838,2,0,L|352:183,1,121.000003692627,2|8,3:2|0:0,0:0:0:0:
398,197,71338,1,4,3:0:0:0:
398,197,71504,1,4,3:2:0:0:
480,247,71838,1,8,0:0:0:0:
480,343,72171,6,0,P|427:324|363:350,1,121.000003692627,4|10,3:2|0:0,0:0:0:0:
329,371,72671,1,2,0:0:0:0:
329,371,72838,2,0,L|255:364,1,60.5000018463135,10|2,0:0|3:2,0:0:0:0:
240,326,73171,2,0,L|166:319,1,60.5000018463135,10|2,0:0|3:2,0:0:0:0:
131,322,73504,2,0,P|135:357|132:382,2,60.5000018463135,10|2|10,0:0|0:0|0:0,0:0:0:0:
50,279,74171,1,10,0:0:0:0:
50,279,74338,2,0,P|21:301|-1:310,2,60.5000018463135,2|10|2,3:2|0:0|3:2,0:0:0:0:
49,230,74838,5,2,3:2:0:0:
6,142,75171,1,10,0:0:0:0:
61,61,75504,1,10,0:0:0:0:
159,68,75838,1,10,0:0:0:0:
202,157,76171,2,0,B|232:150|232:150|268:162,2,60.5000018463135,6|8|8,3:2|0:0|0:0,0:0:0:0:
160,181,76671,2,0,P|169:218|183:314,1,121.000003692627,4|0,3:2|0:0,0:0:0:0:
171,347,77171,1,8,0:0:0:0:
266,363,77504,6,0,P|318:351|383:378,1,121.000003692627,6|10,3:2|0:0,0:0:0:0:
427,378,78004,2,0,P|442:326|498:284,1,121.000003692627,2|2,3:2|3:2,0:0:0:0:
506,238,78504,1,10,0:0:0:0:
437,169,78838,2,0,L|370:175,2,60.5000018463135,2|2|10,3:2|0:0|0:0,0:0:0:0:
474,137,79338,1,2,0:0:0:0:
474,137,79504,2,0,B|473:93|473:93|469:72|469:72|480:3,1,121.000003692627,6|10,3:2|0:0,0:0:0:0:
389,9,80171,5,10,0:1:0:0:
321,78,80504,1,10,0:1:0:0:
247,14,80838,1,10,0:1:0:0:
181,85,81171,1,10,0:1:0:0:
113,16,81504,2,0,L|51:23,1,60.5000018463135,2|0,3:1|0:0,0:0:0:0:
6,37,81838,2,0,P|17:74|31:159,1,121.000003692627,12|8,0:0|0:0,0:0:0:0:
43,201,82338,1,8,0:0:0:0:
43,201,82504,2,0,P|36:221|29:267,1,60.5000018463135,8|0,0:0|3:0,0:0:0:0:
35,309,82838,6,0,B|102:293|137:360|137:360|175:400|252:385|257:294|192:270,1,330,6|0,3:2|3:0,0:0:0:0:
129,193,84171,2,0,B|154:163|206:167|199:168|199:168|238:170|269:193|285:225|285:225|318:283|414:274|438:181|389:128|341:131,1,440,2|0,3:2|3:0,0:0:0:0:
44,38,86838,5,6,0:0:0:0:
256,192,87004,12,0,91004,0:0:0:0:
