osu file format v14

[General]
AudioFilename: audio.mp3
AudioLeadIn: 0
PreviewTime: 61421
Countdown: 0
SampleSet: Soft
StackLeniency: 0.7
Mode: 0
LetterboxInBreaks: 0
WidescreenStoryboard: 0

[Editor]
Bookmarks: 176,4175,9841,17507,20174,29840,39173,40506,48505,51505,53505,56171,61504,64171,72171,74838,85504,86838,91004
DistanceSpacing: 0.9
BeatDivisor: 4
GridSize: 32
TimelineZoom: 1.4

[Metadata]
Title:Kimi dake no Princess
TitleUnicode:キミだけのプリンセス
Artist:AZKi, Omaru Polka
ArtistUnicode:AZKi・尾丸ポルカ
Creator:tomatas95
Version:Easy
Source:ガラス姫と鏡の従者
Tags:eroge Princess only for you Princess of glass and Retinue of mirrors Glass Hime to Kagami no Juusha yuiko hololive virtual youtuber vtuber giga video game japanese visual novel vn op opening galgame shirahane suou Tansa j-pop pop jpop game version production
BeatmapID:3664370
BeatmapSetID:1769796

[Difficulty]
HPDrainRate:2
CircleSize:2.5
OverallDifficulty:2
ApproachRate:3
SliderMultiplier:1
SliderTickRate:1

[Events]
//Background and Video events
Video,-1100,"DownBadForPrincesses.mp4"
0,0,"HimeNaomiDate.jpg",0,0
//Break Periods
//Storyboard Layer 0 (Background)
//Storyboard Layer 1 (Fail)
//Storyboard Layer 2 (Pass)
//Storyboard Layer 3 (Foreground)
//Storyboard Layer 4 (Overlay)
//Storyboard Sound Samples

[TimingPoints]
176,333.333333333333,4,2,1,40,1,0
176,-100,4,2,1,40,0,0
842,-100,4,2,1,45,0,0
1509,-100,4,2,1,50,0,0
2175,-100,4,2,1,55,0,0
2509,-100,4,2,1,30,0,0
2842,-100,4,2,1,40,0,0
3509,-100,4,2,1,50,0,0
3675,-100,4,2,1,60,0,0
3842,-100,4,2,1,65,0,0
4009,-100,4,2,2,60,0,0
4092,-100,4,2,3,55,0,0
4175,333.333333333333,4,2,3,70,1,0
4175,-100,4,2,3,70,0,0
4258,-100,4,2,1,70,0,0
4508,-100,4,2,1,75,0,0
4591,-100,4,2,1,70,0,0
4841,-100,4,2,1,75,0,0
4924,-100,4,2,1,70,0,0
5091,-100,4,2,1,65,0,0
5174,-100,4,2,1,75,0,0
5258,-100,4,2,1,60,0,0
5341,-100,4,2,1,55,0,0
5424,-100,4,2,1,50,0,0
5508,-100,4,2,4,75,0,0
5591,-100,4,2,1,70,0,0
5841,-100,4,2,1,75,0,0
5924,-100,4,2,1,70,0,0
6174,-100,4,2,1,75,0,0
6258,-100,4,2,1,70,0,0
6508,-100,4,2,1,75,0,0
6591,-100,4,2,1,70,0,0
6841,-100,4,2,1,60,0,0
6924,-100,4,2,1,55,0,0
7174,-100,4,2,5,75,0,0
7258,-100,4,2,1,70,0,0
7508,-100,4,2,1,75,0,0
7591,-100,4,2,1,70,0,0
7841,-100,4,2,1,75,0,0
7924,-100,4,2,1,70,0,0
8174,-100,4,2,6,80,0,0
8258,-100,4,2,1,75,0,0
8508,-100,4,2,1,80,0,0
8591,-100,4,2,1,75,0,0
8841,-100,4,2,1,80,0,0
8924,-100,4,2,1,75,0,0
9174,-100,4,2,1,80,0,0
9257,-100,4,2,1,75,0,0
9508,-100,4,2,1,15,0,0
9674,-100,4,2,1,45,0,0
9841,-100,4,2,2,75,0,0
10007,-100,4,2,1,70,0,0
10674,-100,4,2,1,75,0,0
10840,-100,4,2,1,70,0,0
12007,-100,4,2,1,75,0,0
12174,-100,4,2,1,70,0,0
12507,-100,4,2,3,80,0,0
12840,-100,4,2,1,70,0,0
13340,-100,4,2,4,75,0,0
13674,-100,4,2,1,70,0,0
14007,-100,4,2,1,75,0,0
14174,-100,4,2,1,80,0,0
14340,-100,4,2,1,70,0,0
14840,-100,4,2,1,60,0,0
15174,-100,4,2,6,75,0,0
15340,-100,4,2,1,70,0,0
15507,-100,4,2,1,65,0,0
15674,-100,4,2,1,70,0,0
15840,-100,4,2,1,75,0,0
16007,-100,4,2,3,75,0,0
16340,-100,4,2,1,70,0,0
17340,-100,4,2,1,75,0,0
17507,-100,4,2,5,80,0,0
17674,-100,4,2,2,75,0,0
18174,-100,4,2,1,70,0,0
18674,-100,4,2,2,80,0,0
18840,-100,4,2,2,70,0,0
19007,-100,4,2,2,65,0,0
19174,-100,4,2,2,60,0,0
19340,-100,4,2,2,55,0,0
19507,-100,4,2,2,50,0,0
19674,-100,4,2,2,45,0,0
19840,-100,4,2,2,40,0,0
20007,-100,4,2,2,35,0,0
20174,333.333333333333,7,2,1,65,1,0
20174,-100,4,2,1,65,0,0
20340,-100,4,2,2,60,0,0
20840,-100,4,2,2,65,0,0
21174,-100,4,2,2,60,0,0
21340,-100,4,2,2,65,0,0
21590,-100,4,2,2,60,0,0
22507,-100,4,2,2,65,0,0
22840,-100,4,2,2,60,0,0
23673,-100,4,2,2,65,0,0
23923,-100,4,2,2,60,0,0
24340,-100,4,2,2,65,0,0
24507,-100,4,2,2,60,0,0
24840,-100,4,2,2,65,0,0
25007,-100,4,2,2,60,0,0
25507,-100,4,2,2,65,0,0
25840,-100,4,2,2,60,0,0
26007,-100,4,2,2,65,0,0
26257,-100,4,2,2,60,0,0
26673,-100,4,2,2,65,0,0
27007,-100,4,2,2,60,0,0
27173,-100,4,2,2,65,0,0
27507,-100,4,2,2,60,0,0
27840,-100,4,2,2,65,0,0
28173,-100,4,2,2,60,0,0
28340,-100,4,2,3,75,0,0
28590,-100,4,2,2,70,0,0
29173,-100,4,2,7,75,0,0
29340,-100,4,2,1,5,0,0
29840,333.333333333333,4,2,1,70,1,0
29840,-100,4,2,1,70,0,0
30173,-100,4,2,2,60,0,0
31006,-100,4,2,2,65,0,0
31340,-100,4,2,2,60,0,0
31839,-100,4,2,2,65,0,0
32173,-100,4,2,2,60,0,0
32506,-100,4,2,2,65,0,0
32839,-100,4,2,2,60,0,0
33173,-100,4,2,2,65,0,0
33506,-100,4,2,2,60,0,0
33673,-100,4,2,2,65,0,0
34006,-100,4,2,2,60,0,0
34506,-100,4,2,2,65,0,0
34839,-100,4,2,2,60,0,0
35173,-100,4,2,1,65,0,0
35506,-100,4,2,2,60,0,0
36339,-100,4,2,2,65,0,0
36672,-100,4,2,2,60,0,0
37173,-100,4,2,2,65,0,0
37506,-100,4,2,2,60,0,0
37839,-100,4,2,6,70,0,0
38173,-100,4,2,2,65,0,0
38506,-100,4,2,1,65,0,0
38673,-100,4,2,2,65,0,0
38839,-100,4,2,2,70,0,0
39006,-100,4,2,1,65,0,0
39089,-100,4,2,2,60,0,0
39173,-100,4,2,3,65,0,0
39506,-100,4,2,1,65,0,0
39673,-100,4,2,1,60,0,0
39839,-100,4,2,1,65,0,0
40006,-100,4,2,2,55,0,0
40173,-100,4,2,2,50,0,0
40506,333.333333333333,3,2,1,65,1,0
40506,-100,4,2,5,65,0,0
41006,-100,4,2,1,55,0,0
42506,-100,4,2,1,60,0,0
43006,-100,4,2,1,55,0,0
43506,-100,4,2,1,45,0,0
43839,-100,4,2,1,50,0,0
44172,-100,4,2,1,55,0,0
44839,-100,4,2,1,45,0,0
45505,-100,4,2,1,55,0,0
45839,-100,4,2,1,45,0,0
46505,-100,4,2,1,55,0,0
47005,-100,4,2,1,45,0,0
47505,-100,4,2,1,55,0,0
48505,-100,4,2,1,60,0,0
48672,-100,4,2,1,55,0,0
49005,-100,4,2,1,60,0,0
49172,-100,4,2,1,55,0,0
49339,-100,4,2,1,60,0,0
49839,-100,4,2,1,55,0,0
50505,-100,4,2,1,60,0,0
50672,-100,4,2,1,55,0,0
51172,-100,4,2,1,60,0,0
51505,-111.111111111111,4,2,2,60,0,0
51672,-100,4,2,2,15,0,0
51839,-100,4,2,2,20,0,0
52005,-100,4,2,2,25,0,0
52172,-100,4,2,2,30,0,0
52339,-100,4,2,2,35,0,0
52505,-100,4,2,2,40,0,0
52672,-100,4,2,2,45,0,0
52839,-100,4,2,2,50,0,0
53005,-100,4,2,2,55,0,0
53172,-100,4,2,2,60,0,0
53339,-100,4,2,2,70,0,0
53505,333.333333333333,4,2,1,65,1,0
53505,-100,4,2,1,65,0,0
53671,-100,4,2,2,65,0,0
55838,-100,4,2,2,60,0,0
56171,-100,4,2,2,70,0,0
56505,-100,4,2,2,65,0,0
57005,-100,4,2,2,60,0,0
57338,-100,4,2,2,65,0,0
58671,-100,4,2,2,60,0,0
58838,-100,4,2,2,70,0,0
59171,-100,4,2,1,70,0,0
60004,-100,4,2,5,75,0,0
60338,-100,4,2,1,75,0,0
60671,-100,4,2,1,5,0,0
60838,-100,4,2,1,60,0,0
61004,-100,4,2,1,65,0,0
61171,-100,4,2,1,70,0,0
61338,-100,4,2,1,75,0,0
61421,-100,4,2,2,75,0,0
61504,333.333333333333,4,2,1,85,1,0
61504,-100,4,2,4,85,0,1
61671,-100,4,2,1,75,0,1
62171,-100,4,2,1,80,0,1
62838,-100,4,2,1,85,0,1
63671,-100,4,2,1,70,0,1
63838,-100,4,2,1,75,0,1
64004,-100,4,2,1,80,0,1
64171,-100,4,2,1,85,0,1
64838,-100,4,2,1,80,0,1
65504,-100,4,2,3,85,0,1
65671,-100,4,2,1,85,0,1
66171,-100,4,2,1,80,0,1
66671,-100,4,2,1,75,0,1
66838,-100,4,2,5,85,0,1
67171,-100,4,2,1,80,0,1
68171,-100,4,2,1,85,0,1
68338,-100,4,2,1,80,0,1
69504,-100,4,2,6,85,0,1
69838,-100,4,2,1,80,0,1
70004,-100,4,2,1,55,0,1
70171,-100,4,2,1,60,0,1
70338,-100,4,2,1,65,0,1
70504,-100,4,2,1,70,0,1
70671,-100,4,2,1,75,0,1
70838,-100,4,2,1,80,0,1
71338,-100,4,2,1,75,0,1
71421,-100,4,2,2,70,0,1
71503,-100,4,2,7,80,0,0
71838,-100,4,2,1,70,0,0
72170,-100,4,2,2,80,0,1
72338,-100,4,2,1,70,0,1
72838,-100,4,2,1,75,0,1
73504,-100,4,2,1,80,0,1
74171,-100,4,2,1,85,0,1
74338,-100,4,2,1,70,0,1
74504,-100,4,2,1,75,0,1
74671,-100,4,2,1,80,0,1
74838,-100,4,2,1,85,0,1
76171,-100,4,2,3,80,0,1
76338,-100,4,2,1,80,0,1
76671,-100,4,2,4,85,0,1
77004,-100,4,2,1,80,0,1
77504,-100,4,2,5,85,0,1
77838,-100,4,2,1,80,0,1
78838,-100,4,2,1,65,0,1
79004,-100,4,2,1,70,0,1
79171,-100,4,2,1,75,0,1
79338,-100,4,2,1,80,0,1
79504,-100,4,2,6,85,0,1
79838,-100,4,2,1,80,0,1
80087,-100,4,2,1,80,0,0
80170,-100,4,2,7,75,0,1
80338,-100,4,2,1,70,0,1
80420,-100,4,2,1,70,0,0
80503,-100,4,2,7,80,0,1
80671,-100,4,2,1,75,0,1
80753,-100,4,2,1,75,0,0
80837,-100,4,2,7,85,0,1
81004,-100,4,2,1,80,0,1
81087,-100,4,2,1,80,0,0
81170,-100,4,2,7,90,0,1
81338,-100,4,2,1,85,0,1
81420,-100,4,2,1,85,0,0
81504,-100,4,2,1,60,0,0
81837,-100,4,2,4,90,0,1
82004,-100,4,2,1,85,0,1
82671,-100,4,2,1,80,0,1
82837,-100,4,2,2,80,0,0
83004,-100,4,2,1,60,0,0
84171,-100,4,2,1,70,0,0
84338,-100,4,2,1,60,0,0
85337,-100,4,2,1,55,0,0
85503,-100,4,2,1,55,0,0
86838,-100,4,2,11,80,0,0
86920,-100,4,2,11,80,0,0
87171,-100,4,2,11,75,0,0
87504,-100,4,2,11,70,0,0
87838,-100,4,2,11,65,0,0
88171,-100,4,2,11,60,0,0
88504,-100,4,2,11,55,0,0
88838,-100,4,2,11,50,0,0
89171,-100,4,2,11,45,0,0
89504,-100,4,2,11,40,0,0
89838,-100,4,2,11,35,0,0
90004,-100,4,2,11,30,0,0
90171,-100,4,2,11,25,0,0
90338,-100,4,2,11,20,0,0
90504,-100,4,2,11,15,0,0
90671,-100,4,2,11,10,0,0
90838,-100,4,2,11,8,0,0
91004,-100,4,2,11,5,0,0

[Colours]
Combo1 : 247,202,119
Combo2 : 249,172,241
Combo3 : 249,244,162
Combo4 : 140,245,251

[HitObjects]
11,29,176,6,0,P|26:117|29:232,1,200,2|2,0:0|0:0,0:0:0:0:
68,308,1175,1,2,0:0:0:0:
155,284,1509,2,0,P|223:227|321:166,1,200,2|2,0:0|0:0,0:0:0:0:
491,217,2842,6,0,L|505:118,1,100,2|2,0:0|0:0,0:0:0:0:
498,28,3509,1,0,3:3:0:0:
408,24,3842,1,8,0:0:0:0:
339,82,4175,6,0,B|268:61|220:159|220:159|185:61|109:51,1,300,6|8,3:2|0:0,0:0:0:0:
50,9,5508,2,0,B|-18:50|4:138|4:138|66:195|29:291,1,300,4|8,3:2|0:0,0:0:0:0:
91,346,6841,6,0,B|119:379|176:384|234:371|252:302|252:302|210:251|169:263,1,300,12|8,0:0|0:0,0:0:0:0:
105,199,8174,1,14,3:2:0:0:
157,125,8508,1,8,3:0:0:0:
120,43,8841,2,0,B|67:58|67:58|13:32,2,100,4|4|0,3:3|3:3|0:0,0:0:0:0:
208,28,9841,6,0,B|254:-6|309:15|309:15|342:55|401:37,1,200,6|10,3:2|0:0,0:0:0:0:
484,40,10840,2,0,B|489:88|470:151|470:151|427:127|368:151,1,200,2|0,0:0|3:0,0:0:0:0:
296,129,11840,1,10,0:0:0:0:
240,199,12174,1,2,3:2:0:0:
282,278,12507,6,0,B|303:317|295:357|295:357|339:376|376:356,1,150,12|0,0:0|3:0,0:0:0:0:
451,369,13340,2,0,B|461:320|461:320|454:294|454:294|470:216,1,150,4|10,3:2|0:0,0:0:0:0:
502,138,14174,1,2,3:2:0:0:
459,58,14507,2,0,P|419:71|361:52,1,100,8|2,0:0|3:2,0:0:0:0:
280,23,15174,6,0,P|269:86|265:175,1,150,12|2,0:0|3:2,0:0:0:0:
181,205,16007,2,0,P|146:176|93:142,1,100,8|2,0:0|3:2,0:0:0:0:
75,59,16674,2,0,P|17:102|15:183,1,150,2|10,0:0|0:0,0:0:0:0:
2,263,17507,5,6,3:2:0:0:
45,341,17840,2,0,B|78:316|119:331|119:331|143:360|186:347,1,150,10|8,0:0|0:0,0:0:0:0:
271,369,18674,2,0,B|313:313|275:259|275:259|239:188|281:116|281:116|245:172|207:187|159:188|117:160,1,450,6|0,3:2|3:2,0:0:0:0:
43,131,20507,5,8,0:0:0:0:
7,213,20840,2,0,P|15:266|19:364,2,150,0|10|10,3:0|0:0|0:0,0:0:0:0:
43,131,22173,1,2,0:0:0:0:
20,43,22507,1,2,3:2:0:0:
106,18,22840,6,0,B|188:15|188:15|221:48|201:88,1,150,10|2,0:0|3:2,0:0:0:0:
175,161,23673,2,0,B|241:181|284:129|284:129|355:102|414:146,1,250,10|2,0:0|0:0,0:0:0:0:
487,182,24840,1,2,3:2:0:0:
495,271,25173,1,10,0:0:0:0:
457,352,25507,6,0,P|390:338|301:344,1,150,2|10,3:2|0:0,0:0:0:0:
226,374,26340,2,0,L|213:262,1,100,2|2,3:2|3:2,0:0:0:0:
202,140,27173,2,0,B|155:158|155:158|98:136,1,100,2|10,3:2|0:0,0:0:0:0:
21,115,27840,1,2,3:2:0:0:
12,249,28340,2,0,B|21:342|21:342|50:353|85:340,1,150,12|10,0:0|0:0,0:0:0:0:
150,292,29173,1,4,3:2:0:0:
318,355,29840,6,0,B|421:310|411:392|517:349,1,200,6|2,3:2|3:2,0:0:0:0:
507,217,31006,2,0,P|502:151|505:46,1,150,2|10,3:2|0:0,0:0:0:0:
433,10,31839,1,2,3:2:0:0:
356,58,32173,1,10,0:0:0:0:
268,37,32506,6,0,B|222:3|167:24|167:24|134:64|75:46,1,200,2|2,3:2|3:2,0:0:0:0:
10,162,33673,2,0,L|162:148,1,150,2|10,3:2|0:0,0:0:0:0:
245,124,34506,1,2,3:2:0:0:
316,179,34839,1,8,0:0:0:0:
259,249,35173,6,0,B|242:309|253:367|253:367|205:379|153:356,1,200,4|2,3:2|3:2,0:0:0:0:
38,376,36339,2,0,B|43:344|20:310|20:310|9:270|30:227,1,150,2|10,3:2|0:0,0:0:0:0:
77,156,37173,1,2,3:2:0:0:
13,91,37506,1,10,0:0:0:0:
84,36,37839,6,0,B|187:-13|173:89|285:33,1,200,6|4,3:2|3:3,0:0:0:0:
360,11,38839,1,8,0:0:0:0:
430,66,39173,2,0,P|414:108|400:175,1,100,6|2,3:2|0:0,0:0:0:0:
317,192,39839,2,0,P|332:234|346:301,1,100,2|4,0:0|3:0,0:0:0:0:
401,356,40506,6,0,B|443:342|497:363|497:363|529:315|491:246,1,200,6|2,3:2|0:0,0:0:0:0:
499,176,41506,2,0,B|489:122|506:74|506:74|485:35|416:25,1,200,2|2,0:0|0:0,0:0:0:0:
335,17,42506,2,0,B|275:25|254:64|254:64|270:113|261:166,1,200,2|2,0:0|0:0,0:0:0:0:
330,223,43506,1,2,0:0:0:0:
94,354,44505,6,0,P|46:340|-11:357,2,100,2|2|2,0:0|0:0|0:0,0:0:0:0:
181,377,45505,2,0,B|187:335|156:292|156:292|148:229|194:179,1,200,2|2,0:0|0:0,0:0:0:0:
248,125,46505,2,0,B|208:92|152:109|152:109|157:50|102:27,1,200,2|0,0:0|0:0,0:0:0:0:
16,17,47505,1,2,0:0:0:0:
143,254,48505,6,0,B|67:284|75:223|-2:256,2,150,2|2|2,0:0|0:0|0:0,0:0:0:0:
224,212,49839,1,2,0:0:0:0:
278,283,50172,1,2,0:0:0:0:
260,371,50505,2,0,B|312:387|347:345|347:345|404:323|451:358,1,200,2|2,0:0|0:0,0:0:0:0:
459,263,51505,6,0,B|573:119|522:-19|320:-84|245:53|293:141|354:165|384:162,1,539.999983520508,4|0,3:3|3:0,0:0:0:0:
366,251,53838,5,0,3:0:0:0:
279,227,54171,2,0,L|261:375,2,150,2|2|2,3:2|0:0|3:2,0:0:0:0:
212,166,55505,2,0,L|225:57,1,100,2|2,3:2|3:2,0:0:0:0:
303,24,56171,6,0,B|416:26|416:26|454:60|434:126,2,200,2|2|0,3:2|3:2|0:0,0:0:0:0:
223,66,57838,1,10,0:0:0:0:
143,24,58171,2,0,P|91:37|29:13,1,100,2|8,0:0|0:0,0:0:0:0:
35,114,58838,6,0,B|-24:163|-16:245|69:307|128:220|80:183,1,250,2|2,3:2|3:2,0:0:0:0:
153,130,60004,1,6,3:2:0:0:
232,172,60338,2,0,L|293:165,1,50,10|10,0:2|0:0,0:0:0:0:
485,347,61504,6,0,B|382:298|396:400|284:344,1,200,4|2,3:2|3:2,0:0:0:0:
213,308,62504,1,10,0:0:0:0:
148,371,62838,2,0,P|98:361|45:363,1,100,2|10,3:2|0:0,0:0:0:0:
13,279,63504,2,0,P|46:240|71:193,1,100,2|8,3:2|0:0,0:0:0:0:
14,126,64171,5,2,3:2:0:0:
44,41,64504,1,10,0:0:0:0:
130,14,64838,2,0,L|231:22,1,100,2|10,3:2|0:0,0:0:0:0:
317,38,65504,2,0,B|305:90|305:90|311:118|311:118|294:195,2,150,6|2|10,3:2|0:0|0:0,0:0:0:0:
403,11,66838,2,0,B|492:10|492:10|526:36|512:82,2,150,6|2|10,3:2|0:0|0:0,0:0:0:0:
384,99,68171,6,0,B|418:113|416:184|416:184|475:162|518:203,1,200,2|2,3:2|3:2,0:0:0:0:
455,268,69171,1,10,0:0:0:0:
490,350,69504,2,0,B|433:367|392:330|392:330|340:314|291:342,1,200,6|2,3:2|3:2,0:0:0:0:
215,371,70504,1,10,0:0:0:0:
184,286,70838,2,0,L|193:169,1,100,2|8,3:2|0:0,0:0:0:0:
195,96,71504,1,4,3:2:0:0:
134,29,71838,1,8,0:0:0:0:
44,38,72171,6,0,B|18:70|22:123|22:123|51:179|32:229,1,200,4|10,3:2|0:0,0:0:0:0:
0,313,73171,1,10,0:0:0:0:
74,362,73504,2,0,P|121:353|177:351,1,100,10|10,0:0|0:0,0:0:0:0:
212,269,74171,2,0,P|180:232|150:185,1,100,10|10,0:0|0:0,0:0:0:0:
119,105,74838,5,2,3:2:0:0:
189,49,75171,1,10,0:0:0:0:
265,96,75504,2,0,L|372:83,1,100,10|10,0:0|0:0,0:0:0:0:
437,136,76171,2,0,P|453:82|384:0,2,150,6|4|8,3:2|3:2|0:0,0:0:0:0:
360,183,77504,6,0,B|313:175|292:195|292:195|278:240|304:279,2,150,6|2|10,3:2|3:2|0:0,0:0:0:0:
437,136,78838,1,2,3:2:0:0:
501,199,79171,1,10,0:0:0:0:
459,278,79504,2,0,P|450:323|450:383,1,100,6|10,3:2|0:0,0:0:0:0:
359,381,80171,5,10,0:1:0:0:
284,330,80504,1,10,0:1:0:0:
198,359,80838,2,0,B|149:342|149:342|95:362,1,100,10|10,0:1|0:1,0:0:0:0:
19,327,81504,1,2,3:1:0:0:
43,240,81838,2,0,B|82:206|82:206|91:149,1,100,12|8,0:0|0:0,0:0:0:0:
28,93,82504,1,8,0:0:0:0:
88,25,82838,6,0,B|160:-14|235:29|235:29|192:110|235:182,1,300,6|0,3:2|3:0,0:0:0:0:
280,242,84171,2,0,B|383:324|484:287|532:141|431:86|368:121|347:163|366:192,1,400,2|0,3:2|3:0,0:0:0:0:
37,37,86838,5,6,0:2:0:0:
256,192,87171,12,0,91004,0:0:0:0:
