osu file format v14

[General]
AudioFilename: audio.mp3
AudioLeadIn: 0
PreviewTime: 60080
Countdown: 0
SampleSet: Soft
StackLeniency: 0.7
Mode: 0
LetterboxInBreaks: 0
WidescreenStoryboard: 0

[Editor]
DistanceSpacing: 0.3
BeatDivisor: 4
GridSize: 32
TimelineZoom: 2.1

[Metadata]
Title:without U
TitleUnicode:without U
Artist:AZKi
ArtistUnicode:AZKi
Creator:Bokamin
Version:Extra
Source:
Tags:Captain Yasaija 714 cover カバー hololive ホロライブ vtuber virtual youtuber japanese pop
BeatmapID:2619190
BeatmapSetID:1259830

[Difficulty]
HPDrainRate:6
CircleSize:4.2
OverallDifficulty:8.5
ApproachRate:9.2
SliderMultiplier:1.8
SliderTickRate:1

[Events]
//Background and Video events
0,0,"without u BG.jpg",0,0
//Break Periods
2,191724,199675
//Storyboard Layer 0 (Background)
//Storyboard Layer 1 (Fail)
//Storyboard Layer 2 (Pass)
//Storyboard Layer 3 (Foreground)
//Storyboard Layer 4 (Overlay)
//Storyboard Sound Samples

[TimingPoints]
80,346.820809248555,4,2,1,40,1,0
80,-200,4,2,1,40,0,0
5629,-166.666666666667,4,2,1,40,0,0
5889,-166.666666666667,4,2,1,5,0,0
5975,-166.666666666667,4,2,1,40,0,0
6756,-166.666666666667,4,2,1,5,0,0
6842,-166.666666666667,4,2,1,40,0,0
7796,-166.666666666667,4,2,1,5,0,0
7882,-166.666666666667,4,2,1,40,0,0
9530,-166.666666666667,4,2,1,5,0,0
9616,-166.666666666667,4,2,1,40,0,0
11178,-142.857142857143,4,2,1,50,0,0
11438,-142.857142857143,4,2,1,5,0,0
11525,-142.857142857143,4,2,1,50,0,0
11785,-142.857142857143,4,2,1,5,0,0
11872,-142.857142857143,4,2,1,50,0,0
12132,-142.857142857143,4,2,1,5,0,0
12219,-142.857142857143,4,2,1,50,0,0
12478,-142.857142857143,4,2,1,5,0,0
12565,-142.857142857143,4,2,1,50,0,0
12825,-142.857142857143,4,2,1,5,0,0
12912,-142.857142857143,4,2,1,50,0,0
13172,-142.857142857143,4,2,1,5,0,0
13259,-142.857142857143,4,2,1,50,0,0
13519,-142.857142857143,4,2,1,5,0,0
13606,-142.857142857143,4,2,1,50,0,0
13866,-142.857142857143,4,2,1,5,0,0
13953,-142.857142857143,4,2,1,50,0,0
14212,-142.857142857143,4,2,1,5,0,0
14299,-142.857142857143,4,2,1,50,0,0
14559,-142.857142857143,4,2,1,5,0,0
14646,-125,4,2,1,50,0,0
14906,-125,4,2,1,5,0,0
14993,-125,4,2,1,50,0,0
15166,-100,4,2,1,60,0,0
15426,-100,4,2,1,5,0,0
15513,-200,4,2,1,60,0,0
15773,-200,4,2,1,5,0,0
15860,-76.9230769230769,4,2,1,60,0,0
16120,-76.9230769230769,4,2,1,5,0,0
16207,-76.9230769230769,4,2,1,60,0,0
16727,-83.3333333333333,4,2,1,70,0,0
16987,-83.3333333333333,4,2,1,5,0,0
17074,-83.3333333333333,4,2,1,70,0,0
19241,-83.3333333333333,4,2,1,5,0,0
19328,-83.3333333333333,4,2,1,70,0,0
19501,-83.3333333333333,4,2,1,70,0,0
19762,-83.3333333333333,4,2,1,5,0,0
19849,-83.3333333333333,4,2,1,70,0,0
21496,-83.3333333333333,4,2,1,5,0,0
21583,-83.3333333333333,4,2,1,70,0,0
22536,-83.3333333333333,4,2,1,5,0,0
22623,-83.3333333333333,4,2,1,70,0,0
23577,-83.3333333333333,4,2,1,5,0,0
23664,-83.3333333333333,4,2,1,70,0,0
24790,-83.3333333333333,4,2,1,5,0,0
24877,-83.3333333333333,4,2,1,70,0,0
25311,-83.3333333333333,4,2,1,5,0,0
25398,-83.3333333333333,4,2,1,70,0,0
26525,-83.3333333333333,4,2,1,5,0,0
26611,-83.3333333333333,4,2,1,70,0,0
26871,-83.3333333333333,4,2,1,5,0,0
26958,-83.3333333333333,4,2,1,70,0,0
27218,-83.3333333333333,4,2,1,5,0,0
27305,-83.3333333333333,4,2,1,70,0,0
27478,-100,4,2,1,70,0,0
27738,-100,4,2,1,5,0,0
27825,-125,4,2,1,50,0,0
28085,-125,4,2,1,5,0,0
28172,-125,4,2,1,50,0,0
37623,-125,4,2,1,5,0,0
37710,-125,4,2,1,50,0,0
38923,-100,4,2,1,60,0,0
39184,-100,4,2,1,5,0,0
39270,-100,4,2,1,60,0,0
39877,-100,4,2,1,5,0,0
39963,-100,4,2,1,60,0,0
41958,-100,4,2,1,5,0,0
42044,-100,4,2,1,60,0,0
42652,-100,4,2,1,5,0,0
42738,-100,4,2,1,60,0,0
44386,-100,4,2,1,5,0,0
44472,-100,4,2,1,60,0,0
44733,-100,4,2,1,5,0,0
44820,-100,4,2,1,50,0,0
45426,-100,4,2,1,5,0,0
45512,-100,4,2,1,60,0,0
46120,-100,4,2,1,5,0,0
46206,-100,4,2,1,60,0,0
49588,-100,4,2,1,5,0,0
49675,-250,4,2,1,60,0,0
49935,-250,4,2,1,5,0,0
50022,-100,4,2,1,50,0,0
50282,-100,4,2,1,5,0,0
50369,-100,4,2,1,50,0,0
51496,-100,4,2,1,5,0,0
51583,-100,4,2,1,50,0,0
52710,-100,4,2,1,5,0,0
52796,-100,4,2,1,50,0,0
53056,-100,4,2,1,5,0,0
53143,-100,4,2,1,50,0,0
54270,-100,4,2,1,5,0,0
54357,-100,4,2,1,50,0,0
55831,-100,4,2,1,5,0,0
55918,-100,4,2,1,50,0,0
56351,-100,4,2,1,5,0,0
56438,-100,4,2,1,50,0,0
57565,-100,4,2,1,5,0,0
57652,-100,4,2,1,50,0,0
57999,-76.9230769230769,4,2,1,50,0,0
58259,-76.9230769230769,4,2,1,5,0,0
58345,-76.9230769230769,4,2,1,60,0,0
60253,-66.6666666666667,4,2,1,60,0,0
60340,-66.6666666666667,4,2,1,5,0,0
60426,-83.3333333333333,4,2,1,60,0,0
60686,-83.3333333333333,4,2,1,5,0,0
60773,-83.3333333333333,4,2,100,60,0,0
60860,-83.3333333333333,4,2,1,60,0,0
61120,-83.3333333333333,4,2,1,80,0,1
61380,-83.3333333333333,4,2,1,5,0,1
61467,-83.3333333333333,4,2,1,80,0,1
62421,-83.3333333333333,4,2,1,5,0,1
62508,-83.3333333333333,4,2,1,80,0,1
66236,-83.3333333333333,4,2,1,5,0,1
66322,-83.3333333333333,4,2,1,80,0,1
66582,-83.3333333333333,4,2,1,5,0,1
66669,-83.3333333333333,4,2,1,80,0,1
66929,-83.3333333333333,4,2,1,5,0,1
67016,-83.3333333333333,4,2,1,80,0,1
67970,-83.3333333333333,4,2,1,5,0,1
68057,-83.3333333333333,4,2,1,80,0,1
68316,-83.3333333333333,4,2,1,5,0,1
68403,-83.3333333333333,4,2,1,80,0,1
69704,-83.3333333333333,4,2,1,5,0,1
69791,-83.3333333333333,4,2,1,80,0,1
70744,-83.3333333333333,4,2,1,5,0,1
70831,-83.3333333333333,4,2,1,80,0,1
71091,-83.3333333333333,4,2,1,5,0,1
71178,-83.3333333333333,4,2,1,80,0,1
72478,-83.3333333333333,4,2,1,5,0,1
72565,-83.3333333333333,4,2,1,80,0,1
73519,-83.3333333333333,4,2,1,5,0,1
73606,-83.3333333333333,4,2,1,80,0,1
73866,-83.3333333333333,4,2,1,5,0,1
73952,-83.3333333333333,4,2,1,80,0,1
76640,-83.3333333333333,4,2,1,5,0,1
76727,-83.3333333333333,4,2,1,80,0,1
79415,-83.3333333333333,4,2,1,5,0,1
79502,-83.3333333333333,4,2,1,80,0,1
80802,-83.3333333333333,4,2,1,5,0,1
80889,-83.3333333333333,4,2,1,80,0,1
82016,-83.3333333333333,4,2,1,5,0,1
82103,-83.3333333333333,4,2,1,80,0,1
83230,-83.3333333333333,4,2,1,5,0,1
83316,-100,4,2,1,60,0,0
83577,-100,4,2,1,5,0,0
83663,-100,4,2,1,60,0,0
84964,-100,4,2,1,5,0,0
85050,-100,4,2,1,60,0,0
87738,-100,4,2,1,5,0,0
87824,-100,4,2,1,60,0,0
88866,-166.666666666667,4,2,1,40,0,0
92247,-100,4,2,1,5,0,0
92333,-100,4,2,1,60,0,0
93288,-100,4,2,1,5,0,0
93374,-100,4,2,1,60,0,0
94068,-250.000000000001,4,2,1,40,0,0
94328,-250.000000000001,4,2,1,5,0,0
94415,-125,4,2,1,50,0,0
94675,-125,4,2,1,5,0,0
94762,-166.666666666667,4,2,1,50,0,0
97276,-166.666666666667,4,2,1,5,0,0
97363,-125,4,2,1,50,0,0
97623,-125,4,2,1,5,0,0
97710,-100,4,2,1,50,0,0
97970,-100,4,2,1,5,0,0
98056,-83.3333333333334,4,2,1,50,0,0
98316,-83.3333333333334,4,2,1,5,0,0
98403,-71.4285714285714,4,2,1,50,0,0
99444,-142.857142857143,4,2,1,50,0,0
99964,-142.857142857143,4,2,1,50,0,0
107160,-142.857142857143,4,2,1,5,0,0
107247,-142.857142857143,4,2,1,50,0,0
108288,-100,4,2,1,50,0,0
108548,-100,4,2,1,5,0,0
108634,-100,4,2,1,50,0,0
110282,-100,4,2,1,5,0,0
110369,-100,4,2,1,50,0,0
110715,-125,4,2,1,50,0,0
110975,-125,4,2,1,5,0,0
111062,-100,4,2,1,60,0,0
113403,-100,4,2,1,5,0,0
113490,-100,4,2,1,60,0,0
116525,-100,4,2,1,5,0,0
116612,-100,4,2,1,60,0,0
116871,-100,4,2,1,5,0,0
116958,-100,4,2,1,60,0,0
118259,-100,4,2,1,5,0,0
118346,-100,4,2,1,60,0,0
119299,-100,4,2,1,5,0,0
119386,-100,4,2,1,60,0,0
119646,-100,4,2,1,5,0,0
119733,-100,4,2,1,60,0,0
121814,-142.857142857143,4,2,1,60,0,0
122074,-142.857142857143,4,2,1,5,0,0
122160,-125,4,2,1,50,0,0
123374,-100,4,2,1,50,0,0
123634,-100,4,2,1,5,0,0
123721,-100,4,2,1,50,0,0
124155,-100,4,2,1,5,0,0
124242,-100,4,2,1,50,0,0
126409,-100,4,2,1,5,0,0
126496,-100,4,2,1,50,0,0
127970,-100,4,2,1,5,0,0
128057,-100,4,2,1,50,0,0
129704,-100,4,2,1,5,0,0
129791,-100,4,2,1,50,0,0
130484,-100,4,2,1,60,0,0
132565,-66.6666666666667,4,2,1,60,0,0
132825,-66.6666666666667,4,2,1,5,0,0
132912,-166.666666666667,4,2,100,60,0,0
132999,-166.666666666667,4,2,1,60,0,0
133172,-166.666666666667,4,2,1,5,0,0
133259,-83.3333333333333,4,2,1,80,0,1
133519,-83.3333333333333,4,2,1,5,0,1
133606,-83.3333333333333,4,2,1,80,0,1
134559,-83.3333333333333,4,2,1,5,0,1
134646,-83.3333333333333,4,2,1,80,0,1
137681,-83.3333333333333,4,2,1,5,0,1
137768,-83.3333333333333,4,2,1,80,0,1
138721,-83.3333333333333,4,2,1,5,0,1
138808,-83.3333333333333,4,2,1,80,0,1
139068,-83.3333333333333,4,2,1,5,0,1
139155,-83.3333333333333,4,2,1,80,0,1
141149,-83.3333333333333,4,2,1,5,0,1
141236,-83.3333333333333,4,2,1,80,0,1
141843,-83.3333333333333,4,2,1,5,0,1
141929,-83.3333333333333,4,2,1,80,0,1
142883,-83.3333333333333,4,2,1,5,0,1
142970,-83.3333333333333,4,2,1,80,0,1
143230,-83.3333333333333,4,2,1,5,0,1
143317,-83.3333333333333,4,2,1,80,0,1
144617,-83.3333333333333,4,2,1,5,0,1
144704,-83.3333333333333,4,2,1,80,0,1
145658,-83.3333333333333,4,2,1,5,0,1
145745,-83.3333333333333,4,2,1,80,0,1
147392,-83.3333333333333,4,2,1,5,0,1
147478,-83.3333333333333,4,2,1,80,0,1
148085,-83.3333333333333,4,2,1,5,0,1
148172,-83.3333333333333,4,2,1,80,0,1
148779,-83.3333333333333,4,2,1,5,0,1
148866,-83.3333333333333,4,2,1,80,0,1
151207,-83.3333333333333,4,2,1,5,0,1
151294,-83.3333333333333,4,2,1,80,0,1
152941,-83.3333333333333,4,2,1,5,0,1
153028,-83.3333333333333,4,2,1,80,0,1
154501,-83.3333333333333,4,2,1,5,0,1
154588,-83.3333333333333,4,2,1,80,0,1
154848,-83.3333333333333,4,2,1,5,0,1
154935,-83.3333333333333,4,2,1,80,0,1
155455,-100,4,2,1,70,0,1
155889,-100,4,2,1,5,0,1
155975,-100,4,2,1,70,0,1
156929,-100,4,2,1,5,0,1
157015,-100,4,2,1,70,0,1
158230,-100,4,2,1,60,0,0
158490,-100,4,2,1,5,0,0
158577,-125,4,2,1,60,0,0
159530,-125,4,2,1,5,0,0
159617,-125,4,2,1,60,0,0
159877,-125,4,2,1,5,0,0
159964,-125,4,2,1,60,0,0
161264,-125,4,2,1,5,0,0
161351,-125,4,2,1,60,0,0
162132,-125,4,2,1,5,0,0
162218,-200,4,2,1,60,0,0
162478,-200,4,2,1,5,0,0
162565,-200,4,2,1,60,0,0
162825,-200,4,2,1,5,0,0
162912,-200,4,2,1,60,0,0
163172,-200,4,2,1,5,0,0
163259,-200,4,2,1,60,0,0
163519,-200,4,2,1,5,0,0
163606,-200,4,2,1,60,0,0
163779,-125,4,2,1,60,0,0
164039,-125,4,2,1,5,0,0
164126,-125,4,2,1,60,0,0
166814,-125,4,2,1,5,0,0
166901,-125,4,2,1,60,0,0
168027,-125,4,2,1,5,0,0
168114,-71.4285714285714,4,2,1,60,0,0
168374,-71.4285714285714,4,2,1,5,0,0
168461,-71.4285714285714,4,2,1,60,0,0
169328,-100,4,2,1,70,0,0
170629,-100,4,2,1,5,0,0
170715,-100,4,2,1,70,0,0
171669,-100,4,2,1,5,0,0
171756,-100,4,2,1,70,0,0
172796,-83.3333333333333,4,2,1,70,0,0
173056,-100,4,2,1,5,0,0
173143,-100,4,2,1,70,0,0
174877,-100,4,2,1,70,0,0
175137,-100,4,2,1,5,0,0
175224,-100,4,2,1,70,0,0
177218,-100,4,2,1,5,0,0
177305,-100,4,2,1,70,0,0
178866,-83.3333333333333,4,2,1,70,0,0
179126,-100,4,2,1,5,0,0
179213,-100,4,2,1,70,0,0
180426,-83.3333333333333,4,2,1,60,0,0
180686,-83.3333333333333,4,2,1,5,0,0
180773,-83.3333333333333,4,2,1,60,0,0
183114,-83.3333333333333,4,2,1,5,0,0
183201,-83.3333333333333,4,2,1,60,0,0
186582,-83.3333333333333,4,2,1,5,0,0
186669,-83.3333333333333,4,2,1,60,0,0
187536,-83.3333333333333,4,2,1,5,0,0
187623,-83.3333333333333,4,2,1,60,0,0
187796,-83.3333333333333,4,2,1,5,0,0
187883,-83.3333333333333,4,2,1,60,0,0
190224,-83.3333333333333,4,2,1,5,0,0
190311,-83.3333333333333,4,2,1,60,0,0
190571,-83.3333333333333,4,2,1,5,0,0
190658,-83.3333333333333,4,2,1,60,0,0
190918,-83.3333333333333,4,2,1,5,0,0
191004,-83.3333333333333,4,2,1,60,0,0
191525,-83.3333333333333,4,2,1,40,0,0
201409,-166.666666666667,4,2,1,40,0,0
201929,-166.666666666667,4,2,1,30,0,0
202103,-166.666666666667,4,2,1,25,0,0
202276,-166.666666666667,4,2,1,20,0,0
202449,-166.666666666667,4,2,1,15,0,0
202623,-166.666666666667,4,2,1,50,0,0
203143,-166.666666666667,4,2,1,5,0,0
203316,-166.666666666667,4,2,1,50,0,0
203837,-166.666666666667,4,2,1,5,0,0
204010,-166.666666666667,4,2,1,50,0,0
204530,-166.666666666667,4,2,1,5,0,0
204703,-166.666666666667,4,2,1,50,0,0
207132,-166.666666666667,4,2,1,5,0,0
207305,-166.666666666667,4,2,1,50,0,0
209212,-166.666666666667,4,2,1,5,0,0
209385,-166.666666666667,4,2,1,50,0,0
209473,-166.666666666667,4,2,1,5,0,0
209559,-166.666666666667,4,2,1,50,0,0
210253,-200,4,2,1,50,0,0
210947,-166.666666666667,4,2,1,50,0,0
213721,-166.666666666667,4,2,1,60,0,0
218837,-166.666666666667,4,2,1,5,0,0
218923,-125,4,2,1,60,0,0
219184,-125,4,2,1,5,0,0
219270,-125,4,2,1,70,0,0
222305,-125,4,2,1,5,0,0
222392,-125,4,2,1,70,0,0
223519,-125,4,2,1,5,0,0
223606,-125,4,2,1,70,0,0
225860,-66.6666666666667,4,2,100,80,0,0
225947,-66.6666666666667,4,2,1,60,0,0
226120,-66.6666666666667,4,2,1,5,0,0
226207,-76.9230769230769,4,2,1,90,0,1
226640,-76.9230769230769,4,2,1,5,0,1
226727,-76.9230769230769,4,2,1,90,0,1
227681,-76.9230769230769,4,2,1,5,0,1
227767,-76.9230769230769,4,2,1,90,0,1
228027,-76.9230769230769,4,2,1,5,0,1
228113,-76.9230769230769,4,2,1,90,0,1
228374,-76.9230769230769,4,2,1,5,0,1
228460,-76.9230769230769,4,2,1,90,0,1
228548,-76.9230769230769,4,2,1,5,0,1
228634,-76.9230769230769,4,2,1,90,0,0
228981,-76.9230769230769,4,2,1,90,0,1
229241,-76.9230769230769,4,2,1,5,0,1
229328,-76.9230769230769,4,2,1,90,0,1
229935,-76.9230769230769,4,2,1,5,0,1
230022,-76.9230769230769,4,2,1,90,0,1
232016,-76.9230769230769,4,2,1,5,0,1
232103,-76.9230769230769,4,2,1,90,0,1
232710,-76.9230769230769,4,2,1,5,0,1
232797,-76.9230769230769,4,2,1,90,0,1
233056,-76.9230769230769,4,2,1,5,0,1
233143,-76.9230769230769,4,2,1,90,0,1
233403,-76.9230769230769,4,2,1,5,0,1
233490,-76.9230769230769,4,2,1,90,0,1
234097,-76.9230769230769,4,2,1,5,0,1
234184,-76.9230769230769,4,2,1,90,0,1
234444,-76.9230769230769,4,2,1,5,0,1
234531,-76.9230769230769,4,2,1,90,0,1
234790,-76.9230769230769,4,2,1,5,0,1
234877,-76.9230769230769,4,2,1,90,0,1
236178,-76.9230769230769,4,2,1,5,0,1
236264,-76.9230769230769,4,2,1,90,0,1
237565,-76.9230769230769,4,2,1,5,0,1
237652,-76.9230769230769,4,2,1,90,0,1
238606,-76.9230769230769,4,2,1,5,0,1
238693,-76.9230769230769,4,2,1,90,0,1
240340,-76.9230769230769,4,2,1,5,0,1
240427,-76.9230769230769,4,2,1,90,0,1
241033,-76.9230769230769,4,2,1,5,0,1
241120,-76.9230769230769,4,2,1,90,0,1
241380,-76.9230769230769,4,2,1,5,0,1
241467,-76.9230769230769,4,2,1,90,0,1
241727,-76.9230769230769,4,2,1,5,0,1
241814,-76.9230769230769,4,2,1,90,0,1
243114,-76.9230769230769,4,2,1,5,0,1
243201,-76.9230769230769,4,2,1,90,0,1
245542,-76.9230769230769,4,2,1,5,0,1
245629,-76.9230769230769,4,2,1,90,0,1
245889,-76.9230769230769,4,2,1,5,0,1
245976,-76.9230769230769,4,2,1,90,0,1
247449,-76.9230769230769,4,2,1,5,0,1
247536,-76.9230769230769,4,2,1,90,0,1
247796,-76.9230769230769,4,2,1,5,0,1
247883,-76.9230769230769,4,2,1,90,0,1
247970,-76.9230769230769,4,2,1,5,0,1
248057,-76.9230769230769,4,2,1,90,0,1
248403,-90.9090909090909,4,2,1,80,0,0
248663,-90.9090909090909,4,2,1,5,0,0
248750,-90.9090909090909,4,2,1,80,0,0
250051,-90.9090909090909,4,2,1,5,0,0
250138,-90.9090909090909,4,2,1,80,0,0
253866,-90.9090909090909,4,2,1,5,0,0
253952,-90.9090909090909,4,2,1,80,0,0
258201,-90.9090909090909,4,2,1,5,0,0
258288,-90.9090909090909,4,2,1,80,0,0
258548,-90.9090909090909,4,2,1,5,0,0
258635,-90.9090909090909,4,2,1,80,0,0
258895,-90.9090909090909,4,2,1,5,0,0
258982,-90.9090909090909,4,2,1,80,0,0
259935,-90.9090909090909,4,2,1,5,0,0
260022,-90.9090909090909,4,2,1,80,0,0
260975,-90.9090909090909,4,2,1,5,0,0
261062,-90.9090909090909,4,2,1,80,0,0
261843,-90.9090909090909,4,2,1,5,0,0
261930,-90.9090909090909,4,2,1,80,0,0
262710,-90.9090909090909,4,2,1,5,0,0
262796,-90.9090909090909,4,2,1,80,0,0
263750,-90.9090909090909,4,2,1,5,0,0
263837,-90.9090909090909,4,2,1,80,0,0
264617,-90.9090909090909,4,2,1,5,0,0
264704,-90.9090909090909,4,2,1,80,0,0
266438,-90.9090909090909,4,2,1,70,0,0
267738,-90.9090909090909,4,2,1,60,0,0
267999,-90.9090909090909,4,2,1,50,0,0
269212,-90.9090909090909,4,2,1,40,0,0
270600,-90.9090909090909,4,2,1,30,0,0
271987,-90.9090909090909,4,2,1,20,0,0
273374,-90.9090909090909,4,2,1,10,0,0
274762,-90.9090909090909,4,2,1,5,0,0

[Colours]
Combo1 : 192,192,192
Combo2 : 255,128,128
SliderBorder : 198,0,73
SliderTrackOverride : 20,31,20

[HitObjects]
235,261,80,6,0,P|276:248|342:244,1,90,2|2,0:0|0:0,0:0:0:0:
417,265,600,2,0,P|427:295|432:325,1,45,2|0,0:0|0:0,0:0:0:0:
338,351,947,2,0,P|343:329|350:307,1,45,2|0,0:0|0:0,0:0:0:0:
405,383,1293,1,2,0:0:0:0:
244,372,1467,6,0,P|230:323|227:281,1,90,2|2,0:0|0:0,0:0:0:0:
362,143,1987,2,0,P|357:187|344:230,1,90,2|0,0:0|0:0,0:0:0:0:
239,71,2507,1,0,0:0:0:0:
255,57,2854,6,0,P|256:110|248:153,1,90,2|2,0:0|0:0,0:0:0:0:
120,37,3374,2,0,L|172:25,1,45,2|0,0:0|0:0,0:0:0:0:
172,136,3721,2,0,L|127:126,1,45,2|0,0:0|0:0,0:0:0:0:
68,204,4068,1,2,0:0:0:0:
192,247,4241,6,0,P|141:255|95:278,1,90,2|2,0:0|0:0,0:0:0:0:
281,282,4762,2,0,P|332:274|378:251,1,90,2|2,0:0|0:0,0:0:0:0:
366,258,5282,1,2,0:0:0:0:
404,20,5629,6,0,P|383:85|383:101,1,80.9999975280763,2|0,0:0|0:0,0:0:0:0:
394,133,5975,2,0,P|325:103|292:103,1,107.999996704102,2|0,0:0|0:0,0:0:0:0:
284,250,6496,2,0,P|319:204|323:183,1,80.9999975280763,2|0,0:0|0:0,0:0:0:0:
243,177,6843,1,2,0:0:0:0:
391,235,7016,6,0,L|270:251,1,107.999996704102,2|0,0:0|0:0,0:0:0:0:
267,320,7536,2,0,P|231:311|182:309,1,80.9999975280763,2|0,0:0|0:0,0:0:0:0:
120,352,7883,1,2,0:0:0:0:
14,340,8056,1,2,0:0:0:0:
120,352,8403,6,0,P|126:317|114:239,1,107.999996704102,2|2,0:0|0:0,0:0:0:0:
26,214,8923,2,0,P|27:266|38:291,1,53.9999983520508,2|0,0:0|0:0,0:0:0:0:
194,187,9270,2,0,P|169:168|100:149,1,80.9999975280763,2|0,0:0|0:0,0:0:0:0:
99,156,9617,1,2,0:0:0:0:
269,247,9790,6,0,L|335:237,1,53.9999983520508,2|2,0:0|0:0,0:0:0:0:
423,267,10137,1,2,0:0:0:0:
384,161,10311,1,2,0:0:0:0:
451,78,10484,5,2,0:0:0:0:
398,132,10658,1,2,0:0:0:0:
341,77,10831,1,2,0:0:0:0:
394,22,11005,1,2,0:0:0:0:
398,132,11178,6,0,P|402:166|386:242,1,94.499997116089,2|0,3:2|0:0,0:0:0:0:
309,245,11525,2,0,P|305:211|321:135,1,94.499997116089,2|0,3:2|0:0,0:0:0:0:
282,71,11871,6,0,L|184:90,1,94.499997116089,0|0,3:0|0:0,0:0:0:0:
126,27,12218,2,0,L|218:9,1,94.499997116089,0|0,3:0|0:0,0:0:0:0:
189,88,12565,6,0,P|175:133|175:193,1,94.499997116089,0|0,3:0|0:0,0:0:0:0:
213,239,12912,2,0,P|168:225|108:225,1,94.499997116089,0|0,3:0|0:0,0:0:0:0:
65,321,13259,6,0,P|112:319|157:305,1,94.499997116089,2|0,3:2|0:0,0:0:0:0:
249,321,13606,2,0,P|201:319|156:305,1,94.499997116089,2|0,3:2|0:0,0:0:0:0:
90,227,13952,6,0,L|76:123,1,94.499997116089,2|0,3:2|0:0,0:0:0:0:
166,63,14299,2,0,L|156:168,1,94.499997116089,2|0,3:2|0:0,0:0:0:0:
17,245,14646,2,0,L|1:124,1,108,0|0,3:0|0:0,0:0:0:0:
42,73,14993,1,2,3:2:0:0:
241,200,15166,6,0,L|409:174,1,135,10|0,0:0|0:0,0:0:0:0:
241,200,15513,2,0,L|167:188,1,67.5,10|0,0:0|0:0,0:0:0:0:
286,138,15860,6,0,P|315:217|231:278,1,175.499991966248,10|0,0:0|0:0,0:0:0:0:
119,282,16207,2,0,P|166:269|196:270,1,58.4999973220826,2|2,3:2|0:0,0:0:0:0:
301,361,16380,1,10,0:0:0:0:
504,135,16727,6,0,P|420:181|332:192,1,161.999995056153,6|0,3:2|0:0,0:0:0:0:
286,138,17074,1,8,0:0:0:0:
447,215,17247,2,0,P|467:266|482:321,1,107.999996704102,2|0,0:0|3:0,0:0:0:0:
188,163,17594,2,0,P|202:110|222:60,1,107.999996704102,2|8,3:2|0:0,0:0:0:0:
305,346,17941,6,0,P|276:269|291:123,1,215.999993408203,2|0,0:0|0:0,0:0:0:0:
387,275,18461,1,10,0:0:0:0:
153,345,18634,1,2,0:0:0:0:
387,275,18808,1,2,3:2:0:0:
142,229,18981,2,0,B|259:248|259:248|215:194,1,161.999995056153,2|0,3:2|0:0,0:0:0:0:
125,128,19328,1,2,0:0:0:0:
0,283,19501,6,0,B|24:361|24:361|80:303,1,161.999995056153,6|0,3:2|0:0,0:0:0:0:
142,229,19848,1,8,0:0:0:0:
20,127,20022,2,0,P|87:138|145:115,1,107.999996704102,2|0,0:0|3:0,0:0:0:0:
276,60,20369,1,2,3:2:0:0:
163,5,20542,1,10,0:0:0:0:
252,201,20715,1,2,0:0:0:0:
465,77,20889,6,0,P|394:66|368:81,1,53.9999983520508,2|2,0:0|0:0,0:0:0:0:
341,172,21062,1,2,0:0:0:0:
339,206,21149,1,2,0:0:0:0:
363,236,21236,2,0,B|418:262|472:240|489:181|434:147|390:205|414:229,1,161.999995056153,10|0,0:0|0:0,0:0:0:0:
429,292,21582,5,2,3:2:0:0:
463,107,21756,1,2,3:2:0:0:
299,335,21929,1,10,0:0:0:0:
234,148,22103,1,2,0:0:0:0:
172,356,22276,6,0,P|212:296|180:208,1,161.999995056153,6|0,3:2|0:0,0:0:0:0:
165,215,22623,1,8,0:0:0:0:
338,264,22796,2,0,P|397:249|461:240,2,107.999996704102,2|0|0,0:0|3:0|3:0,0:0:0:0:
262,98,23316,2,0,P|349:156|438:137,1,161.999995056153,10|0,0:0|0:0,0:0:0:0:
480,165,23663,5,0,3:0:0:0:
268,308,23837,1,2,0:0:0:0:
503,253,24010,1,10,0:0:0:0:
246,211,24184,1,0,0:0:0:0:
431,375,24357,1,2,3:2:0:0:
402,152,24530,2,0,P|375:215|374:310,1,161.999995056153,2|0,3:2|0:0,0:0:0:0:
431,375,24877,1,2,0:0:0:0:
246,211,25051,6,0,B|155:235|208:302|89:315,1,161.999995056153,6|0,0:0|0:0,0:0:0:0:
42,316,25397,1,8,0:0:0:0:
231,384,25571,2,0,P|268:324|237:256,1,107.999996704102,2|0,0:0|3:0,0:0:0:0:
167,207,25917,1,0,3:0:0:0:
417,206,26091,1,10,0:0:0:0:
245,29,26264,6,0,P|302:173|306:226,1,161.999995056153,6|0,3:2|0:0,0:0:0:0:
297,211,26611,6,0,P|393:89|437:59,1,161.999995056153,6|0,3:2|0:0,0:0:0:0:
430,65,26958,6,0,P|276:42|228:19,1,161.999995056153,6|0,3:2|0:0,0:0:0:0:
245,29,27305,5,6,3:2:0:0:
178,206,27478,2,0,B|155:178|149:135|149:135|126:169|140:198,1,135,14|0,0:0|0:0,0:0:0:0:
184,283,27825,6,0,P|233:261|255:194,1,108,4|0,3:2|0:0,0:0:0:0:
236,141,28172,1,0,3:0:0:0:
236,141,28519,1,0,3:0:0:0:
236,141,28866,1,0,3:0:0:0:
422,215,29212,5,0,3:0:0:0:
422,215,29559,1,0,3:0:0:0:
422,215,29906,5,2,3:2:0:0:
363,288,30080,1,2,0:0:0:0:
274,317,30253,1,2,3:2:0:0:
190,275,30426,1,2,0:0:0:0:
96,276,30600,5,2,3:2:0:0:
172,280,30773,1,2,0:2:0:0:
193,205,30947,1,0,3:0:0:0:
193,205,31293,1,0,3:0:0:0:
193,205,31640,1,0,3:0:0:0:
1,146,31987,5,0,3:0:0:0:
1,146,32334,1,0,3:0:0:0:
1,146,32681,5,2,3:2:0:0:
85,162,32854,1,2,0:2:0:0:
141,97,33027,1,2,3:2:0:0:
227,102,33201,1,2,0:2:0:0:
276,31,33374,5,2,3:2:0:0:
276,31,33721,1,0,3:0:0:0:
276,31,34068,1,0,3:0:0:0:
276,31,34415,5,0,3:0:0:0:
186,0,34588,1,0,0:0:0:0:
102,31,34762,5,0,3:0:0:0:
381,16,35108,1,0,3:0:0:0:
102,31,35455,1,2,3:2:0:0:
172,81,35629,1,2,0:0:0:0:
256,99,35802,1,2,3:2:0:0:
340,80,35975,1,2,0:0:0:0:
424,100,36149,5,2,3:2:0:0:
382,229,36322,2,0,L|367:159,1,72,2|0,0:2|3:0,0:0:0:0:
501,191,36669,2,0,L|486:267,1,72,2|0,0:0|3:0,0:0:0:0:
376,241,37016,2,0,L|360:170,1,72,2|0,0:0|3:0,0:0:0:0:
336,324,37363,6,0,B|382:304|417:327|417:327|407:337|389:338,1,108,2|0,0:0|0:0,0:0:0:0:
336,324,37710,1,2,0:2:0:0:
255,254,37883,1,2,3:2:0:0:
149,268,38056,1,2,0:2:0:0:
226,349,38230,5,6,3:2:0:0:
137,160,38403,1,8,3:2:0:0:
27,336,38577,1,8,3:2:0:0:
27,336,38923,6,0,P|121:292|179:271,1,135,4|0,2:1|0:0,0:0:0:0:
245,284,39270,1,8,0:0:0:0:
63,198,39444,1,0,0:0:0:0:
296,159,39617,2,0,P|229:170|173:95,1,135,0|0,1:2|0:0,0:0:0:0:
184,106,39964,2,0,P|203:186|204:227,1,90,8|2,1:2|0:0,0:0:0:0:
250,60,40311,5,0,1:2:0:0:
198,314,40484,1,0,0:0:0:0:
115,134,40658,1,8,0:0:0:0:
328,300,40831,1,2,3:2:0:0:
366,137,41004,5,0,1:0:0:0:
250,180,41178,1,2,3:2:0:0:
457,242,41351,2,0,P|483:194|491:149,1,90,10|2,1:2|0:0,0:0:0:0:
293,45,41698,6,0,P|310:113|405:124,1,135,2|0,1:2|0:0,0:0:0:0:
369,61,42045,1,8,0:0:0:0:
212,192,42218,1,0,0:0:0:0:
433,162,42392,2,0,P|377:168|277:227,1,135,0|0,1:2|0:0,0:0:0:0:
249,276,42738,1,8,1:2:0:0:
372,297,42912,2,0,L|301:263,1,45,2|0,0:0|0:0,0:0:0:0:
103,345,43085,5,0,1:2:0:0:
249,276,43259,1,0,0:0:0:0:
48,198,43432,1,8,0:0:0:0:
103,345,43606,1,2,3:2:0:0:
224,128,43779,2,0,P|207:76|176:35,1,90,0|2,1:0|3:2,0:0:0:0:
0,140,44126,2,0,P|72:117|150:127,1,135,10|0,1:2|0:0,0:0:0:0:
184,245,44473,6,0,B|151:276|151:276|176:156,1,135,2|0,1:2|0:0,0:0:0:0:
224,128,44819,1,8,0:0:0:0:
77,211,44993,1,0,0:0:0:0:
368,236,45166,2,0,P|319:233|255:291,1,135,0|0,1:2|0:0,0:0:0:0:
279,370,45513,2,0,P|261:292|238:267,1,90,8|2,1:2|0:0,0:0:0:0:
431,197,45860,6,0,P|400:304|370:310,1,135,2|0,1:2|0:0,0:0:0:0:
370,157,46207,2,0,P|378:115|405:63,1,90,8|2,0:0|3:2,0:0:0:0:
254,204,46553,1,0,1:0:0:0:
218,41,46727,1,2,3:2:0:0:
254,204,46900,2,0,P|226:157|211:100,1,90,8|2,1:2|0:0,0:0:0:0:
398,72,47247,6,0,P|391:170|361:249,1,180,2|8,1:2|0:0,0:0:0:0:
166,231,47767,2,0,P|214:215|265:207,1,90,0|0,0:0|1:2,0:0:0:0:
245,357,48114,1,2,3:2:0:0:
34,302,48288,1,8,1:2:0:0:
152,142,48461,6,0,L|167:241,1,90,2|0,3:2|0:0,0:0:0:0:
61,67,48808,2,0,L|30:175,1,90,2|0,0:0|0:0,0:0:0:0:
189,21,49155,2,0,P|258:20|316:168,1,225,2|0,0:0|0:0,0:0:0:0:
212,201,49675,2,0,L|265:192,1,54,2|0,0:0|0:0,0:0:0:0:
274,268,50022,6,0,P|211:248|103:239,1,135,4|0,3:1|0:0,0:0:0:0:
73,282,50369,1,0,3:0:0:0:
256,366,50542,2,0,P|311:358|346:337,1,90,0|0,3:0|0:0,0:0:0:0:
380,139,50889,2,0,P|359:190|360:231,1,90,0|0,3:0|0:0,0:0:0:0:
512,367,51236,6,0,P|481:311|412:294,1,135,6|0,3:2|0:0,0:0:0:0:
430,373,51582,1,0,3:0:0:0:
512,208,51756,2,0,L|480:85,1,90,10|0,0:0|3:0,0:0:0:0:
337,158,52103,1,10,0:0:0:0:
512,208,52276,1,0,3:0:0:0:
353,311,52449,2,0,B|289:308|300:251|221:258,1,135,10|0,0:0|0:0,0:0:0:0:
162,312,52796,6,0,P|202:367|233:312,1,135,4|0,3:1|0:0,0:0:0:0:
234,258,53143,1,0,3:0:0:0:
3,297,53316,2,0,L|110:280,1,90,0|0,3:0|0:0,0:0:0:0:
264,159,53663,2,0,L|175:144,1,90,0|0,3:0|0:0,0:0:0:0:
21,173,54010,6,0,P|91:127|101:40,1,135,2|0,3:2|0:0,0:0:0:0:
65,17,54357,1,0,3:0:0:0:
189,233,54530,2,0,L|171:125,1,90,10|0,0:0|3:0,0:0:0:0:
6,263,54877,5,10,0:0:0:0:
13,218,54964,1,8,0:0:0:0:
21,173,55051,1,8,0:0:0:0:
129,378,55224,5,10,0:0:0:0:
166,345,55311,1,8,0:0:0:0:
212,329,55397,1,8,0:0:0:0:
261,336,55484,1,8,0:0:0:0:
305,357,55571,6,0,P|387:360|424:310,1,135,0|0,3:0|0:0,0:0:0:0:
430,255,55918,1,8,0:0:0:0:
294,130,56091,2,0,P|280:214|275:280,1,135,0|0,3:2|0:0,0:0:0:0:
350,293,56438,1,8,0:0:0:0:
223,106,56611,2,0,P|207:174|204:197,1,90,8|0,0:0|0:0,0:0:0:0:
375,362,56958,6,0,P|291:339|261:338,1,90,0|8,3:2|3:0,0:0:0:0:
71,366,57305,2,0,P|116:332|89:248,1,135,6|0,3:2|0:0,0:0:0:0:
37,236,57652,1,2,0:0:0:0:
205,305,57825,1,0,0:0:0:0:
180,121,57999,2,0,B|213:181|272:164|272:164|261:120|212:122,1,175.499991966248,6|0,3:2|0:0,0:0:0:0:
147,46,58345,5,8,0:0:0:0:
343,266,58519,1,8,0:0:0:0:
96,117,58866,5,8,0:0:0:0:
379,186,59039,1,8,0:0:0:0:
63,205,59386,6,0,L|125:185,1,58.4999973220826,8|8,0:0|0:0,0:0:0:0:
416,109,59559,1,8,0:0:0:0:
416,109,60253,6,0,L|395:201,1,67.5000025749208,2|0,0:0|0:0,0:0:0:0:
335,261,60426,2,0,L|288:73,1,161.999995056153,2|0,0:0|0:0,0:0:0:0:
354,8,60773,1,4,0:0:0:0:
366,18,60860,1,2,0:0:0:0:
372,33,60947,1,2,0:0:0:0:
371,49,61033,1,2,0:0:0:0:
363,60,61120,6,0,B|331:67|298:105|298:105|240:103|204:57,1,161.999995056153,4|0,3:1|0:0,0:0:0:0:
185,0,61467,1,8,0:0:0:0:
60,232,61640,1,0,0:0:0:0:
109,53,61814,2,0,P|136:101|152:180,1,107.999996704102,2|0,3:2|3:0,0:0:0:0:
133,310,62160,2,0,P|188:283|170:359,1,161.999995056153,8|0,0:0|0:0,0:0:0:0:
167,372,62507,6,0,P|205:279|219:150,1,215.999993408203,2|8,3:2|0:0,0:0:0:0:
62,303,63027,1,0,3:0:0:0:
318,340,63201,5,2,0:0:0:0:
135,241,63374,1,0,3:0:0:0:
389,276,63548,2,0,L|503:292,1,107.999996704102,10|0,0:0|0:0,0:0:0:0:
406,84,63895,6,0,P|488:110|451:216,1,215.999993408203,6|8,3:2|0:0,0:0:0:0:
311,165,64415,1,0,0:0:0:0:
363,375,64588,2,0,P|391:319|386:268,1,107.999996704102,2|0,3:2|3:0,0:0:0:0:
170,143,64935,2,0,P|169:196|195:242,1,107.999996704102,8|2,0:0|0:0,0:0:0:0:
406,84,65282,6,0,B|401:53|387:32|387:32|301:80|311:201,1,215.999993408203,2|10,3:2|0:0,0:0:0:0:
308,305,65802,1,0,3:0:0:0:
84,154,65975,2,0,B|128:79|128:79|176:149,1,161.999995056153,2|0,0:0|0:0,0:0:0:0:
141,229,66322,2,0,P|67:242|-3:160,1,161.999995056153,8|0,0:0|0:0,0:0:0:0:
28,121,66669,6,0,L|64:323,1,161.999995056153,6|0,3:2|0:0,0:0:0:0:
0,347,67016,1,8,0:0:0:0:
115,124,67189,1,0,0:0:0:0:
161,306,67363,2,0,L|46:277,1,107.999996704102,2|0,3:2|3:0,0:0:0:0:
262,125,67710,1,8,0:0:0:0:
417,362,67883,2,0,P|410:344|425:291,1,53.9999983520508,0|0,0:0|0:0,0:0:0:0:
474,253,68056,6,0,P|396:220|291:248,1,161.999995056153,2|0,3:2|0:0,0:0:0:0:
267,280,68403,1,8,0:0:0:0:
403,95,68577,1,0,3:0:0:0:
161,137,68750,1,2,0:0:0:0:
403,95,68923,1,0,3:0:0:0:
161,137,69097,2,0,P|142:77|140:30,1,107.999996704102,8|0,0:0|0:0,0:0:0:0:
56,233,69444,6,0,P|20:161|0:83,1,161.999995056153,6|0,3:2|0:0,0:0:0:0:
36,13,69790,1,8,0:0:0:0:
272,60,69964,2,0,P|269:128|261:173,1,107.999996704102,2|0,0:0|3:0,0:0:0:0:
29,313,70311,2,0,P|89:281|132:266,1,107.999996704102,2|8,3:2|0:0,0:0:0:0:
412,309,70658,6,0,L|340:320,1,53.9999983520508,2|0,3:2|0:0,0:0:0:0:
285,384,70831,2,0,B|253:346|253:346|289:202,1,161.999995056153,0|0,3:2|0:0,0:0:0:0:
382,117,71178,2,0,L|402:239,1,107.999996704102,8|2,0:0|3:2,0:0:0:0:
217,295,71525,5,8,0:0:0:0:
175,287,71611,1,8,0:0:0:0:
133,279,71698,1,8,0:0:0:0:
0,83,71871,5,8,0:0:0:0:
34,48,71958,1,8,0:0:0:0:
80,34,72045,1,8,0:0:0:0:
128,42,72132,1,8,0:0:0:0:
168,72,72218,6,0,P|185:159|108:174,1,161.999995056153,4|0,3:1|0:0,0:0:0:0:
68,141,72565,1,8,0:0:0:0:
317,196,72738,1,0,0:0:0:0:
168,72,72912,2,0,P|229:76|307:33,1,107.999996704102,2|0,3:2|3:0,0:0:0:0:
454,21,73259,2,0,P|423:90|353:22,1,161.999995056153,8|0,0:0|0:0,0:0:0:0:
369,20,73606,6,0,P|374:119|412:220,1,161.999995056153,2|0,3:2|0:0,0:0:0:0:
495,235,73952,2,0,P|509:169|511:118,1,107.999996704102,8|0,0:0|3:0,0:0:0:0:
329,358,74299,2,0,P|293:300|277:257,1,107.999996704102,2|0,0:0|3:0,0:0:0:0:
372,61,74646,2,0,P|339:121|310:156,1,107.999996704102,10|0,0:0|0:0,0:0:0:0:
91,126,74993,6,0,B|74:112|54:105|54:105|148:108|111:184|241:176,1,215.999993408203,6|8,3:2|0:0,0:0:0:0:
278,263,75513,1,0,0:0:0:0:
63,298,75686,2,0,P|42:248|36:195,1,107.999996704102,2|0,3:2|3:0,0:0:0:0:
336,66,76033,2,0,P|329:119|308:169,1,107.999996704102,8|0,0:0|0:0,0:0:0:0:
67,34,76380,6,0,P|138:40|205:97,1,161.999995056153,2|0,3:2|0:0,0:0:0:0:
308,168,76727,2,0,P|363:148|443:147,1,107.999996704102,8|2,0:0|3:2,0:0:0:0:
185,327,77074,5,2,0:0:0:0:
148,317,77160,1,2,0:0:0:0:
111,307,77247,1,2,3:2:0:0:
74,296,77334,1,2,0:0:0:0:
37,286,77421,5,10,0:0:0:0:
89,277,77507,1,2,0:0:0:0:
142,269,77594,1,2,0:0:0:0:
195,261,77681,1,2,0:0:0:0:
247,253,77767,6,0,P|193:270|221:166,1,215.999993408203,6|8,3:2|0:0,0:0:0:0:
332,191,78288,1,0,0:0:0:0:
105,126,78461,2,0,L|-20:98,1,107.999996704102,2|0,3:2|3:0,0:0:0:0:
340,50,78808,2,0,L|458:23,1,107.999996704102,8|0,0:0|0:0,0:0:0:0:
157,30,79155,6,0,P|215:91|187:187,1,161.999995056153,6|0,3:2|0:0,0:0:0:0:
128,223,79501,1,8,0:0:0:0:
368,184,79675,1,0,3:0:0:0:
294,346,79848,2,0,P|257:295|238:240,1,107.999996704102,2|0,0:0|3:0,0:0:0:0:
509,238,80195,2,0,P|498:175|499:123,1,107.999996704102,10|0,0:0|0:0,0:0:0:0:
425,341,80542,6,0,P|369:221|353:151,1,161.999995056153,6|0,3:2|0:0,0:0:0:0:
412,99,80889,1,8,0:0:0:0:
207,189,81062,1,2,0:0:0:0:
412,99,81236,1,0,3:0:0:0:
193,37,81409,1,8,0:0:0:0:
150,46,81496,1,8,0:0:0:0:
108,55,81582,2,0,L|123:121,1,53.9999983520508,8|8,0:0|0:0,0:0:0:0:
207,189,81756,6,0,P|295:133|383:130,1,161.999995056153,10|0,0:0|0:0,0:0:0:0:
437,183,82103,5,14,0:0:0:0:
437,183,82449,5,14,0:0:0:0:
437,183,82796,5,4,3:0:0:0:
336,302,82970,6,0,B|307:266|314:222|314:222|274:250|280:305,1,161.999995056153,8|0,0:0|0:0,0:0:0:0:
319,383,83316,6,0,P|404:352|415:295,1,135,12|0,3:2|0:0,0:0:0:0:
322,97,83663,2,0,P|305:137|316:184,1,90,0|0,3:0|0:0,0:0:0:0:
477,102,84010,2,0,P|450:66|403:53,1,90,0|0,3:0|0:0,0:0:0:0:
394,241,84357,2,0,P|437:235|473:202,1,90,0|0,3:0|0:0,0:0:0:0:
322,97,84704,6,0,P|252:121|154:117,1,135,2|0,3:2|0:0,0:0:0:0:
105,133,85051,2,0,P|109:94|82:26,1,90,0|0,3:0|0:0,0:0:0:0:
157,204,85397,2,0,P|179:172|190:99,1,90,0|0,3:0|0:0,0:0:0:0:
168,296,85744,2,0,P|203:279|249:222,1,90,0|0,3:0|0:0,0:0:0:0:
314,143,86091,6,0,P|310:182|337:250,1,90,2|0,3:2|0:0,0:0:0:0:
504,291,86438,2,0,P|472:268|399:257,1,90,0|0,3:0|0:0,0:0:0:0:
286,375,86785,2,0,P|321:358|367:301,1,90,0|0,3:0|0:0,0:0:0:0:
272,173,87132,1,0,3:0:0:0:
182,337,87305,1,0,0:0:0:0:
160,109,87478,6,0,P|195:215|204:278,1,135,2|0,3:2|0:0,0:0:0:0:
132,272,87825,1,0,3:0:0:0:
50,137,87999,2,0,P|58:79|71:44,1,90,2|0,0:0|3:0,0:0:0:0:
282,219,88345,2,0,P|274:277|261:312,1,90,2|0,0:0|3:0,0:0:0:0:
196,384,88692,1,2,0:0:0:0:
5,377,88866,6,0,P|64:359|115:349,1,107.999996704102,6|2,3:2|0:2,0:0:0:0:
292,384,89386,2,0,B|306:334|281:264|244:236|244:236|256:237|256:237|222:196|229:134,1,269.999991760254,2|0,3:2|0:0,0:0:0:0:
409,131,90426,2,0,P|366:164|304:159,2,107.999996704102,2|2|10,3:2|3:2|0:0,0:0:0:0:
341,88,91293,1,10,0:0:0:0:
484,250,91467,6,0,P|389:233|357:235,1,107.999996704102,6|0,3:2|0:0,0:0:0:0:
299,289,91987,2,0,L|201:259,1,80.9999975280763,2|0,0:0|0:0,0:0:0:0:
158,344,92334,1,2,0:0:0:0:
380,319,92681,1,2,0:0:0:0:
186,173,93027,6,0,P|143:230|74:236,1,135,2|0,0:0|0:0,0:0:0:0:
13,170,93374,1,2,0:0:0:0:
13,170,93721,1,2,0:0:0:0:
13,170,94068,2,0,L|14:228,1,54,2|0,3:2|0:0,0:0:0:0:
84,239,94415,6,0,P|135:210|194:210,1,108,6|0,3:2|0:0,0:0:0:0:
251,255,94762,6,0,L|245:320,1,53.9999983520508,2|2,3:2|0:0,0:0:0:0:
327,267,95108,2,0,L|321:332,1,53.9999983520508,0|2,3:0|0:0,0:0:0:0:
403,274,95455,2,0,L|397:339,1,53.9999983520508,0|2,3:0|0:0,0:0:0:0:
467,158,95802,6,0,L|463:105,1,53.9999983520508,0|2,0:0|0:0,0:0:0:0:
391,165,96149,2,0,L|387:112,1,53.9999983520508,0|2,0:0|0:0,0:0:0:0:
315,177,96495,2,0,L|311:124,1,53.9999983520508,0|2,3:0|0:0,0:0:0:0:
201,41,96843,5,2,3:2:0:0:
13,179,97016,6,0,P|44:206|62:246,1,80.9999975280763,2|0,3:2|0:0,0:0:0:0:
118,305,97363,6,0,P|141:251|142:195,1,108,2|0,3:2|0:0,0:0:0:0:
167,117,97710,6,0,P|218:163|248:237,1,135,2|0,3:2|0:0,0:0:0:0:
298,295,98056,6,0,P|352:193|357:135,1,161.999995056153,2|0,3:2|0:0,0:0:0:0:
406,74,98403,6,0,P|463:136|487:301,1,251.999992309571,2|2,3:2|0:0,0:0:0:0:
320,369,98923,1,2,0:0:0:0:
236,282,99097,1,2,0:0:0:0:
272,187,99270,1,2,0:0:0:0:
342,150,99444,2,0,L|401:162,2,31.4999990386963,2|2|2,0:3|0:3|0:3,0:0:0:0:
358,76,99790,2,0,L|400:72,1,31.4999990386963,2|2,0:3|0:3,0:0:0:0:
295,28,99964,6,0,P|236:18|167:37,1,125.999996154785,4|0,0:0|0:0,0:0:0:0:
130,100,100484,1,2,0:0:0:0:
198,165,100658,2,0,P|190:226|168:292,1,125.999996154785,2|0,0:0|0:0,0:0:0:0:
114,188,101178,1,2,0:0:0:0:
262,273,101351,6,0,P|251:313|233:352,1,62.9999980773926,2|0,0:0|0:0,0:0:0:0:
106,384,101698,2,0,P|94:342|94:303,1,62.9999980773926,2|0,0:0|0:0,0:0:0:0:
170,287,102045,5,2,0:0:0:0:
170,287,102218,1,2,0:0:0:0:
15,207,102392,1,2,0:0:0:0:
140,80,102565,1,2,0:0:0:0:
198,165,102738,6,0,P|136:174|63:149,1,125.999996154785,2|0,0:0|0:0,0:0:0:0:
140,80,103259,1,2,0:0:0:0:
198,165,103432,2,0,L|185:237,1,62.9999980773926,2|0,0:0|0:0,0:0:0:0:
298,93,103779,2,0,L|286:31,1,62.9999980773926,0|2,0:0|0:0,0:0:0:0:
369,182,104126,6,0,L|356:254,1,62.9999980773926,2|0,0:0|0:0,0:0:0:0:
375,188,104473,2,0,L|363:250,1,62.9999980773926,2|0,0:0|0:0,0:0:0:0:
474,141,104819,5,2,0:0:0:0:
465,249,104993,1,2,0:0:0:0:
474,141,105166,1,2,0:0:0:0:
465,249,105340,1,2,0:0:0:0:
375,188,105513,6,0,P|357:124|346:43,1,125.999996154785,2|0,0:0|0:0,0:0:0:0:
474,141,106033,1,2,0:0:0:0:
313,233,106207,2,0,P|295:189|289:154,1,62.9999980773926,2|0,0:0|0:0,0:0:0:0:
370,6,106553,2,0,P|361:36|348:64,1,62.9999980773926,0|2,0:0|0:0,0:0:0:0:
180,24,106900,6,0,B|227:16|227:16|189:49,1,94.499997116089,2|0,0:0|0:0,0:0:0:0:
112,67,107247,2,0,L|33:48,1,62.9999980773926,2|0,0:0|0:0,0:0:0:0:
197,116,107594,5,2,0:0:0:0:
52,149,107767,1,2,0:0:0:0:
157,249,107941,1,2,0:0:0:0:
302,216,108114,1,2,0:0:0:0:
221,194,108288,6,0,P|235:259|264:321,1,135,2|0,3:2|0:0,0:0:0:0:
352,190,108634,2,0,P|363:146|365:102,1,90,0|0,3:0|0:0,0:0:0:0:
205,28,108981,2,0,P|249:39|293:41,1,90,0|0,3:0|0:0,0:0:0:0:
378,10,109328,1,0,3:0:0:0:
189,111,109501,6,0,B|101:99|151:24|12:0,1,180,0|2,0:0|0:0,0:0:0:0:
13,222,110022,2,0,P|81:220|122:159,1,135,2|0,3:2|0:0,0:0:0:0:
46,154,110369,5,6,3:2:0:0:
146,384,110542,1,8,0:0:0:0:
360,298,110715,2,0,B|336:261|336:261|317:286|318:338,1,108,8|0,0:0|0:0,0:0:0:0:
337,349,111062,6,0,P|323:242|302:156,1,180,4|10,2:1|0:0,0:0:0:0:
340,81,111582,1,0,0:0:0:0:
232,230,111756,2,0,L|120:200,1,90,0|0,1:2|0:0,0:0:0:0:
306,173,112103,1,8,1:2:0:0:
110,103,112276,1,2,0:0:0:0:
110,103,112363,1,0,0:0:0:0:
110,103,112449,5,0,1:0:0:0:
308,86,112623,1,2,0:0:0:0:
54,34,112796,1,8,0:0:0:0:
253,7,112970,1,2,3:2:0:0:
39,173,113143,2,0,P|113:147|172:166,1,135,2|0,1:2|0:0,0:0:0:0:
264,232,113490,2,0,P|245:182|243:142,1,90,10|2,1:2|0:2,0:0:0:0:
481,137,113837,6,0,B|453:164|434:191|434:191|378:166|303:161,1,180,2|10,1:2|0:0,0:0:0:0:
264,232,114357,1,0,0:0:0:0:
409,97,114530,2,0,L|386:1,1,90,0|2,1:2|0:2,0:0:0:0:
512,223,114877,2,0,L|489:319,1,90,8|2,1:2|0:0,0:0:0:0:
512,384,115137,1,0,0:0:0:0:
512,384,115224,5,0,1:2:0:0:
264,232,115397,1,2,0:0:0:0:
264,232,115484,1,2,0:0:0:0:
264,232,115571,2,0,P|309:228|356:188,1,90,10|0,0:0|3:0,0:0:0:0:
498,74,115918,5,2,1:2:0:0:
451,89,116004,1,2,0:0:0:0:
401,82,116091,1,2,3:2:0:0:
357,57,116178,1,2,0:0:0:0:
337,11,116264,2,0,B|338:30|357:57|357:57|306:29|253:35,1,135,10|2,1:2|0:0,0:0:0:0:
164,23,116611,6,0,P|189:81|203:167,1,135,0|0,1:2|0:0,0:0:0:0:
150,221,116958,1,8,0:0:0:0:
296,154,117132,1,0,0:0:0:0:
37,162,117305,2,0,P|82:149|139:142,1,90,2|0,1:2|0:0,0:0:0:0:
266,282,117652,1,10,1:2:0:0:
4,235,117825,1,2,0:0:0:0:
266,282,117999,6,0,B|277:249|263:217|263:217|296:238|304:292,1,135,2|0,1:2|0:0,0:0:0:0:
296,355,118345,2,0,P|241:354|203:331,1,90,10|0,0:0|3:0,0:0:0:0:
46,245,118692,2,0,P|98:227|127:194,1,90,2|0,1:2|3:0,0:0:0:0:
293,135,119039,2,0,P|251:97|226:13,1,135,10|0,1:2|0:0,0:0:0:0:
299,29,119386,6,0,P|233:96|176:81,1,135,2|0,1:2|0:0,0:0:0:0:
147,32,119733,1,10,0:0:0:0:
132,159,119906,5,0,0:0:0:0:
350,93,120080,1,2,1:2:0:0:
225,175,120253,1,0,3:0:0:0:
443,109,120427,1,10,1:2:0:0:
461,199,120600,6,0,P|436:160|410:-1,2,180,4|2|2,3:2|0:0|0:0,0:0:0:0:
488,0,121467,1,0,0:0:0:0:
390,98,121640,1,2,0:0:0:0:
270,57,121814,2,0,L|164:79,1,94.499997116089,2|0,0:0|0:0,0:0:0:0:
129,22,122160,6,0,B|157:58|157:58|129:158,1,144,4|0,3:2|0:0,0:0:0:0:
0,89,122681,2,0,L|80:70,1,72,2|0,3:2|0:0,0:0:0:0:
199,172,123027,2,0,L|117:148,1,72,2|0,3:2|0:0,0:0:0:0:
11,293,123374,6,0,P|47:258|149:260,1,135,8|0,0:0|0:0,0:0:0:0:
173,338,123721,1,8,0:0:0:0:
379,254,123895,2,0,L|232:272,1,135,8|0,0:0|0:0,0:0:0:0:
173,338,124241,5,0,3:0:0:0:
325,299,124415,1,0,3:0:0:0:
461,362,124588,2,0,P|443:306|460:264,1,90,2|0,3:2|0:0,0:0:0:0:
512,231,124848,1,0,0:0:0:0:
512,231,124935,6,0,P|503:147|482:45,1,180,6|0,3:2|0:0,0:0:0:0:
274,199,125455,2,0,P|281:144|296:96,1,90,2|0,3:2|0:0,0:0:0:0:
416,271,125802,2,0,P|399:223|392:181,1,90,2|0,3:2|0:0,0:0:0:0:
407,49,126149,6,0,P|327:103|269:113,1,135,8|0,0:0|0:0,0:0:0:0:
231,41,126496,1,8,0:0:0:0:
213,216,126669,2,0,L|190:102,1,90,8|0,0:0|0:0,0:0:0:0:
426,273,127016,5,0,3:0:0:0:
499,81,127189,1,0,3:0:0:0:
426,273,127363,1,8,0:0:0:0:
426,273,127449,1,8,0:0:0:0:
426,273,127536,1,8,0:0:0:0:
473,184,127710,6,0,B|447:174|429:162|429:162|396:184|326:196,1,135,0|0,3:0|0:0,0:0:0:0:
284,149,128056,1,8,0:0:0:0:
407,361,128230,2,0,P|414:319|431:254,1,90,0|0,3:0|0:0,0:0:0:0:
284,149,128577,1,0,3:0:0:0:
184,251,128750,2,0,P|197:288|209:337,1,90,8|0,0:0|0:0,0:0:0:0:
310,284,129097,5,4,3:0:0:0:
88,214,129270,1,8,3:0:0:0:
284,149,129444,2,0,P|224:132|127:126,1,135,6|0,0:0|0:0,0:0:0:0:
88,214,129790,5,6,0:0:0:0:
88,214,129964,1,0,0:0:0:0:
345,100,130137,1,6,0:0:0:0:
345,100,130311,1,2,0:0:0:0:
172,42,130484,5,10,0:0:0:0:
293,284,130658,1,10,0:0:0:0:
268,8,131004,5,10,0:0:0:0:
172,331,131178,1,10,0:0:0:0:
77,43,131525,6,0,L|118:113,1,45,10|8,0:0|0:0,0:0:0:0:
265,372,131698,1,10,0:0:0:0:
265,372,132045,5,10,0:0:0:0:
343,71,132218,1,10,0:0:0:0:
104,224,132392,1,10,0:0:0:0:
464,281,132565,6,0,B|502:255|502:255|329:287,1,202.500007724762,10|0,0:0|0:0,0:0:0:0:
337,296,132912,6,0,L|435:278,1,80.9999975280763,4|0,0:0|0:0,0:0:0:0:
316,376,133259,6,0,P|264:329|309:217,1,161.999995056153,4|0,3:1|0:0,0:0:0:0:
339,177,133606,2,0,P|243:187|182:178,1,107.999996704102,8|0,0:0|0:0,0:0:0:0:
87,28,133952,5,2,3:2:0:0:
286,107,134126,1,0,3:0:0:0:
37,129,134299,2,0,P|118:129|206:53,1,161.999995056153,8|0,0:0|0:0,0:0:0:0:
335,0,134646,2,0,P|383:57|271:91,1,215.999993408203,2|8,3:2|0:0,0:0:0:0:
212,0,135166,1,0,3:0:0:0:
121,149,135340,5,2,0:0:0:0:
326,201,135513,1,0,3:0:0:0:
249,338,135686,2,0,P|227:280|217:217,1,107.999996704102,10|0,0:0|0:0,0:0:0:0:
444,102,136033,6,0,P|396:226|392:339,1,215.999993408203,6|8,3:2|0:0,0:0:0:0:
508,147,136553,1,0,0:0:0:0:
291,93,136727,5,2,3:2:0:0:
493,36,136900,1,0,3:0:0:0:
291,93,137074,2,0,L|151:57,1,107.999996704102,8|0,0:0|0:0,0:0:0:0:
98,227,137421,6,0,P|201:193|277:211,1,161.999995056153,2|0,3:2|0:0,0:0:0:0:
305,253,137767,1,10,0:0:0:0:
113,381,137941,1,2,3:2:0:0:
2,249,138114,2,0,P|12:181|48:140,1,107.999996704102,2|0,0:0|3:0,0:0:0:0:
238,73,138461,2,0,B|165:92|112:64|112:64|133:42|184:48,1,161.999995056153,8|0,0:0|0:0,0:0:0:0:
271,4,138808,6,0,L|453:24,1,161.999995056153,6|0,3:2|0:0,0:0:0:0:
506,5,139155,1,8,0:0:0:0:
298,138,139328,1,0,0:0:0:0:
502,183,139501,2,0,P|480:121|425:97,1,107.999996704102,2|0,3:2|3:0,0:0:0:0:
331,309,139848,2,0,P|384:269|392:223,1,107.999996704102,8|0,0:0|0:0,0:0:0:0:
124,189,140195,6,0,B|98:208|85:245|85:245|172:262|243:206,1,215.999993408203,2|8,3:2|0:0,0:0:0:0:
446,100,140715,1,0,3:0:0:0:
508,217,140889,2,0,B|462:236|462:236|338:158,1,161.999995056153,2|0,0:0|0:0,0:0:0:0:
345,78,141236,2,0,P|372:123|363:187,1,107.999996704102,8|0,0:0|0:0,0:0:0:0:
189,75,141582,6,0,B|158:56|158:56|319:22,1,161.999995056153,6|0,3:2|0:0,0:0:0:0:
348,0,141929,1,8,0:0:0:0:
261,119,142103,5,2,0:0:0:0:
475,202,142276,1,0,3:0:0:0:
261,119,142449,1,2,3:2:0:0:
508,63,142623,1,8,0:0:0:0:
301,258,142796,6,0,P|294:229|292:193,1,53.9999983520508,0|0,3:0|0:0,0:0:0:0:
391,147,142970,2,0,P|392:224|363:330,1,161.999995056153,2|0,3:2|0:0,0:0:0:0:
265,366,143316,2,0,P|233:306|222:258,1,107.999996704102,8|0,0:0|3:0,0:0:0:0:
476,136,143663,5,8,0:0:0:0:
470,179,143750,1,8,0:0:0:0:
463,221,143837,1,8,0:0:0:0:
125,104,144010,5,8,0:0:0:0:
161,72,144097,1,8,0:0:0:0:
207,58,144184,1,8,0:0:0:0:
254,64,144270,1,8,0:0:0:0:
294,91,144357,6,0,L|269:273,1,161.999995056153,4|0,3:1|0:0,0:0:0:0:
297,323,144704,1,8,0:0:0:0:
207,58,144877,1,0,0:0:0:0:
363,242,145051,2,0,L|474:240,1,107.999996704102,2|0,3:2|3:0,0:0:0:0:
141,135,145397,2,0,B|29:136|29:136|74:159,1,161.999995056153,8|0,0:0|0:0,0:0:0:0:
178,247,145744,6,0,B|296:247|253:157|389:158,1,215.999993408203,2|8,3:2|0:0,0:0:0:0:
470,240,146264,1,0,3:0:0:0:
312,81,146438,5,2,0:0:0:0:
375,345,146611,1,0,3:0:0:0:
425,111,146785,1,10,0:0:0:0:
268,318,146958,1,0,0:0:0:0:
468,241,147132,6,0,P|395:270|416:354,1,161.999995056153,6|0,3:2|0:0,0:0:0:0:
473,351,147478,1,8,0:0:0:0:
295,263,147652,1,0,0:0:0:0:
127,379,147825,2,0,L|305:341,1,161.999995056153,2|0,3:2|0:0,0:0:0:0:
346,384,148172,1,8,0:0:0:0:
76,286,148345,1,0,0:0:0:0:
292,155,148519,6,0,P|287:232|198:206,1,161.999995056153,2|0,3:2|0:0,0:0:0:0:
187,161,148866,2,0,L|201:36,1,107.999996704102,10|2,0:0|3:2,0:0:0:0:
461,0,149212,5,2,0:0:0:0:
454,42,149299,1,2,0:0:0:0:
448,85,149386,1,2,3:2:0:0:
442,128,149473,1,2,0:0:0:0:
403,150,149559,5,10,0:0:0:0:
410,203,149646,1,2,0:0:0:0:
418,256,149733,1,2,0:0:0:0:
425,308,149819,1,2,0:0:0:0:
469,344,149906,6,0,B|370:307|364:409|248:362,1,215.999993408203,6|8,3:2|0:0,0:0:0:0:
148,255,150426,1,0,0:0:0:0:
317,181,150600,2,0,P|315:248|298:317,1,107.999996704102,2|0,3:2|3:0,0:0:0:0:
79,341,150947,2,0,B|54:318|50:300|50:300|85:254|184:254,1,161.999995056153,8|0,0:0|0:0,0:0:0:0:
229,263,151293,6,0,L|9:218,1,215.999993408203,6|8,3:2|0:0,0:0:0:0:
245,66,151814,1,0,3:0:0:0:
92,20,151987,2,0,P|92:87|109:138,1,107.999996704102,2|0,0:0|3:0,0:0:0:0:
332,208,152334,2,0,P|273:174|221:163,1,107.999996704102,10|0,0:0|0:0,0:0:0:0:
14,315,152681,6,0,P|143:286|209:308,1,161.999995056153,6|0,3:2|0:0,0:0:0:0:
204,384,153027,1,8,0:0:0:0:
193,137,153201,1,0,0:0:0:0:
123,359,153374,1,0,3:0:0:0:
284,166,153548,1,8,0:0:0:0:
324,153,153634,1,8,0:0:0:0:
365,141,153721,2,0,L|388:210,1,53.9999983520508,8|8,0:0|0:0,0:0:0:0:
423,335,153895,5,10,0:0:0:0:
423,335,154241,6,0,B|346:356|349:274|251:302,1,161.999995056153,14|0,0:0|0:0,0:0:0:0:
214,354,154588,6,0,P|190:316|275:311,1,161.999995056153,14|0,0:0|0:0,0:0:0:0:
290,376,154935,5,4,3:0:0:0:
189,110,155108,1,8,0:0:0:0:
246,0,155455,6,0,P|231:106|215:248,1,225,2|0,0:0|0:0,0:0:0:0:
270,296,155975,1,12,0:0:0:0:
395,265,156496,6,0,P|382:153|366:41,1,225,2|0,0:0|0:0,0:0:0:0:
431,0,157016,1,12,0:0:0:0:
431,0,157536,5,10,0:0:0:0:
423,53,157623,1,8,0:0:0:0:
416,106,157710,1,8,0:0:0:0:
409,159,157796,1,8,0:0:0:0:
402,212,157883,1,10,0:0:0:0:
395,265,157970,1,8,0:0:0:0:
388,318,158056,2,0,P|419:313|445:314,1,45,8|8,0:0|0:0,0:0:0:0:
464,300,158230,6,0,P|406:287|315:276,1,135,4|0,3:1|0:0,0:0:0:0:
272,315,158577,1,0,3:0:0:0:
154,294,158750,1,8,0:0:0:0:
154,294,159097,1,2,3:2:0:0:
199,213,159270,2,0,P|210:158|213:91,1,108,2|0,3:2|0:0,0:0:0:0:
183,44,159617,6,0,P|253:86|310:84,1,108,4|0,3:0|0:0,0:0:0:0:
257,0,159964,1,0,3:0:0:0:
116,116,160137,1,8,0:0:0:0:
116,116,160484,5,2,3:2:0:0:
257,0,160658,1,2,3:2:0:0:
72,13,160831,1,8,0:0:0:0:
103,200,161004,6,0,P|161:188|198:140,1,108,2|0,3:2|0:0,0:0:0:0:
192,153,161351,2,0,L|209:249,1,72,0|2,3:0|0:0,0:0:0:0:
167,298,161698,1,2,3:2:0:0:
359,303,161871,2,0,L|241:285,1,108,8|0,0:0|0:0,0:0:0:0:
167,298,162218,6,0,P|132:280|91:274,1,67.5,0|0,3:0|0:0,0:0:0:0:
75,271,162565,2,0,P|93:236|99:195,1,67.5,8|0,3:0|0:0,0:0:0:0:
100,174,162912,2,0,P|135:192|176:198,1,67.5,4|0,3:0|0:0,0:0:0:0:
192,201,163259,2,0,P|174:236|168:277,1,67.5,4|0,3:0|0:0,0:0:0:0:
167,298,163606,1,8,0:0:0:0:
330,228,163779,6,0,P|324:161|297:99,1,108,4|0,3:1|0:0,0:0:0:0:
310,123,164126,1,0,3:0:0:0:
413,161,164299,2,0,L|518:172,1,72,8|0,0:0|0:0,0:0:0:0:
348,56,164646,1,2,3:2:0:0:
512,22,164819,2,0,L|440:36,1,72,2|0,3:2|0:0,0:0:0:0:
348,56,165166,6,0,B|272:52|298:3|211:0,1,144,4|0,3:0|3:0,0:0:0:0:
190,140,165686,2,0,P|217:102|223:68,1,72,8|0,0:0|0:0,0:0:0:0:
15,0,166033,1,2,3:2:0:0:
67,179,166207,1,0,3:0:0:0:
223,78,166380,1,8,0:0:0:0:
9,115,166553,6,0,P|58:97|135:125,1,108,2|0,3:2|0:0,0:0:0:0:
191,141,166900,2,0,L|176:225,1,72,0|2,3:0|0:0,0:0:0:0:
153,327,167247,1,0,3:0:0:0:
67,179,167421,1,8,0:0:0:0:
297,234,167594,1,2,0:0:0:0:
153,327,167767,6,0,P|209:312|270:325,1,108,0|0,3:0|0:0,0:0:0:0:
298,370,168114,6,0,B|256:320|256:320|292:196,1,188.999994232178,6|0,3:2|0:0,0:0:0:0:
382,134,168461,5,6,0:0:0:0:
237,30,168634,5,8,0:0:0:0:
278,40,168721,1,8,0:0:0:0:
319,50,168808,1,8,0:0:0:0:
512,34,168981,5,8,0:0:0:0:
477,71,169068,1,8,0:0:0:0:
464,119,169155,1,8,3:2:0:0:
470,168,169241,1,8,0:0:0:0:
499,208,169328,6,0,P|448:202|405:205,1,90,6|2,3:2|0:0,0:0:0:0:
188,262,169675,1,10,0:0:0:0:
283,81,169848,1,2,0:0:0:0:
325,283,170022,1,2,3:2:0:0:
158,128,170195,1,0,3:0:0:0:
373,166,170369,1,8,0:0:0:0:
188,262,170542,2,0,L|247:250,1,45,2|0,0:0|0:0,0:0:0:0:
325,283,170715,5,2,3:2:0:0:
91,235,170889,1,2,0:0:0:0:
304,185,171062,1,10,0:0:0:0:
113,333,171236,1,2,3:2:0:0:
135,134,171409,2,0,P|144:196|75:234,1,135,2|0,0:0|0:0,0:0:0:0:
12,198,171756,2,0,L|39:103,1,90,10|2,0:0|0:0,0:0:0:0:
188,288,172103,5,2,3:2:0:0:
221,15,172276,1,2,0:0:0:0:
90,234,172449,1,10,0:0:0:0:
310,64,172623,1,2,0:0:0:0:
32,15,172796,6,0,P|113:59|125:136,1,161.999995056153,2|0,3:2|0:0,0:0:0:0:
90,234,173143,1,10,0:0:0:0:
306,189,173316,1,0,0:0:0:0:
57,163,173490,5,14,0:0:0:0:
345,266,173663,1,0,3:0:0:0:
53,298,173837,5,14,0:0:0:0:
392,200,174010,1,0,3:0:0:0:
16,227,174184,5,14,0:0:0:0:
432,275,174357,1,0,3:0:0:0:
162,356,174530,5,8,3:2:0:0:
162,356,174617,1,8,0:0:0:0:
162,356,174704,2,0,P|193:355|212:347,1,45,8|0,3:2|0:0,0:0:0:0:
297,337,174877,2,0,P|256:249|252:199,1,135,6|0,3:2|0:0,0:0:0:0:
300,150,175224,5,10,0:0:0:0:
362,368,175397,1,2,0:0:0:0:
161,242,175571,2,0,P|166:172|181:122,1,90,2|0,3:2|3:0,0:0:0:0:
431,183,175918,2,0,P|439:227|440:272,1,90,8|2,0:0|0:0,0:0:0:0:
239,98,176264,5,2,3:2:0:0:
435,29,176438,1,2,0:0:0:0:
363,231,176611,1,10,0:0:0:0:
274,6,176785,1,2,3:2:0:0:
496,86,176958,2,0,P|450:110|358:70,1,135,2|0,0:0|0:0,0:0:0:0:
274,6,177305,2,0,L|158:31,1,90,8|2,0:0|0:0,0:0:0:0:
374,89,177652,5,2,3:2:0:0:
116,46,177825,1,2,0:0:0:0:
333,207,177999,1,10,0:0:0:0:
116,46,178172,1,2,0:0:0:0:
199,300,178345,5,2,3:2:0:0:
281,45,178519,1,2,0:0:0:0:
58,192,178692,1,10,0:0:0:0:
207,384,178866,6,0,P|250:364|365:334,1,161.999995056153,14|0,0:0|0:0,0:0:0:0:
440,340,179212,5,14,0:0:0:0:
58,192,179559,5,14,0:0:0:0:
417,52,179906,5,10,0:0:0:0:
417,52,179993,1,8,0:0:0:0:
417,52,180080,2,0,L|404:114,1,45,8|8,0:0|0:0,0:0:0:0:
498,168,180253,2,0,L|484:117,1,45,8|8,0:0|0:0,0:0:0:0:
300,8,180426,6,0,P|292:93|293:186,1,161.999995056153,4|0,3:2|0:0,0:0:0:0:
343,249,180773,2,0,P|398:243|439:211,1,107.999996704102,8|0,0:0|0:0,0:0:0:0:
188,144,181120,1,0,3:0:0:0:
153,300,181293,1,0,0:0:0:0:
363,164,181467,1,8,0:0:0:0:
151,21,181640,1,0,0:0:0:0:
72,196,181814,5,2,3:2:0:0:
292,169,181987,2,0,P|221:148|169:142,1,107.999996704102,2|8,0:0|0:0,0:0:0:0:
239,384,182334,2,0,P|283:374|343:352,1,107.999996704102,2|0,3:2|0:0,0:0:0:0:
380,177,182681,1,2,3:2:0:0:
180,275,182854,2,0,P|264:278|351:262,1,161.999995056153,10|0,0:0|0:0,0:0:0:0:
412,314,183201,5,2,3:2:0:0:
313,109,183374,1,2,0:0:0:0:
512,220,183548,1,10,0:0:0:0:
299,254,183721,1,2,0:0:0:0:
444,86,183895,1,2,3:2:0:0:
299,254,184068,5,0,3:2:0:0:
232,24,184241,1,10,0:0:0:0:
172,274,184415,1,2,0:0:0:0:
115,90,184588,1,0,3:0:0:0:
359,110,184762,5,2,0:0:0:0:
50,204,184935,1,10,0:0:0:0:
359,110,185108,1,2,3:2:0:0:
115,90,185282,5,2,0:0:0:0:
377,259,185455,1,2,3:2:0:0:
115,90,185629,1,10,0:0:0:0:
428,14,185802,6,0,P|361:106|264:48,1,215.999993408203,2|0,0:0|0:0,0:0:0:0:
102,202,186322,2,0,P|170:180|193:87,1,161.999995056153,8|0,0:0|0:0,0:0:0:0:
137,24,186669,1,0,3:0:0:0:
368,135,186843,1,2,0:0:0:0:
112,112,187016,1,10,0:0:0:0:
328,225,187189,6,0,L|265:199,1,53.9999983520508,0|0,0:0|0:0,0:0:0:0:
139,293,187363,2,0,P|220:278|266:280,1,107.999996704102,2|0,3:2|0:0,0:0:0:0:
257,365,187623,2,0,P|176:380|130:378,1,107.999996704102,2|0,0:0|0:0,0:0:0:0:
80,340,187883,1,2,3:2:0:0:
317,311,188056,2,0,L|101:259,1,215.999993408203,2|8,0:0|0:0,0:0:0:0:
269,22,188577,5,0,0:0:0:0:
269,22,188663,1,2,0:0:0:0:
269,22,188750,1,2,3:2:0:0:
302,213,188923,1,2,0:0:0:0:
180,125,189097,1,10,0:0:0:0:
380,92,189270,1,2,0:0:0:0:
342,319,189444,6,0,P|280:317|233:287,1,107.999996704102,2|8,3:2|0:0,0:0:0:0:
177,202,189704,1,8,0:0:0:0:
199,180,189790,2,0,L|187:93,1,53.9999983520508,8|0,0:0|0:0,0:0:0:0:
314,71,189964,6,0,L|305:236,1,161.999995056153,2|0,3:2|0:0,0:0:0:0:
342,319,190311,2,0,B|385:305|393:254|393:254|449:269|458:331,1,161.999995056153,2|0,3:2|0:0,0:0:0:0:
410,368,190658,2,0,P|316:335|234:331,1,161.999995056153,2|0,3:2|0:0,0:0:0:0:
153,367,191004,5,10,0:0:0:0:
9,188,191178,1,0,0:0:0:0:
8,376,191351,2,0,P|35:319|41:260,1,107.999996704102,14|0,0:0|0:0,0:0:0:0:
135,173,201409,6,0,L|191:163,1,53.9999983520508,0|0,0:0|0:0,0:0:0:0:
283,180,201756,1,0,0:0:0:0:
362,141,201929,1,0,0:0:0:0:
422,157,202103,1,0,0:0:0:0:
456,151,202276,1,0,0:0:0:0:
479,153,202449,1,0,0:0:0:0:
499,228,202623,6,0,B|479:254|449:252|449:252|397:217|335:230,1,161.999995056153,2|0,0:0|0:0,0:0:0:0:
296,310,203316,2,0,B|279:346|335:332|318:270|295:310|269:280|258:233|275:186,1,161.999995056153,2|0,0:0|0:0,0:0:0:0:
340,109,204010,2,0,P|239:156|179:158,1,161.999995056153,2|0,0:0|0:0,0:0:0:0:
106,113,204704,2,0,P|76:83|3:81,1,107.999996704102,2|2,0:0|0:0,0:0:0:0:
107,0,205397,6,0,P|44:116|38:163,1,161.999995056153,2|2,0:0|0:0,0:0:0:0:
133,229,206091,2,0,B|127:206|133:183|133:183|89:241|21:248,1,161.999995056153,2|2,0:0|0:0,0:0:0:0:
37,341,206785,2,0,P|127:311|161:312,1,107.999996704102,2|0,0:0|0:0,0:0:0:0:
311,353,207305,1,2,0:0:0:0:
216,377,207478,2,0,P|223:321|251:270,1,107.999996704102,2|0,0:0|0:0,0:0:0:0:
495,261,208172,6,0,P|437:229|326:225,1,161.999995056153,2|2,0:0|0:0,0:0:0:0:
311,352,208866,2,0,P|362:343|421:311,1,107.999996704102,2|0,0:0|0:0,0:0:0:0:
297,343,209386,2,0,L|253:334,1,26.9999991760254,2|0,0:0|0:0,0:0:0:0:
124,286,209559,6,0,B|157:300|195:275|188:216|131:177,1,161.999995056153,2|2,0:0|0:0,0:0:0:0:
16,147,210253,2,0,B|90:156|67:96|150:105,1,135,2|2,0:0|0:0,0:0:0:0:
260,132,210947,6,0,B|246:130|238:148|243:167|303:149|323:103,1,107.999996704102,2|2,0:0|0:0,0:0:0:0:
345,35,211467,2,0,P|389:72|457:61,2,107.999996704102,2|2|2,0:0|0:0|0:0,0:0:0:0:
410,0,212334,1,2,0:0:0:0:
256,192,212421,12,6,213721,3:2:0:0:
352,288,214415,5,0,3:0:0:0:
160,192,215108,5,2,3:2:0:0:
352,96,215802,5,0,3:0:0:0:
128,320,216496,5,2,3:2:0:0:
416,192,217189,5,2,3:2:0:0:
128,64,217883,5,2,3:2:0:0:
128,64,218403,5,0,3:0:0:0:
218,206,218577,2,0,P|214:249|202:300,1,80.9999975280763,2|0,3:2|0:0,0:0:0:0:
190,297,218923,2,0,P|165:247|152:179,1,108,0|0,3:0|0:0,0:0:0:0:
216,89,219270,6,0,P|250:70|284:40,1,72,2|0,3:2|0:0,0:0:0:0:
295,132,219617,2,0,P|325:107|353:71,1,72,0|0,3:0|0:0,0:0:0:0:
381,162,219964,2,0,P|406:132|428:92,1,72,0|0,3:0|0:0,0:0:0:0:
473,175,220311,2,0,P|492:141|507:98,1,72,0|0,3:0|0:0,0:0:0:0:
498,296,220658,6,0,L|420:286,1,72,2|0,3:2|0:0,0:0:0:0:
359,319,221004,2,0,L|281:309,1,72,0|0,3:0|0:0,0:0:0:0:
217,336,221351,2,0,L|139:326,1,72,0|0,3:0|0:0,0:0:0:0:
78,359,221697,2,0,L|0:349,1,72,0|0,3:0|0:0,0:0:0:0:
158,147,222045,6,0,B|185:196|185:196|158:270,1,108,2|0,3:2|0:0,0:0:0:0:
92,201,222392,1,0,3:0:0:0:
243,127,222565,2,0,L|343:112,1,72,2|0,0:0|3:0,0:0:0:0:
98,29,222912,2,0,L|6:13,1,72,2|0,0:0|3:0,0:0:0:0:
325,23,223259,6,0,L|197:41,1,108,2|0,3:2|0:0,0:0:0:0:
203,17,223606,1,2,3:2:0:0:
415,76,223779,1,2,3:2:0:0:
265,302,225860,6,0,B|233:322|207:301|221:260|267:232|323:282|287:294|325:324|384:317,1,202.500007724762,4|0,0:0|0:0,0:0:0:0:
493,256,226207,6,0,P|500:191|371:253,1,292.499986610413,4|0,3:1|0:0,0:0:0:0:
365,241,226727,1,0,3:0:0:0:
263,81,226900,5,8,0:0:0:0:
229,129,226987,1,8,0:0:0:0:
174,151,227074,1,8,0:0:0:0:
116,145,227160,1,8,0:0:0:0:
69,108,227247,2,0,L|84:44,1,58.4999973220826,8|8,0:0|0:0,0:0:0:0:
23,8,227421,6,0,P|70:84|90:183,1,175.499991966248,6|0,3:2|0:0,0:0:0:0:
253,73,227767,6,0,P|163:75|67:43,1,175.499991966248,6|0,3:2|0:0,0:0:0:0:
87,245,228114,6,0,P|129:166|205:99,1,175.499991966248,6|0,3:2|0:0,0:0:0:0:
191,107,228461,6,0,L|132:114,1,58.4999973220826,6|0,3:2|0:0,0:0:0:0:
0,130,228634,1,6,3:2:0:0:
0,130,228981,6,0,B|90:146|55:209|178:229,1,175.499991966248,4|0,3:1|0:0,0:0:0:0:
254,217,229328,1,8,0:0:0:0:
49,274,229501,1,0,0:0:0:0:
225,131,229675,2,0,P|303:145|337:263,1,175.499991966248,2|0,3:2|0:0,0:0:0:0:
294,292,230022,1,8,0:0:0:0:
371,86,230195,1,0,0:0:0:0:
496,331,230369,6,0,P|436:320|376:312,1,116.999994644165,2|0,3:2|0:0,0:0:0:0:
138,235,230715,2,0,P|194:221|255:213,1,116.999994644165,10|0,0:0|3:0,0:0:0:0:
201,350,231062,1,2,0:0:0:0:
0,274,231236,1,0,3:0:0:0:
144,132,231409,1,8,0:0:0:0:
345,208,231583,1,0,0:0:0:0:
138,235,231756,6,0,P|210:208|247:114,1,175.499991966248,6|0,3:2|0:0,0:0:0:0:
198,62,232103,1,8,0:0:0:0:
277,292,232276,1,0,0:0:0:0:
418,132,232449,2,0,B|438:10|438:10|408:80,1,175.499991966248,2|0,3:2|0:0,0:0:0:0:
485,171,232796,1,8,0:0:0:0:
427,318,232970,2,0,L|501:309,1,58.4999973220826,0|0,0:0|0:0,0:0:0:0:
512,293,233143,6,0,L|324:319,1,175.499991966248,6|0,3:2|0:0,0:0:0:0:
274,369,233490,1,8,0:0:0:0:
37,299,233663,1,0,3:0:0:0:
217,286,233837,2,0,P|175:360|72:340,1,175.499991966248,2|0,0:0|0:0,0:0:0:0:
17,371,234184,1,8,0:0:0:0:
134,289,234357,2,0,L|99:205,1,58.4999973220826,0|0,0:0|0:0,0:0:0:0:
41,72,234530,6,0,B|73:41|73:41|32:104|38:187,1,175.499991966248,6|0,3:2|0:0,0:0:0:0:
111,235,234877,1,8,0:0:0:0:
343,281,235051,1,2,0:0:0:0:
269,151,235224,1,0,3:0:0:0:
229,374,235397,1,2,0:0:0:0:
439,314,235571,2,0,L|410:193,1,116.999994644165,8|2,0:0|3:2,0:0:0:0:
454,56,235918,6,0,P|390:120|274:116,1,175.499991966248,6|0,3:2|0:0,0:0:0:0:
242,79,236264,1,8,0:0:0:0:
478,157,236438,1,0,3:0:0:0:
310,230,236611,5,8,0:0:0:0:
263,221,236698,1,8,0:0:0:0:
216,212,236785,1,8,0:0:0:0:
407,357,236958,5,8,0:0:0:0:
348,363,237045,1,8,0:0:0:0:
289,370,237132,1,8,0:0:0:0:
231,377,237218,1,8,0:0:0:0:
172,384,237305,6,0,P|143:307|207:314,1,175.499991966248,4|0,3:1|0:0,0:0:0:0:
204,311,237652,1,8,0:0:0:0:
39,238,237825,2,0,P|71:228|112:219,1,58.4999973220826,0|0,0:0|0:0,0:0:0:0:
243,231,237999,1,2,3:2:0:0:
141,87,238172,1,0,3:0:0:0:
384,157,238345,2,0,P|296:155|315:84,1,175.499991966248,8|0,0:0|0:0,0:0:0:0:
391,76,238692,6,0,P|362:145|362:315,1,233.999989288331,2|8,3:2|0:0,0:0:0:0:
511,372,239212,1,0,3:0:0:0:
269,286,239386,5,2,0:0:0:0:
483,231,239559,1,0,3:0:0:0:
269,286,239733,2,0,P|221:261|156:250,1,116.999994644165,10|0,0:0|0:0,0:0:0:0:
439,123,240080,6,0,L|261:140,1,175.499991966248,6|0,3:2|0:0,0:0:0:0:
171,114,240426,1,8,0:0:0:0:
326,39,240600,1,0,0:0:0:0:
124,47,240773,2,0,P|89:104|158:195,1,175.499991966248,2|0,3:2|0:0,0:0:0:0:
218,206,241120,1,8,0:0:0:0:
63,278,241293,2,0,P|100:278|128:283,1,58.4999973220826,0|0,0:0|0:0,0:0:0:0:
200,354,241467,6,0,B|300:368|265:274|405:297,1,175.499991966248,2|0,3:2|0:0,0:0:0:0:
434,364,241814,2,0,P|485:352|499:256,1,116.999994644165,10|0,0:0|3:0,0:0:0:0:
458,91,242160,5,2,0:0:0:0:
411,89,242247,1,2,0:0:0:0:
372,116,242334,1,2,3:2:0:0:
364,162,242421,1,2,0:0:0:0:
384,203,242507,5,10,0:0:0:0:
344,159,242594,1,2,0:0:0:0:
288,140,242681,1,2,0:0:0:0:
230,142,242767,1,2,0:0:0:0:
175,163,242854,6,0,L|214:368,1,175.499991966248,6|0,3:2|0:0,0:0:0:0:
269,375,243201,1,8,0:0:0:0:
107,137,243374,1,0,0:0:0:0:
307,297,243548,1,2,3:2:0:0:
67,208,243721,1,0,3:0:0:0:
345,225,243895,2,0,L|478:232,1,116.999994644165,8|0,0:0|0:0,0:0:0:0:
183,106,244241,6,0,B|29:130|29:130|132:139,1,233.999989288331,2|8,3:2|0:0,0:0:0:0:
277,49,244762,1,0,3:0:0:0:
450,131,244935,2,0,P|396:129|332:116,1,116.999994644165,2|0,0:0|3:0,0:0:0:0:
108,14,245282,2,0,P|192:16|288:55,1,175.499991966248,10|0,0:0|0:0,0:0:0:0:
334,116,245629,6,0,B|309:159|309:159|330:224|335:306,1,175.499991966248,6|0,3:2|0:0,0:0:0:0:
291,360,245975,1,10,0:0:0:0:
408,171,246149,1,2,0:0:0:0:
291,360,246322,1,0,3:0:0:0:
174,194,246496,1,8,0:0:0:0:
128,201,246582,1,8,0:0:0:0:
82,211,246669,2,0,L|95:295,1,58.4999973220826,8|8,0:0|0:0,0:0:0:0:
129,345,246843,5,10,0:0:0:0:
129,345,247189,6,0,B|172:295|172:295|151:143,1,175.499991966248,14|0,0:0|0:0,0:0:0:0:
45,134,247536,6,0,B|2:184|2:184|23:336,1,175.499991966248,14|0,0:0|0:0,0:0:0:0:
90,268,247883,6,0,L|82:211,1,58.4999973220826,4|0,3:0|0:0,0:0:0:0:
55,17,248056,1,8,0:0:0:0:
55,17,248403,6,0,P|145:48|214:43,1,148.50000453186,4|0,3:2|0:0,0:0:0:0:
275,0,248750,2,0,P|283:60|260:120,1,99.0000030212403,8|0,0:0|0:0,0:0:0:0:
195,166,249097,1,2,3:2:0:0:
195,166,249270,1,0,3:0:0:0:
323,221,249444,2,0,L|429:195,1,99.0000030212403,8|0,0:0|0:0,0:0:0:0:
485,87,249790,6,0,P|408:98|357:34,1,148.50000453186,2|0,3:2|0:0,0:0:0:0:
435,28,250137,2,0,P|432:95|416:128,1,99.0000030212403,8|0,0:0|3:0,0:0:0:0:
332,136,250484,1,2,0:0:0:0:
472,223,250658,1,2,3:2:0:0:
346,306,250831,2,0,P|344:242|367:206,1,99.0000030212403,10|2,0:0|0:0,0:0:0:0:
499,317,251178,6,0,B|397:313|437:400|297:381,2,198.000006042481,2|8|2,3:2|0:0|3:2,0:0:0:0:
499,317,252045,1,0,3:0:0:0:
319,210,252218,2,0,L|348:313,1,99.0000030212403,8|0,0:0|0:0,0:0:0:0:
207,384,252565,5,2,3:2:0:0:
161,222,252738,1,2,0:0:0:0:
161,222,252825,1,2,0:0:0:0:
161,222,252912,2,0,P|193:239|218:241,1,49.5000015106202,10|0,0:0|0:0,0:0:0:0:
319,210,253085,1,2,3:2:0:0:
115,101,253259,5,2,0:0:0:0:
49,172,253432,1,2,3:2:0:0:
201,140,253606,2,0,B|185:45|185:45|119:20,1,148.50000453186,8|0,0:0|0:0,0:0:0:0:
136,26,253952,6,0,L|260:-2,1,99.0000030212403,2|0,3:2|0:0,0:0:0:0:
297,161,254299,2,0,L|200:139,1,99.0000030212403,8|0,0:0|0:0,0:0:0:0:
363,43,254646,1,2,3:2:0:0:
363,43,254819,1,0,3:0:0:0:
200,139,254993,1,8,0:0:0:0:
404,170,255166,6,0,L|512:149,2,99.0000030212403,0|0|0,0:0|3:0|0:0,0:0:0:0:
323,306,255686,2,0,P|395:299|434:305,1,99.0000030212403,8|0,0:0|3:0,0:0:0:0:
260,191,256033,1,2,0:0:0:0:
190,336,256207,1,0,3:0:0:0:
56,254,256380,2,0,P|104:233|168:221,1,99.0000030212403,8|0,0:0|0:0,0:0:0:0:
228,86,256727,6,0,P|135:99|22:56,2,198.000006042481,2|8|2,3:2|0:0|3:2,0:0:0:0:
324,18,257594,1,8,0:0:0:0:
324,18,257681,1,8,0:0:0:0:
324,18,257767,1,8,0:0:0:0:
151,30,257941,6,0,P|137:115|178:179,1,148.50000453186,8|0,0:0|0:0,0:0:0:0:
249,204,258288,6,0,B|288:199|305:159|305:159|296:202|340:238,1,148.50000453186,12|0,0:0|0:0,0:0:0:0:
468,169,258634,6,0,B|496:150|496:150|373:171,1,148.50000453186,10|0,0:0|0:0,0:0:0:0:
278,283,258981,5,4,3:0:0:0:
278,283,259155,1,8,0:0:0:0:
278,283,259501,6,0,P|202:237|161:373,1,247.500007553101,6|0,3:2|0:0,0:0:0:0:
208,311,260022,1,14,0:0:0:0:
341,158,260542,6,0,P|419:101|474:213,1,247.500007553101,6|0,3:2|0:0,0:0:0:0:
413,172,261062,1,14,0:0:0:0:
259,105,261582,6,0,P|209:156|138:146,1,148.50000453186,10|0,0:0|0:0,0:0:0:0:
186,88,261929,1,10,0:0:0:0:
186,88,262276,6,0,L|157:343,1,247.500007553101,6|0,3:2|0:0,0:0:0:0:
158,333,262796,1,14,0:0:0:0:
349,47,263316,6,0,L|408:296,1,247.500007553101,6|0,3:2|0:0,0:0:0:0:
407,288,263836,1,14,0:0:0:0:
89,24,264357,6,0,L|53:174,1,148.50000453186,10|0,0:0|0:0,0:0:0:0:
54,168,264704,1,10,0:0:0:0:
256,192,265051,12,0,274762,0:0:0:0:
