osu file format v14

[General]
AudioFilename: audio.mp3
AudioLeadIn: 0
PreviewTime: 306446
Countdown: 0
SampleSet: Normal
StackLeniency: 0.7
Mode: 1
LetterboxInBreaks: 0
WidescreenStoryboard: 0

[Editor]
Bookmarks: 613,21946,43279,64612,91279,104612,125946,136612,139279,163279,184612,196612,217946,239279,245107,273372,284039,306705,328039,349372,370705,392039
DistanceSpacing: 1
BeatDivisor: 4
GridSize: 32
TimelineZoom: 3.099999

[Metadata]
Title:Intersection (TOMOYU funkot remix)
TitleUnicode:Intersection (TOMOYU funkot remix)
Artist:AZKi
ArtistUnicode:AZKi
Creator:Maimaing
Version:Crossing
Source:
Tags:miyagishima ca08 Re:Creating world lapix Electronic イノナカミュージック Inonaka music innk hololive ホロライブ vtuber vsinger diva virtual youtuber japanese pop jpop j-pop
BeatmapID:3431343
BeatmapSetID:1679598

[Difficulty]
HPDrainRate:4
CircleSize:5
OverallDifficulty:6.5
ApproachRate:5
SliderMultiplier:1.4
SliderTickRate:1

[Events]
//Background and Video events
0,0,"maxresdefault (2).jpg",0,0
//Break Periods
//Storyboard Layer 0 (Background)
//Storyboard Layer 1 (Fail)
//Storyboard Layer 2 (Pass)
//Storyboard Layer 3 (Foreground)
//Storyboard Layer 4 (Overlay)
//Storyboard Sound Samples

[TimingPoints]
613,333.333333333333,4,1,0,70,1,0
59269,-100,4,1,0,70,0,0
59519,-99.533408,4,1,0,70,0,0
59603,-99.3776088,4,1,0,70,0,0
59769,-99.0711499,4,1,0,70,0,0
59936,-98.7647462,4,1,0,70,0,0
60019,-98.6131657,4,1,0,70,0,0
60103,-98.4602319,4,1,0,70,0,0
60186,-98.3095839,4,1,0,70,0,0
60269,-98.1593963,4,1,0,70,0,0
60436,-97.8585977,4,1,0,70,0,0
60603,-97.5596371,4,1,0,70,0,0
60769,-97.2642714,4,1,0,70,0,0
60853,-97.1154897,4,1,0,70,0,0
60936,-96.9689256,4,1,0,70,0,0
61103,-96.675368,4,1,0,70,0,0
61269,-96.3853244,4,1,0,70,0,0
61352,-96.2409543,4,1,0,70,0,0
61436,-96.0952844,4,1,0,70,0,0
61519,-95.9517812,4,1,0,70,0,0
61603,-95.8069848,4,1,0,70,0,0
61769,-95.5221207,4,1,0,70,0,0
61936,-95.2372449,4,1,0,70,0,0
62102,-94.9557538,4,1,0,70,0,0
62186,-94.8139456,4,1,0,70,0,0
62269,-94.6742411,4,1,0,70,0,0
62436,-94.3943926,4,1,0,70,0,0
62603,-94.1161937,4,1,0,70,0,0
62686,-93.9785363,4,1,0,70,0,0
62769,-93.841281,4,1,0,70,0,0
62936,-93.5663281,4,1,0,70,0,0
63019,-93.4302733,4,1,0,70,0,0
63103,-93.2929816,4,1,0,70,0,0
63269,-93.0228502,4,1,0,70,0,0
63436,-92.7526654,4,1,0,70,0,0
63519,-92.6189649,4,1,0,70,0,0
63603,-92.4840455,4,1,0,70,0,0
63769,-92.2185717,4,1,0,70,0,0
63852,-92.0864055,4,1,0,70,0,0
63936,-91.9530321,4,1,0,70,0,0
63991,-91.8659133,4,1,0,70,0,0
64047,-91.7773801,4,1,0,70,0,0
64103,-91.6890173,4,1,0,70,0,0
64186,-91.5583635,4,1,0,70,0,0
64269,-91.4280816,4,1,0,70,0,0
64325,-91.3403898,4,1,0,70,0,0
64380,-91.2544275,4,1,0,70,0,0
64436,-91.1670684,4,1,0,70,0,0
64519,-91.0378969,4,1,0,70,0,0
64602,-90.9090909,4,1,0,70,0,0
64925,-95.2380952380952,4,1,0,70,0,0
84602,-95.2380952,4,1,0,70,0,0
84768,-95.8062314,4,1,0,70,0,0
84852,-96.0963126,4,1,0,70,0,0
84935,-96.384671,4,1,0,70,0,0
85102,-96.9701379,4,1,0,70,0,0
85186,-97.267321,4,1,0,70,0,0
85269,-97.5627607,4,1,0,70,0,0
85325,-97.7631096,4,1,0,70,0,0
85380,-97.9606834,4,1,0,70,0,0
85435,-98.1590574,4,1,0,70,0,0
85518,-98.4599476,4,1,0,70,0,0
85602,-98.7663468,4,1,0,70,0,0
85658,-98.9716746,4,1,0,70,0,0
85714,-99.177858,4,1,0,70,0,0
85768,-99.3774928,4,1,0,70,0,0
85852,-99.6896384,4,1,0,70,0,0
85935,-100,4,1,0,70,0,0
91279,-83.3333333333333,4,1,0,70,0,0
96612,-100,4,1,0,70,0,0
104592,-95.2380952380952,4,1,0,70,0,0
124602,-95.2380952,4,1,0,70,0,0
124768,-95.8058029,4,1,0,70,0,0
124852,-96.0956634,4,1,0,70,0,0
124936,-96.3872832,4,1,0,70,0,0
125103,-96.9723403,4,1,0,70,0,0
125187,-97.2693135,4,1,0,70,0,0
125270,-97.5645433,4,1,0,70,0,0
125326,-97.764749,4,1,0,70,0,0
125381,-97.962181,4,1,0,70,0,0
125436,-98.1604121,4,1,0,70,0,0
125519,-98.4610843,4,1,0,70,0,0
125603,-98.7672602,4,1,0,70,0,0
125659,-98.9724376,4,1,0,70,0,0
125715,-99.1784692,4,1,0,70,0,0
125769,-99.3779566,4,1,0,70,0,0
125853,-99.6898703,4,1,0,70,0,0
125936,-100,4,1,0,70,0,0
131269,-100,4,1,0,70,0,0
131436,-99.687833,4,1,0,70,0,0
131602,-99.3794607,4,1,0,70,0,0
131769,-99.0711499,4,1,0,70,0,0
131852,-98.9186282,4,1,0,70,0,0
131936,-98.7647462,4,1,0,70,0,0
132102,-98.4620497,4,1,0,70,0,0
132269,-98.1593963,4,1,0,70,0,0
132436,-97.8585977,4,1,0,70,0,0
132519,-97.7097838,4,1,0,70,0,0
132602,-97.5614218,4,1,0,70,0,0
132769,-97.2642714,4,1,0,70,0,0
132936,-96.9689256,4,1,0,70,0,0
133102,-96.6771205,4,1,0,70,0,0
133186,-96.5301283,4,1,0,70,0,0
133269,-96.3853244,4,1,0,70,0,0
133436,-96.0952844,4,1,0,70,0,0
133602,-95.808706,4,1,0,70,0,0
133769,-95.5221207,4,1,0,70,0,0
133852,-95.380323,4,1,0,70,0,0
133936,-95.2372449,4,1,0,70,0,0
133991,-95.143795,4,1,0,70,0,0
134047,-95.0488344,4,1,0,70,0,0
134102,-94.9557538,4,1,0,70,0,0
134186,-94.8139456,4,1,0,70,0,0
134269,-94.6742411,4,1,0,70,0,0
134325,-94.5802149,4,1,0,70,0,0
134380,-94.4880495,4,1,0,70,0,0
134436,-94.3943926,4,1,0,70,0,0
134519,-94.2559208,4,1,0,70,0,0
134602,-94.1178547,4,1,0,70,0,0
134658,-94.0249299,4,1,0,70,0,0
134714,-93.9321885,4,1,0,70,0,0
134769,-93.841281,4,1,0,70,0,0
134852,-93.7044261,4,1,0,70,0,0
134936,-93.5663281,4,1,0,70,0,0
135019,-93.4302733,4,1,0,70,0,0
135102,-93.2946136,4,1,0,70,0,0
135269,-93.0228502,4,1,0,70,0,0
135602,-92.4856494,4,1,0,70,0,0
135686,-92.3511178,4,1,0,70,0,0
135936,-91.9530321,4,1,0,70,0,0
136102,-91.6905937,4,1,0,70,0,0
136158,-91.6023978,4,1,0,70,0,0
136214,-91.5143715,4,1,0,70,0,0
136269,-91.4280816,4,1,0,70,0,0
136436,-91.1670684,4,1,0,70,0,0
136519,-91.0378969,4,1,0,70,0,0
136602,-90.9090909,4,1,0,70,0,0
137092,-125,4,1,0,70,0,0
138936,-125,4,1,0,70,0,0
138991,-120.0432588,4,1,0,70,0,0
139047,-115.3846154,4,1,0,70,0,0
139102,-111.1481976,4,1,0,70,0,0
139158,-107.1428571,4,1,0,70,0,0
139214,-103.4161491,4,1,0,70,0,0
139269,-100,4,1,0,70,0,0
155269,-100,4,1,0,70,0,0
155436,-99.5324792,4,1,0,70,0,0
155602,-99.0720701,4,1,0,70,0,0
155769,-98.6131657,4,1,0,70,0,0
155852,-98.3866653,4,1,0,70,0,0
155936,-98.1584929,4,1,0,70,0,0
156102,-97.7106789,4,1,0,70,0,0
156269,-97.2642714,4,1,0,70,0,0
156352,-97.0439182,4,1,0,70,0,0
156436,-96.8219243,4,1,0,70,0,0
156519,-96.6035685,4,1,0,70,0,0
156602,-96.3861954,4,1,0,70,0,0
156769,-95.9517812,4,1,0,70,0,0
156852,-95.7373282,4,1,0,70,0,0
156936,-95.5212653,4,1,0,70,0,0
157102,-95.0971389,4,1,0,70,0,0
157186,-94.8839526,4,1,0,70,0,0
157269,-94.6742411,4,1,0,70,0,0
157436,-94.2550879,4,1,0,70,0,0
157602,-93.8421067,4,1,0,70,0,0
157769,-93.4302733,4,1,0,70,0,0
157852,-93.2269314,4,1,0,70,0,0
157936,-93.0220389,4,1,0,70,0,0
158019,-92.8204682,4,1,0,70,0,0
158102,-92.6197692,4,1,0,70,0,0
158186,-92.4175339,4,1,0,70,0,0
158269,-92.2185717,4,1,0,70,0,0
158352,-92.0204643,4,1,0,70,0,0
158436,-91.8208349,4,1,0,70,0,0
158519,-91.6244309,4,1,0,70,0,0
158602,-91.4288653,4,1,0,70,0,0
158686,-91.2317917,4,1,0,70,0,0
158769,-91.0378969,4,1,0,70,0,0
158852,-90.8448245,4,1,0,70,0,0
158936,-90.6502579,4,1,0,70,0,0
159019,-90.4588245,4,1,0,70,0,0
159102,-90.2681979,4,1,0,70,0,0
159186,-90.0760909,4,1,0,70,0,0
159269,-89.8870723,4,1,0,70,0,0
159352,-89.6988453,4,1,0,70,0,0
159436,-89.5091515,4,1,0,70,0,0
159519,-89.3225023,4,1,0,70,0,0
159602,-89.1366299,4,1,0,70,0,0
159686,-88.9493041,4,1,0,70,0,0
159769,-88.76498,4,1,0,70,0,0
159852,-88.5814183,4,1,0,70,0,0
159936,-88.3964164,4,1,0,70,0,0
160019,-88.2143743,4,1,0,70,0,0
160102,-88.0330805,4,1,0,70,0,0
160186,-87.8503595,4,1,0,70,0,0
160269,-87.6705573,4,1,0,70,0,0
160352,-87.4914896,4,1,0,70,0,0
160436,-87.3110076,4,1,0,70,0,0
160519,-87.1334041,4,1,0,70,0,0
160602,-86.9565217,4,1,0,70,0,0
163258,-100,4,1,0,70,0,0
185092,-125,4,1,0,70,0,0
189936,-100,4,1,0,70,0,0
190269,-99.0720701,4,1,0,70,0,0
190436,-98.6131657,4,1,0,70,0,0
190519,-98.3866653,4,1,0,70,0,0
190602,-98.161203,4,1,0,70,0,0
190769,-97.7106789,4,1,0,70,0,0
190936,-97.2642714,4,1,0,70,0,0
191102,-96.8245611,4,1,0,70,0,0
191186,-96.6035685,4,1,0,70,0,0
191269,-96.3861954,4,1,0,70,0,0
191436,-95.9517812,4,1,0,70,0,0
191602,-95.5238317,4,1,0,70,0,0
191769,-95.0971389,4,1,0,70,0,0
191852,-94.8864849,4,1,0,70,0,0
191936,-94.6742411,4,1,0,70,0,0
192019,-94.4654545,4,1,0,70,0,0
192102,-94.2575867,4,1,0,70,0,0
192269,-93.8421067,4,1,0,70,0,0
192352,-93.6369702,4,1,0,70,0,0
192436,-93.4302733,4,1,0,70,0,0
192602,-93.0244728,4,1,0,70,0,0
192936,-92.2185717,4,1,0,70,0,0
193269,-91.4288653,4,1,0,70,0,0
193602,-90.6525693,4,1,0,70,0,0
193936,-89.8870723,4,1,0,70,0,0
194102,-89.511405,4,1,0,70,0,0
194269,-89.1366299,4,1,0,70,0,0
194436,-88.76498,4,1,0,70,0,0
194602,-88.3986143,4,1,0,70,0,0
194686,-88.2143743,4,1,0,70,0,0
194769,-88.0330805,4,1,0,70,0,0
194852,-87.8525303,4,1,0,70,0,0
194936,-87.6705573,4,1,0,70,0,0
194991,-87.5518161,4,1,0,70,0,0
195047,-87.4312461,4,1,0,70,0,0
195102,-87.3131518,4,1,0,70,0,0
195158,-87.1932377,4,1,0,70,0,0
195214,-87.0736526,4,1,0,70,0,0
195269,-86.9565217391304,4,1,0,70,0,0
196612,-86.9565217391304,4,1,0,80,0,1
217946,-86.9565217391304,4,1,0,70,0,0
218258,-90.9090909090909,4,1,0,70,0,0
237936,-90.9090909,4,1,0,70,0,0
238102,-91.9492694,4,1,0,70,0,0
238186,-92.4847476,4,1,0,70,0,0
238270,-93.0264993,4,1,0,70,0,0
238437,-94.1226275,4,1,0,70,0,0
238519,-94.670357,4,1,0,70,0,0
238602,-95.2312964,4,1,0,70,0,0
238658,-95.6135321,4,1,0,70,0,0
238714,-95.9988486,4,1,0,70,0,0
238769,-96.3803193,4,1,0,70,0,0
238852,-96.9617677,4,1,0,70,0,0
238936,-97.5574082,4,1,0,70,0,0
238991,-97.9513914,4,1,0,70,0,0
239047,-98.355821,4,1,0,70,0,0
239102,-98.7562926,4,1,0,70,0,0
239186,-99.3742551,4,1,0,70,0,0
239270,-100,4,1,0,70,0,0
239279,338.983050847457,5,1,0,70,1,0
239438,-100.2795318,5,1,0,70,0,0
239777,-100.8483723,5,1,0,70,0,0
239946,-101.1343709,5,1,0,70,0,0
240116,-101.4237031,5,1,0,70,0,0
240455,-102.0056361,5,1,0,70,0,0
240642,346.820809248555,4,1,0,70,1,0
240642,-100,4,1,0,70,0,0
240805,-101.1764706,4,1,0,70,0,0
240986,355.029585798816,4,1,0,70,1,8
241153,-100.9931824,4,1,0,70,0,0
241331,-102.0120724,4,1,0,70,0,0
241508,-103.0458306,4,1,0,70,0,0
241686,-104.1067762,4,1,0,70,0,0
241863,-105.1836484,4,1,0,70,0,0
242051,377.358490566037,4,1,0,70,1,0
242135,-100.0391933,4,1,0,70,0,0
242229,-100.0784173,4,1,0,70,0,0
242324,-100.1180899,4,1,0,70,0,0
242418,-100.1573758,4,1,0,70,0,0
242512,-100.1966926,4,1,0,70,0,0
242607,-100.236459,4,1,0,70,0,0
242701,-100.2758379,4,1,0,70,0,0
242795,-100.3152477,4,1,0,70,0,0
242890,-100.3551083,4,1,0,70,0,0
242984,-100.3945805,4,1,0,70,0,0
243078,-100.4340837,4,1,0,70,0,0
243173,-100.4740388,4,1,0,70,0,0
243267,-100.5136047,4,1,0,70,0,0
243361,-100.5532017,4,1,0,70,0,0
243456,-100.5932516,4,1,0,70,0,0
243560,379.746835443037,4,1,0,70,1,0
243939,382.165605095541,4,1,0,70,1,8
244024,-100.8047029,4,1,0,70,0,0
244318,394.736842105263,4,1,0,70,1,8
244357,-100.0817825,4,1,0,70,0,0
244406,-100.1636989,4,1,0,70,0,0
244505,-100.3296133,4,1,0,70,0,0
244604,-100.4960783,4,1,0,70,0,0
244702,-100.6614067,4,1,0,70,0,0
245107,399.999999999999,4,1,0,70,1,0
270706,333.333333333333,4,1,0,70,1,0
278696,-100,4,1,0,70,0,0
278862,-99.5867151,4,1,0,70,0,0
279029,-99.1743733,4,1,0,70,0,0
279196,-98.7654321,4,1,0,70,0,0
279279,-98.5634379,4,1,0,70,0,0
279362,-98.3622682,4,1,0,70,0,0
279529,-97.9599833,4,1,0,70,0,0
279696,-97.5609756,4,1,0,70,0,0
279779,-97.3638731,4,1,0,70,0,0
279862,-97.1675655,4,1,0,70,0,0
279946,-96.969697,4,1,0,70,0,0
280029,-96.774974,4,1,0,70,0,0
280196,-96.3855422,4,1,0,70,0,0
280362,-96.001536,4,1,0,70,0,0
280529,-95.6182918,4,1,0,70,0,0
280612,-95.4289531,4,1,0,70,0,0
280696,-95.2380952,4,1,0,70,0,0
280862,-94.8631599,4,1,0,70,0,0
281029,-94.488933,4,1,0,70,0,0
281196,-94.1176471,4,1,0,70,0,0
281279,-93.9341991,4,1,0,70,0,0
281362,-93.7514649,4,1,0,70,0,0
281418,-93.6285754,4,1,0,70,0,0
281473,-93.5081937,4,1,0,70,0,0
281529,-93.3859407,4,1,0,70,0,0
281612,-93.2053313,4,1,0,70,0,0
281696,-93.0232558,4,1,0,70,0,0
281779,-92.8440452,4,1,0,70,0,0
281862,-92.6655238,4,1,0,70,0,0
281946,-92.4855491,4,1,0,70,0,0
282029,-92.3084024,4,1,0,70,0,0
282112,-92.1319329,4,1,0,70,0,0
282196,-91.954023,4,1,0,70,0,0
282279,-91.7789046,4,1,0,70,0,0
282362,-91.604452,4,1,0,70,0,0
282446,-91.4285714,4,1,0,70,0,0
282529,-91.2554468,4,1,0,70,0,0
282612,-91.0829766,4,1,0,70,0,0
282696,-90.9090909,4,1,0,70,0,0
284018,-100,4,1,0,70,0,0
300029,-100,4,1,0,70,0,0
300362,-98.7665753,4,1,0,70,0,0
300529,-98.1593963,4,1,0,70,0,0
300612,-97.8603934,4,1,0,70,0,0
300695,-97.5632066,4,1,0,70,0,0
300862,-96.9706888,4,1,0,70,0,0
301029,-96.3853244,4,1,0,70,0,0
301112,-96.097016,4,1,0,70,0,0
301195,-95.8104272,4,1,0,70,0,0
301362,-95.2389456,4,1,0,70,0,0
301529,-94.6742411,4,1,0,70,0,0
301612,-94.3960634,4,1,0,70,0,0
301695,-94.1195157,4,1,0,70,0,0
301862,-93.5679697,4,1,0,70,0,0
301945,-93.2962458,4,1,0,70,0,0
302029,-93.0228502,4,1,0,70,0,0
302112,-92.7542786,4,1,0,70,0,0
302195,-92.4872533,4,1,0,70,0,0
302279,-92.2185717,4,1,0,70,0,0
302362,-91.9546176,4,1,0,70,0,0
302529,-91.4280816,4,1,0,70,0,0
302695,-90.9106406,4,1,0,70,0,0
303029,-89.8870723,4,1,0,70,0,0
303362,-88.8892593,4,1,0,70,0,0
303695,-87.913356,4,1,0,70,0,0
304028,-86.9586486,4,1,0,70,0,0
304195,-86.4876261,4,1,0,70,0,0
304362,-86.0216788,4,1,0,70,0,0
304529,-85.5607252,4,1,0,70,0,0
304695,-85.1074016,4,1,0,70,0,0
304779,-84.8798345,4,1,0,70,0,0
304862,-84.6561686,4,1,0,70,0,0
304945,-84.4336785,4,1,0,70,0,0
305029,-84.2096952,4,1,0,70,0,0
305084,-84.0636822,4,1,0,70,0,0
305140,-83.9155337,4,1,0,70,0,0
305195,-83.7705382,4,1,0,70,0,0
305251,-83.6234202,4,1,0,70,0,0
305307,-83.4768181,4,1,0,70,0,0
305362,-83.3333333333333,4,1,0,70,0,0
306705,-83.3333333333333,4,1,0,80,0,1
328039,-83.3333333333333,4,1,0,70,0,0
328351,-90.9090909090909,4,1,0,70,0,0
348029,-90.9090909,4,1,0,70,0,0
348195,-91.9500586,4,1,0,70,0,0
348279,-92.4859502,4,1,0,70,0,0
348363,-93.0281248,4,1,0,70,0,0
348530,-94.1251236,4,1,0,70,0,0
348612,-94.6732955,4,1,0,70,0,0
348695,-95.2346931,4,1,0,70,0,0
348751,-95.6172441,4,1,0,70,0,0
348807,-96.0028808,4,1,0,70,0,0
348862,-96.384671,4,1,0,70,0,0
348945,-96.9666109,4,1,0,70,0,0
349029,-97.5627607,4,1,0,70,0,0
349084,-97.9570841,4,1,0,70,0,0
349140,-98.3618654,4,1,0,70,0,0
349195,-98.762688,4,1,0,70,0,0
349279,-99.3811973,4,1,0,70,0,0
349362,-100,4,1,0,70,0,0
365362,-100,4,1,0,70,0,0
365612,-99.7661585,4,1,0,70,0,0
365696,-99.687833,4,1,0,70,0,0
365862,-99.533408,4,1,0,70,0,0
366029,-99.3785348,4,1,0,70,0,0
366112,-99.301741,4,1,0,70,0,0
366196,-99.2241427,4,1,0,70,0,0
366279,-99.1475873,4,1,0,70,0,0
366362,-99.0711499,4,1,0,70,0,0
366529,-98.9177108,4,1,0,70,0,0
366696,-98.7647462,4,1,0,70,0,0
366862,-98.6131657,4,1,0,70,0,0
366946,-98.5366394,4,1,0,70,0,0
367029,-98.4611408,4,1,0,70,0,0
367196,-98.3095839,4,1,0,70,0,0
367362,-98.1593963,4,1,0,70,0,0
367445,-98.0844744,4,1,0,70,0,0
367529,-98.0087662,4,1,0,70,0,0
367612,-97.934074,4,1,0,70,0,0
367696,-97.8585977,4,1,0,70,0,0
367862,-97.7097838,4,1,0,70,0,0
368029,-97.5605294,4,1,0,70,0,0
368195,-97.41262,4,1,0,70,0,0
368279,-97.337945,4,1,0,70,0,0
368362,-97.2642714,4,1,0,70,0,0
368529,-97.1163739,4,1,0,70,0,0
368696,-96.9689256,4,1,0,70,0,0
368779,-96.8958093,4,1,0,70,0,0
368862,-96.8228032,4,1,0,70,0,0
369029,-96.6762443,4,1,0,70,0,0
369112,-96.6035685,4,1,0,70,0,0
369196,-96.5301283,4,1,0,70,0,0
369362,-96.3853244,4,1,0,70,0,0
369529,-96.2400859,4,1,0,70,0,0
369612,-96.1680642,4,1,0,70,0,0
369696,-96.0952844,4,1,0,70,0,0
369862,-95.9517812,4,1,0,70,0,0
369945,-95.8801902,4,1,0,70,0,0
370029,-95.8078454,4,1,0,70,0,0
370084,-95.7605358,4,1,0,70,0,0
370140,-95.7124141,4,1,0,70,0,0
370196,-95.6643407,4,1,0,70,0,0
370279,-95.5931778,4,1,0,70,0,0
370362,-95.5221207,4,1,0,70,0,0
370418,-95.4742382,4,1,0,70,0,0
370473,-95.4272575,4,1,0,70,0,0
370529,-95.3794701,4,1,0,70,0,0
370612,-95.3087302,4,1,0,70,0,0
370695,-95.2380952,4,1,0,70,0,0
371018,-100,4,1,0,70,0,0

[HitObjects]
209,211,613,5,4,0:0:0:0:
90,131,946,1,8,0:0:0:0:
90,131,1112,1,0,0:0:0:0:
90,131,1446,1,0,0:0:0:0:
90,131,1612,1,8,0:0:0:0:
90,131,1946,1,0,0:0:0:0:
90,131,2279,1,8,0:0:0:0:
90,131,2446,1,0,0:0:0:0:
231,153,2779,1,0,0:0:0:0:
231,153,2946,1,8,0:0:0:0:
231,153,3112,1,0,0:0:0:0:
231,153,3279,1,0,0:0:0:0:
231,153,3612,1,8,0:0:0:0:
231,153,3779,1,0,0:0:0:0:
124,148,4112,1,0,0:0:0:0:
124,148,4279,1,8,0:0:0:0:
124,148,4612,1,0,0:0:0:0:
124,148,4946,1,8,0:0:0:0:
124,148,5112,1,0,0:0:0:0:
61,129,5446,1,0,0:0:0:0:
61,129,5612,1,8,0:0:0:0:
61,129,5779,1,0,0:0:0:0:
61,129,5946,1,0,0:0:0:0:
142,240,6279,1,8,0:0:0:0:
142,240,6446,1,0,0:0:0:0:
177,115,6779,1,0,0:0:0:0:
142,240,6946,1,8,0:0:0:0:
211,107,7279,1,0,0:0:0:0:
211,107,7612,1,8,0:0:0:0:
211,107,7779,1,0,0:0:0:0:
211,107,8112,1,0,0:0:0:0:
211,107,8279,1,8,0:0:0:0:
211,107,8446,1,0,0:0:0:0:
211,107,8612,1,0,0:0:0:0:
211,107,8946,1,8,0:0:0:0:
211,107,9112,1,0,0:0:0:0:
211,107,9446,1,0,0:0:0:0:
211,107,9612,1,8,0:0:0:0:
211,107,9946,1,0,0:0:0:0:
211,107,10279,1,8,0:0:0:0:
211,107,10446,1,0,0:0:0:0:
108,158,10612,1,8,0:0:0:0:
108,158,10696,1,8,0:0:0:0:
211,107,10779,1,0,0:0:0:0:
101,156,10862,1,0,0:0:0:0:
95,165,10946,1,8,0:0:0:0:
95,165,11029,1,8,0:0:0:0:
95,165,11112,1,0,0:0:0:0:
95,165,11196,1,8,0:0:0:0:
95,165,11279,1,4,0:0:0:0:
227,89,11612,1,8,0:0:0:0:
227,89,11779,1,0,0:0:0:0:
227,89,12112,1,0,0:0:0:0:
227,89,12279,1,8,0:0:0:0:
227,89,12612,1,0,0:0:0:0:
227,89,12779,1,0,0:0:0:0:
227,89,12946,1,8,0:0:0:0:
227,89,13112,1,0,0:0:0:0:
227,89,13446,1,0,0:0:0:0:
227,89,13612,1,8,0:0:0:0:
227,89,13779,1,0,0:0:0:0:
227,89,13946,1,0,0:0:0:0:
227,89,14279,1,8,0:0:0:0:
227,89,14446,1,0,0:0:0:0:
227,89,14779,1,0,0:0:0:0:
227,89,14946,1,8,0:0:0:0:
227,89,15279,1,0,0:0:0:0:
227,89,15446,1,0,0:0:0:0:
227,89,15612,1,8,0:0:0:0:
227,89,15779,1,0,0:0:0:0:
227,89,16112,1,0,0:0:0:0:
227,89,16279,1,8,0:0:0:0:
227,89,16446,1,8,0:0:0:0:
227,89,16612,1,4,0:0:0:0:
227,89,16946,1,8,0:0:0:0:
227,89,17112,1,0,0:0:0:0:
227,89,17446,1,0,0:0:0:0:
227,89,17612,1,8,0:0:0:0:
227,89,17946,1,0,0:0:0:0:
227,89,18112,1,0,0:0:0:0:
227,89,18279,1,8,0:0:0:0:
227,89,18446,1,0,0:0:0:0:
227,89,18779,1,0,0:0:0:0:
227,89,18946,1,8,0:0:0:0:
227,89,19279,1,4,0:0:0:0:
120,163,19446,1,0,0:0:0:0:
227,89,19612,1,8,0:0:0:0:
310,151,19946,1,0,0:0:0:0:
310,151,20112,1,0,0:0:0:0:
310,151,20279,1,8,0:0:0:0:
224,257,20612,1,0,0:0:0:0:
224,257,20779,1,0,0:0:0:0:
224,257,20862,1,0,0:0:0:0:
224,257,20946,1,8,0:0:0:0:
224,257,21112,1,0,0:0:0:0:
224,257,21196,1,0,0:0:0:0:
224,257,21279,1,8,0:0:0:0:
231,247,21446,1,8,0:0:0:0:
231,247,21529,1,0,0:0:0:0:
231,247,21612,1,8,0:0:0:0:
248,149,21946,1,4,0:0:0:0:
289,237,22279,1,8,0:0:0:0:
289,237,22446,1,0,0:0:0:0:
289,237,22779,1,0,0:0:0:0:
289,237,22946,1,8,0:0:0:0:
289,237,23112,1,8,0:0:0:0:
289,237,23279,1,0,0:0:0:0:
289,237,23362,1,0,0:0:0:0:
289,237,23446,1,0,0:0:0:0:
355,161,23612,1,8,0:0:0:0:
355,161,23779,1,0,0:0:0:0:
355,161,24112,1,0,0:0:0:0:
355,161,24279,1,8,0:0:0:0:
355,161,24446,1,8,0:0:0:0:
152,112,24612,1,0,0:0:0:0:
152,112,24946,1,8,0:0:0:0:
152,112,25112,1,0,0:0:0:0:
171,173,25446,1,0,0:0:0:0:
171,173,25612,1,8,0:0:0:0:
171,173,25779,1,0,0:0:0:0:
171,173,25946,1,0,0:0:0:0:
171,173,26029,1,0,0:0:0:0:
171,173,26112,1,0,0:0:0:0:
171,173,26279,1,8,0:0:0:0:
171,173,26446,1,0,0:0:0:0:
171,173,26779,1,0,0:0:0:0:
171,173,26946,1,8,0:0:0:0:
171,173,27112,1,0,0:0:0:0:
171,173,27279,1,0,0:0:0:0:
303,170,27612,1,8,0:0:0:0:
303,170,27779,1,0,0:0:0:0:
303,170,28112,1,0,0:0:0:0:
303,170,28279,1,8,0:0:0:0:
297,148,28446,1,8,0:0:0:0:
303,170,28612,1,0,0:0:0:0:
303,170,28779,1,0,0:0:0:0:
303,170,28946,1,8,0:0:0:0:
303,170,29112,1,0,0:0:0:0:
303,170,29446,1,0,0:0:0:0:
303,170,29612,1,8,0:0:0:0:
303,170,29779,1,0,0:0:0:0:
303,170,29946,1,0,0:0:0:0:
303,170,30279,1,8,0:0:0:0:
303,170,30446,1,0,0:0:0:0:
76,151,30779,1,0,0:0:0:0:
76,151,30946,1,8,0:0:0:0:
76,151,31112,1,0,0:0:0:0:
76,151,31279,1,0,0:0:0:0:
76,151,31446,1,0,0:0:0:0:
123,133,31529,1,0,0:0:0:0:
76,151,31612,1,8,0:0:0:0:
76,151,31779,1,0,0:0:0:0:
221,250,31946,1,8,0:0:0:0:
221,250,32112,1,8,0:0:0:0:
221,250,32196,1,0,0:0:0:0:
221,250,32279,1,8,0:0:0:0:
221,250,32446,1,8,0:0:0:0:
246,139,32612,1,4,0:0:0:0:
258,236,32946,1,8,0:0:0:0:
258,236,33112,1,8,0:0:0:0:
258,236,33279,1,0,0:0:0:0:
258,236,33612,1,8,0:0:0:0:
258,236,33946,1,0,0:0:0:0:
258,236,34112,1,8,0:0:0:0:
258,236,34446,1,8,0:0:0:0:
258,236,34612,1,0,0:0:0:0:
219,79,34779,1,0,0:0:0:0:
263,235,34946,1,8,0:0:0:0:
263,235,35279,1,0,0:0:0:0:
263,235,35612,1,8,0:0:0:0:
263,235,35779,1,8,0:0:0:0:
263,235,35946,1,0,0:0:0:0:
263,235,36279,1,8,0:0:0:0:
188,92,36446,1,8,0:0:0:0:
263,235,36612,1,0,0:0:0:0:
263,235,36779,1,8,0:0:0:0:
263,235,37112,1,8,0:0:0:0:
263,235,37279,1,0,0:0:0:0:
263,235,37446,1,0,0:0:0:0:
269,233,37612,1,8,0:0:0:0:
269,232,37779,1,8,0:0:0:0:
269,232,37946,1,4,0:0:0:0:
271,232,38279,1,8,0:0:0:0:
271,232,38446,1,0,0:0:0:0:
275,231,38779,1,0,0:0:0:0:
275,231,38946,1,8,0:0:0:0:
271,232,39112,1,0,0:0:0:0:
271,232,39279,1,0,0:0:0:0:
196,112,39612,1,8,0:0:0:0:
196,112,39779,1,0,0:0:0:0:
196,112,40112,1,0,0:0:0:0:
196,112,40279,1,8,0:0:0:0:
196,112,40446,1,8,0:0:0:0:
196,112,40612,1,4,0:0:0:0:
379,159,40946,1,8,0:0:0:0:
379,159,41112,1,0,0:0:0:0:
379,159,41279,1,0,0:0:0:0:
379,159,41446,1,0,0:0:0:0:
379,159,41612,1,8,0:0:0:0:
379,159,41779,1,0,0:0:0:0:
379,159,41946,1,8,0:0:0:0:
181,188,42112,1,0,0:0:0:0:
181,188,42196,1,0,0:0:0:0:
181,188,42279,1,8,0:0:0:0:
111,91,42362,1,0,0:0:0:0:
171,188,42446,1,0,0:0:0:0:
171,188,42529,1,0,0:0:0:0:
171,188,42612,1,8,0:0:0:0:
171,188,42779,1,8,0:0:0:0:
171,188,42862,1,0,0:0:0:0:
171,188,42946,1,8,0:0:0:0:
106,85,43112,1,0,0:0:0:0:
171,188,43196,1,0,0:0:0:0:
171,188,43279,1,12,0:0:0:0:
329,115,43529,1,8,0:0:0:0:
329,115,43612,1,0,0:0:0:0:
329,115,43779,1,0,0:0:0:0:
329,115,43946,1,8,0:0:0:0:
329,115,44112,1,0,0:0:0:0:
105,125,44196,1,0,0:0:0:0:
329,115,44279,1,8,0:0:0:0:
329,115,44446,1,0,0:0:0:0:
329,115,44612,1,8,0:0:0:0:
201,253,44696,1,8,0:0:0:0:
201,253,44779,1,0,0:0:0:0:
201,253,44862,1,0,0:0:0:0:
201,253,44946,1,8,0:0:0:0:
201,253,45112,1,0,0:0:0:0:
201,253,45279,1,8,0:0:0:0:
155,128,45446,1,0,0:0:0:0:
201,253,45529,1,8,0:0:0:0:
201,253,45612,1,8,0:0:0:0:
371,231,45946,1,8,0:0:0:0:
371,231,46112,1,0,0:0:0:0:
371,231,46196,1,0,0:0:0:0:
370,236,46279,1,8,0:0:0:0:
370,236,46446,1,8,0:0:0:0:
370,236,46612,1,0,0:0:0:0:
370,236,46696,1,0,0:0:0:0:
116,72,46779,1,0,0:0:0:0:
385,224,46862,1,8,0:0:0:0:
385,224,46946,1,0,0:0:0:0:
385,224,47112,1,0,0:0:0:0:
385,224,47279,1,8,0:0:0:0:
194,186,47362,1,8,0:0:0:0:
194,186,47446,1,0,0:0:0:0:
229,208,47529,1,8,0:0:0:0:
229,208,47612,1,8,0:0:0:0:
229,208,47696,1,0,0:0:0:0:
229,208,47779,1,0,0:0:0:0:
229,208,47946,1,8,0:0:0:0:
229,208,48112,1,0,0:0:0:0:
229,208,48196,1,0,0:0:0:0:
229,208,48279,1,8,0:0:0:0:
148,95,48362,1,0,0:0:0:0:
229,208,48446,1,8,0:0:0:0:
229,208,48612,1,0,0:0:0:0:
316,88,48862,1,8,0:0:0:0:
316,88,48946,1,0,0:0:0:0:
316,88,49112,1,0,0:0:0:0:
316,88,49279,1,8,0:0:0:0:
316,88,49446,1,0,0:0:0:0:
316,88,49529,1,0,0:0:0:0:
316,88,49612,1,8,0:0:0:0:
316,88,49779,1,0,0:0:0:0:
170,149,49946,1,8,0:0:0:0:
188,147,50029,1,0,0:0:0:0:
170,149,50112,1,8,0:0:0:0:
170,149,50196,1,8,0:0:0:0:
170,149,50279,1,0,0:0:0:0:
183,148,50446,1,0,0:0:0:0:
189,64,50612,1,8,0:0:0:0:
189,64,50696,1,8,0:0:0:0:
189,64,50779,1,8,0:0:0:0:
196,72,50946,1,0,0:0:0:0:
159,204,51279,1,8,0:0:0:0:
159,204,51446,1,0,0:0:0:0:
159,204,51529,1,0,0:0:0:0:
159,204,51612,1,8,0:0:0:0:
159,204,51779,1,8,0:0:0:0:
159,204,51946,1,0,0:0:0:0:
159,204,52029,1,0,0:0:0:0:
100,107,52112,1,8,0:0:0:0:
164,197,52196,1,8,0:0:0:0:
100,107,52279,1,0,0:0:0:0:
301,122,52446,1,0,0:0:0:0:
301,122,52612,1,8,0:0:0:0:
301,122,52696,1,8,0:0:0:0:
301,122,52779,1,8,0:0:0:0:
301,122,52862,1,0,0:0:0:0:
301,122,52946,1,8,0:0:0:0:
301,122,53112,1,0,0:0:0:0:
301,122,53279,1,8,0:0:0:0:
301,122,53446,1,0,0:0:0:0:
301,122,53529,1,0,0:0:0:0:
301,122,53612,1,8,0:0:0:0:
312,127,53779,1,0,0:0:0:0:
312,127,53946,1,12,0:0:0:0:
329,115,54196,1,8,0:0:0:0:
329,115,54279,1,0,0:0:0:0:
329,115,54446,1,0,0:0:0:0:
329,115,54613,1,8,0:0:0:0:
329,115,54779,1,0,0:0:0:0:
105,125,54863,1,0,0:0:0:0:
329,115,54946,1,8,0:0:0:0:
329,115,55113,1,0,0:0:0:0:
329,115,55279,1,8,0:0:0:0:
201,253,55363,1,8,0:0:0:0:
201,253,55446,1,0,0:0:0:0:
201,253,55529,1,0,0:0:0:0:
201,253,55613,1,8,0:0:0:0:
201,253,55779,1,0,0:0:0:0:
201,253,55946,1,8,0:0:0:0:
155,128,56113,1,0,0:0:0:0:
201,253,56196,1,8,0:0:0:0:
201,253,56279,1,8,0:0:0:0:
371,231,56613,1,8,0:0:0:0:
371,231,56779,1,0,0:0:0:0:
371,231,56863,1,0,0:0:0:0:
370,236,56946,1,8,0:0:0:0:
370,236,57113,1,8,0:0:0:0:
370,236,57279,1,0,0:0:0:0:
370,236,57363,1,0,0:0:0:0:
116,72,57446,1,0,0:0:0:0:
385,224,57529,1,8,0:0:0:0:
385,224,57613,1,0,0:0:0:0:
385,224,57779,1,0,0:0:0:0:
385,224,57946,1,8,0:0:0:0:
194,186,58029,1,8,0:0:0:0:
194,186,58113,1,0,0:0:0:0:
229,208,58196,1,8,0:0:0:0:
229,208,58279,1,8,0:0:0:0:
229,208,58363,1,0,0:0:0:0:
229,208,58446,1,0,0:0:0:0:
229,208,58613,1,8,0:0:0:0:
229,208,58779,1,0,0:0:0:0:
229,208,58863,1,0,0:0:0:0:
229,208,58946,1,8,0:0:0:0:
148,95,59029,1,0,0:0:0:0:
229,208,59113,1,8,0:0:0:0:
229,208,59279,1,4,0:0:0:0:
316,88,59529,1,8,0:0:0:0:
316,88,59613,1,0,0:0:0:0:
316,88,59779,1,0,0:0:0:0:
316,88,59946,1,8,0:0:0:0:
189,32,60029,1,0,0:0:0:0:
316,88,60113,1,8,0:0:0:0:
316,88,60196,1,8,0:0:0:0:
316,88,60279,1,0,0:0:0:0:
316,88,60446,1,0,0:0:0:0:
170,149,60613,1,8,0:0:0:0:
170,149,60779,1,0,0:0:0:0:
170,149,60863,1,8,0:0:0:0:
170,149,60946,1,8,0:0:0:0:
183,148,61113,1,8,0:0:0:0:
189,64,61279,1,0,0:0:0:0:
189,64,61362,1,0,0:0:0:0:
189,64,61446,1,8,0:0:0:0:
96,111,61529,1,0,0:0:0:0:
196,72,61613,1,8,0:0:0:0:
96,111,61779,1,0,0:0:0:0:
159,204,61946,1,8,0:0:0:0:
159,204,62112,1,0,0:0:0:0:
159,204,62196,1,0,0:0:0:0:
159,204,62279,1,8,0:0:0:0:
159,204,62446,1,0,0:0:0:0:
159,204,62613,1,8,0:0:0:0:
159,204,62696,1,0,0:0:0:0:
100,107,62779,1,8,0:0:0:0:
100,107,62946,1,8,0:0:0:0:
164,197,63029,1,8,0:0:0:0:
301,122,63113,1,0,0:0:0:0:
301,122,63279,1,8,0:0:0:0:
301,122,63446,1,0,0:0:0:0:
301,122,63529,1,0,0:0:0:0:
301,122,63613,1,8,0:0:0:0:
301,122,63779,1,0,0:0:0:0:
445,133,63862,1,0,0:0:0:0:
301,122,63946,1,8,0:0:0:0:
178,50,64001,1,8,0:0:0:0:
178,50,64057,1,8,0:0:0:0:
301,122,64113,1,0,0:0:0:0:
301,122,64196,1,0,0:0:0:0:
301,122,64279,1,8,0:0:0:0:
194,32,64335,1,0,0:0:0:0:
194,32,64390,1,0,0:0:0:0:
312,127,64446,1,8,0:0:0:0:
231,51,64529,1,8,0:0:0:0:
312,127,64612,1,4,0:0:0:0:
298,227,64946,1,8,0:0:0:0:
298,227,65112,1,0,0:0:0:0:
302,225,65196,1,0,0:0:0:0:
225,263,65279,1,8,0:0:0:0:
125,165,65446,1,0,0:0:0:0:
179,271,65612,1,8,0:0:0:0:
13,167,65779,1,8,0:0:0:0:
13,167,65862,1,8,0:0:0:0:
88,92,65946,1,0,0:0:0:0:
13,167,66112,1,0,0:0:0:0:
160,198,66279,1,8,0:0:0:0:
160,198,66446,1,0,0:0:0:0:
160,198,66529,1,8,0:0:0:0:
147,82,66612,1,8,0:0:0:0:
160,198,66779,1,0,0:0:0:0:
160,198,66946,1,8,0:0:0:0:
160,198,67029,1,8,0:0:0:0:
160,198,67112,1,8,0:0:0:0:
160,198,67279,1,0,0:0:0:0:
326,144,67612,1,8,0:0:0:0:
330,139,67779,1,0,0:0:0:0:
330,138,67862,1,0,0:0:0:0:
326,144,67946,1,8,0:0:0:0:
326,144,68112,1,0,0:0:0:0:
326,144,68279,1,8,0:0:0:0:
326,144,68446,1,0,0:0:0:0:
320,140,68529,1,8,0:0:0:0:
320,140,68612,1,0,0:0:0:0:
320,140,68779,1,0,0:0:0:0:
320,140,68946,1,8,0:0:0:0:
320,140,69112,1,0,0:0:0:0:
320,140,69279,1,8,0:0:0:0:
323,138,69362,1,8,0:0:0:0:
138,147,69446,1,0,0:0:0:0:
325,138,69529,1,0,0:0:0:0:
325,138,69612,1,8,0:0:0:0:
12,128,69779,1,8,0:0:0:0:
12,128,69946,1,0,0:0:0:0:
187,243,70279,1,8,0:0:0:0:
187,243,70446,1,0,0:0:0:0:
187,237,70529,1,0,0:0:0:0:
186,237,70612,1,8,0:0:0:0:
178,236,70779,1,0,0:0:0:0:
178,236,70946,1,8,0:0:0:0:
178,231,71112,1,8,0:0:0:0:
178,227,71196,1,8,0:0:0:0:
178,225,71279,1,0,0:0:0:0:
178,224,71362,1,0,0:0:0:0:
178,224,71446,1,0,0:0:0:0:
178,224,71612,1,8,0:0:0:0:
169,72,71779,1,0,0:0:0:0:
178,224,71862,1,0,0:0:0:0:
178,224,71946,1,8,0:0:0:0:
52,175,72112,1,0,0:0:0:0:
207,151,72279,1,8,0:0:0:0:
207,151,72362,1,8,0:0:0:0:
207,151,72446,1,8,0:0:0:0:
207,151,72612,1,0,0:0:0:0:
254,192,72946,1,8,0:0:0:0:
254,192,73112,1,0,0:0:0:0:
255,187,73196,1,0,0:0:0:0:
255,186,73279,1,8,0:0:0:0:
236,177,73446,1,0,0:0:0:0:
236,177,73612,1,8,0:0:0:0:
236,176,73779,1,8,0:0:0:0:
236,170,73862,1,0,0:0:0:0:
216,174,73946,1,8,0:0:0:0:
216,174,74112,1,0,0:0:0:0:
126,94,74196,1,0,0:0:0:0:
216,174,74279,1,8,0:0:0:0:
136,199,74446,1,0,0:0:0:0:
309,214,74612,1,8,0:0:0:0:
309,214,74779,1,0,0:0:0:0:
166,119,74862,1,8,0:0:0:0:
309,214,74946,1,8,0:0:0:0:
304,215,75112,1,0,0:0:0:0:
304,215,75279,1,4,0:0:0:0:
298,227,75612,1,8,0:0:0:0:
298,227,75778,1,0,0:0:0:0:
302,225,75862,1,0,0:0:0:0:
225,263,75945,1,8,0:0:0:0:
125,165,76112,1,0,0:0:0:0:
179,271,76278,1,8,0:0:0:0:
13,167,76445,1,8,0:0:0:0:
13,167,76528,1,8,0:0:0:0:
88,92,76612,1,0,0:0:0:0:
13,167,76778,1,0,0:0:0:0:
160,198,76945,1,8,0:0:0:0:
160,198,77112,1,0,0:0:0:0:
160,198,77196,1,0,0:0:0:0:
147,82,77278,1,8,0:0:0:0:
365,234,77362,1,8,0:0:0:0:
160,198,77445,1,0,0:0:0:0:
160,198,77612,1,8,0:0:0:0:
160,198,77695,1,8,0:0:0:0:
160,198,77778,1,8,0:0:0:0:
160,198,77945,1,0,0:0:0:0:
326,144,78278,1,8,0:0:0:0:
330,139,78445,1,0,0:0:0:0:
330,138,78528,1,0,0:0:0:0:
326,144,78612,1,8,0:0:0:0:
326,144,78778,1,0,0:0:0:0:
326,144,78945,1,8,0:0:0:0:
326,144,79112,1,0,0:0:0:0:
320,140,79195,1,8,0:0:0:0:
320,140,79278,1,0,0:0:0:0:
320,140,79445,1,0,0:0:0:0:
320,140,79612,1,8,0:0:0:0:
320,140,79778,1,0,0:0:0:0:
320,140,79945,1,8,0:0:0:0:
323,138,80029,1,8,0:0:0:0:
184,50,80112,1,0,0:0:0:0:
325,138,80195,1,0,0:0:0:0:
325,138,80278,1,8,0:0:0:0:
12,128,80445,1,8,0:0:0:0:
12,128,80612,1,4,0:0:0:0:
187,243,80945,1,8,0:0:0:0:
187,243,81112,1,0,0:0:0:0:
187,237,81195,1,0,0:0:0:0:
186,237,81278,1,8,0:0:0:0:
178,236,81445,1,0,0:0:0:0:
178,236,81612,1,8,0:0:0:0:
326,206,81696,1,0,0:0:0:0:
178,231,81778,1,8,0:0:0:0:
178,227,81862,1,8,0:0:0:0:
178,225,81945,1,0,0:0:0:0:
178,224,82112,1,0,0:0:0:0:
178,224,82278,1,8,0:0:0:0:
169,72,82445,1,0,0:0:0:0:
178,224,82528,1,0,0:0:0:0:
178,224,82612,1,8,0:0:0:0:
52,175,82778,1,0,0:0:0:0:
207,151,82945,1,8,0:0:0:0:
207,151,83028,1,8,0:0:0:0:
207,151,83112,1,8,0:0:0:0:
207,151,83279,1,4,0:0:0:0:
254,192,83612,1,8,0:0:0:0:
254,192,83778,1,0,0:0:0:0:
255,187,83862,1,0,0:0:0:0:
255,186,83945,1,8,0:0:0:0:
236,177,84112,1,0,0:0:0:0:
236,177,84278,1,8,0:0:0:0:
236,176,84445,1,0,0:0:0:0:
216,174,84612,1,0,0:0:0:0:
216,174,84778,1,8,0:0:0:0:
126,94,84862,1,0,0:0:0:0:
216,174,84945,1,0,0:0:0:0:
136,199,85112,1,8,0:0:0:0:
309,214,85196,1,0,0:0:0:0:
83,53,85279,1,8,0:0:0:0:
129,38,85335,1,8,0:0:0:0:
129,38,85390,1,8,0:0:0:0:
309,214,85445,1,0,0:0:0:0:
166,119,85528,1,0,0:0:0:0:
309,214,85612,1,8,0:0:0:0:
226,85,85668,1,0,0:0:0:0:
226,85,85724,1,0,0:0:0:0:
304,215,85778,1,8,0:0:0:0:
322,252,85862,1,8,0:0:0:0:
304,215,85945,1,4,0:0:0:0:
83,215,86112,1,8,0:0:0:0:
83,215,86446,1,8,0:0:0:0:
83,215,86612,1,0,0:0:0:0:
83,215,86779,1,8,0:0:0:0:
83,215,87112,1,8,0:0:0:0:
83,215,87279,1,0,0:0:0:0:
83,215,87446,1,8,0:0:0:0:
210,188,87612,1,0,0:0:0:0:
210,188,87779,1,8,0:0:0:0:
210,188,87946,1,0,0:0:0:0:
210,188,88112,1,8,0:0:0:0:
210,188,88279,1,0,0:0:0:0:
210,188,88446,1,8,0:0:0:0:
262,203,88612,1,0,0:0:0:0:
262,203,88696,1,0,0:0:0:0:
271,201,88779,1,0,0:0:0:0:
271,201,88862,1,0,0:0:0:0:
271,201,88946,1,8,0:0:0:0:
271,201,89029,1,8,0:0:0:0:
271,201,89112,1,0,0:0:0:0:
271,201,89196,1,0,0:0:0:0:
271,201,89279,1,8,0:0:0:0:
271,201,89362,1,8,0:0:0:0:
271,201,89446,1,8,0:0:0:0:
271,201,89529,1,8,0:0:0:0:
271,201,89612,1,0,0:0:0:0:
271,201,89696,1,0,0:0:0:0:
271,201,89779,1,8,0:0:0:0:
271,201,89862,1,8,0:0:0:0:
364,113,89946,1,0,0:0:0:0:
323,154,90001,1,0,0:0:0:0:
323,154,90057,1,0,0:0:0:0:
323,154,90112,1,8,0:0:0:0:
185,105,90196,1,0,0:0:0:0:
185,105,90279,1,8,0:0:0:0:
166,149,90446,1,8,0:0:0:0:
57,107,90612,1,8,0:0:0:0:
54,102,90696,1,8,0:0:0:0:
57,107,90779,1,0,0:0:0:0:
57,107,90862,1,0,0:0:0:0:
57,107,90946,1,8,0:0:0:0:
141,235,91029,1,0,0:0:0:0:
141,235,91112,1,8,0:0:0:0:
236,235,91279,1,4,0:0:0:0:
151,162,91946,1,12,0:0:0:0:
151,162,92196,1,12,0:0:0:0:
151,162,92446,1,12,0:0:0:0:
169,141,92612,1,4,0:0:0:0:
300,268,93946,1,12,0:0:0:0:
300,268,94612,1,4,0:0:0:0:
300,268,94862,1,4,0:0:0:0:
300,268,95112,1,4,0:0:0:0:
300,268,95279,1,12,0:0:0:0:
256,192,95446,12,0,96446,0:0:0:0:
40,225,96612,5,4,0:0:0:0:
131,280,96946,1,8,0:0:0:0:
131,280,97279,1,0,0:0:0:0:
131,280,97612,1,8,0:0:0:0:
131,280,97946,1,0,0:0:0:0:
131,280,98279,1,0,0:0:0:0:
131,280,98612,1,8,0:0:0:0:
131,280,98946,1,8,0:0:0:0:
186,210,99279,1,0,0:0:0:0:
186,210,99446,1,8,0:0:0:0:
186,210,99612,1,0,0:0:0:0:
186,210,99779,1,0,0:0:0:0:
186,210,99946,1,8,0:0:0:0:
186,210,100112,1,0,0:0:0:0:
186,210,100279,1,8,0:0:0:0:
186,210,100446,1,8,0:0:0:0:
130,140,100612,1,0,0:0:0:0:
130,140,100696,1,0,0:0:0:0:
130,140,100779,1,8,0:0:0:0:
130,140,100862,1,0,0:0:0:0:
130,140,100946,1,8,0:0:0:0:
130,140,101029,1,8,0:0:0:0:
130,140,101112,1,0,0:0:0:0:
130,140,101196,1,0,0:0:0:0:
281,143,101279,1,8,0:0:0:0:
281,143,101335,1,8,0:0:0:0:
281,143,101390,1,8,0:0:0:0:
278,148,101446,1,0,0:0:0:0:
50,187,101529,1,0,0:0:0:0:
220,129,101612,1,8,0:0:0:0:
220,129,101668,1,0,0:0:0:0:
220,129,101724,1,0,0:0:0:0:
220,129,101779,1,8,0:0:0:0:
125,182,101862,1,8,0:0:0:0:
125,182,101946,1,4,0:0:0:0:
214,193,102279,1,8,0:0:0:0:
219,193,102446,1,0,0:0:0:0:
246,190,102612,1,8,0:0:0:0:
236,200,102779,1,8,0:0:0:0:
236,200,102946,1,0,0:0:0:0:
236,200,103112,1,8,0:0:0:0:
244,203,103279,1,0,0:0:0:0:
256,198,103446,1,8,0:0:0:0:
274,212,103529,1,8,0:0:0:0:
261,217,103612,1,0,0:0:0:0:
246,190,103779,1,0,0:0:0:0:
246,190,103862,1,8,0:0:0:0:
246,190,103946,1,0,0:0:0:0:
246,190,104112,1,0,0:0:0:0:
98,131,104196,1,0,0:0:0:0:
98,131,104279,1,8,0:0:0:0:
201,102,104612,1,4,0:0:0:0:
216,278,104946,1,8,0:0:0:0:
216,278,105112,1,0,0:0:0:0:
216,278,105196,1,0,0:0:0:0:
216,278,105279,1,0,0:0:0:0:
216,278,105446,1,0,0:0:0:0:
216,278,105612,1,8,0:0:0:0:
216,278,105779,1,8,0:0:0:0:
298,174,105862,1,8,0:0:0:0:
216,278,105946,1,0,0:0:0:0:
233,273,106112,1,0,0:0:0:0:
233,273,106279,1,8,0:0:0:0:
233,273,106446,1,0,0:0:0:0:
233,273,106529,1,0,0:0:0:0:
233,273,106696,1,8,0:0:0:0:
233,273,106779,1,0,0:0:0:0:
101,135,106946,1,8,0:0:0:0:
101,135,107112,1,0,0:0:0:0:
233,273,107196,1,8,0:0:0:0:
233,273,107279,1,0,0:0:0:0:
256,158,107612,1,8,0:0:0:0:
256,158,107779,1,8,0:0:0:0:
256,158,107862,1,8,0:0:0:0:
256,158,107946,1,0,0:0:0:0:
242,162,108112,1,0,0:0:0:0:
242,162,108279,1,8,0:0:0:0:
242,162,108446,1,0,0:0:0:0:
171,64,108529,1,8,0:0:0:0:
287,160,108612,1,8,0:0:0:0:
287,160,108779,1,0,0:0:0:0:
127,277,108946,1,8,0:0:0:0:
127,277,109112,1,0,0:0:0:0:
127,277,109196,1,0,0:0:0:0:
127,277,109279,1,8,0:0:0:0:
127,277,109362,1,8,0:0:0:0:
127,277,109446,1,0,0:0:0:0:
127,277,109612,1,8,0:0:0:0:
129,71,109696,1,8,0:0:0:0:
127,277,109779,1,8,0:0:0:0:
203,174,109946,1,0,0:0:0:0:
128,144,110279,1,8,0:0:0:0:
128,144,110446,1,0,0:0:0:0:
128,144,110529,1,0,0:0:0:0:
178,99,110612,1,0,0:0:0:0:
128,144,110779,1,0,0:0:0:0:
128,144,110946,1,8,0:0:0:0:
254,225,111029,1,8,0:0:0:0:
254,225,111112,1,0,0:0:0:0:
83,199,111279,1,8,0:0:0:0:
307,116,111446,1,0,0:0:0:0:
307,116,111529,1,0,0:0:0:0:
307,116,111612,1,8,0:0:0:0:
307,116,111779,1,0,0:0:0:0:
288,127,111862,1,8,0:0:0:0:
307,116,112029,1,8,0:0:0:0:
307,116,112112,1,0,0:0:0:0:
288,127,112279,1,8,0:0:0:0:
288,127,112446,1,0,0:0:0:0:
288,127,112529,1,0,0:0:0:0:
22,148,112612,1,0,0:0:0:0:
346,244,112946,1,8,0:0:0:0:
346,244,113112,1,8,0:0:0:0:
346,244,113196,1,8,0:0:0:0:
346,244,113279,1,0,0:0:0:0:
346,244,113446,1,0,0:0:0:0:
346,244,113612,1,8,0:0:0:0:
346,244,113696,1,0,0:0:0:0:
117,184,113779,1,8,0:0:0:0:
403,127,113862,1,8,0:0:0:0:
122,184,113946,1,0,0:0:0:0:
295,99,114112,1,0,0:0:0:0:
295,99,114196,1,0,0:0:0:0:
295,99,114279,1,8,0:0:0:0:
295,99,114446,1,0,0:0:0:0:
295,99,114612,1,8,0:0:0:0:
295,99,114779,1,8,0:0:0:0:
295,99,114862,1,0,0:0:0:0:
295,99,114946,1,8,0:0:0:0:
305,99,115112,1,8,0:0:0:0:
305,99,115279,1,4,0:0:0:0:
216,278,115612,1,8,0:0:0:0:
216,278,115778,1,0,0:0:0:0:
216,278,115862,1,0,0:0:0:0:
216,278,115945,1,0,0:0:0:0:
216,278,116112,1,0,0:0:0:0:
216,278,116278,1,8,0:0:0:0:
216,278,116445,1,8,0:0:0:0:
298,174,116528,1,8,0:0:0:0:
216,278,116612,1,0,0:0:0:0:
233,273,116778,1,0,0:0:0:0:
233,273,116945,1,8,0:0:0:0:
233,273,117112,1,0,0:0:0:0:
233,273,117195,1,0,0:0:0:0:
233,273,117362,1,8,0:0:0:0:
233,273,117445,1,0,0:0:0:0:
101,135,117612,1,8,0:0:0:0:
146,227,117696,1,8,0:0:0:0:
101,135,117778,1,8,0:0:0:0:
233,273,117862,1,8,0:0:0:0:
233,273,117945,1,0,0:0:0:0:
256,158,118278,1,8,0:0:0:0:
256,158,118445,1,8,0:0:0:0:
256,158,118528,1,8,0:0:0:0:
256,158,118612,1,0,0:0:0:0:
242,162,118778,1,0,0:0:0:0:
242,162,118945,1,8,0:0:0:0:
242,162,119112,1,0,0:0:0:0:
171,64,119195,1,0,0:0:0:0:
287,160,119278,1,8,0:0:0:0:
287,160,119445,1,0,0:0:0:0:
127,277,119612,1,8,0:0:0:0:
127,277,119778,1,0,0:0:0:0:
127,277,119862,1,0,0:0:0:0:
127,277,119945,1,0,0:0:0:0:
127,277,120028,1,8,0:0:0:0:
127,277,120112,1,0,0:0:0:0:
127,277,120278,1,8,0:0:0:0:
129,71,120362,1,0,0:0:0:0:
127,277,120445,1,8,0:0:0:0:
203,174,120612,1,4,0:0:0:0:
128,144,120945,1,8,0:0:0:0:
128,144,121112,1,0,0:0:0:0:
128,144,121195,1,0,0:0:0:0:
178,99,121278,1,0,0:0:0:0:
128,144,121445,1,0,0:0:0:0:
128,144,121612,1,8,0:0:0:0:
254,225,121695,1,8,0:0:0:0:
254,225,121778,1,0,0:0:0:0:
83,199,121945,1,8,0:0:0:0:
307,116,122112,1,0,0:0:0:0:
307,116,122195,1,0,0:0:0:0:
307,116,122278,1,8,0:0:0:0:
307,116,122445,1,0,0:0:0:0:
288,127,122528,1,8,0:0:0:0:
307,116,122695,1,8,0:0:0:0:
307,116,122778,1,0,0:0:0:0:
288,127,122945,1,8,0:0:0:0:
176,72,123029,1,8,0:0:0:0:
288,127,123112,1,0,0:0:0:0:
22,148,123278,1,4,0:0:0:0:
346,244,123612,1,8,0:0:0:0:
346,244,123778,1,8,0:0:0:0:
346,244,123862,1,8,0:0:0:0:
346,244,123945,1,0,0:0:0:0:
346,244,124112,1,0,0:0:0:0:
346,244,124278,1,8,0:0:0:0:
117,184,124446,1,0,0:0:0:0:
122,184,124612,1,0,0:0:0:0:
295,99,124778,1,8,0:0:0:0:
295,99,124862,1,0,0:0:0:0:
295,99,124946,1,0,0:0:0:0:
136,199,125113,1,8,0:0:0:0:
309,214,125197,1,0,0:0:0:0:
83,53,125280,1,8,0:0:0:0:
129,38,125336,1,8,0:0:0:0:
129,38,125391,1,8,0:0:0:0:
309,214,125446,1,0,0:0:0:0:
166,119,125529,1,0,0:0:0:0:
309,214,125613,1,8,0:0:0:0:
226,85,125669,1,0,0:0:0:0:
226,85,125725,1,0,0:0:0:0:
304,215,125779,1,8,0:0:0:0:
322,252,125863,1,8,0:0:0:0:
304,215,125946,1,4,0:0:0:0:
273,212,126279,1,8,0:0:0:0:
273,212,126612,1,0,0:0:0:0:
273,212,126946,1,8,0:0:0:0:
246,191,127279,1,0,0:0:0:0:
246,191,127612,1,8,0:0:0:0:
246,191,127946,1,0,0:0:0:0:
246,191,128279,1,8,0:0:0:0:
246,191,128446,1,8,0:0:0:0:
246,191,128612,1,0,0:0:0:0:
246,191,128946,1,8,0:0:0:0:
246,191,129279,1,0,0:0:0:0:
246,191,129612,1,8,0:0:0:0:
246,191,129946,1,0,0:0:0:0:
154,140,130112,1,0,0:0:0:0:
246,191,130279,1,8,0:0:0:0:
154,140,130446,1,8,0:0:0:0:
246,191,130612,1,0,0:0:0:0:
246,191,130946,1,8,0:0:0:0:
246,191,131112,1,8,0:0:0:0:
246,191,131196,1,8,0:0:0:0:
246,191,131279,1,0,0:0:0:0:
164,77,131446,1,0,0:0:0:0:
164,77,131612,1,8,0:0:0:0:
164,77,131779,1,0,0:0:0:0:
24,157,131862,1,0,0:0:0:0:
168,74,131946,1,8,0:0:0:0:
168,74,132112,1,0,0:0:0:0:
179,148,132279,1,8,0:0:0:0:
285,176,132446,1,8,0:0:0:0:
286,169,132529,1,8,0:0:0:0:
286,168,132612,1,0,0:0:0:0:
286,168,132779,1,0,0:0:0:0:
286,168,132946,1,8,0:0:0:0:
300,185,133112,1,0,0:0:0:0:
301,183,133196,1,8,0:0:0:0:
176,171,133279,1,0,0:0:0:0:
299,183,133446,1,0,0:0:0:0:
299,183,133612,1,8,0:0:0:0:
149,204,133779,1,0,0:0:0:0:
149,204,133862,1,0,0:0:0:0:
225,163,133946,1,8,0:0:0:0:
246,142,134001,1,8,0:0:0:0:
246,142,134057,1,8,0:0:0:0:
345,171,134112,1,0,0:0:0:0:
345,171,134196,1,0,0:0:0:0:
225,163,134279,1,8,0:0:0:0:
246,142,134335,1,8,0:0:0:0:
246,142,134390,1,8,0:0:0:0:
345,171,134446,1,0,0:0:0:0:
345,171,134529,1,0,0:0:0:0:
225,163,134612,1,8,0:0:0:0:
246,142,134668,1,0,0:0:0:0:
246,142,134724,1,0,0:0:0:0:
345,171,134779,1,8,0:0:0:0:
261,67,134862,1,0,0:0:0:0:
261,67,134946,1,8,0:0:0:0:
261,67,135029,1,8,0:0:0:0:
261,67,135112,1,0,0:0:0:0:
132,89,135279,1,8,0:0:0:0:
129,132,135612,1,8,0:0:0:0:
129,132,135696,1,8,0:0:0:0:
246,245,135946,1,0,0:0:0:0:
246,245,136112,1,0,0:0:0:0:
246,245,136168,1,0,0:0:0:0:
57,148,136224,1,0,0:0:0:0:
246,245,136279,1,8,0:0:0:0:
246,245,136446,1,8,0:0:0:0:
246,245,136529,1,8,0:0:0:0:
71,173,136612,1,4,0:0:0:0:
156,198,137112,1,0,0:0:0:0:
156,198,137279,1,8,0:0:0:0:
156,198,137779,1,0,0:0:0:0:
156,198,137946,1,0,0:0:0:0:
156,198,138196,1,0,0:0:0:0:
156,198,138446,1,0,0:0:0:0:
97,116,138529,1,0,0:0:0:0:
156,198,138612,1,8,0:0:0:0:
291,172,138946,1,0,0:0:0:0:
291,172,139001,1,0,0:0:0:0:
291,172,139057,1,0,0:0:0:0:
49,101,139112,1,0,0:0:0:0:
120,255,139168,1,0,0:0:0:0:
20,188,139224,1,0,0:0:0:0:
155,117,139279,1,8,0:0:0:0:
347,139,139362,1,0,0:0:0:0:
347,139,139446,1,8,0:0:0:0:
347,139,139529,1,8,0:0:0:0:
347,139,139612,1,0,0:0:0:0:
347,139,139696,1,0,0:0:0:0:
347,139,139779,1,8,0:0:0:0:
347,139,139862,1,8,0:0:0:0:
329,86,139946,1,0,0:0:0:0:
266,93,140029,1,8,0:0:0:0:
332,81,140112,1,8,0:0:0:0:
332,81,140196,1,0,0:0:0:0:
332,81,140279,1,8,0:0:0:0:
332,81,140362,1,8,0:0:0:0:
332,81,140446,1,0,0:0:0:0:
332,81,140529,1,0,0:0:0:0:
149,167,140612,1,8,0:0:0:0:
149,167,140696,1,0,0:0:0:0:
149,167,140779,1,0,0:0:0:0:
149,167,140862,1,8,0:0:0:0:
149,167,140946,1,0,0:0:0:0:
149,167,141029,1,0,0:0:0:0:
149,167,141112,1,0,0:0:0:0:
149,167,141196,1,8,0:0:0:0:
206,133,141279,1,0,0:0:0:0:
206,133,141362,1,8,0:0:0:0:
206,133,141446,1,0,0:0:0:0:
206,133,141529,1,0,0:0:0:0:
206,133,141612,1,8,0:0:0:0:
206,133,141696,1,8,0:0:0:0:
206,133,141779,1,0,0:0:0:0:
206,133,141862,1,0,0:0:0:0:
206,133,141946,1,8,0:0:0:0:
151,90,142029,1,0,0:0:0:0:
151,90,142112,1,8,0:0:0:0:
151,90,142196,1,8,0:0:0:0:
83,158,142279,1,0,0:0:0:0:
83,158,142362,1,8,0:0:0:0:
83,158,142446,1,0,0:0:0:0:
83,158,142529,1,0,0:0:0:0:
186,66,142612,1,8,0:0:0:0:
186,66,142696,1,0,0:0:0:0:
186,66,142779,1,0,0:0:0:0:
186,66,142862,1,8,0:0:0:0:
186,66,142946,1,0,0:0:0:0:
186,66,143029,1,8,0:0:0:0:
186,66,143112,1,0,0:0:0:0:
186,66,143196,1,0,0:0:0:0:
176,162,143279,1,8,0:0:0:0:
176,162,143362,1,8,0:0:0:0:
176,162,143446,1,0,0:0:0:0:
176,162,143529,1,8,0:0:0:0:
176,162,143612,1,0,0:0:0:0:
176,162,143696,1,0,0:0:0:0:
176,162,143779,1,8,0:0:0:0:
176,162,143862,1,8,0:0:0:0:
19,120,143946,1,0,0:0:0:0:
19,120,144029,1,8,0:0:0:0:
19,120,144112,1,8,0:0:0:0:
19,120,144196,1,0,0:0:0:0:
19,120,144279,1,8,0:0:0:0:
19,120,144362,1,0,0:0:0:0:
19,120,144446,1,8,0:0:0:0:
345,167,144529,1,8,0:0:0:0:
325,217,144612,1,0,0:0:0:0:
325,217,144696,1,8,0:0:0:0:
325,217,144779,1,0,0:0:0:0:
325,217,144862,1,0,0:0:0:0:
325,217,144946,1,8,0:0:0:0:
325,217,145029,1,0,0:0:0:0:
325,217,145112,1,8,0:0:0:0:
325,217,145196,1,8,0:0:0:0:
237,112,145279,1,0,0:0:0:0:
237,112,145362,1,8,0:0:0:0:
251,130,145446,1,8,0:0:0:0:
237,112,145529,1,0,0:0:0:0:
237,112,145612,1,8,0:0:0:0:
237,112,145696,1,8,0:0:0:0:
237,112,145779,1,0,0:0:0:0:
237,112,145862,1,0,0:0:0:0:
237,112,145946,1,8,0:0:0:0:
66,115,146029,1,0,0:0:0:0:
59,115,146112,1,0,0:0:0:0:
66,115,146196,1,8,0:0:0:0:
66,115,146279,1,0,0:0:0:0:
66,115,146362,1,0,0:0:0:0:
66,115,146446,1,8,0:0:0:0:
66,115,146529,1,8,0:0:0:0:
250,198,146612,1,0,0:0:0:0:
250,198,146696,1,8,0:0:0:0:
250,198,146779,1,0,0:0:0:0:
250,198,146862,1,0,0:0:0:0:
250,198,146946,1,8,0:0:0:0:
250,198,147029,1,8,0:0:0:0:
250,198,147112,1,0,0:0:0:0:
250,198,147196,1,0,0:0:0:0:
340,97,147279,1,8,0:0:0:0:
326,100,147362,1,8,0:0:0:0:
225,128,147446,1,8,0:0:0:0:
326,100,147529,1,0,0:0:0:0:
326,100,147612,1,8,0:0:0:0:
326,100,147696,1,0,0:0:0:0:
326,100,147779,1,8,0:0:0:0:
326,100,147862,1,8,0:0:0:0:
157,202,147946,1,0,0:0:0:0:
157,202,148029,1,0,0:0:0:0:
157,202,148112,1,8,0:0:0:0:
157,202,148196,1,8,0:0:0:0:
157,202,148279,1,0,0:0:0:0:
101,143,148362,1,0,0:0:0:0:
81,151,148446,1,8,0:0:0:0:
101,143,148529,1,0,0:0:0:0:
101,143,148612,1,8,0:0:0:0:
245,146,148696,1,8,0:0:0:0:
245,146,148779,1,0,0:0:0:0:
141,111,148862,1,0,0:0:0:0:
141,111,148946,1,8,0:0:0:0:
141,111,149029,1,0,0:0:0:0:
141,111,149112,1,8,0:0:0:0:
141,111,149196,1,8,0:0:0:0:
141,111,149279,1,0,0:0:0:0:
141,111,149362,1,8,0:0:0:0:
141,111,149446,1,0,0:0:0:0:
141,111,149529,1,0,0:0:0:0:
141,111,149612,1,8,0:0:0:0:
141,111,149696,1,8,0:0:0:0:
141,111,149779,1,0,0:0:0:0:
155,117,149946,1,8,0:0:0:0:
347,139,150029,1,0,0:0:0:0:
347,139,150113,1,8,0:0:0:0:
347,139,150196,1,8,0:0:0:0:
347,139,150279,1,0,0:0:0:0:
347,139,150363,1,0,0:0:0:0:
347,139,150446,1,8,0:0:0:0:
347,139,150529,1,8,0:0:0:0:
329,86,150613,1,0,0:0:0:0:
266,93,150696,1,8,0:0:0:0:
332,81,150779,1,0,0:0:0:0:
332,81,150863,1,0,0:0:0:0:
332,81,150946,1,8,0:0:0:0:
332,81,151029,1,8,0:0:0:0:
332,81,151113,1,0,0:0:0:0:
332,81,151196,1,0,0:0:0:0:
149,167,151279,1,8,0:0:0:0:
149,167,151362,1,8,0:0:0:0:
149,167,151446,1,0,0:0:0:0:
149,167,151529,1,8,0:0:0:0:
149,167,151613,1,0,0:0:0:0:
149,167,151696,1,0,0:0:0:0:
149,167,151779,1,0,0:0:0:0:
149,167,151863,1,8,0:0:0:0:
206,133,151946,1,0,0:0:0:0:
206,133,152029,1,8,0:0:0:0:
206,133,152113,1,0,0:0:0:0:
206,133,152196,1,0,0:0:0:0:
206,133,152279,1,8,0:0:0:0:
206,133,152363,1,8,0:0:0:0:
206,133,152446,1,0,0:0:0:0:
206,133,152529,1,0,0:0:0:0:
206,133,152613,1,8,0:0:0:0:
151,90,152696,1,0,0:0:0:0:
151,90,152779,1,8,0:0:0:0:
151,90,152863,1,8,0:0:0:0:
83,158,152946,1,0,0:0:0:0:
83,158,153029,1,8,0:0:0:0:
83,158,153113,1,0,0:0:0:0:
83,158,153196,1,0,0:0:0:0:
186,66,153279,1,8,0:0:0:0:
186,66,153363,1,0,0:0:0:0:
186,66,153446,1,8,0:0:0:0:
186,66,153529,1,8,0:0:0:0:
186,66,153613,1,0,0:0:0:0:
186,66,153696,1,8,0:0:0:0:
186,66,153779,1,0,0:0:0:0:
186,66,153863,1,0,0:0:0:0:
176,162,153946,1,8,0:0:0:0:
176,162,154029,1,0,0:0:0:0:
176,162,154113,1,0,0:0:0:0:
176,162,154196,1,8,0:0:0:0:
176,162,154279,1,0,0:0:0:0:
176,162,154363,1,0,0:0:0:0:
176,162,154446,1,8,0:0:0:0:
176,162,154529,1,8,0:0:0:0:
19,120,154613,1,0,0:0:0:0:
19,120,154696,1,8,0:0:0:0:
19,120,154779,1,8,0:0:0:0:
19,120,154863,1,0,0:0:0:0:
19,120,154946,1,8,0:0:0:0:
19,120,155029,1,0,0:0:0:0:
19,120,155113,1,0,0:0:0:0:
345,167,155196,1,8,0:0:0:0:
325,217,155279,1,8,0:0:0:0:
254,203,155446,1,0,0:0:0:0:
254,203,155612,1,8,0:0:0:0:
254,203,155779,1,0,0:0:0:0:
254,203,155862,1,0,0:0:0:0:
254,203,155946,1,8,0:0:0:0:
19,198,156112,1,0,0:0:0:0:
254,203,156279,1,8,0:0:0:0:
206,199,156362,1,0,0:0:0:0:
254,203,156446,1,0,0:0:0:0:
147,90,156529,1,0,0:0:0:0:
186,38,156612,1,8,0:0:0:0:
346,116,156779,1,0,0:0:0:0:
346,116,156862,1,8,0:0:0:0:
346,116,156946,1,8,0:0:0:0:
346,116,157112,1,0,0:0:0:0:
346,116,157196,1,8,0:0:0:0:
346,116,157279,1,8,0:0:0:0:
346,116,157446,1,0,0:0:0:0:
346,116,157612,1,8,0:0:0:0:
346,116,157779,1,0,0:0:0:0:
346,116,157862,1,0,0:0:0:0:
346,116,157946,1,8,0:0:0:0:
231,134,158029,1,8,0:0:0:0:
231,134,158112,1,0,0:0:0:0:
231,134,158196,1,0,0:0:0:0:
231,134,158279,1,8,0:0:0:0:
231,134,158362,1,0,0:0:0:0:
231,134,158446,1,0,0:0:0:0:
231,134,158529,1,0,0:0:0:0:
231,134,158612,1,8,0:0:0:0:
231,134,158696,1,8,0:0:0:0:
231,134,158779,1,0,0:0:0:0:
231,134,158862,1,0,0:0:0:0:
231,134,158946,1,8,0:0:0:0:
231,134,159029,1,0,0:0:0:0:
231,134,159112,1,0,0:0:0:0:
231,134,159196,1,0,0:0:0:0:
131,163,159279,1,8,0:0:0:0:
131,163,159362,1,0,0:0:0:0:
129,50,159446,1,8,0:0:0:0:
131,163,159529,1,8,0:0:0:0:
131,163,159612,1,0,0:0:0:0:
131,163,159696,1,8,0:0:0:0:
131,163,159779,1,8,0:0:0:0:
121,94,159862,1,0,0:0:0:0:
296,186,159946,1,8,0:0:0:0:
296,186,160029,1,0,0:0:0:0:
296,186,160112,1,0,0:0:0:0:
296,186,160196,1,8,0:0:0:0:
296,186,160279,1,8,0:0:0:0:
296,186,160362,1,0,0:0:0:0:
296,186,160446,1,8,0:0:0:0:
296,186,160529,1,0,0:0:0:0:
296,186,160612,1,8,0:0:0:0:
209,251,161946,1,0,0:0:0:0:
209,251,162279,1,8,0:0:0:0:
209,251,162612,1,0,0:0:0:0:
209,251,162779,1,0,0:0:0:0:
209,251,162946,1,8,0:0:0:0:
81,163,163279,1,4,0:0:0:0:
198,178,163612,1,8,0:0:0:0:
198,178,163779,1,8,0:0:0:0:
198,178,163862,1,8,0:0:0:0:
197,172,163946,1,0,0:0:0:0:
198,168,164112,1,0,0:0:0:0:
198,168,164279,1,8,0:0:0:0:
198,168,164446,1,8,0:0:0:0:
198,168,164612,1,0,0:0:0:0:
197,172,164779,1,0,0:0:0:0:
198,168,164862,1,8,0:0:0:0:
198,168,165112,1,8,0:0:0:0:
198,168,165279,1,0,0:0:0:0:
200,163,165362,1,0,0:0:0:0:
208,159,165446,1,8,0:0:0:0:
208,159,165612,1,8,0:0:0:0:
282,131,165779,1,0,0:0:0:0:
282,131,165862,1,8,0:0:0:0:
282,131,165946,1,0,0:0:0:0:
144,116,166279,1,8,0:0:0:0:
144,116,166446,1,0,0:0:0:0:
144,116,166529,1,0,0:0:0:0:
141,33,166612,1,8,0:0:0:0:
144,116,166779,1,0,0:0:0:0:
181,248,166946,1,8,0:0:0:0:
312,122,167029,1,8,0:0:0:0:
181,248,167112,1,0,0:0:0:0:
226,104,167196,1,0,0:0:0:0:
181,248,167279,1,8,0:0:0:0:
181,248,167446,1,0,0:0:0:0:
181,242,167529,1,0,0:0:0:0:
181,238,167696,1,0,0:0:0:0:
181,238,167779,1,8,0:0:0:0:
188,222,167946,1,8,0:0:0:0:
64,121,168029,1,8,0:0:0:0:
188,222,168112,1,0,0:0:0:0:
188,222,168279,1,8,0:0:0:0:
302,117,168446,1,0,0:0:0:0:
302,117,168529,1,8,0:0:0:0:
302,117,168612,1,0,0:0:0:0:
182,84,168946,1,8,0:0:0:0:
182,84,169112,1,8,0:0:0:0:
182,84,169196,1,8,0:0:0:0:
182,84,169279,1,0,0:0:0:0:
182,84,169446,1,0,0:0:0:0:
182,84,169612,1,8,0:0:0:0:
182,84,169696,1,8,0:0:0:0:
182,84,169779,1,8,0:0:0:0:
321,170,169946,1,0,0:0:0:0:
321,170,170112,1,0,0:0:0:0:
321,170,170196,1,8,0:0:0:0:
124,171,170446,1,8,0:0:0:0:
161,245,170612,1,0,0:0:0:0:
121,87,170696,1,0,0:0:0:0:
161,245,170779,1,0,0:0:0:0:
211,138,170946,1,8,0:0:0:0:
211,138,171112,1,0,0:0:0:0:
211,138,171196,1,8,0:0:0:0:
297,132,171279,1,0,0:0:0:0:
214,86,171612,1,8,0:0:0:0:
214,86,171779,1,8,0:0:0:0:
214,86,171862,1,8,0:0:0:0:
214,86,171946,1,0,0:0:0:0:
214,86,172112,1,0,0:0:0:0:
214,86,172279,1,8,0:0:0:0:
214,86,172362,1,0,0:0:0:0:
267,122,172446,1,8,0:0:0:0:
267,122,172529,1,8,0:0:0:0:
267,122,172612,1,0,0:0:0:0:
337,97,172779,1,8,0:0:0:0:
337,97,172862,1,0,0:0:0:0:
337,97,173029,1,8,0:0:0:0:
337,97,173112,1,8,0:0:0:0:
201,105,173279,1,0,0:0:0:0:
201,105,173362,1,8,0:0:0:0:
201,105,173446,1,0,0:0:0:0:
201,105,173529,1,0,0:0:0:0:
201,105,173612,1,8,0:0:0:0:
201,105,173696,1,8,0:0:0:0:
201,105,173779,1,0,0:0:0:0:
201,105,173862,1,8,0:0:0:0:
201,105,173946,1,4,0:0:0:0:
198,178,174279,1,8,0:0:0:0:
198,178,174446,1,8,0:0:0:0:
198,178,174529,1,8,0:0:0:0:
197,172,174613,1,0,0:0:0:0:
198,168,174779,1,0,0:0:0:0:
198,168,174946,1,8,0:0:0:0:
198,168,175113,1,8,0:0:0:0:
198,168,175279,1,0,0:0:0:0:
197,172,175446,1,0,0:0:0:0:
198,168,175529,1,8,0:0:0:0:
198,168,175779,1,8,0:0:0:0:
198,168,175946,1,0,0:0:0:0:
200,163,176029,1,8,0:0:0:0:
208,159,176113,1,8,0:0:0:0:
208,159,176279,1,8,0:0:0:0:
282,131,176446,1,0,0:0:0:0:
282,131,176529,1,8,0:0:0:0:
282,131,176613,1,0,0:0:0:0:
144,116,176946,1,8,0:0:0:0:
144,116,177113,1,0,0:0:0:0:
144,116,177196,1,0,0:0:0:0:
141,33,177279,1,8,0:0:0:0:
144,116,177446,1,0,0:0:0:0:
181,248,177613,1,8,0:0:0:0:
312,122,177696,1,0,0:0:0:0:
181,248,177779,1,8,0:0:0:0:
226,104,177862,1,8,0:0:0:0:
181,248,177946,1,0,0:0:0:0:
181,248,178113,1,8,0:0:0:0:
181,242,178196,1,0,0:0:0:0:
181,238,178363,1,0,0:0:0:0:
181,238,178446,1,8,0:0:0:0:
188,222,178613,1,8,0:0:0:0:
64,121,178696,1,8,0:0:0:0:
188,222,178779,1,0,0:0:0:0:
271,77,178862,1,0,0:0:0:0:
188,222,178946,1,8,0:0:0:0:
302,117,179113,1,8,0:0:0:0:
302,117,179279,1,4,0:0:0:0:
182,84,179613,1,8,0:0:0:0:
182,84,179779,1,8,0:0:0:0:
182,84,179863,1,8,0:0:0:0:
182,84,179946,1,0,0:0:0:0:
182,84,180113,1,0,0:0:0:0:
182,84,180279,1,8,0:0:0:0:
182,84,180363,1,8,0:0:0:0:
182,84,180446,1,8,0:0:0:0:
321,170,180613,1,0,0:0:0:0:
321,170,180779,1,0,0:0:0:0:
321,170,180863,1,8,0:0:0:0:
124,171,181113,1,8,0:0:0:0:
161,245,181279,1,0,0:0:0:0:
121,87,181363,1,0,0:0:0:0:
161,245,181446,1,0,0:0:0:0:
211,138,181613,1,8,0:0:0:0:
211,138,181779,1,0,0:0:0:0:
297,132,181946,1,12,0:0:0:0:
214,86,182279,1,0,0:0:0:0:
214,86,182446,1,8,0:0:0:0:
214,86,182529,1,8,0:0:0:0:
214,86,182613,1,0,0:0:0:0:
214,86,182779,1,0,0:0:0:0:
214,86,182946,1,8,0:0:0:0:
214,86,183029,1,0,0:0:0:0:
267,122,183113,1,8,0:0:0:0:
267,122,183196,1,8,0:0:0:0:
267,122,183279,1,0,0:0:0:0:
337,97,183446,1,0,0:0:0:0:
337,97,183612,1,8,0:0:0:0:
72,156,183696,1,8,0:0:0:0:
337,97,183779,1,0,0:0:0:0:
201,105,183946,1,8,0:0:0:0:
68,32,183987,1,8,0:0:0:0:
201,105,184029,1,8,0:0:0:0:
201,105,184113,1,0,0:0:0:0:
201,105,184196,1,0,0:0:0:0:
201,105,184279,1,8,0:0:0:0:
201,105,184613,1,4,0:0:0:0:
139,267,185112,1,0,0:0:0:0:
139,267,185279,1,8,0:0:0:0:
139,267,185779,1,0,0:0:0:0:
139,267,185946,1,0,0:0:0:0:
139,267,186196,1,0,0:0:0:0:
139,267,186446,1,0,0:0:0:0:
139,267,186529,1,0,0:0:0:0:
139,267,186612,1,8,0:0:0:0:
158,200,187112,1,0,0:0:0:0:
158,200,187279,1,0,0:0:0:0:
158,200,187779,1,0,0:0:0:0:
158,200,187946,1,8,0:0:0:0:
158,200,188446,1,0,0:0:0:0:
158,200,188612,1,8,0:0:0:0:
158,200,188779,1,8,0:0:0:0:
158,200,189029,1,8,0:0:0:0:
158,200,189112,1,8,0:0:0:0:
156,111,189279,1,8,0:0:0:0:
56,162,189446,1,8,0:0:0:0:
240,158,189612,1,8,0:0:0:0:
240,158,189696,1,8,0:0:0:0:
240,158,189779,1,8,0:0:0:0:
240,158,189946,1,4,0:0:0:0:
304,255,190279,1,8,0:0:0:0:
304,255,190446,1,0,0:0:0:0:
304,255,190529,1,8,0:0:0:0:
304,255,190612,1,0,0:0:0:0:
304,255,190779,1,0,0:0:0:0:
304,255,190946,1,8,0:0:0:0:
295,80,191112,1,0,0:0:0:0:
295,80,191196,1,0,0:0:0:0:
144,87,191279,1,8,0:0:0:0:
201,88,191446,1,0,0:0:0:0:
201,88,191612,1,8,0:0:0:0:
201,88,191779,1,8,0:0:0:0:
201,88,191862,1,8,0:0:0:0:
201,88,191946,1,0,0:0:0:0:
201,88,192029,1,8,0:0:0:0:
201,88,192112,1,0,0:0:0:0:
201,88,192279,1,8,0:0:0:0:
201,88,192362,1,8,0:0:0:0:
4,158,192446,1,8,0:0:0:0:
220,84,192612,1,4,0:0:0:0:
208,151,192946,1,8,0:0:0:0:
208,151,193279,1,0,0:0:0:0:
208,151,193612,1,8,0:0:0:0:
208,151,193946,1,0,0:0:0:0:
208,151,194112,1,0,0:0:0:0:
208,151,194279,1,8,0:0:0:0:
208,151,194446,1,8,0:0:0:0:
208,151,194612,1,0,0:0:0:0:
208,151,194696,1,0,0:0:0:0:
55,201,194779,1,0,0:0:0:0:
55,201,194862,1,0,0:0:0:0:
69,176,194946,1,8,0:0:0:0:
228,202,195001,1,8,0:0:0:0:
228,202,195057,1,8,0:0:0:0:
228,202,195112,1,8,0:0:0:0:
228,202,195168,1,8,0:0:0:0:
228,202,195224,1,8,0:0:0:0:
69,176,195279,1,0,0:0:0:0:
286,153,196612,1,4,0:0:0:0:
217,147,196779,1,0,0:0:0:0:
161,160,196862,1,0,0:0:0:0:
217,147,196946,1,8,0:0:0:0:
217,147,197112,1,0,0:0:0:0:
217,147,197196,1,8,0:0:0:0:
217,147,197362,1,8,0:0:0:0:
217,147,197446,1,0,0:0:0:0:
117,212,197612,1,8,0:0:0:0:
117,212,197779,1,8,0:0:0:0:
117,212,197862,1,8,0:0:0:0:
117,212,197946,1,0,0:0:0:0:
117,212,198112,1,0,0:0:0:0:
117,212,198279,1,8,0:0:0:0:
117,212,198446,1,0,0:0:0:0:
122,210,198529,1,0,0:0:0:0:
122,210,198612,1,8,0:0:0:0:
122,210,198696,1,8,0:0:0:0:
122,210,198779,1,0,0:0:0:0:
122,210,198946,1,8,0:0:0:0:
123,209,199112,1,0,0:0:0:0:
123,209,199196,1,8,0:0:0:0:
196,68,199279,1,0,0:0:0:0:
58,189,199446,1,0,0:0:0:0:
58,189,199612,1,8,0:0:0:0:
58,189,199779,1,8,0:0:0:0:
58,189,199862,1,8,0:0:0:0:
58,189,199946,1,0,0:0:0:0:
58,189,200112,1,0,0:0:0:0:
150,162,200279,1,8,0:0:0:0:
150,162,200362,1,0,0:0:0:0:
150,162,200446,1,0,0:0:0:0:
201,80,200612,1,8,0:0:0:0:
201,80,200779,1,0,0:0:0:0:
201,80,200862,1,8,0:0:0:0:
201,80,201029,1,8,0:0:0:0:
201,80,201112,1,0,0:0:0:0:
201,80,201279,1,8,0:0:0:0:
201,80,201362,1,8,0:0:0:0:
201,80,201446,1,0,0:0:0:0:
201,80,201529,1,0,0:0:0:0:
201,80,201612,1,8,0:0:0:0:
292,144,201779,1,0,0:0:0:0:
292,144,201862,1,8,0:0:0:0:
292,144,201946,1,0,0:0:0:0:
292,144,202112,1,0,0:0:0:0:
292,144,202279,1,8,0:0:0:0:
292,144,202446,1,0,0:0:0:0:
292,144,202529,1,0,0:0:0:0:
277,90,202612,1,8,0:0:0:0:
277,90,202779,1,0,0:0:0:0:
196,124,202946,1,8,0:0:0:0:
225,156,203029,1,0,0:0:0:0:
196,124,203112,1,8,0:0:0:0:
196,124,203196,1,8,0:0:0:0:
225,156,203279,1,0,0:0:0:0:
68,196,203446,1,0,0:0:0:0:
68,196,203529,1,0,0:0:0:0:
68,196,203612,1,8,0:0:0:0:
73,182,203779,1,0,0:0:0:0:
73,178,203862,1,8,0:0:0:0:
73,176,204029,1,8,0:0:0:0:
76,173,204112,1,0,0:0:0:0:
76,172,204196,1,8,0:0:0:0:
82,165,204279,1,8,0:0:0:0:
83,163,204446,1,0,0:0:0:0:
249,108,204529,1,8,0:0:0:0:
249,108,204612,1,0,0:0:0:0:
158,81,204779,1,0,0:0:0:0:
158,81,204946,1,8,0:0:0:0:
184,107,205112,1,0,0:0:0:0:
184,107,205196,1,0,0:0:0:0:
184,107,205279,1,8,0:0:0:0:
184,107,205446,1,0,0:0:0:0:
184,107,205612,1,8,0:0:0:0:
184,107,205696,1,8,0:0:0:0:
184,107,205779,1,8,0:0:0:0:
187,234,205946,1,0,0:0:0:0:
187,234,206112,1,0,0:0:0:0:
187,234,206196,1,0,0:0:0:0:
187,234,206279,1,8,0:0:0:0:
187,234,206446,1,0,0:0:0:0:
187,234,206612,1,8,0:0:0:0:
187,234,206779,1,8,0:0:0:0:
187,234,206862,1,0,0:0:0:0:
187,234,206946,1,8,0:0:0:0:
192,231,207112,1,8,0:0:0:0:
76,115,207279,1,4,0:0:0:0:
217,147,207446,1,0,0:0:0:0:
161,160,207529,1,0,0:0:0:0:
217,147,207613,1,8,0:0:0:0:
217,147,207779,1,0,0:0:0:0:
217,147,207863,1,8,0:0:0:0:
217,147,208029,1,8,0:0:0:0:
217,147,208113,1,0,0:0:0:0:
117,212,208279,1,8,0:0:0:0:
117,212,208446,1,8,0:0:0:0:
117,212,208529,1,8,0:0:0:0:
117,212,208613,1,0,0:0:0:0:
117,212,208779,1,0,0:0:0:0:
117,212,208946,1,8,0:0:0:0:
117,212,209113,1,0,0:0:0:0:
122,210,209196,1,0,0:0:0:0:
122,210,209279,1,0,0:0:0:0:
122,210,209363,1,8,0:0:0:0:
122,210,209446,1,0,0:0:0:0:
122,210,209613,1,8,0:0:0:0:
265,153,209696,1,8,0:0:0:0:
123,209,209779,1,8,0:0:0:0:
196,68,209946,1,0,0:0:0:0:
58,189,210113,1,0,0:0:0:0:
68,68,210196,1,0,0:0:0:0:
58,189,210279,1,8,0:0:0:0:
58,189,210446,1,8,0:0:0:0:
58,189,210613,1,0,0:0:0:0:
58,189,210696,1,8,0:0:0:0:
58,189,210779,1,0,0:0:0:0:
150,162,210862,1,0,0:0:0:0:
150,162,210946,1,8,0:0:0:0:
150,162,211113,1,0,0:0:0:0:
201,80,211279,1,8,0:0:0:0:
201,80,211446,1,0,0:0:0:0:
201,80,211529,1,8,0:0:0:0:
201,80,211696,1,8,0:0:0:0:
201,80,211779,1,0,0:0:0:0:
201,80,211946,1,8,0:0:0:0:
201,80,212029,1,8,0:0:0:0:
201,80,212113,1,0,0:0:0:0:
201,80,212196,1,0,0:0:0:0:
201,80,212279,1,8,0:0:0:0:
292,144,212446,1,8,0:0:0:0:
292,144,212613,1,4,0:0:0:0:
292,144,212779,1,0,0:0:0:0:
181,144,212862,1,0,0:0:0:0:
292,144,212946,1,8,0:0:0:0:
292,144,213113,1,0,0:0:0:0:
277,90,213279,1,8,0:0:0:0:
292,144,213362,1,0,0:0:0:0:
277,90,213446,1,0,0:0:0:0:
225,156,213529,1,0,0:0:0:0:
196,124,213613,1,8,0:0:0:0:
196,124,213779,1,0,0:0:0:0:
196,124,213863,1,8,0:0:0:0:
225,156,213946,1,0,0:0:0:0:
68,196,214113,1,0,0:0:0:0:
68,196,214279,1,8,0:0:0:0:
73,182,214446,1,0,0:0:0:0:
73,178,214529,1,0,0:0:0:0:
76,173,214612,1,8,0:0:0:0:
73,176,214696,1,8,0:0:0:0:
76,172,214779,1,0,0:0:0:0:
82,165,214946,1,8,0:0:0:0:
83,163,215113,1,8,0:0:0:0:
249,108,215279,1,4,0:0:0:0:
158,81,215446,1,0,0:0:0:0:
184,107,215529,1,0,0:0:0:0:
158,81,215613,1,8,0:0:0:0:
184,107,215779,1,0,0:0:0:0:
184,107,215946,1,8,0:0:0:0:
184,107,216113,1,0,0:0:0:0:
184,107,216196,1,8,0:0:0:0:
184,107,216279,1,8,0:0:0:0:
184,107,216446,1,0,0:0:0:0:
301,122,216612,1,8,0:0:0:0:
301,122,216779,1,0,0:0:0:0:
301,122,216862,1,0,0:0:0:0:
301,122,216946,1,8,0:0:0:0:
301,122,217112,1,0,0:0:0:0:
445,133,217195,1,0,0:0:0:0:
301,122,217279,1,8,0:0:0:0:
178,50,217334,1,8,0:0:0:0:
178,50,217390,1,8,0:0:0:0:
301,122,217446,1,0,0:0:0:0:
301,122,217529,1,0,0:0:0:0:
301,122,217612,1,8,0:0:0:0:
194,32,217668,1,0,0:0:0:0:
194,32,217723,1,0,0:0:0:0:
312,127,217779,1,8,0:0:0:0:
231,51,217862,1,8,0:0:0:0:
201,102,217946,1,4,0:0:0:0:
216,278,218280,1,8,0:0:0:0:
216,278,218446,1,0,0:0:0:0:
216,278,218530,1,0,0:0:0:0:
216,278,218613,1,0,0:0:0:0:
216,278,218780,1,0,0:0:0:0:
216,278,218946,1,8,0:0:0:0:
216,278,219113,1,8,0:0:0:0:
298,174,219196,1,8,0:0:0:0:
216,278,219280,1,0,0:0:0:0:
233,273,219446,1,0,0:0:0:0:
233,273,219613,1,8,0:0:0:0:
233,273,219780,1,0,0:0:0:0:
233,273,219863,1,0,0:0:0:0:
233,273,220030,1,8,0:0:0:0:
233,273,220113,1,0,0:0:0:0:
101,135,220280,1,8,0:0:0:0:
101,135,220446,1,0,0:0:0:0:
233,273,220530,1,8,0:0:0:0:
233,273,220613,1,0,0:0:0:0:
256,158,220946,1,8,0:0:0:0:
256,158,221113,1,8,0:0:0:0:
256,158,221196,1,8,0:0:0:0:
256,158,221280,1,0,0:0:0:0:
242,162,221446,1,0,0:0:0:0:
242,162,221613,1,8,0:0:0:0:
242,162,221780,1,0,0:0:0:0:
171,64,221863,1,8,0:0:0:0:
287,160,221946,1,8,0:0:0:0:
287,160,222113,1,0,0:0:0:0:
127,277,222280,1,8,0:0:0:0:
127,277,222446,1,0,0:0:0:0:
127,277,222530,1,0,0:0:0:0:
127,277,222613,1,8,0:0:0:0:
127,277,222696,1,8,0:0:0:0:
127,277,222780,1,0,0:0:0:0:
127,277,222946,1,8,0:0:0:0:
129,71,223030,1,8,0:0:0:0:
127,277,223113,1,8,0:0:0:0:
203,174,223280,1,0,0:0:0:0:
128,144,223613,1,8,0:0:0:0:
128,144,223780,1,0,0:0:0:0:
128,144,223863,1,0,0:0:0:0:
178,99,223946,1,0,0:0:0:0:
128,144,224113,1,0,0:0:0:0:
128,144,224280,1,8,0:0:0:0:
254,225,224363,1,8,0:0:0:0:
254,225,224446,1,0,0:0:0:0:
83,199,224613,1,8,0:0:0:0:
307,116,224780,1,0,0:0:0:0:
307,116,224863,1,0,0:0:0:0:
307,116,224946,1,8,0:0:0:0:
307,116,225113,1,0,0:0:0:0:
288,127,225196,1,8,0:0:0:0:
307,116,225363,1,8,0:0:0:0:
307,116,225446,1,0,0:0:0:0:
288,127,225613,1,8,0:0:0:0:
288,127,225780,1,0,0:0:0:0:
288,127,225863,1,0,0:0:0:0:
22,148,225946,1,0,0:0:0:0:
346,244,226280,1,8,0:0:0:0:
346,244,226446,1,8,0:0:0:0:
346,244,226530,1,8,0:0:0:0:
346,244,226613,1,0,0:0:0:0:
346,244,226780,1,0,0:0:0:0:
346,244,226946,1,8,0:0:0:0:
346,244,227030,1,0,0:0:0:0:
117,184,227113,1,8,0:0:0:0:
403,127,227196,1,8,0:0:0:0:
122,184,227280,1,0,0:0:0:0:
295,99,227446,1,0,0:0:0:0:
295,99,227530,1,0,0:0:0:0:
295,99,227613,1,8,0:0:0:0:
295,99,227780,1,0,0:0:0:0:
295,99,227946,1,8,0:0:0:0:
295,99,228113,1,8,0:0:0:0:
295,99,228196,1,0,0:0:0:0:
295,99,228280,1,8,0:0:0:0:
305,99,228446,1,8,0:0:0:0:
305,99,228613,1,4,0:0:0:0:
216,278,228946,1,8,0:0:0:0:
216,278,229112,1,0,0:0:0:0:
216,278,229196,1,8,0:0:0:0:
216,278,229279,1,0,0:0:0:0:
216,278,229446,1,0,0:0:0:0:
216,278,229612,1,8,0:0:0:0:
298,174,229696,1,8,0:0:0:0:
216,278,229779,1,0,0:0:0:0:
216,278,229946,1,8,0:0:0:0:
233,273,230112,1,0,0:0:0:0:
181,132,230196,1,0,0:0:0:0:
233,273,230279,1,8,0:0:0:0:
233,273,230446,1,0,0:0:0:0:
233,273,230529,1,8,0:0:0:0:
233,273,230696,1,8,0:0:0:0:
233,273,230779,1,0,0:0:0:0:
101,135,230946,1,8,0:0:0:0:
101,135,231112,1,8,0:0:0:0:
233,273,231196,1,8,0:0:0:0:
233,273,231279,1,0,0:0:0:0:
256,158,231612,1,8,0:0:0:0:
256,158,231779,1,0,0:0:0:0:
256,158,231862,1,0,0:0:0:0:
256,158,231946,1,0,0:0:0:0:
242,162,232112,1,0,0:0:0:0:
242,162,232279,1,8,0:0:0:0:
171,64,232362,1,8,0:0:0:0:
242,162,232446,1,0,0:0:0:0:
287,160,232612,1,8,0:0:0:0:
287,160,232779,1,0,0:0:0:0:
127,277,232862,1,0,0:0:0:0:
127,277,232946,1,8,0:0:0:0:
127,277,233112,1,0,0:0:0:0:
127,277,233196,1,8,0:0:0:0:
127,277,233279,1,0,0:0:0:0:
127,277,233446,1,0,0:0:0:0:
127,277,233612,1,8,0:0:0:0:
129,71,233696,1,8,0:0:0:0:
127,277,233779,1,8,0:0:0:0:
203,174,233946,1,4,0:0:0:0:
128,144,234279,1,8,0:0:0:0:
128,144,234446,1,0,0:0:0:0:
128,144,234529,1,0,0:0:0:0:
178,99,234612,1,0,0:0:0:0:
128,144,234779,1,0,0:0:0:0:
128,144,234946,1,8,0:0:0:0:
254,225,235029,1,8,0:0:0:0:
254,225,235112,1,0,0:0:0:0:
83,199,235279,1,8,0:0:0:0:
307,116,235446,1,0,0:0:0:0:
307,116,235529,1,0,0:0:0:0:
307,116,235612,1,8,0:0:0:0:
307,116,235779,1,0,0:0:0:0:
288,127,235862,1,8,0:0:0:0:
307,116,236029,1,8,0:0:0:0:
307,116,236112,1,0,0:0:0:0:
288,127,236279,1,8,0:0:0:0:
176,72,236363,1,8,0:0:0:0:
288,127,236446,1,0,0:0:0:0:
22,148,236612,1,4,0:0:0:0:
346,244,236946,1,8,0:0:0:0:
346,244,237112,1,8,0:0:0:0:
346,244,237196,1,8,0:0:0:0:
346,244,237279,1,0,0:0:0:0:
346,244,237446,1,0,0:0:0:0:
346,244,237612,1,8,0:0:0:0:
117,184,237780,1,0,0:0:0:0:
122,184,237946,1,0,0:0:0:0:
295,99,238112,1,8,0:0:0:0:
295,99,238196,1,0,0:0:0:0:
295,99,238280,1,0,0:0:0:0:
136,199,238447,1,8,0:0:0:0:
309,214,238529,1,0,0:0:0:0:
83,53,238612,1,8,0:0:0:0:
129,38,238668,1,8,0:0:0:0:
129,38,238724,1,8,0:0:0:0:
309,214,238779,1,0,0:0:0:0:
166,119,238862,1,0,0:0:0:0:
309,214,238946,1,8,0:0:0:0:
226,85,239001,1,0,0:0:0:0:
226,85,239057,1,0,0:0:0:0:
304,215,239112,1,8,0:0:0:0:
322,252,239196,1,8,0:0:0:0:
304,215,239280,1,4,0:0:0:0:
366,153,239448,1,8,0:0:0:0:
334,100,239787,1,8,0:0:0:0:
334,100,239956,1,0,0:0:0:0:
334,100,240126,1,8,0:0:0:0:
255,158,240465,1,8,0:0:0:0:
190,192,240642,1,0,0:0:0:0:
190,192,240815,1,8,0:0:0:0:
190,192,240986,1,0,0:0:0:0:
139,138,241163,1,8,0:0:0:0:
194,87,241341,1,0,0:0:0:0:
194,87,241518,1,8,0:0:0:0:
194,87,241696,1,8,0:0:0:0:
194,87,241873,1,8,0:0:0:0:
286,221,242051,1,0,0:0:0:0:
286,221,242145,1,0,0:0:0:0:
271,210,242239,1,8,0:0:0:0:
271,210,242334,1,8,0:0:0:0:
271,210,242428,1,0,0:0:0:0:
271,210,242522,1,8,0:0:0:0:
271,210,242617,1,8,0:0:0:0:
271,210,242711,1,8,0:0:0:0:
271,210,242805,1,0,0:0:0:0:
271,210,242900,1,8,0:0:0:0:
271,210,242994,1,0,0:0:0:0:
271,210,243088,1,0,0:0:0:0:
271,210,243183,1,8,0:0:0:0:
271,210,243277,1,0,0:0:0:0:
271,210,243371,1,0,0:0:0:0:
271,210,243466,1,0,0:0:0:0:
271,210,243560,1,8,0:0:0:0:
259,110,243939,1,8,0:0:0:0:
259,110,244034,1,8,0:0:0:0:
206,91,244318,1,8,0:0:0:0:
364,109,244367,1,8,0:0:0:0:
364,109,244416,1,8,0:0:0:0:
206,91,244515,1,0,0:0:0:0:
206,91,244614,1,0,0:0:0:0:
206,91,244712,1,8,0:0:0:0:
151,195,245107,1,4,0:0:0:0:
222,224,245307,1,0,0:0:0:0:
222,224,245407,1,0,0:0:0:0:
222,224,245507,1,8,0:0:0:0:
222,224,245707,1,8,0:0:0:0:
222,224,245807,1,0,0:0:0:0:
222,224,245907,1,8,0:0:0:0:
222,224,246007,1,8,0:0:0:0:
222,224,246107,1,0,0:0:0:0:
48,141,246307,1,8,0:0:0:0:
222,224,246407,1,0,0:0:0:0:
222,224,246507,1,8,0:0:0:0:
69,172,246707,1,0,0:0:0:0:
69,172,246807,1,0,0:0:0:0:
115,196,246907,1,0,0:0:0:0:
149,187,247107,1,8,0:0:0:0:
211,199,247307,1,0,0:0:0:0:
211,199,247407,1,8,0:0:0:0:
211,199,247507,1,8,0:0:0:0:
211,199,247607,1,0,0:0:0:0:
211,199,247707,1,0,0:0:0:0:
211,199,247907,1,8,0:0:0:0:
211,199,248007,1,8,0:0:0:0:
211,199,248107,1,8,0:0:0:0:
318,188,248307,1,0,0:0:0:0:
325,173,248440,1,8,0:0:0:0:
325,173,248573,1,8,0:0:0:0:
325,173,248707,1,0,0:0:0:0:
325,173,248840,1,8,0:0:0:0:
325,173,248973,1,0,0:0:0:0:
325,173,249107,1,8,0:0:0:0:
235,92,249207,1,0,0:0:0:0:
235,92,249307,1,0,0:0:0:0:
235,92,249507,1,8,0:0:0:0:
41,155,249807,1,0,0:0:0:0:
41,155,249907,1,8,0:0:0:0:
41,155,250107,1,8,0:0:0:0:
11,125,250207,1,0,0:0:0:0:
41,155,250307,1,0,0:0:0:0:
41,155,250407,1,8,0:0:0:0:
18,284,250507,1,0,0:0:0:0:
168,222,250607,1,8,0:0:0:0:
171,180,250707,1,0,0:0:0:0:
171,180,250807,1,0,0:0:0:0:
171,180,250907,1,8,0:0:0:0:
171,180,251006,1,0,0:0:0:0:
171,180,251106,1,8,0:0:0:0:
211,97,251506,1,0,0:0:0:0:
211,97,251706,1,8,0:0:0:0:
211,97,251806,1,0,0:0:0:0:
214,92,251906,1,8,0:0:0:0:
214,91,252106,1,0,0:0:0:0:
214,91,252206,1,8,0:0:0:0:
214,90,252306,1,0,0:0:0:0:
214,90,252406,1,0,0:0:0:0:
214,90,252506,1,8,0:0:0:0:
214,90,252606,1,0,0:0:0:0:
145,231,252806,1,0,0:0:0:0:
145,231,252906,1,8,0:0:0:0:
215,246,253106,1,0,0:0:0:0:
215,246,253306,1,8,0:0:0:0:
215,246,253406,1,8,0:0:0:0:
215,246,253506,1,0,0:0:0:0:
215,246,253606,1,0,0:0:0:0:
216,240,253706,1,8,0:0:0:0:
216,240,253806,1,8,0:0:0:0:
310,99,254006,1,8,0:0:0:0:
310,99,254106,1,0,0:0:0:0:
213,126,254306,1,0,0:0:0:0:
213,126,254406,1,8,0:0:0:0:
213,126,254506,1,0,0:0:0:0:
213,126,254606,1,8,0:0:0:0:
213,126,254706,1,0,0:0:0:0:
101,166,254906,1,8,0:0:0:0:
101,166,255006,1,0,0:0:0:0:
101,166,255106,1,8,0:0:0:0:
101,166,255206,1,0,0:0:0:0:
287,161,255406,1,8,0:0:0:0:
287,161,255506,1,0,0:0:0:0:
287,161,255706,1,0,0:0:0:0:
287,161,255806,1,8,0:0:0:0:
287,161,256006,1,8,0:0:0:0:
287,161,256106,1,0,0:0:0:0:
123,185,256306,1,0,0:0:0:0:
123,185,256406,1,8,0:0:0:0:
123,185,256506,1,0,0:0:0:0:
130,178,256606,1,8,0:0:0:0:
126,77,256806,1,8,0:0:0:0:
126,77,257006,1,8,0:0:0:0:
126,77,257106,1,0,0:0:0:0:
126,77,257206,1,8,0:0:0:0:
126,77,257406,1,8,0:0:0:0:
126,77,257506,1,0,0:0:0:0:
126,77,257606,1,8,0:0:0:0:
126,77,257806,1,8,0:0:0:0:
126,77,257906,1,4,0:0:0:0:
237,167,258706,1,8,0:0:0:0:
237,167,259506,1,0,0:0:0:0:
237,167,259906,1,0,0:0:0:0:
237,167,260306,1,8,0:0:0:0:
319,148,261106,1,0,0:0:0:0:
319,148,261240,1,0,0:0:0:0:
319,148,261373,1,0,0:0:0:0:
319,148,261506,1,0,0:0:0:0:
161,147,261706,1,0,0:0:0:0:
161,147,261906,1,8,0:0:0:0:
175,154,262506,1,0,0:0:0:0:
175,154,262706,1,0,0:0:0:0:
175,154,263106,1,0,0:0:0:0:
175,154,263506,1,8,0:0:0:0:
319,148,264306,1,0,0:0:0:0:
319,148,264440,1,0,0:0:0:0:
319,148,264573,1,0,0:0:0:0:
319,148,264706,1,0,0:0:0:0:
161,147,264906,1,0,0:0:0:0:
161,147,265106,1,8,0:0:0:0:
132,102,265506,1,8,0:0:0:0:
175,154,265706,1,0,0:0:0:0:
175,154,265906,1,0,0:0:0:0:
175,154,266306,1,0,0:0:0:0:
175,154,266706,1,8,0:0:0:0:
256,104,266806,1,8,0:0:0:0:
256,104,266906,1,8,0:0:0:0:
256,104,267106,1,8,0:0:0:0:
256,104,267206,1,8,0:0:0:0:
256,104,267306,1,8,0:0:0:0:
364,75,267506,1,0,0:0:0:0:
364,75,267640,1,0,0:0:0:0:
378,70,267773,1,0,0:0:0:0:
378,70,267906,1,0,0:0:0:0:
242,171,268106,1,0,0:0:0:0:
242,171,268306,1,8,0:0:0:0:
275,216,268506,1,0,0:0:0:0:
275,216,268706,1,8,0:0:0:0:
275,216,268806,1,8,0:0:0:0:
275,216,268906,1,0,0:0:0:0:
132,89,269106,1,8,0:0:0:0:
129,132,269506,1,8,0:0:0:0:
129,132,269606,1,8,0:0:0:0:
246,245,269906,1,0,0:0:0:0:
246,245,270106,1,0,0:0:0:0:
246,245,270173,1,0,0:0:0:0:
57,148,270240,1,0,0:0:0:0:
246,245,270306,1,8,0:0:0:0:
71,173,270706,1,4,0:0:0:0:
214,193,271039,1,8,0:0:0:0:
219,193,271206,1,0,0:0:0:0:
246,190,271372,1,8,0:0:0:0:
236,200,271539,1,8,0:0:0:0:
236,200,271706,1,0,0:0:0:0:
236,200,271872,1,8,0:0:0:0:
244,203,272039,1,0,0:0:0:0:
256,198,272206,1,8,0:0:0:0:
274,212,272289,1,8,0:0:0:0:
261,217,272372,1,0,0:0:0:0:
246,190,272539,1,0,0:0:0:0:
246,190,272622,1,8,0:0:0:0:
246,190,272706,1,0,0:0:0:0:
246,190,272872,1,0,0:0:0:0:
98,131,272956,1,0,0:0:0:0:
98,131,273039,1,8,0:0:0:0:
107,276,273372,1,4,0:0:0:0:
181,114,273706,1,8,0:0:0:0:
181,114,273872,1,0,0:0:0:0:
181,114,274206,1,0,0:0:0:0:
181,114,274372,1,8,0:0:0:0:
94,109,274456,1,8,0:0:0:0:
189,113,274539,1,8,0:0:0:0:
319,189,274706,1,0,0:0:0:0:
319,189,274872,1,0,0:0:0:0:
319,189,275039,1,8,0:0:0:0:
319,189,275206,1,0,0:0:0:0:
181,102,275539,1,0,0:0:0:0:
181,102,275706,1,8,0:0:0:0:
122,63,275789,1,0,0:0:0:0:
181,102,275872,1,8,0:0:0:0:
249,163,276039,1,0,0:0:0:0:
249,163,276206,1,0,0:0:0:0:
225,174,276289,1,0,0:0:0:0:
249,163,276372,1,8,0:0:0:0:
249,163,276539,1,8,0:0:0:0:
133,201,276706,1,0,0:0:0:0:
133,201,276789,1,8,0:0:0:0:
132,191,276872,1,0,0:0:0:0:
133,201,276956,1,0,0:0:0:0:
136,197,277039,1,8,0:0:0:0:
307,79,277206,1,8,0:0:0:0:
307,79,277372,1,0,0:0:0:0:
307,79,277539,1,0,0:0:0:0:
307,79,277622,1,0,0:0:0:0:
307,79,277706,1,8,0:0:0:0:
307,79,277872,1,8,0:0:0:0:
307,79,278039,1,0,0:0:0:0:
307,79,278122,1,0,0:0:0:0:
174,259,278206,1,8,0:0:0:0:
174,259,278289,1,0,0:0:0:0:
189,261,278372,1,8,0:0:0:0:
174,259,278456,1,8,0:0:0:0:
174,259,278539,1,8,0:0:0:0:
193,82,278622,1,0,0:0:0:0:
174,259,278706,1,8,0:0:0:0:
106,95,278872,1,0,0:0:0:0:
106,95,279039,1,8,0:0:0:0:
106,95,279206,1,0,0:0:0:0:
109,90,279289,1,0,0:0:0:0:
109,90,279372,1,8,0:0:0:0:
109,90,279539,1,0,0:0:0:0:
109,90,279706,1,8,0:0:0:0:
235,111,279789,1,8,0:0:0:0:
109,90,279872,1,0,0:0:0:0:
280,63,279956,1,0,0:0:0:0:
109,90,280039,1,8,0:0:0:0:
104,78,280206,1,0,0:0:0:0:
104,76,280372,1,8,0:0:0:0:
104,76,280539,1,0,0:0:0:0:
104,76,280622,1,0,0:0:0:0:
111,69,280706,1,8,0:0:0:0:
196,76,280872,1,0,0:0:0:0:
119,60,281039,1,8,0:0:0:0:
120,58,281206,1,8,0:0:0:0:
259,136,281289,1,0,0:0:0:0:
265,117,281372,1,8,0:0:0:0:
73,122,281428,1,8,0:0:0:0:
73,122,281483,1,8,0:0:0:0:
351,120,281539,1,0,0:0:0:0:
316,122,281622,1,0,0:0:0:0:
372,138,281706,1,8,0:0:0:0:
372,138,281789,1,0,0:0:0:0:
372,138,281872,1,8,0:0:0:0:
372,138,281956,1,8,0:0:0:0:
57,172,282039,1,0,0:0:0:0:
57,165,282122,1,0,0:0:0:0:
57,162,282206,1,8,0:0:0:0:
57,162,282289,1,0,0:0:0:0:
175,132,282372,1,8,0:0:0:0:
175,132,282456,1,8,0:0:0:0:
175,132,282539,1,0,0:0:0:0:
57,162,282622,1,0,0:0:0:0:
111,78,282706,1,8,0:0:0:0:
256,192,282789,12,8,283372,0:0:0:0:
76,139,283539,5,0,0:0:0:0:
76,139,283706,1,0,0:0:0:0:
81,163,284039,1,4,0:0:0:0:
198,178,284372,1,8,0:0:0:0:
198,178,284539,1,8,0:0:0:0:
198,178,284622,1,8,0:0:0:0:
197,172,284706,1,0,0:0:0:0:
198,168,284872,1,0,0:0:0:0:
198,168,285039,1,8,0:0:0:0:
198,168,285206,1,8,0:0:0:0:
198,168,285372,1,0,0:0:0:0:
197,172,285539,1,0,0:0:0:0:
198,168,285622,1,8,0:0:0:0:
198,168,285872,1,8,0:0:0:0:
198,168,286039,1,0,0:0:0:0:
200,163,286122,1,0,0:0:0:0:
208,159,286206,1,8,0:0:0:0:
208,159,286372,1,8,0:0:0:0:
282,131,286539,1,0,0:0:0:0:
282,131,286622,1,8,0:0:0:0:
282,131,286706,1,0,0:0:0:0:
144,116,287039,1,8,0:0:0:0:
144,116,287206,1,0,0:0:0:0:
144,116,287289,1,0,0:0:0:0:
141,33,287372,1,8,0:0:0:0:
144,116,287539,1,0,0:0:0:0:
181,248,287706,1,8,0:0:0:0:
312,122,287789,1,8,0:0:0:0:
181,248,287872,1,0,0:0:0:0:
181,248,288039,1,8,0:0:0:0:
181,248,288206,1,0,0:0:0:0:
181,242,288289,1,0,0:0:0:0:
181,238,288372,1,8,0:0:0:0:
181,238,288539,1,8,0:0:0:0:
188,222,288622,1,0,0:0:0:0:
64,121,288789,1,0,0:0:0:0:
188,222,288872,1,8,0:0:0:0:
302,117,288956,1,8,0:0:0:0:
188,222,289039,1,0,0:0:0:0:
302,117,289206,1,8,0:0:0:0:
302,117,289372,1,4,0:0:0:0:
182,84,289706,1,8,0:0:0:0:
182,84,289872,1,8,0:0:0:0:
182,84,289956,1,8,0:0:0:0:
182,84,290039,1,0,0:0:0:0:
182,84,290206,1,0,0:0:0:0:
182,84,290372,1,8,0:0:0:0:
182,84,290456,1,8,0:0:0:0:
182,84,290539,1,8,0:0:0:0:
321,170,290706,1,0,0:0:0:0:
321,170,290872,1,0,0:0:0:0:
321,170,290956,1,8,0:0:0:0:
124,171,291206,1,8,0:0:0:0:
161,245,291372,1,0,0:0:0:0:
121,87,291456,1,0,0:0:0:0:
161,245,291539,1,8,0:0:0:0:
211,138,291622,1,0,0:0:0:0:
211,138,291706,1,8,0:0:0:0:
211,138,291872,1,8,0:0:0:0:
297,132,292039,1,4,0:0:0:0:
214,86,292372,1,8,0:0:0:0:
214,86,292539,1,0,0:0:0:0:
214,86,292622,1,0,0:0:0:0:
214,86,292706,1,0,0:0:0:0:
46,135,292789,1,8,0:0:0:0:
214,86,292872,1,0,0:0:0:0:
214,86,293039,1,8,0:0:0:0:
318,206,293122,1,8,0:0:0:0:
267,122,293206,1,0,0:0:0:0:
216,174,293372,1,0,0:0:0:0:
216,174,293538,1,8,0:0:0:0:
126,94,293622,1,0,0:0:0:0:
216,174,293705,1,0,0:0:0:0:
136,199,293872,1,8,0:0:0:0:
309,214,293956,1,0,0:0:0:0:
83,53,294039,1,8,0:0:0:0:
129,38,294095,1,8,0:0:0:0:
129,38,294150,1,8,0:0:0:0:
309,214,294205,1,0,0:0:0:0:
166,119,294288,1,0,0:0:0:0:
309,214,294372,1,8,0:0:0:0:
226,85,294428,1,0,0:0:0:0:
226,85,294484,1,0,0:0:0:0:
304,215,294538,1,8,0:0:0:0:
322,252,294622,1,8,0:0:0:0:
304,215,294705,1,4,0:0:0:0:
70,156,295039,1,8,0:0:0:0:
70,156,295206,1,8,0:0:0:0:
106,130,295289,1,8,0:0:0:0:
70,156,295372,1,0,0:0:0:0:
70,156,295539,1,0,0:0:0:0:
70,156,295622,1,8,0:0:0:0:
205,197,295872,1,8,0:0:0:0:
205,197,296039,1,0,0:0:0:0:
205,197,296122,1,0,0:0:0:0:
205,197,296206,1,8,0:0:0:0:
205,197,296372,1,8,0:0:0:0:
205,197,296539,1,0,0:0:0:0:
205,197,296622,1,8,0:0:0:0:
112,213,296789,1,8,0:0:0:0:
86,193,296872,1,0,0:0:0:0:
86,193,297039,1,8,0:0:0:0:
86,193,297206,1,8,0:0:0:0:
86,193,297289,1,8,0:0:0:0:
86,193,297372,1,0,0:0:0:0:
124,117,297539,1,0,0:0:0:0:
124,117,297706,1,8,0:0:0:0:
124,117,297872,1,0,0:0:0:0:
124,117,297956,1,0,0:0:0:0:
124,117,298039,1,8,0:0:0:0:
147,108,298206,1,0,0:0:0:0:
147,108,298289,1,8,0:0:0:0:
191,165,298539,1,8,0:0:0:0:
191,165,298706,1,0,0:0:0:0:
191,165,298789,1,0,0:0:0:0:
191,165,298872,1,0,0:0:0:0:
191,165,299039,1,8,0:0:0:0:
191,165,299206,1,0,0:0:0:0:
191,165,299289,1,0,0:0:0:0:
184,68,299372,1,8,0:0:0:0:
191,165,299455,1,8,0:0:0:0:
191,165,299539,1,0,0:0:0:0:
99,79,299705,1,8,0:0:0:0:
99,79,299872,1,8,0:0:0:0:
99,79,300039,1,4,0:0:0:0:
106,252,300372,1,8,0:0:0:0:
106,252,300539,1,0,0:0:0:0:
106,252,300622,1,0,0:0:0:0:
106,252,300705,1,8,0:0:0:0:
106,252,300872,1,0,0:0:0:0:
106,252,301039,1,8,0:0:0:0:
106,252,301122,1,8,0:0:0:0:
106,252,301205,1,0,0:0:0:0:
106,252,301372,1,8,0:0:0:0:
106,252,301539,1,0,0:0:0:0:
106,252,301622,1,8,0:0:0:0:
106,252,301705,1,8,0:0:0:0:
106,252,301872,1,0,0:0:0:0:
139,120,301955,1,0,0:0:0:0:
139,120,302039,1,8,0:0:0:0:
106,252,302122,1,0,0:0:0:0:
106,252,302205,1,8,0:0:0:0:
227,154,302289,1,8,0:0:0:0:
106,252,302372,1,0,0:0:0:0:
106,252,302539,1,8,0:0:0:0:
270,152,302705,1,4,0:0:0:0:
83,76,303039,1,8,0:0:0:0:
83,76,303372,1,0,0:0:0:0:
83,76,303705,1,8,0:0:0:0:
76,76,304038,1,0,0:0:0:0:
76,76,304205,1,0,0:0:0:0:
76,76,304372,1,8,0:0:0:0:
76,76,304539,1,8,0:0:0:0:
264,201,304705,1,0,0:0:0:0:
264,201,304789,1,0,0:0:0:0:
264,201,304872,1,0,0:0:0:0:
262,195,304955,1,0,0:0:0:0:
260,134,305039,1,8,0:0:0:0:
60,203,305094,1,8,0:0:0:0:
60,203,305150,1,8,0:0:0:0:
60,203,305205,1,8,0:0:0:0:
60,203,305261,1,8,0:0:0:0:
60,203,305317,1,8,0:0:0:0:
260,134,305372,1,0,0:0:0:0:
286,153,306705,1,4,0:0:0:0:
217,147,306872,1,0,0:0:0:0:
161,160,306955,1,0,0:0:0:0:
217,147,307039,1,8,0:0:0:0:
217,147,307205,1,0,0:0:0:0:
217,147,307289,1,8,0:0:0:0:
217,147,307455,1,8,0:0:0:0:
217,147,307539,1,0,0:0:0:0:
117,212,307705,1,8,0:0:0:0:
117,212,307872,1,8,0:0:0:0:
117,212,307955,1,8,0:0:0:0:
117,212,308039,1,0,0:0:0:0:
117,212,308205,1,0,0:0:0:0:
117,212,308372,1,8,0:0:0:0:
117,212,308539,1,0,0:0:0:0:
122,210,308622,1,0,0:0:0:0:
122,210,308705,1,0,0:0:0:0:
122,210,308789,1,8,0:0:0:0:
122,210,308872,1,0,0:0:0:0:
122,210,309039,1,8,0:0:0:0:
123,209,309205,1,8,0:0:0:0:
123,209,309289,1,8,0:0:0:0:
196,68,309372,1,0,0:0:0:0:
58,189,309539,1,0,0:0:0:0:
58,189,309705,1,8,0:0:0:0:
58,189,309872,1,0,0:0:0:0:
58,189,309955,1,0,0:0:0:0:
58,189,310039,1,8,0:0:0:0:
58,189,310205,1,0,0:0:0:0:
150,162,310372,1,8,0:0:0:0:
150,162,310455,1,8,0:0:0:0:
150,162,310539,1,0,0:0:0:0:
201,80,310705,1,8,0:0:0:0:
201,80,310872,1,0,0:0:0:0:
201,80,310955,1,8,0:0:0:0:
201,80,311122,1,8,0:0:0:0:
201,80,311205,1,0,0:0:0:0:
201,80,311372,1,8,0:0:0:0:
201,80,311455,1,0,0:0:0:0:
201,80,311539,1,0,0:0:0:0:
201,80,311622,1,0,0:0:0:0:
201,80,311705,1,8,0:0:0:0:
292,144,311872,1,0,0:0:0:0:
292,144,311955,1,8,0:0:0:0:
292,144,312039,1,0,0:0:0:0:
292,144,312205,1,0,0:0:0:0:
292,144,312372,1,8,0:0:0:0:
292,144,312539,1,0,0:0:0:0:
292,144,312622,1,0,0:0:0:0:
277,90,312705,1,8,0:0:0:0:
277,90,312872,1,0,0:0:0:0:
196,124,313039,1,8,0:0:0:0:
225,156,313122,1,0,0:0:0:0:
196,124,313205,1,8,0:0:0:0:
196,124,313289,1,8,0:0:0:0:
225,156,313372,1,0,0:0:0:0:
68,196,313539,1,0,0:0:0:0:
68,196,313622,1,8,0:0:0:0:
68,196,313705,1,8,0:0:0:0:
73,182,313872,1,0,0:0:0:0:
73,178,313955,1,8,0:0:0:0:
73,176,314122,1,8,0:0:0:0:
76,173,314205,1,0,0:0:0:0:
76,172,314289,1,0,0:0:0:0:
82,165,314372,1,8,0:0:0:0:
83,163,314539,1,0,0:0:0:0:
249,108,314622,1,8,0:0:0:0:
249,108,314705,1,0,0:0:0:0:
158,81,314872,1,0,0:0:0:0:
158,81,315039,1,8,0:0:0:0:
184,107,315205,1,0,0:0:0:0:
184,107,315289,1,0,0:0:0:0:
184,107,315372,1,8,0:0:0:0:
184,107,315539,1,0,0:0:0:0:
184,107,315705,1,8,0:0:0:0:
184,107,315789,1,8,0:0:0:0:
184,107,315872,1,8,0:0:0:0:
187,234,316039,1,0,0:0:0:0:
187,234,316205,1,0,0:0:0:0:
187,234,316289,1,0,0:0:0:0:
187,234,316372,1,8,0:0:0:0:
187,234,316539,1,0,0:0:0:0:
187,234,316705,1,8,0:0:0:0:
187,234,316872,1,8,0:0:0:0:
187,234,316955,1,0,0:0:0:0:
187,234,317039,1,8,0:0:0:0:
192,231,317205,1,8,0:0:0:0:
76,115,317372,1,4,0:0:0:0:
217,147,317539,1,0,0:0:0:0:
161,160,317622,1,0,0:0:0:0:
217,147,317706,1,8,0:0:0:0:
217,147,317872,1,0,0:0:0:0:
217,147,317956,1,8,0:0:0:0:
217,147,318122,1,8,0:0:0:0:
217,147,318206,1,0,0:0:0:0:
117,212,318372,1,8,0:0:0:0:
117,212,318539,1,8,0:0:0:0:
117,212,318622,1,8,0:0:0:0:
117,212,318706,1,0,0:0:0:0:
117,212,318872,1,0,0:0:0:0:
117,212,319039,1,8,0:0:0:0:
117,212,319206,1,0,0:0:0:0:
122,210,319289,1,0,0:0:0:0:
122,210,319372,1,8,0:0:0:0:
122,210,319456,1,8,0:0:0:0:
122,210,319539,1,0,0:0:0:0:
122,210,319706,1,8,0:0:0:0:
265,153,319789,1,0,0:0:0:0:
123,209,319872,1,8,0:0:0:0:
196,68,320039,1,0,0:0:0:0:
58,189,320206,1,0,0:0:0:0:
68,68,320289,1,0,0:0:0:0:
58,189,320372,1,8,0:0:0:0:
58,189,320539,1,8,0:0:0:0:
317,99,320622,1,8,0:0:0:0:
58,189,320706,1,0,0:0:0:0:
58,189,320789,1,8,0:0:0:0:
58,189,320872,1,0,0:0:0:0:
150,162,321039,1,8,0:0:0:0:
150,162,321206,1,0,0:0:0:0:
93,36,321289,1,0,0:0:0:0:
201,80,321372,1,8,0:0:0:0:
201,80,321539,1,0,0:0:0:0:
201,80,321622,1,8,0:0:0:0:
201,80,321789,1,8,0:0:0:0:
201,80,321872,1,0,0:0:0:0:
201,80,322039,1,8,0:0:0:0:
201,80,322122,1,8,0:0:0:0:
201,80,322206,1,0,0:0:0:0:
201,80,322289,1,0,0:0:0:0:
201,80,322372,1,8,0:0:0:0:
292,144,322539,1,8,0:0:0:0:
292,144,322706,1,4,0:0:0:0:
292,144,322872,1,0,0:0:0:0:
181,144,322955,1,0,0:0:0:0:
292,144,323039,1,8,0:0:0:0:
292,144,323206,1,0,0:0:0:0:
277,90,323372,1,8,0:0:0:0:
292,144,323455,1,0,0:0:0:0:
277,90,323539,1,0,0:0:0:0:
225,156,323622,1,0,0:0:0:0:
196,124,323706,1,8,0:0:0:0:
196,124,323872,1,0,0:0:0:0:
196,124,323956,1,8,0:0:0:0:
225,156,324039,1,0,0:0:0:0:
68,196,324206,1,0,0:0:0:0:
68,196,324372,1,8,0:0:0:0:
73,182,324539,1,0,0:0:0:0:
73,178,324622,1,0,0:0:0:0:
76,173,324705,1,8,0:0:0:0:
73,176,324789,1,8,0:0:0:0:
76,172,324872,1,0,0:0:0:0:
82,165,325039,1,8,0:0:0:0:
83,163,325206,1,8,0:0:0:0:
249,108,325372,1,4,0:0:0:0:
158,81,325539,1,0,0:0:0:0:
184,107,325622,1,0,0:0:0:0:
158,81,325706,1,8,0:0:0:0:
184,107,325872,1,0,0:0:0:0:
184,107,326039,1,8,0:0:0:0:
184,107,326206,1,0,0:0:0:0:
184,107,326289,1,8,0:0:0:0:
184,107,326372,1,8,0:0:0:0:
184,107,326539,1,0,0:0:0:0:
301,122,326705,1,8,0:0:0:0:
301,122,326872,1,0,0:0:0:0:
301,122,326955,1,0,0:0:0:0:
301,122,327039,1,8,0:0:0:0:
301,122,327205,1,0,0:0:0:0:
445,133,327288,1,0,0:0:0:0:
301,122,327372,1,8,0:0:0:0:
178,50,327427,1,8,0:0:0:0:
178,50,327483,1,8,0:0:0:0:
301,122,327539,1,0,0:0:0:0:
301,122,327622,1,0,0:0:0:0:
301,122,327705,1,8,0:0:0:0:
194,32,327761,1,0,0:0:0:0:
194,32,327816,1,0,0:0:0:0:
312,127,327872,1,8,0:0:0:0:
231,51,327955,1,8,0:0:0:0:
201,102,328039,1,4,0:0:0:0:
216,278,328373,1,8,0:0:0:0:
216,278,328539,1,0,0:0:0:0:
216,278,328623,1,0,0:0:0:0:
216,278,328706,1,0,0:0:0:0:
216,278,328873,1,0,0:0:0:0:
216,278,329039,1,8,0:0:0:0:
216,278,329206,1,8,0:0:0:0:
298,174,329289,1,8,0:0:0:0:
216,278,329373,1,0,0:0:0:0:
233,273,329539,1,0,0:0:0:0:
233,273,329706,1,8,0:0:0:0:
233,273,329873,1,0,0:0:0:0:
233,273,329956,1,0,0:0:0:0:
233,273,330123,1,8,0:0:0:0:
233,273,330206,1,0,0:0:0:0:
101,135,330373,1,8,0:0:0:0:
101,135,330539,1,0,0:0:0:0:
233,273,330623,1,8,0:0:0:0:
233,273,330706,1,0,0:0:0:0:
256,158,331039,1,8,0:0:0:0:
256,158,331206,1,8,0:0:0:0:
256,158,331289,1,8,0:0:0:0:
256,158,331373,1,0,0:0:0:0:
242,162,331539,1,0,0:0:0:0:
242,162,331706,1,8,0:0:0:0:
355,111,331789,1,0,0:0:0:0:
242,162,331873,1,0,0:0:0:0:
171,64,331955,1,0,0:0:0:0:
287,160,332039,1,8,0:0:0:0:
287,160,332206,1,0,0:0:0:0:
168,79,332289,1,8,0:0:0:0:
127,277,332373,1,8,0:0:0:0:
127,277,332539,1,0,0:0:0:0:
127,277,332706,1,8,0:0:0:0:
127,277,332789,1,8,0:0:0:0:
127,277,332873,1,0,0:0:0:0:
198,5,332955,1,0,0:0:0:0:
127,277,333039,1,8,0:0:0:0:
127,277,333206,1,8,0:0:0:0:
203,174,333373,1,0,0:0:0:0:
128,144,333706,1,8,0:0:0:0:
128,144,333873,1,0,0:0:0:0:
128,144,333956,1,0,0:0:0:0:
178,99,334039,1,0,0:0:0:0:
128,144,334206,1,0,0:0:0:0:
128,144,334373,1,8,0:0:0:0:
254,225,334456,1,8,0:0:0:0:
254,225,334539,1,0,0:0:0:0:
83,199,334706,1,8,0:0:0:0:
307,116,334873,1,0,0:0:0:0:
307,116,334956,1,0,0:0:0:0:
307,116,335039,1,8,0:0:0:0:
307,116,335206,1,0,0:0:0:0:
288,127,335289,1,8,0:0:0:0:
307,116,335456,1,8,0:0:0:0:
307,116,335539,1,0,0:0:0:0:
288,127,335706,1,8,0:0:0:0:
288,127,335873,1,0,0:0:0:0:
288,127,335956,1,0,0:0:0:0:
22,148,336039,1,0,0:0:0:0:
346,244,336373,1,8,0:0:0:0:
346,244,336539,1,8,0:0:0:0:
346,244,336623,1,8,0:0:0:0:
346,244,336706,1,0,0:0:0:0:
346,244,336873,1,0,0:0:0:0:
346,244,337039,1,8,0:0:0:0:
346,244,337123,1,0,0:0:0:0:
117,184,337206,1,8,0:0:0:0:
403,127,337289,1,8,0:0:0:0:
122,184,337373,1,0,0:0:0:0:
295,99,337539,1,0,0:0:0:0:
295,99,337623,1,0,0:0:0:0:
295,99,337706,1,8,0:0:0:0:
295,99,337873,1,0,0:0:0:0:
295,99,338039,1,8,0:0:0:0:
295,99,338206,1,8,0:0:0:0:
295,99,338289,1,0,0:0:0:0:
295,99,338373,1,8,0:0:0:0:
305,99,338539,1,8,0:0:0:0:
305,99,338706,1,4,0:0:0:0:
216,278,339039,1,8,0:0:0:0:
216,278,339205,1,0,0:0:0:0:
216,278,339289,1,8,0:0:0:0:
216,278,339372,1,0,0:0:0:0:
216,278,339539,1,0,0:0:0:0:
216,278,339705,1,8,0:0:0:0:
298,174,339789,1,8,0:0:0:0:
216,278,339872,1,0,0:0:0:0:
216,278,340039,1,8,0:0:0:0:
233,273,340205,1,0,0:0:0:0:
181,132,340289,1,0,0:0:0:0:
233,273,340372,1,8,0:0:0:0:
233,273,340539,1,0,0:0:0:0:
233,273,340622,1,8,0:0:0:0:
233,273,340789,1,8,0:0:0:0:
233,273,340872,1,0,0:0:0:0:
101,135,341039,1,8,0:0:0:0:
101,135,341205,1,8,0:0:0:0:
233,273,341289,1,8,0:0:0:0:
233,273,341372,1,0,0:0:0:0:
256,158,341705,1,8,0:0:0:0:
256,158,341872,1,0,0:0:0:0:
256,158,341955,1,0,0:0:0:0:
256,158,342039,1,0,0:0:0:0:
242,162,342205,1,0,0:0:0:0:
242,162,342372,1,8,0:0:0:0:
171,64,342455,1,8,0:0:0:0:
242,162,342539,1,0,0:0:0:0:
287,160,342705,1,8,0:0:0:0:
287,160,342872,1,0,0:0:0:0:
127,277,342955,1,0,0:0:0:0:
127,277,343039,1,8,0:0:0:0:
127,277,343205,1,0,0:0:0:0:
127,277,343289,1,8,0:0:0:0:
127,277,343372,1,0,0:0:0:0:
127,277,343539,1,0,0:0:0:0:
127,277,343705,1,8,0:0:0:0:
129,71,343789,1,8,0:0:0:0:
127,277,343872,1,8,0:0:0:0:
203,174,344039,1,4,0:0:0:0:
128,144,344372,1,8,0:0:0:0:
128,144,344539,1,0,0:0:0:0:
128,144,344622,1,0,0:0:0:0:
178,99,344705,1,0,0:0:0:0:
128,144,344872,1,0,0:0:0:0:
128,144,345039,1,8,0:0:0:0:
254,225,345122,1,8,0:0:0:0:
254,225,345205,1,0,0:0:0:0:
83,199,345372,1,8,0:0:0:0:
307,116,345539,1,0,0:0:0:0:
307,116,345622,1,0,0:0:0:0:
307,116,345705,1,8,0:0:0:0:
307,116,345872,1,0,0:0:0:0:
288,127,345955,1,8,0:0:0:0:
307,116,346122,1,8,0:0:0:0:
307,116,346205,1,0,0:0:0:0:
288,127,346372,1,8,0:0:0:0:
176,72,346456,1,8,0:0:0:0:
288,127,346539,1,8,0:0:0:0:
22,148,346705,1,4,0:0:0:0:
346,244,347039,1,8,0:0:0:0:
346,244,347205,1,8,0:0:0:0:
346,244,347289,1,8,0:0:0:0:
346,244,347372,1,0,0:0:0:0:
346,244,347539,1,0,0:0:0:0:
346,244,347705,1,8,0:0:0:0:
117,184,347873,1,0,0:0:0:0:
122,184,348039,1,0,0:0:0:0:
295,99,348205,1,8,0:0:0:0:
295,99,348289,1,0,0:0:0:0:
295,99,348373,1,0,0:0:0:0:
136,199,348540,1,8,0:0:0:0:
309,214,348622,1,0,0:0:0:0:
83,53,348705,1,8,0:0:0:0:
129,38,348761,1,8,0:0:0:0:
129,38,348817,1,8,0:0:0:0:
309,214,348872,1,0,0:0:0:0:
166,119,348955,1,0,0:0:0:0:
309,214,349039,1,8,0:0:0:0:
226,85,349094,1,0,0:0:0:0:
226,85,349150,1,0,0:0:0:0:
304,215,349205,1,8,0:0:0:0:
322,252,349289,1,8,0:0:0:0:
171,188,349372,1,4,0:0:0:0:
329,115,349622,1,8,0:0:0:0:
329,115,349705,1,0,0:0:0:0:
329,115,349872,1,0,0:0:0:0:
329,115,350039,1,8,0:0:0:0:
329,115,350205,1,0,0:0:0:0:
105,125,350289,1,0,0:0:0:0:
329,115,350372,1,8,0:0:0:0:
329,115,350539,1,0,0:0:0:0:
329,115,350705,1,8,0:0:0:0:
201,253,350789,1,8,0:0:0:0:
201,253,350872,1,0,0:0:0:0:
201,253,350955,1,0,0:0:0:0:
201,253,351039,1,8,0:0:0:0:
201,253,351205,1,0,0:0:0:0:
201,253,351372,1,8,0:0:0:0:
155,128,351539,1,0,0:0:0:0:
201,253,351622,1,8,0:0:0:0:
201,253,351705,1,8,0:0:0:0:
371,231,352039,1,8,0:0:0:0:
371,231,352205,1,0,0:0:0:0:
371,231,352289,1,0,0:0:0:0:
370,236,352372,1,8,0:0:0:0:
370,236,352539,1,8,0:0:0:0:
370,236,352705,1,0,0:0:0:0:
370,236,352789,1,0,0:0:0:0:
116,72,352872,1,0,0:0:0:0:
385,224,352955,1,8,0:0:0:0:
385,224,353039,1,0,0:0:0:0:
385,224,353205,1,0,0:0:0:0:
385,224,353372,1,8,0:0:0:0:
194,186,353455,1,8,0:0:0:0:
194,186,353539,1,0,0:0:0:0:
229,208,353622,1,8,0:0:0:0:
229,208,353705,1,8,0:0:0:0:
229,208,353789,1,0,0:0:0:0:
229,208,353872,1,0,0:0:0:0:
229,208,354039,1,8,0:0:0:0:
229,208,354205,1,0,0:0:0:0:
229,208,354289,1,0,0:0:0:0:
229,208,354372,1,8,0:0:0:0:
148,95,354455,1,0,0:0:0:0:
229,208,354539,1,8,0:0:0:0:
229,208,354705,1,0,0:0:0:0:
316,88,354955,1,8,0:0:0:0:
316,88,355039,1,0,0:0:0:0:
316,88,355205,1,0,0:0:0:0:
316,88,355372,1,8,0:0:0:0:
316,88,355539,1,0,0:0:0:0:
316,88,355622,1,0,0:0:0:0:
316,88,355705,1,8,0:0:0:0:
316,88,355872,1,0,0:0:0:0:
170,149,356039,1,8,0:0:0:0:
188,147,356122,1,0,0:0:0:0:
170,149,356205,1,8,0:0:0:0:
170,149,356289,1,8,0:0:0:0:
170,149,356372,1,0,0:0:0:0:
183,148,356539,1,0,0:0:0:0:
189,64,356705,1,8,0:0:0:0:
189,64,356789,1,8,0:0:0:0:
189,64,356872,1,8,0:0:0:0:
196,72,357039,1,0,0:0:0:0:
159,204,357372,1,8,0:0:0:0:
159,204,357539,1,0,0:0:0:0:
159,204,357622,1,0,0:0:0:0:
159,204,357705,1,8,0:0:0:0:
159,204,357872,1,8,0:0:0:0:
159,204,358039,1,0,0:0:0:0:
159,204,358122,1,0,0:0:0:0:
100,107,358205,1,8,0:0:0:0:
164,197,358289,1,8,0:0:0:0:
100,107,358372,1,0,0:0:0:0:
301,122,358539,1,0,0:0:0:0:
301,122,358705,1,8,0:0:0:0:
301,122,358789,1,8,0:0:0:0:
301,122,358872,1,8,0:0:0:0:
301,122,358955,1,0,0:0:0:0:
301,122,359039,1,8,0:0:0:0:
301,122,359205,1,0,0:0:0:0:
301,122,359372,1,8,0:0:0:0:
301,122,359539,1,0,0:0:0:0:
301,122,359622,1,0,0:0:0:0:
301,122,359705,1,8,0:0:0:0:
312,127,359872,1,0,0:0:0:0:
312,127,360039,1,12,0:0:0:0:
329,115,360289,1,8,0:0:0:0:
329,115,360372,1,0,0:0:0:0:
329,115,360539,1,0,0:0:0:0:
329,115,360706,1,8,0:0:0:0:
329,115,360872,1,0,0:0:0:0:
105,125,360956,1,0,0:0:0:0:
329,115,361039,1,8,0:0:0:0:
329,115,361206,1,0,0:0:0:0:
329,115,361372,1,8,0:0:0:0:
201,253,361456,1,8,0:0:0:0:
201,253,361539,1,0,0:0:0:0:
201,253,361622,1,0,0:0:0:0:
201,253,361706,1,8,0:0:0:0:
201,253,361872,1,0,0:0:0:0:
201,253,362039,1,8,0:0:0:0:
155,128,362206,1,0,0:0:0:0:
201,253,362289,1,8,0:0:0:0:
201,253,362372,1,8,0:0:0:0:
371,231,362706,1,8,0:0:0:0:
371,231,362872,1,0,0:0:0:0:
371,231,362956,1,0,0:0:0:0:
370,236,363039,1,8,0:0:0:0:
370,236,363206,1,8,0:0:0:0:
370,236,363372,1,0,0:0:0:0:
370,236,363456,1,0,0:0:0:0:
116,72,363539,1,0,0:0:0:0:
385,224,363622,1,8,0:0:0:0:
385,224,363706,1,0,0:0:0:0:
385,224,363872,1,0,0:0:0:0:
385,224,364039,1,8,0:0:0:0:
194,186,364122,1,8,0:0:0:0:
194,186,364206,1,0,0:0:0:0:
229,208,364289,1,8,0:0:0:0:
229,208,364372,1,8,0:0:0:0:
229,208,364456,1,0,0:0:0:0:
229,208,364539,1,0,0:0:0:0:
229,208,364706,1,8,0:0:0:0:
229,208,364872,1,0,0:0:0:0:
229,208,364956,1,0,0:0:0:0:
229,208,365039,1,8,0:0:0:0:
148,95,365122,1,0,0:0:0:0:
229,208,365206,1,8,0:0:0:0:
229,208,365372,1,4,0:0:0:0:
316,88,365622,1,8,0:0:0:0:
316,88,365706,1,0,0:0:0:0:
316,88,365872,1,0,0:0:0:0:
316,88,366039,1,8,0:0:0:0:
189,32,366122,1,0,0:0:0:0:
316,88,366206,1,8,0:0:0:0:
316,88,366289,1,8,0:0:0:0:
316,88,366372,1,0,0:0:0:0:
316,88,366539,1,0,0:0:0:0:
170,149,366706,1,8,0:0:0:0:
170,149,366872,1,0,0:0:0:0:
170,149,366956,1,8,0:0:0:0:
170,149,367039,1,8,0:0:0:0:
183,148,367206,1,8,0:0:0:0:
189,64,367372,1,0,0:0:0:0:
189,64,367455,1,0,0:0:0:0:
189,64,367539,1,8,0:0:0:0:
96,111,367622,1,0,0:0:0:0:
196,72,367706,1,8,0:0:0:0:
96,111,367872,1,0,0:0:0:0:
159,204,368039,1,12,0:0:0:0:
159,204,368205,1,0,0:0:0:0:
159,204,368289,1,0,0:0:0:0:
159,204,368372,1,8,0:0:0:0:
159,204,368539,1,0,0:0:0:0:
159,204,368706,1,8,0:0:0:0:
159,204,368789,1,0,0:0:0:0:
100,107,368872,1,8,0:0:0:0:
100,107,369039,1,8,0:0:0:0:
164,197,369122,1,8,0:0:0:0:
301,122,369206,1,0,0:0:0:0:
301,122,369372,1,8,0:0:0:0:
301,122,369539,1,0,0:0:0:0:
301,122,369622,1,0,0:0:0:0:
301,122,369706,1,8,0:0:0:0:
301,122,369872,1,0,0:0:0:0:
445,133,369955,1,0,0:0:0:0:
301,122,370039,1,8,0:0:0:0:
178,50,370094,1,8,0:0:0:0:
178,50,370150,1,8,0:0:0:0:
301,122,370206,1,0,0:0:0:0:
301,122,370289,1,0,0:0:0:0:
301,122,370372,1,8,0:0:0:0:
194,32,370428,1,0,0:0:0:0:
194,32,370483,1,0,0:0:0:0:
312,127,370539,1,8,0:0:0:0:
231,51,370622,1,8,0:0:0:0:
95,165,370705,1,4,0:0:0:0:
227,89,371038,1,8,0:0:0:0:
227,89,371205,1,0,0:0:0:0:
227,89,371538,1,0,0:0:0:0:
227,89,371705,1,8,0:0:0:0:
227,89,372038,1,0,0:0:0:0:
227,89,372205,1,0,0:0:0:0:
227,89,372372,1,8,0:0:0:0:
227,89,372538,1,0,0:0:0:0:
227,89,372872,1,0,0:0:0:0:
227,89,373038,1,8,0:0:0:0:
227,89,373372,1,0,0:0:0:0:
227,89,373705,1,8,0:0:0:0:
227,89,373872,1,0,0:0:0:0:
227,89,374205,1,0,0:0:0:0:
227,89,374372,1,8,0:0:0:0:
227,89,374705,1,0,0:0:0:0:
227,89,375038,1,8,0:0:0:0:
227,89,375205,1,0,0:0:0:0:
227,89,375538,1,0,0:0:0:0:
227,89,375705,1,8,0:0:0:0:
227,89,375872,1,0,0:0:0:0:
227,89,376039,1,0,0:0:0:0:
227,89,376372,1,8,0:0:0:0:
227,89,376538,1,0,0:0:0:0:
227,89,376872,1,0,0:0:0:0:
227,89,377038,1,8,0:0:0:0:
227,89,377372,1,0,0:0:0:0:
227,89,377538,1,0,0:0:0:0:
227,89,377705,1,8,0:0:0:0:
227,89,377872,1,0,0:0:0:0:
227,89,378205,1,0,0:0:0:0:
227,89,378372,1,8,0:0:0:0:
120,163,378539,1,0,0:0:0:0:
227,89,378705,1,0,0:0:0:0:
227,89,379038,1,8,0:0:0:0:
310,151,379205,1,0,0:0:0:0:
310,151,379538,1,0,0:0:0:0:
310,151,379705,1,8,0:0:0:0:
76,151,380039,1,0,0:0:0:0:
76,151,380206,1,0,0:0:0:0:
123,133,380289,1,0,0:0:0:0:
76,151,380372,1,8,0:0:0:0:
76,151,380539,1,0,0:0:0:0:
221,250,380706,1,8,0:0:0:0:
221,250,380872,1,8,0:0:0:0:
221,250,380956,1,0,0:0:0:0:
221,250,381039,1,8,0:0:0:0:
221,250,381205,1,8,0:0:0:0:
95,165,381372,1,4,0:0:0:0:
227,89,381705,1,8,0:0:0:0:
227,89,381872,1,0,0:0:0:0:
227,89,382205,1,0,0:0:0:0:
227,89,382372,1,8,0:0:0:0:
227,89,382705,1,0,0:0:0:0:
227,89,382872,1,0,0:0:0:0:
227,89,383039,1,8,0:0:0:0:
227,89,383205,1,0,0:0:0:0:
227,89,383539,1,0,0:0:0:0:
227,89,383705,1,8,0:0:0:0:
227,89,384039,1,0,0:0:0:0:
227,89,384372,1,8,0:0:0:0:
227,89,384539,1,0,0:0:0:0:
227,89,384872,1,0,0:0:0:0:
227,89,385039,1,8,0:0:0:0:
227,89,385372,1,0,0:0:0:0:
227,89,385705,1,8,0:0:0:0:
227,89,385872,1,0,0:0:0:0:
227,89,386205,1,0,0:0:0:0:
227,89,386372,1,8,0:0:0:0:
227,89,386539,1,0,0:0:0:0:
227,89,386706,1,4,0:0:0:0:
227,89,387039,1,8,0:0:0:0:
227,89,387205,1,0,0:0:0:0:
227,89,387539,1,0,0:0:0:0:
227,89,387705,1,8,0:0:0:0:
227,89,388039,1,0,0:0:0:0:
227,89,388205,1,0,0:0:0:0:
227,89,388372,1,8,0:0:0:0:
227,89,388539,1,0,0:0:0:0:
227,89,388872,1,0,0:0:0:0:
227,89,389039,1,8,0:0:0:0:
120,163,389206,1,0,0:0:0:0:
227,89,389372,1,4,0:0:0:0:
227,89,389705,1,8,0:0:0:0:
310,151,389872,1,0,0:0:0:0:
18,159,390039,1,0,0:0:0:0:
310,151,390205,1,0,0:0:0:0:
310,151,390372,1,8,0:0:0:0:
213,103,390539,1,0,0:0:0:0:
122,184,390705,1,0,0:0:0:0:
295,99,390871,1,8,0:0:0:0:
295,99,390955,1,0,0:0:0:0:
295,99,391039,1,0,0:0:0:0:
136,199,391206,1,8,0:0:0:0:
309,214,391288,1,0,0:0:0:0:
83,53,391371,1,8,0:0:0:0:
129,38,391427,1,8,0:0:0:0:
129,38,391483,1,8,0:0:0:0:
309,214,391538,1,0,0:0:0:0:
166,119,391621,1,0,0:0:0:0:
309,214,391705,1,8,0:0:0:0:
226,85,391760,1,0,0:0:0:0:
226,85,391816,1,0,0:0:0:0:
304,215,391871,1,8,0:0:0:0:
322,252,391955,1,8,0:0:0:0:
209,211,392039,5,4,0:0:0:0:
90,131,392372,1,8,0:0:0:0:
90,131,392538,1,0,0:0:0:0:
90,131,392872,1,0,0:0:0:0:
90,131,393038,1,8,0:0:0:0:
90,131,393372,1,0,0:0:0:0:
90,131,393705,1,8,0:0:0:0:
90,131,393872,1,0,0:0:0:0:
231,153,394205,1,0,0:0:0:0:
231,153,394372,1,8,0:0:0:0:
231,153,394538,1,0,0:0:0:0:
231,153,394705,1,0,0:0:0:0:
231,153,395038,1,8,0:0:0:0:
231,153,395205,1,0,0:0:0:0:
124,148,395538,1,0,0:0:0:0:
124,148,395705,1,8,0:0:0:0:
124,148,396038,1,0,0:0:0:0:
124,148,396372,1,8,0:0:0:0:
124,148,396538,1,0,0:0:0:0:
61,129,396872,1,0,0:0:0:0:
61,129,397038,1,8,0:0:0:0:
61,129,397205,1,0,0:0:0:0:
61,129,397372,1,0,0:0:0:0:
142,240,397705,1,8,0:0:0:0:
142,240,397872,1,0,0:0:0:0:
177,115,398205,1,0,0:0:0:0:
142,240,398372,1,8,0:0:0:0:
211,107,398705,1,0,0:0:0:0:
211,107,399038,1,8,0:0:0:0:
211,107,399205,1,0,0:0:0:0:
211,107,399538,1,0,0:0:0:0:
211,107,399705,1,8,0:0:0:0:
211,107,399872,1,0,0:0:0:0:
211,107,400038,1,0,0:0:0:0:
211,107,400372,1,8,0:0:0:0:
211,107,400538,1,0,0:0:0:0:
211,107,400872,1,0,0:0:0:0:
211,107,401038,1,8,0:0:0:0:
155,143,401372,1,0,0:0:0:0:
155,143,401539,1,0,0:0:0:0:
155,143,401622,1,0,0:0:0:0:
155,143,401705,1,8,0:0:0:0:
214,126,401872,1,0,0:0:0:0:
214,126,402039,1,8,0:0:0:0:
214,126,402205,1,8,0:0:0:0:
88,135,402289,1,0,0:0:0:0:
127,80,402372,1,8,0:0:0:0:
345,90,402539,1,8,0:0:0:0:
77,233,402705,1,4,0:0:0:0:
227,89,403038,1,8,0:0:0:0:
227,89,403205,1,0,0:0:0:0:
227,89,403538,1,0,0:0:0:0:
227,89,403705,1,8,0:0:0:0:
227,89,404038,1,0,0:0:0:0:
227,89,404205,1,0,0:0:0:0:
227,89,404372,1,8,0:0:0:0:
227,89,404538,1,0,0:0:0:0:
227,89,404872,1,0,0:0:0:0:
227,89,405038,1,8,0:0:0:0:
227,89,405205,1,0,0:0:0:0:
227,89,405372,1,0,0:0:0:0:
227,89,405705,1,8,0:0:0:0:
227,89,405872,1,0,0:0:0:0:
227,89,406205,1,0,0:0:0:0:
227,89,406372,1,8,0:0:0:0:
227,89,406705,1,0,0:0:0:0:
227,89,406872,1,0,0:0:0:0:
227,89,407038,1,8,0:0:0:0:
227,89,407205,1,0,0:0:0:0:
126,129,407372,1,0,0:0:0:0:
227,89,407538,1,8,0:0:0:0:
227,89,407705,1,8,0:0:0:0:
227,89,407872,1,8,0:0:0:0:
227,89,408038,1,4,0:0:0:0:
227,89,408372,1,8,0:0:0:0:
227,89,408538,1,0,0:0:0:0:
227,89,408872,1,0,0:0:0:0:
227,89,409038,1,8,0:0:0:0:
227,89,409372,1,0,0:0:0:0:
227,89,409538,1,0,0:0:0:0:
227,89,409705,1,8,0:0:0:0:
227,89,409872,1,0,0:0:0:0:
227,89,410205,1,0,0:0:0:0:
227,89,410372,1,8,0:0:0:0:
114,173,410539,1,8,0:0:0:0:
114,173,410705,1,4,0:0:0:0:
113,183,411039,1,8,0:0:0:0:
113,183,411205,1,0,0:0:0:0:
113,183,411372,1,0,0:0:0:0:
113,183,411539,1,0,0:0:0:0:
113,183,411705,1,8,0:0:0:0:
113,183,411872,1,0,0:0:0:0:
122,184,412039,1,0,0:0:0:0:
295,99,412205,1,8,0:0:0:0:
295,99,412289,1,0,0:0:0:0:
295,99,412373,1,0,0:0:0:0:
136,199,412540,1,8,0:0:0:0:
309,214,412622,1,0,0:0:0:0:
83,53,412705,1,8,0:0:0:0:
129,38,412761,1,8,0:0:0:0:
129,38,412817,1,8,0:0:0:0:
309,214,412872,1,0,0:0:0:0:
166,119,412955,1,0,0:0:0:0:
309,214,413039,1,8,0:0:0:0:
226,85,413094,1,0,0:0:0:0:
226,85,413150,1,0,0:0:0:0:
304,215,413205,1,8,0:0:0:0:
322,252,413289,1,0,0:0:0:0:
209,211,413373,5,12,0:0:0:0:
