osu file format v14

[General]
AudioFilename: audio.mp3
AudioLeadIn: 0
PreviewTime: 44291
Countdown: 0
SampleSet: Normal
StackLeniency: 0.7
Mode: 1
LetterboxInBreaks: 0
WidescreenStoryboard: 1

[Editor]
Bookmarks: 52767,60297
DistanceSpacing: 0.9
BeatDivisor: 2
GridSize: 32
TimelineZoom: 1.8

[Metadata]
Title:Fake.Fake.Fake
TitleUnicode:Fake.Fake.Fake
Artist:AZKi
ArtistUnicode:AZKi
Creator:WTHBRO
Version:Kantan
Source:
Tags:azur lane x hololive BLaCK INNK Music minato aqua virtual youtuber vtuber japanese rock jrock j-rock Yuta Tanaka fakefakefake x_a_v_y xavy MTNTWarz Heaxys
BeatmapID:2724595
BeatmapSetID:1283761

[Difficulty]
HPDrainRate:7
CircleSize:5
OverallDifficulty:3.5
ApproachRate:5
SliderMultiplier:1.4
SliderTickRate:1

[Events]
//Background and Video events
0,0,"azki.jpg",0,0
Video,-235,"fakefakefake.mp4"
//Break Periods
//Storyboard Layer 0 (Background)
//Storyboard Layer 1 (Fail)
//Storyboard Layer 2 (Pass)
//Storyboard Layer 3 (Foreground)
//Storyboard Layer 4 (Overlay)
//Storyboard Sound Samples

[TimingPoints]
-20,235.294117647059,4,1,0,80,1,0
1862,-125,4,1,0,80,0,0
3744,-125,4,1,0,90,0,1
15038,-142.857142857143,4,1,0,70,0,0
45156,-125,4,1,0,100,0,1
60215,-133.333333333333,4,1,0,95,0,1
73391,-133.333333333333,4,1,0,95,0,0
75274,-125,4,1,0,90,0,1
86568,-142.857142857143,4,1,0,70,0,0
109156,-125,4,1,0,80,0,0
116685,-125,4,1,0,100,0,1
145862,-153.846153846154,4,1,0,70,0,0
161862,-142.857142857143,4,1,0,85,0,1
176921,-142.857142857143,4,1,0,85,0,0
178803,-125,4,1,0,100,0,1
207980,-144.927536231884,4,1,0,70,0,0
208921,-125,4,1,0,90,0,1
220215,235.294117647059,31,1,0,90,1,0
220215,-125,31,1,0,90,0,0
220450,-86.9565217391304,31,1,0,90,0,0
227509,-100,31,1,0,90,0,0

[HitObjects]
260,187,1862,5,8,0:0:0:0:
260,187,2215,1,8,0:0:0:0:
260,187,2568,1,8,0:0:0:0:
260,187,2803,1,0,0:0:0:0:
253,186,3744,1,12,0:0:0:0:
253,186,4215,1,0,0:0:0:0:
253,186,4450,1,8,0:0:0:0:
254,190,4685,1,0,0:0:0:0:
253,186,5156,1,8,0:0:0:0:
262,173,5627,1,0,0:0:0:0:
262,173,5862,1,8,0:0:0:0:
262,173,6332,1,8,0:0:0:0:
261,191,6803,1,0,0:0:0:0:
261,191,7038,1,0,0:0:0:0:
275,187,7509,1,8,0:0:0:0:
262,173,7980,1,0,0:0:0:0:
262,173,8215,1,8,0:0:0:0:
264,172,8450,1,0,0:0:0:0:
262,173,8921,1,8,0:0:0:0:
257,171,9391,1,0,0:0:0:0:
257,171,9627,1,8,0:0:0:0:
257,171,9862,1,0,0:0:0:0:
257,171,10097,1,8,0:0:0:0:
257,171,10568,1,8,0:0:0:0:
257,171,11274,1,8,0:0:0:0:
260,154,11744,1,0,0:0:0:0:
260,154,11980,1,8,0:0:0:0:
260,154,12215,1,0,0:0:0:0:
261,171,12685,1,8,0:0:0:0:
260,154,13156,1,8,0:0:0:0:
260,154,13509,1,8,0:0:0:0:
260,154,13862,1,8,0:0:0:0:
260,154,14097,1,0,0:0:0:0:
260,154,15038,1,4,0:0:0:0:
242,209,15391,1,0,0:0:0:0:
240,197,15744,1,8,0:0:0:0:
240,197,16215,1,8,0:0:0:0:
250,178,16685,1,8,0:0:0:0:
239,173,16921,1,0,0:0:0:0:
242,209,17274,1,8,0:0:0:0:
240,197,17627,1,8,0:0:0:0:
239,173,18803,1,0,0:0:0:0:
242,209,19156,1,0,0:0:0:0:
240,197,19509,1,8,0:0:0:0:
240,197,19980,1,8,0:0:0:0:
244,200,20215,1,0,0:0:0:0:
239,173,20685,1,8,0:0:0:0:
240,197,21156,1,0,0:0:0:0:
250,187,21391,1,8,0:0:0:0:
240,197,21862,1,8,0:0:0:0:
250,184,22332,1,8,0:0:0:0:
239,173,22568,1,0,0:0:0:0:
240,197,23274,1,0,0:0:0:0:
226,188,23509,1,8,0:0:0:0:
244,200,24215,1,8,0:0:0:0:
239,173,24450,1,0,0:0:0:0:
242,209,24803,1,0,0:0:0:0:
240,197,25156,1,8,0:0:0:0:
240,197,25627,1,8,0:0:0:0:
247,193,26097,1,0,0:0:0:0:
239,173,26332,1,0,0:0:0:0:
242,209,26685,1,0,0:0:0:0:
240,197,27038,1,8,0:0:0:0:
240,197,27509,1,8,0:0:0:0:
244,200,27744,1,0,0:0:0:0:
244,200,27980,1,0,0:0:0:0:
254,193,28215,1,8,0:0:0:0:
254,193,28685,1,8,0:0:0:0:
261,187,29156,1,8,0:0:0:0:
269,189,29391,1,0,0:0:0:0:
256,178,29627,1,0,0:0:0:0:
255,189,30097,1,12,0:0:0:0:
249,186,30803,1,8,0:0:0:0:
249,189,31038,1,8,0:0:0:0:
249,186,31509,1,0,0:0:0:0:
249,189,31980,1,12,0:0:0:0:
249,186,32450,1,8,0:0:0:0:
249,186,32685,1,8,0:0:0:0:
249,189,33156,1,0,0:0:0:0:
251,184,33627,1,8,0:0:0:0:
249,189,33862,1,4,0:0:0:0:
245,189,34568,1,8,0:0:0:0:
249,189,34803,1,4,0:0:0:0:
245,189,35274,1,8,0:0:0:0:
249,189,35744,1,4,0:0:0:0:
250,187,36215,1,8,0:0:0:0:
250,187,36450,1,8,0:0:0:0:
249,189,36921,1,0,0:0:0:0:
250,187,37156,1,0,0:0:0:0:
248,173,37391,1,0,0:0:0:0:
248,173,37627,1,12,0:0:0:0:
266,200,38332,1,0,0:0:0:0:
248,173,38568,1,8,0:0:0:0:
248,173,39274,1,0,0:0:0:0:
266,200,39509,1,8,0:0:0:0:
248,173,40215,1,0,0:0:0:0:
266,200,40450,1,8,0:0:0:0:
266,200,41156,1,8,0:0:0:0:
266,200,41391,1,0,0:0:0:0:
266,200,41862,1,8,0:0:0:0:
266,200,42097,1,8,0:0:0:0:
266,200,42332,1,0,0:0:0:0:
266,200,42803,1,0,0:0:0:0:
266,200,43038,1,8,0:0:0:0:
272,188,43274,1,8,0:0:0:0:
266,200,43509,1,0,0:0:0:0:
266,200,43744,1,0,0:0:0:0:
263,192,44215,1,0,0:0:0:0:
253,186,45156,1,12,0:0:0:0:
254,183,45509,1,8,0:0:0:0:
253,186,45862,1,8,0:0:0:0:
254,183,46332,1,8,0:0:0:0:
254,183,46568,1,0,0:0:0:0:
253,186,46803,1,0,0:0:0:0:
254,183,47038,1,8,0:0:0:0:
261,177,47509,1,0,0:0:0:0:
253,186,47744,1,8,0:0:0:0:
254,183,47980,1,8,0:0:0:0:
254,183,48921,1,8,0:0:0:0:
254,183,49274,1,8,0:0:0:0:
254,183,49627,1,8,0:0:0:0:
254,183,50097,1,8,0:0:0:0:
254,183,50332,1,8,0:0:0:0:
251,177,50568,1,0,0:0:0:0:
254,183,50803,1,0,0:0:0:0:
254,183,51274,1,8,0:0:0:0:
262,185,51509,1,0,0:0:0:0:
254,183,51744,1,8,0:0:0:0:
262,185,52450,1,0,0:0:0:0:
262,185,52685,1,0,0:0:0:0:
241,179,53156,1,0,0:0:0:0:
254,183,53391,1,8,0:0:0:0:
254,183,53627,1,8,0:0:0:0:
257,168,54332,1,0,0:0:0:0:
254,183,54568,1,0,0:0:0:0:
257,168,55038,1,0,0:0:0:0:
254,183,55274,1,8,0:0:0:0:
254,183,55509,1,8,0:0:0:0:
258,186,56215,1,0,0:0:0:0:
258,186,56450,1,8,0:0:0:0:
259,183,56921,1,0,0:0:0:0:
258,186,57391,1,8,0:0:0:0:
259,183,57862,1,0,0:0:0:0:
258,186,58097,1,8,0:0:0:0:
258,186,58332,1,8,0:0:0:0:
259,183,58685,1,8,0:0:0:0:
258,186,59038,1,8,0:0:0:0:
258,186,59274,1,0,0:0:0:0:
258,186,60215,1,12,0:0:0:0:
258,186,60568,1,8,0:0:0:0:
258,186,60921,1,8,0:0:0:0:
258,186,61391,1,8,0:0:0:0:
264,173,61627,1,8,0:0:0:0:
264,173,61862,1,8,0:0:0:0:
264,173,62097,1,0,0:0:0:0:
260,177,62568,1,0,0:0:0:0:
260,177,62803,1,8,0:0:0:0:
264,173,63038,1,0,0:0:0:0:
258,186,63980,1,12,0:0:0:0:
264,173,64332,1,8,0:0:0:0:
258,186,64685,1,8,0:0:0:0:
258,186,65156,1,8,0:0:0:0:
258,186,65391,1,0,0:0:0:0:
264,173,65862,1,0,0:0:0:0:
252,178,66332,1,8,0:0:0:0:
252,178,66568,1,0,0:0:0:0:
258,186,66803,1,8,0:0:0:0:
264,173,67744,1,0,0:0:0:0:
264,173,67980,1,8,0:0:0:0:
258,186,68450,1,8,0:0:0:0:
264,173,68685,1,0,0:0:0:0:
258,186,69391,1,0,0:0:0:0:
258,186,69627,1,8,0:0:0:0:
256,184,69862,1,8,0:0:0:0:
258,186,70332,1,8,0:0:0:0:
258,186,70568,1,0,0:0:0:0:
258,186,71509,1,8,0:0:0:0:
258,186,71744,1,0,0:0:0:0:
258,186,71980,1,8,0:0:0:0:
258,186,72450,1,8,0:0:0:0:
258,186,72921,1,8,0:0:0:0:
258,186,73156,1,8,0:0:0:0:
258,186,73391,1,8,0:0:0:0:
272,178,74332,1,0,0:0:0:0:
258,186,74803,1,0,0:0:0:0:
253,186,75274,1,12,0:0:0:0:
253,186,75744,1,0,0:0:0:0:
253,186,75980,1,8,0:0:0:0:
254,190,76215,1,0,0:0:0:0:
253,186,76685,1,8,0:0:0:0:
262,173,77156,1,0,0:0:0:0:
262,173,77391,1,8,0:0:0:0:
262,173,77627,1,0,0:0:0:0:
262,173,77862,1,8,0:0:0:0:
251,189,78332,1,0,0:0:0:0:
264,193,78568,1,0,0:0:0:0:
275,187,79038,1,8,0:0:0:0:
262,173,79509,1,0,0:0:0:0:
262,173,79744,1,8,0:0:0:0:
264,172,79980,1,0,0:0:0:0:
262,173,80450,1,8,0:0:0:0:
257,171,80921,1,0,0:0:0:0:
257,171,81156,1,8,0:0:0:0:
257,171,81391,1,0,0:0:0:0:
257,171,81627,1,8,0:0:0:0:
257,171,82097,1,8,0:0:0:0:
257,171,82332,1,0,0:0:0:0:
257,171,82803,1,8,0:0:0:0:
260,154,83274,1,0,0:0:0:0:
260,154,83509,1,8,0:0:0:0:
260,154,83744,1,0,0:0:0:0:
252,149,84215,1,8,0:0:0:0:
260,154,84685,1,8,0:0:0:0:
260,154,85038,1,8,0:0:0:0:
260,154,85391,1,8,0:0:0:0:
260,154,85627,1,0,0:0:0:0:
260,154,86568,1,4,0:0:0:0:
242,209,86921,1,0,0:0:0:0:
240,197,87274,1,8,0:0:0:0:
240,197,87744,1,8,0:0:0:0:
250,178,88215,1,8,0:0:0:0:
239,173,88450,1,0,0:0:0:0:
242,209,88803,1,8,0:0:0:0:
240,197,89156,1,8,0:0:0:0:
239,173,90332,1,0,0:0:0:0:
242,209,90685,1,0,0:0:0:0:
240,197,91038,1,8,0:0:0:0:
240,197,91509,1,8,0:0:0:0:
244,200,91744,1,0,0:0:0:0:
239,173,92215,1,8,0:0:0:0:
250,187,92685,1,8,0:0:0:0:
240,197,92921,1,0,0:0:0:0:
240,197,93391,1,8,0:0:0:0:
239,173,93862,1,0,0:0:0:0:
250,184,94097,1,8,0:0:0:0:
240,197,94803,1,0,0:0:0:0:
226,188,95038,1,8,0:0:0:0:
244,200,95744,1,8,0:0:0:0:
239,173,95980,1,0,0:0:0:0:
242,209,96332,1,0,0:0:0:0:
240,197,96685,1,8,0:0:0:0:
240,197,97156,1,8,0:0:0:0:
243,186,97627,1,0,0:0:0:0:
239,173,97862,1,0,0:0:0:0:
242,209,98215,1,0,0:0:0:0:
240,197,98568,1,8,0:0:0:0:
240,197,99038,1,8,0:0:0:0:
244,200,99509,1,0,0:0:0:0:
254,193,99744,1,12,0:0:0:0:
244,200,99980,1,8,0:0:0:0:
254,193,100215,1,8,0:0:0:0:
261,187,100685,1,8,0:0:0:0:
269,189,100921,1,0,0:0:0:0:
256,178,101156,1,8,0:0:0:0:
255,189,101627,1,12,0:0:0:0:
249,186,102332,1,8,0:0:0:0:
249,189,102568,1,8,0:0:0:0:
249,186,103038,1,0,0:0:0:0:
249,189,103509,1,12,0:0:0:0:
249,186,103980,1,8,0:0:0:0:
249,186,104215,1,8,0:0:0:0:
249,189,104685,1,0,0:0:0:0:
251,184,105156,1,8,0:0:0:0:
249,189,105391,1,4,0:0:0:0:
245,189,106097,1,8,0:0:0:0:
249,189,106332,1,4,0:0:0:0:
245,189,106803,1,8,0:0:0:0:
249,189,107274,1,4,0:0:0:0:
250,187,107744,1,8,0:0:0:0:
250,187,107980,1,8,0:0:0:0:
249,189,108450,1,0,0:0:0:0:
250,187,108685,1,0,0:0:0:0:
248,173,108921,1,0,0:0:0:0:
248,173,109156,1,12,0:0:0:0:
266,200,109862,1,8,0:0:0:0:
248,173,110097,1,0,0:0:0:0:
266,200,110803,1,0,0:0:0:0:
248,173,111038,1,8,0:0:0:0:
266,200,111744,1,8,0:0:0:0:
248,173,111980,1,0,0:0:0:0:
266,200,112685,1,8,0:0:0:0:
266,200,112921,1,0,0:0:0:0:
266,200,113391,1,8,0:0:0:0:
266,200,113627,1,8,0:0:0:0:
266,200,113862,1,0,0:0:0:0:
266,200,114332,1,0,0:0:0:0:
266,200,114568,1,8,0:0:0:0:
272,188,114803,1,8,0:0:0:0:
266,192,115038,1,0,0:0:0:0:
266,192,115274,1,0,0:0:0:0:
263,192,115744,1,0,0:0:0:0:
253,186,116685,1,12,0:0:0:0:
254,183,117038,1,8,0:0:0:0:
253,186,117391,1,8,0:0:0:0:
254,183,117862,1,8,0:0:0:0:
254,183,118097,1,0,0:0:0:0:
264,179,118332,1,0,0:0:0:0:
254,183,118568,1,8,0:0:0:0:
261,177,119038,1,0,0:0:0:0:
253,186,119274,1,8,0:0:0:0:
254,183,119509,1,8,0:0:0:0:
254,183,120450,1,8,0:0:0:0:
254,183,120803,1,8,0:0:0:0:
254,183,121156,1,8,0:0:0:0:
251,177,121391,1,0,0:0:0:0:
254,183,121627,1,8,0:0:0:0:
254,183,121862,1,8,0:0:0:0:
254,183,122332,1,0,0:0:0:0:
254,183,122803,1,8,0:0:0:0:
262,185,123038,1,0,0:0:0:0:
254,183,123274,1,8,0:0:0:0:
262,185,123980,1,0,0:0:0:0:
262,185,124215,1,0,0:0:0:0:
241,179,124685,1,0,0:0:0:0:
254,183,124921,1,8,0:0:0:0:
254,183,125156,1,8,0:0:0:0:
257,168,125862,1,0,0:0:0:0:
254,183,126097,1,0,0:0:0:0:
257,168,126568,1,0,0:0:0:0:
254,183,126803,1,8,0:0:0:0:
254,183,127038,1,8,0:0:0:0:
258,186,127744,1,0,0:0:0:0:
258,186,127980,1,8,0:0:0:0:
259,183,128450,1,0,0:0:0:0:
263,180,128685,1,0,0:0:0:0:
258,186,128921,1,8,0:0:0:0:
259,183,129391,1,0,0:0:0:0:
258,186,129627,1,8,0:0:0:0:
258,186,129862,1,8,0:0:0:0:
259,183,130215,1,8,0:0:0:0:
258,186,130568,1,8,0:0:0:0:
258,186,130803,1,0,0:0:0:0:
258,186,131744,1,12,0:0:0:0:
258,186,132097,1,8,0:0:0:0:
258,186,132450,1,8,0:0:0:0:
258,186,132921,1,8,0:0:0:0:
264,173,133156,1,8,0:0:0:0:
264,173,133391,1,0,0:0:0:0:
264,173,133627,1,8,0:0:0:0:
264,190,134097,1,0,0:0:0:0:
258,186,134332,1,8,0:0:0:0:
264,173,134568,1,0,0:0:0:0:
258,186,135509,1,8,0:0:0:0:
264,173,135862,1,8,0:0:0:0:
258,186,136215,1,8,0:0:0:0:
258,186,136685,1,8,0:0:0:0:
258,186,136921,1,0,0:0:0:0:
264,173,137391,1,0,0:0:0:0:
258,186,137862,1,8,0:0:0:0:
267,187,138097,1,0,0:0:0:0:
258,186,138332,1,8,0:0:0:0:
264,173,139274,1,0,0:0:0:0:
264,173,139509,1,8,0:0:0:0:
258,186,139980,1,8,0:0:0:0:
264,173,140215,1,0,0:0:0:0:
258,186,140921,1,8,0:0:0:0:
258,186,141156,1,0,0:0:0:0:
256,184,141391,1,8,0:0:0:0:
258,186,141862,1,8,0:0:0:0:
258,186,142097,1,0,0:0:0:0:
258,209,142803,1,0,0:0:0:0:
258,186,143038,1,8,0:0:0:0:
258,186,143274,1,0,0:0:0:0:
258,186,143509,1,8,0:0:0:0:
258,186,143980,1,8,0:0:0:0:
258,186,144450,1,8,0:0:0:0:
258,186,144685,1,8,0:0:0:0:
258,186,144921,1,8,0:0:0:0:
272,178,145862,1,0,0:0:0:0:
258,186,146332,1,0,0:0:0:0:
247,178,146803,5,8,0:0:0:0:
247,178,147156,1,0,0:0:0:0:
247,178,147509,1,0,0:0:0:0:
247,178,147744,1,8,0:0:0:0:
247,178,148685,5,8,0:0:0:0:
247,178,149038,1,0,0:0:0:0:
247,178,149391,1,0,0:0:0:0:
247,178,149627,1,8,0:0:0:0:
247,178,150097,1,0,0:0:0:0:
247,178,150568,1,8,0:0:0:0:
247,178,151038,1,0,0:0:0:0:
247,178,151509,1,8,0:0:0:0:
247,178,151980,1,0,0:0:0:0:
247,178,152215,1,8,0:0:0:0:
247,178,152450,1,0,0:0:0:0:
250,164,152803,1,0,0:0:0:0:
250,164,153156,1,0,0:0:0:0:
250,164,153391,1,0,0:0:0:0:
250,164,154332,1,12,0:0:0:0:
253,158,154685,1,0,0:0:0:0:
253,158,155038,1,0,0:0:0:0:
253,158,155274,1,8,0:0:0:0:
253,158,155744,1,8,0:0:0:0:
253,158,156215,1,0,0:0:0:0:
253,158,156568,1,0,0:0:0:0:
253,158,156921,1,0,0:0:0:0:
253,158,157156,1,8,0:0:0:0:
235,129,158097,1,8,0:0:0:0:
235,129,158568,1,0,0:0:0:0:
235,129,159038,1,8,0:0:0:0:
235,129,159509,1,0,0:0:0:0:
235,129,159980,1,0,0:0:0:0:
235,129,160215,1,8,0:0:0:0:
235,129,160450,1,0,0:0:0:0:
264,164,160921,1,8,0:0:0:0:
264,164,161156,1,8,0:0:0:0:
264,164,161391,1,0,0:0:0:0:
264,164,161627,1,0,0:0:0:0:
264,164,161862,1,8,0:0:0:0:
270,161,162332,1,0,0:0:0:0:
266,156,162568,1,8,0:0:0:0:
270,161,162803,1,0,0:0:0:0:
266,156,163274,1,0,0:0:0:0:
266,156,163509,1,8,0:0:0:0:
275,155,163744,1,0,0:0:0:0:
275,155,164215,1,0,0:0:0:0:
252,123,164450,1,8,0:0:0:0:
266,139,164685,1,8,0:0:0:0:
226,136,165627,1,4,0:0:0:0:
283,148,166097,1,8,0:0:0:0:
253,140,166332,1,8,0:0:0:0:
283,148,166568,1,0,0:0:0:0:
297,141,167038,1,8,0:0:0:0:
297,141,167274,1,0,0:0:0:0:
283,148,167509,1,0,0:0:0:0:
293,154,167980,1,0,0:0:0:0:
293,154,168215,1,8,0:0:0:0:
293,154,168450,1,0,0:0:0:0:
293,154,169391,1,8,0:0:0:0:
293,154,169744,1,0,0:0:0:0:
253,140,170097,1,8,0:0:0:0:
283,148,170332,1,0,0:0:0:0:
253,140,170568,1,8,0:0:0:0:
249,149,171038,1,0,0:0:0:0:
249,149,171274,1,8,0:0:0:0:
263,151,171627,1,0,0:0:0:0:
249,149,171980,1,8,0:0:0:0:
261,169,172215,1,0,0:0:0:0:
249,149,172450,1,8,0:0:0:0:
265,198,173156,1,8,0:0:0:0:
272,183,173627,1,0,0:0:0:0:
272,183,173862,1,0,0:0:0:0:
265,198,174097,1,8,0:0:0:0:
272,183,174568,1,0,0:0:0:0:
272,183,174803,1,8,0:0:0:0:
272,188,175038,1,0,0:0:0:0:
272,188,175509,1,0,0:0:0:0:
293,156,175980,1,0,0:0:0:0:
259,178,176450,1,0,0:0:0:0:
259,178,176685,1,0,0:0:0:0:
260,178,176921,1,12,0:0:0:0:
240,169,177862,1,0,0:0:0:0:
253,186,178803,1,12,0:0:0:0:
254,183,179156,1,8,0:0:0:0:
253,186,179509,1,8,0:0:0:0:
254,183,179980,1,8,0:0:0:0:
254,183,180215,1,0,0:0:0:0:
264,179,180450,1,0,0:0:0:0:
254,183,180685,1,8,0:0:0:0:
261,177,181156,1,0,0:0:0:0:
253,186,181391,1,8,0:0:0:0:
254,183,181627,1,8,0:0:0:0:
254,183,182568,1,8,0:0:0:0:
254,183,182921,1,8,0:0:0:0:
254,183,183274,1,8,0:0:0:0:
251,177,183509,1,0,0:0:0:0:
254,183,183744,1,8,0:0:0:0:
254,183,183980,1,8,0:0:0:0:
254,183,184215,1,0,0:0:0:0:
251,177,184450,1,0,0:0:0:0:
254,183,184921,1,8,0:0:0:0:
262,185,185156,1,0,0:0:0:0:
254,183,185391,1,8,0:0:0:0:
262,185,186097,1,0,0:0:0:0:
262,185,186332,1,0,0:0:0:0:
241,179,186803,1,0,0:0:0:0:
254,183,187038,1,8,0:0:0:0:
254,183,187274,1,8,0:0:0:0:
257,168,187980,1,0,0:0:0:0:
254,183,188215,1,0,0:0:0:0:
257,168,188685,1,0,0:0:0:0:
254,183,188921,1,8,0:0:0:0:
254,183,189156,1,8,0:0:0:0:
258,186,189862,1,0,0:0:0:0:
258,186,190097,1,8,0:0:0:0:
259,183,190568,1,0,0:0:0:0:
263,180,190803,1,0,0:0:0:0:
258,186,191038,1,8,0:0:0:0:
259,183,191509,1,0,0:0:0:0:
258,186,191744,1,8,0:0:0:0:
258,186,191980,1,8,0:0:0:0:
259,183,192332,1,8,0:0:0:0:
258,186,192685,1,8,0:0:0:0:
258,186,192921,1,0,0:0:0:0:
258,186,193862,1,12,0:0:0:0:
258,186,194215,1,8,0:0:0:0:
258,186,194568,1,8,0:0:0:0:
258,186,195038,1,8,0:0:0:0:
264,173,195274,1,8,0:0:0:0:
264,173,195509,1,0,0:0:0:0:
264,173,195744,1,8,0:0:0:0:
261,180,196215,1,0,0:0:0:0:
258,186,196450,1,8,0:0:0:0:
264,173,196685,1,0,0:0:0:0:
258,186,197627,1,12,0:0:0:0:
264,173,197980,1,8,0:0:0:0:
258,186,198332,1,8,0:0:0:0:
258,186,198803,1,8,0:0:0:0:
247,167,199038,1,8,0:0:0:0:
247,167,199274,1,8,0:0:0:0:
264,173,199509,1,0,0:0:0:0:
258,186,199980,1,8,0:0:0:0:
267,187,200215,1,0,0:0:0:0:
258,186,200450,1,8,0:0:0:0:
264,173,201391,1,0,0:0:0:0:
264,173,201627,1,8,0:0:0:0:
258,186,202097,1,8,0:0:0:0:
264,173,202332,1,0,0:0:0:0:
258,186,203038,1,8,0:0:0:0:
258,186,203274,1,0,0:0:0:0:
256,184,203509,1,8,0:0:0:0:
258,186,203980,1,8,0:0:0:0:
258,186,204215,1,0,0:0:0:0:
256,191,204921,1,0,0:0:0:0:
258,186,205156,1,8,0:0:0:0:
258,186,205391,1,0,0:0:0:0:
258,186,205627,1,8,0:0:0:0:
258,186,206097,1,8,0:0:0:0:
258,186,206332,1,0,0:0:0:0:
258,186,206568,1,8,0:0:0:0:
258,186,206803,1,8,0:0:0:0:
258,186,207038,1,8,0:0:0:0:
272,178,207980,1,0,0:0:0:0:
258,186,208450,1,0,0:0:0:0:
253,186,208921,1,12,0:0:0:0:
253,186,209391,1,0,0:0:0:0:
253,186,209627,1,8,0:0:0:0:
254,190,209862,1,0,0:0:0:0:
253,186,210332,1,8,0:0:0:0:
262,173,210803,1,0,0:0:0:0:
262,173,211038,1,8,0:0:0:0:
262,173,211274,1,0,0:0:0:0:
262,173,211509,1,8,0:0:0:0:
261,180,211980,1,0,0:0:0:0:
261,180,212215,1,0,0:0:0:0:
275,187,212685,1,8,0:0:0:0:
262,173,213156,1,0,0:0:0:0:
262,173,213391,1,8,0:0:0:0:
264,172,213627,1,0,0:0:0:0:
262,173,214097,1,8,0:0:0:0:
257,171,214568,1,0,0:0:0:0:
257,171,214803,1,8,0:0:0:0:
257,171,215038,1,0,0:0:0:0:
255,179,215274,1,0,0:0:0:0:
257,171,215509,1,8,0:0:0:0:
257,171,215980,1,8,0:0:0:0:
257,171,216450,1,8,0:0:0:0:
260,154,216921,1,0,0:0:0:0:
260,154,217156,1,8,0:0:0:0:
260,154,217391,1,0,0:0:0:0:
271,163,217862,1,8,0:0:0:0:
260,154,218332,1,8,0:0:0:0:
276,162,218685,1,8,0:0:0:0:
276,162,219038,1,8,0:0:0:0:
260,154,219274,1,0,0:0:0:0:
256,192,220215,1,4,0:0:0:0:
256,192,220450,12,0,227509,0:0:0:0:
