osu file format v14

[General]
AudioFilename: audio.mp3
AudioLeadIn: 0
PreviewTime: 44291
Countdown: 0
SampleSet: Normal
StackLeniency: 0.7
Mode: 1
LetterboxInBreaks: 0
WidescreenStoryboard: 0

[Editor]
Bookmarks: 52767,60297
DistanceSpacing: 0.9
BeatDivisor: 4
GridSize: 32
TimelineZoom: 2.9

[Metadata]
Title:Fake.Fake.Fake
TitleUnicode:Fake.Fake.Fake
Artist:AZKi
ArtistUnicode:AZKi
Creator:WTHBRO
Version:Imitated Oni
Source:
Tags:azur lane x hololive BLaCK INNK Music minato aqua virtual youtuber vtuber japanese rock jrock j-rock Yuta Tanaka fakefakefake x_a_v_y xavy MTNTWarz Heaxys
BeatmapID:2665951
BeatmapSetID:1283761

[Difficulty]
HPDrainRate:5.5
CircleSize:5
OverallDifficulty:6.5
ApproachRate:5
SliderMultiplier:1.4
SliderTickRate:1

[Events]
//Background and Video events
0,0,"azki.jpg",0,0
Video,-235,"fakefakefake.mp4"
//Break Periods
//Storyboard Layer 0 (Background)
//Storyboard Layer 1 (Fail)
//Storyboard Layer 2 (Pass)
//Storyboard Layer 3 (Foreground)
//Storyboard Layer 4 (Overlay)
//Storyboard Sound Samples

[TimingPoints]
-20,235.294117647059,4,1,0,80,1,0
3744,-100,4,1,0,90,0,1
14097,-101.010101010101,4,1,0,90,0,1
14156,-102.040816326531,4,1,0,90,0,1
14215,-103.092783505155,4,1,0,90,0,1
14274,-104.166666666667,4,1,0,90,0,1
14332,-105.263157894737,4,1,0,90,0,1
14391,-106.382978723404,4,1,0,90,0,1
14450,-107.52688172043,4,1,0,90,0,1
14509,-108.695652173913,4,1,0,90,0,1
14568,-109.89010989011,4,1,0,90,0,1
14627,-111.111111111111,4,1,0,90,0,1
14685,-112.359550561798,4,1,0,90,0,1
14744,-113.636363636364,4,1,0,90,0,1
14803,-114.942528735632,4,1,0,90,0,1
15038,-117.647058823529,4,1,0,70,0,0
29627,-116.279069767442,4,1,0,70,0,0
29744,-114.942528735632,4,1,0,70,0,0
29862,-113.636363636364,4,1,0,70,0,0
29980,-112.359550561798,4,1,0,70,0,0
30097,-111.111111111111,4,1,0,75,0,0
37156,-109.89010989011,4,1,0,75,0,0
37274,-108.695652173913,4,1,0,75,0,0
37391,-107.52688172043,4,1,0,75,0,0
37509,-106.382978723404,4,1,0,75,0,0
37627,-105.263157894737,4,1,0,80,0,0
44685,-103.092783505155,4,1,0,70,0,0
45156,-100,4,1,0,100,0,1
59744,-101.010101010101,4,1,0,100,0,1
59862,-102.040816326531,4,1,0,100,0,1
59980,-103.092783505155,4,1,0,100,0,1
60097,-104.166666666667,4,1,0,100,0,1
60215,-105.263157894737,4,1,0,95,0,1
71509,-100,4,1,0,95,0,1
73332,-100,4,1,0,90,0,1
73391,-100,4,1,0,90,0,0
73509,-104.166666666667,4,1,0,85,0,0
73744,-108.695652173913,4,1,0,80,0,0
73980,-113.636363636364,4,1,0,75,0,0
74215,-119.047619047619,4,1,0,70,0,0
75274,-100,4,1,0,90,0,1
85627,-101.010101010101,4,1,0,90,0,1
85744,-103.092783505155,4,1,0,90,0,1
85803,-104.166666666667,4,1,0,90,0,1
85862,-105.263157894737,4,1,0,90,0,1
85980,-107.52688172043,4,1,0,90,0,1
86097,-109.89010989011,4,1,0,90,0,1
86215,-112.359550561798,4,1,0,90,0,1
86332,-114.942528735632,4,1,0,90,0,1
86568,-117.647058823529,4,1,0,70,0,0
101156,-116.279069767442,4,1,0,70,0,0
101274,-114.942528735632,4,1,0,70,0,0
101391,-113.636363636364,4,1,0,70,0,0
101509,-112.359550561798,4,1,0,70,0,0
101627,-111.111111111111,4,1,0,75,0,0
108685,-109.89010989011,4,1,0,75,0,0
108803,-108.695652173913,4,1,0,75,0,0
108921,-107.52688172043,4,1,0,75,0,0
109038,-106.382978723404,4,1,0,75,0,0
109156,-105.263157894737,4,1,0,80,0,0
116685,-100,4,1,0,100,0,1
131274,-101.010101010101,4,1,0,100,0,1
131391,-102.040816326531,4,1,0,100,0,1
131509,-103.092783505155,4,1,0,100,0,1
131627,-104.166666666667,4,1,0,100,0,1
131744,-105.263157894737,4,1,0,95,0,1
143038,-100,4,1,0,95,0,1
144862,-100,4,1,0,90,0,1
145038,-105.263157894737,4,1,0,85,0,1
145274,-111.111111111111,4,1,0,80,0,1
145509,-117.647058823529,4,1,0,75,0,1
145744,-125,4,1,0,70,0,1
145862,-125,4,1,0,70,0,0
159921,-111.111111111111,4,1,0,80,0,0
161156,-109.89010989011,4,1,0,70,0,0
161274,-107.52688172043,4,1,0,70,0,0
161391,-105.263157894737,4,1,0,70,0,0
161509,-103.092783505155,4,1,0,70,0,0
161627,-101.010101010101,4,1,0,70,0,0
161744,-100,4,1,0,70,0,0
161862,-100,4,1,0,85,0,1
176215,-101.010101010101,4,1,0,85,0,1
176450,-102.040816326531,4,1,0,85,0,1
176685,-103.092783505155,4,1,0,85,0,1
176921,-104.166666666667,4,1,0,85,0,0
177862,-153.846153846154,4,1,0,70,0,0
178803,-100,4,1,0,100,0,1
193391,-101.010101010101,4,1,0,100,0,1
193509,-102.040816326531,4,1,0,100,0,1
193627,-103.092783505155,4,1,0,100,0,1
193744,-104.166666666667,4,1,0,100,0,1
193862,-105.263157894737,4,1,0,95,0,1
205156,-100,4,1,0,95,0,1
206980,-100,4,1,0,90,0,1
207156,-104.166666666667,4,1,0,85,0,1
207391,-108.695652173913,4,1,0,80,0,1
207627,-113.636363636364,4,1,0,75,0,1
207862,-119.047619047619,4,1,0,70,0,1
207980,-119.047619047619,4,1,0,70,0,0
208921,-100,4,1,0,90,0,1
219509,-101.010101010101,4,1,0,70,0,1
219627,-102.040816326531,4,1,0,70,0,1
219744,-103.092783505155,4,1,0,70,0,1
219862,-104.166666666667,4,1,0,70,0,1
219980,-105.263157894737,4,1,0,70,0,1
220215,235.294117647059,31,1,0,70,1,0
220215,-105.263157894737,31,1,0,70,0,0
220273,-66.6666666666667,31,1,0,70,0,0
227509,-100,31,1,0,70,0,0

[HitObjects]
260,187,1744,5,0,0:0:0:0:
260,187,1803,1,0,0:0:0:0:
260,187,1862,1,8,0:0:0:0:
260,187,2097,1,0,0:0:0:0:
260,187,2156,1,0,0:0:0:0:
260,187,2215,1,8,0:0:0:0:
260,187,2450,1,0,0:0:0:0:
260,187,2568,1,8,0:0:0:0:
260,187,2803,1,0,0:0:0:0:
260,187,2921,1,8,0:0:0:0:
260,187,2980,1,8,0:0:0:0:
260,187,3038,1,0,0:0:0:0:
260,187,3156,1,8,0:0:0:0:
260,187,3274,1,0,0:0:0:0:
260,187,3391,1,8,0:0:0:0:
260,187,3509,1,0,0:0:0:0:
256,190,3627,1,0,0:0:0:0:
253,186,3744,1,12,0:0:0:0:
253,186,3980,1,8,0:0:0:0:
253,168,4038,1,8,0:0:0:0:
253,186,4097,1,0,0:0:0:0:
253,186,4215,1,8,0:0:0:0:
253,186,4332,1,0,0:0:0:0:
253,186,4450,1,8,0:0:0:0:
259,194,4568,1,0,0:0:0:0:
254,190,4685,1,8,0:0:0:0:
254,190,4803,1,0,0:0:0:0:
253,186,4862,1,0,0:0:0:0:
253,186,4921,1,8,0:0:0:0:
254,190,5038,1,0,0:0:0:0:
253,186,5097,1,0,0:0:0:0:
253,186,5156,1,8,0:0:0:0:
254,190,5274,1,0,0:0:0:0:
253,186,5332,1,0,0:0:0:0:
253,186,5391,1,8,0:0:0:0:
250,166,5450,1,0,0:0:0:0:
253,179,5509,1,0,0:0:0:0:
253,186,5627,1,8,0:0:0:0:
253,186,5744,1,0,0:0:0:0:
253,186,5862,1,8,0:0:0:0:
253,186,5980,1,0,0:0:0:0:
253,186,6097,1,8,0:0:0:0:
278,184,6156,1,8,0:0:0:0:
253,186,6215,1,0,0:0:0:0:
254,190,6332,1,8,0:0:0:0:
254,190,6450,1,0,0:0:0:0:
253,186,6509,1,0,0:0:0:0:
253,186,6568,1,8,0:0:0:0:
254,190,6685,1,0,0:0:0:0:
253,186,6744,1,0,0:0:0:0:
253,186,6803,1,8,0:0:0:0:
254,190,6921,1,0,0:0:0:0:
253,186,6980,1,0,0:0:0:0:
253,186,7038,1,8,0:0:0:0:
260,167,7097,1,8,0:0:0:0:
253,179,7156,1,0,0:0:0:0:
271,183,7274,1,8,0:0:0:0:
271,183,7391,1,0,0:0:0:0:
250,168,7509,1,8,0:0:0:0:
250,168,7627,1,0,0:0:0:0:
253,186,7744,1,8,0:0:0:0:
249,162,7803,1,8,0:0:0:0:
253,186,7862,1,0,0:0:0:0:
253,186,7980,1,8,0:0:0:0:
253,186,8097,1,0,0:0:0:0:
253,186,8215,1,8,0:0:0:0:
253,186,8332,1,0,0:0:0:0:
254,190,8450,1,8,0:0:0:0:
254,190,8568,1,0,0:0:0:0:
253,186,8627,1,0,0:0:0:0:
253,186,8685,1,8,0:0:0:0:
254,190,8803,1,0,0:0:0:0:
253,186,8862,1,0,0:0:0:0:
253,186,8921,1,8,0:0:0:0:
254,190,9038,1,0,0:0:0:0:
253,186,9097,1,0,0:0:0:0:
253,186,9156,1,8,0:0:0:0:
253,179,9274,1,0,0:0:0:0:
253,186,9391,1,8,0:0:0:0:
253,186,9509,1,0,0:0:0:0:
253,186,9627,1,8,0:0:0:0:
246,163,9685,1,8,0:0:0:0:
253,186,9744,1,0,0:0:0:0:
253,186,9862,1,8,0:0:0:0:
253,186,9980,1,0,0:0:0:0:
254,190,10097,1,8,0:0:0:0:
254,190,10215,1,0,0:0:0:0:
253,186,10274,1,0,0:0:0:0:
253,186,10332,1,8,0:0:0:0:
254,190,10450,1,0,0:0:0:0:
253,186,10509,1,0,0:0:0:0:
253,186,10568,1,8,0:0:0:0:
254,190,10685,1,0,0:0:0:0:
253,186,10744,1,0,0:0:0:0:
253,186,10803,1,8,0:0:0:0:
260,167,10862,1,8,0:0:0:0:
253,179,10921,1,0,0:0:0:0:
271,183,11038,1,8,0:0:0:0:
271,183,11156,1,0,0:0:0:0:
250,168,11274,1,8,0:0:0:0:
250,168,11391,1,0,0:0:0:0:
253,186,11509,1,8,0:0:0:0:
268,184,11568,1,8,0:0:0:0:
253,186,11627,1,0,0:0:0:0:
253,186,11744,1,8,0:0:0:0:
253,186,11862,1,0,0:0:0:0:
253,186,11980,1,8,0:0:0:0:
253,186,12097,1,0,0:0:0:0:
254,190,12215,1,8,0:0:0:0:
264,189,12274,1,8,0:0:0:0:
254,190,12332,1,0,0:0:0:0:
253,186,12391,1,0,0:0:0:0:
253,186,12450,1,8,0:0:0:0:
254,190,12568,1,0,0:0:0:0:
253,186,12627,1,0,0:0:0:0:
253,186,12685,1,8,0:0:0:0:
254,190,12803,1,0,0:0:0:0:
253,186,12862,1,0,0:0:0:0:
253,186,12921,1,8,0:0:0:0:
253,179,13038,1,0,0:0:0:0:
253,180,13156,1,12,0:0:0:0:
253,180,13391,1,0,0:0:0:0:
253,180,13509,1,12,0:0:0:0:
253,180,13744,1,12,0:0:0:0:
263,175,13862,1,12,0:0:0:0:
251,175,14097,1,0,0:0:0:0:
251,175,14215,1,8,0:0:0:0:
251,175,14274,1,8,0:0:0:0:
251,175,14332,1,0,0:0:0:0:
251,175,14450,1,8,0:0:0:0:
251,175,14568,1,0,0:0:0:0:
251,175,14685,1,8,0:0:0:0:
251,175,14803,1,0,0:0:0:0:
239,173,15038,1,4,0:0:0:0:
239,173,15274,1,8,0:0:0:0:
242,209,15391,1,0,0:0:0:0:
240,197,15627,1,0,0:0:0:0:
240,197,15744,1,8,0:0:0:0:
240,197,16215,1,8,0:0:0:0:
244,200,16450,1,0,0:0:0:0:
244,200,16568,1,0,0:0:0:0:
244,200,16685,1,8,0:0:0:0:
239,173,16921,1,0,0:0:0:0:
239,173,17156,1,8,0:0:0:0:
242,209,17274,1,0,0:0:0:0:
240,197,17509,1,0,0:0:0:0:
240,197,17627,1,8,0:0:0:0:
240,197,18097,1,8,0:0:0:0:
244,200,18332,1,0,0:0:0:0:
244,200,18450,1,0,0:0:0:0:
244,200,18568,1,8,0:0:0:0:
239,173,18803,1,0,0:0:0:0:
239,173,19038,1,8,0:0:0:0:
242,209,19156,1,0,0:0:0:0:
240,197,19391,1,0,0:0:0:0:
240,197,19509,1,8,0:0:0:0:
240,197,19980,1,8,0:0:0:0:
244,200,20215,1,0,0:0:0:0:
244,200,20332,1,0,0:0:0:0:
244,200,20450,1,8,0:0:0:0:
239,173,20685,1,0,0:0:0:0:
239,173,20921,1,8,0:0:0:0:
242,209,21038,1,0,0:0:0:0:
250,187,21156,1,8,0:0:0:0:
240,197,21274,1,0,0:0:0:0:
240,197,21391,1,8,0:0:0:0:
240,197,21862,1,8,0:0:0:0:
244,200,22097,1,0,0:0:0:0:
244,200,22215,1,0,0:0:0:0:
244,200,22332,1,8,0:0:0:0:
239,173,22568,1,4,0:0:0:0:
239,173,22803,1,8,0:0:0:0:
242,209,22921,1,0,0:0:0:0:
240,197,23156,1,0,0:0:0:0:
240,197,23274,1,8,0:0:0:0:
226,188,23391,1,0,0:0:0:0:
226,188,23509,1,8,0:0:0:0:
240,197,23744,1,8,0:0:0:0:
244,200,23980,1,0,0:0:0:0:
244,200,24097,1,0,0:0:0:0:
244,200,24215,1,8,0:0:0:0:
239,173,24450,1,0,0:0:0:0:
239,173,24685,1,8,0:0:0:0:
242,209,24803,1,0,0:0:0:0:
240,197,25038,1,0,0:0:0:0:
240,197,25156,1,8,0:0:0:0:
240,197,25627,1,8,0:0:0:0:
244,200,25862,1,0,0:0:0:0:
244,200,25980,1,0,0:0:0:0:
244,200,26097,1,8,0:0:0:0:
239,173,26332,1,0,0:0:0:0:
239,173,26568,1,8,0:0:0:0:
242,209,26685,1,0,0:0:0:0:
240,197,26921,1,0,0:0:0:0:
240,197,27038,1,8,0:0:0:0:
240,197,27509,1,8,0:0:0:0:
244,200,27744,1,0,0:0:0:0:
244,200,27862,1,0,0:0:0:0:
244,200,27980,1,8,0:0:0:0:
254,193,28215,1,12,0:0:0:0:
254,193,28450,1,8,0:0:0:0:
254,193,28568,1,0,0:0:0:0:
254,193,28685,1,8,0:0:0:0:
268,196,28744,1,8,0:0:0:0:
254,193,28803,1,0,0:0:0:0:
254,193,28921,1,8,0:0:0:0:
261,187,29156,1,0,0:0:0:0:
249,186,29274,1,8,0:0:0:0:
261,187,29332,1,8,0:0:0:0:
261,187,29391,1,8,0:0:0:0:
249,186,29509,1,8,0:0:0:0:
249,186,29627,1,0,0:0:0:0:
249,186,29744,1,0,0:0:0:0:
249,186,29862,1,0,0:0:0:0:
249,186,29980,1,0,0:0:0:0:
255,189,30097,1,12,0:0:0:0:
249,189,30332,1,0,0:0:0:0:
249,186,30568,1,0,0:0:0:0:
249,186,30803,1,8,0:0:0:0:
249,189,31038,1,8,0:0:0:0:
236,179,31156,1,0,0:0:0:0:
249,189,31274,1,0,0:0:0:0:
249,186,31509,1,8,0:0:0:0:
249,186,31744,1,0,0:0:0:0:
249,189,31980,1,12,0:0:0:0:
249,189,32215,1,0,0:0:0:0:
249,186,32450,1,8,0:0:0:0:
249,186,32685,1,8,0:0:0:0:
249,189,32921,1,0,0:0:0:0:
251,184,33156,1,8,0:0:0:0:
249,186,33391,1,0,0:0:0:0:
253,188,33509,1,8,0:0:0:0:
249,186,33627,1,8,0:0:0:0:
249,189,33862,1,12,0:0:0:0:
251,184,34097,1,0,0:0:0:0:
245,189,34332,1,0,0:0:0:0:
245,189,34568,1,0,0:0:0:0:
249,189,34803,1,12,0:0:0:0:
245,189,35038,1,0,0:0:0:0:
245,189,35274,1,0,0:0:0:0:
245,189,35509,1,0,0:0:0:0:
249,189,35744,1,12,0:0:0:0:
250,187,35980,1,8,0:0:0:0:
250,187,36215,1,0,0:0:0:0:
250,187,36450,1,8,0:0:0:0:
249,189,36685,1,0,0:0:0:0:
260,177,36803,1,8,0:0:0:0:
260,177,36921,1,8,0:0:0:0:
260,177,37038,1,8,0:0:0:0:
274,182,37097,1,8,0:0:0:0:
250,187,37156,1,0,0:0:0:0:
248,173,37274,1,8,0:0:0:0:
248,173,37391,1,8,0:0:0:0:
248,173,37509,1,8,0:0:0:0:
248,173,37627,1,4,0:0:0:0:
266,200,37862,1,8,0:0:0:0:
266,200,38097,1,0,0:0:0:0:
266,200,38215,1,0,0:0:0:0:
266,200,38332,1,8,0:0:0:0:
249,180,38450,1,8,0:0:0:0:
248,173,38568,1,0,0:0:0:0:
266,200,38803,1,8,0:0:0:0:
266,200,39038,1,0,0:0:0:0:
266,200,39156,1,0,0:0:0:0:
266,200,39274,1,8,0:0:0:0:
248,173,39509,1,4,0:0:0:0:
266,200,39744,1,8,0:0:0:0:
266,200,39980,1,0,0:0:0:0:
266,200,40097,1,0,0:0:0:0:
266,200,40215,1,8,0:0:0:0:
255,185,40332,1,8,0:0:0:0:
248,173,40450,1,0,0:0:0:0:
266,200,40685,1,8,0:0:0:0:
266,200,40921,1,0,0:0:0:0:
257,185,40980,1,0,0:0:0:0:
266,200,41038,1,0,0:0:0:0:
266,200,41156,1,8,0:0:0:0:
266,200,41391,1,4,0:0:0:0:
266,200,41509,1,0,0:0:0:0:
266,200,41627,1,8,0:0:0:0:
266,200,41862,1,0,0:0:0:0:
266,200,41980,1,0,0:0:0:0:
266,200,42097,1,8,0:0:0:0:
266,200,42332,1,12,0:0:0:0:
266,200,42450,1,0,0:0:0:0:
266,200,42568,1,8,0:0:0:0:
266,200,42803,1,0,0:0:0:0:
266,200,42921,1,0,0:0:0:0:
266,200,43038,1,8,0:0:0:0:
272,201,43156,1,0,0:0:0:0:
272,188,43274,1,12,0:0:0:0:
261,180,43391,1,8,0:0:0:0:
263,192,43450,1,8,0:0:0:0:
263,192,43509,1,0,0:0:0:0:
263,192,43627,1,8,0:0:0:0:
263,192,43744,1,0,0:0:0:0:
263,192,43980,1,0,0:0:0:0:
263,192,44215,1,8,0:0:0:0:
263,192,44685,1,8,0:0:0:0:
253,186,45156,1,12,0:0:0:0:
253,186,45391,1,8,0:0:0:0:
253,186,45509,1,8,0:0:0:0:
263,192,45568,1,0,0:0:0:0:
253,186,45627,1,8,0:0:0:0:
253,186,45744,1,0,0:0:0:0:
253,186,45862,1,8,0:0:0:0:
253,190,45921,1,8,0:0:0:0:
259,194,45980,1,0,0:0:0:0:
254,190,46097,1,8,0:0:0:0:
254,190,46215,1,0,0:0:0:0:
253,186,46274,1,0,0:0:0:0:
253,186,46332,1,8,0:0:0:0:
254,190,46450,1,0,0:0:0:0:
253,186,46509,1,0,0:0:0:0:
253,186,46568,1,8,0:0:0:0:
254,190,46685,1,0,0:0:0:0:
253,186,46803,1,8,0:0:0:0:
250,166,46862,1,8,0:0:0:0:
253,179,46921,1,0,0:0:0:0:
253,186,46980,1,0,0:0:0:0:
253,186,47038,1,8,0:0:0:0:
253,186,47156,1,0,0:0:0:0:
253,186,47274,1,8,0:0:0:0:
253,186,47391,1,0,0:0:0:0:
253,186,47509,1,8,0:0:0:0:
253,186,47627,1,0,0:0:0:0:
254,190,47744,1,8,0:0:0:0:
258,182,47803,1,8,0:0:0:0:
254,190,47862,1,0,0:0:0:0:
253,186,47980,1,8,0:0:0:0:
254,190,48097,1,0,0:0:0:0:
253,186,48156,1,0,0:0:0:0:
253,186,48215,1,8,0:0:0:0:
254,190,48332,1,0,0:0:0:0:
253,186,48391,1,0,0:0:0:0:
253,186,48450,1,8,0:0:0:0:
260,167,48509,1,0,0:0:0:0:
253,179,48568,1,0,0:0:0:0:
271,183,48685,1,8,0:0:0:0:
271,183,48803,1,0,0:0:0:0:
248,167,48921,1,8,0:0:0:0:
247,172,48980,1,8,0:0:0:0:
243,165,49038,1,0,0:0:0:0:
243,165,49156,1,8,0:0:0:0:
253,186,49274,1,8,0:0:0:0:
256,167,49332,1,0,0:0:0:0:
253,186,49391,1,8,0:0:0:0:
253,186,49509,1,0,0:0:0:0:
253,186,49627,1,8,0:0:0:0:
250,176,49685,1,8,0:0:0:0:
253,186,49744,1,0,0:0:0:0:
254,190,49862,1,8,0:0:0:0:
254,190,49980,1,0,0:0:0:0:
253,186,50038,1,0,0:0:0:0:
253,186,50097,1,8,0:0:0:0:
249,180,50156,1,8,0:0:0:0:
254,190,50215,1,0,0:0:0:0:
253,186,50332,1,8,0:0:0:0:
253,186,50391,1,8,0:0:0:0:
254,190,50450,1,0,0:0:0:0:
253,186,50568,1,8,0:0:0:0:
253,179,50685,1,0,0:0:0:0:
253,186,50803,1,8,0:0:0:0:
245,166,50862,1,0,0:0:0:0:
253,186,50921,1,0,0:0:0:0:
253,186,51038,1,8,0:0:0:0:
253,186,51156,1,0,0:0:0:0:
253,186,51274,1,8,0:0:0:0:
257,184,51332,1,8,0:0:0:0:
253,186,51391,1,0,0:0:0:0:
254,190,51509,1,8,0:0:0:0:
254,190,51627,1,0,0:0:0:0:
253,186,51685,1,0,0:0:0:0:
253,186,51744,1,8,0:0:0:0:
254,190,51862,1,0,0:0:0:0:
253,186,51921,1,0,0:0:0:0:
253,186,51980,1,8,0:0:0:0:
254,190,52097,1,0,0:0:0:0:
253,186,52156,1,0,0:0:0:0:
253,186,52215,1,8,0:0:0:0:
253,179,52274,1,0,0:0:0:0:
273,180,52332,1,0,0:0:0:0:
271,183,52450,1,8,0:0:0:0:
271,183,52568,1,0,0:0:0:0:
253,186,52685,1,8,0:0:0:0:
253,186,52921,1,8,0:0:0:0:
263,192,53038,1,0,0:0:0:0:
253,186,53156,1,8,0:0:0:0:
280,197,53215,1,0,0:0:0:0:
253,186,53274,1,0,0:0:0:0:
253,186,53391,1,8,0:0:0:0:
253,190,53450,1,8,0:0:0:0:
259,194,53509,1,0,0:0:0:0:
254,190,53627,1,8,0:0:0:0:
254,190,53744,1,0,0:0:0:0:
253,186,53803,1,0,0:0:0:0:
253,186,53862,1,8,0:0:0:0:
254,190,53980,1,0,0:0:0:0:
253,186,54038,1,0,0:0:0:0:
253,186,54097,1,8,0:0:0:0:
254,190,54215,1,0,0:0:0:0:
253,186,54274,1,0,0:0:0:0:
253,186,54332,1,8,0:0:0:0:
250,166,54391,1,8,0:0:0:0:
253,179,54450,1,0,0:0:0:0:
253,186,54568,1,8,0:0:0:0:
253,186,54803,1,8,0:0:0:0:
253,186,54921,1,0,0:0:0:0:
253,186,55038,1,8,0:0:0:0:
257,180,55097,1,8,0:0:0:0:
253,186,55156,1,0,0:0:0:0:
258,182,55215,1,0,0:0:0:0:
254,190,55274,1,8,0:0:0:0:
254,190,55391,1,0,0:0:0:0:
253,186,55509,1,8,0:0:0:0:
254,190,55627,1,0,0:0:0:0:
253,186,55685,1,0,0:0:0:0:
253,186,55744,1,8,0:0:0:0:
254,190,55862,1,0,0:0:0:0:
253,186,55921,1,0,0:0:0:0:
253,186,55980,1,8,0:0:0:0:
253,179,56097,1,0,0:0:0:0:
273,180,56156,1,0,0:0:0:0:
271,183,56215,1,8,0:0:0:0:
270,174,56274,1,8,0:0:0:0:
271,183,56332,1,0,0:0:0:0:
250,168,56450,1,8,0:0:0:0:
247,172,56509,1,8,0:0:0:0:
250,168,56568,1,0,0:0:0:0:
253,186,56685,1,8,0:0:0:0:
253,186,56803,1,0,0:0:0:0:
253,186,56921,1,8,0:0:0:0:
253,186,57038,1,0,0:0:0:0:
253,186,57156,1,8,0:0:0:0:
253,186,57274,1,0,0:0:0:0:
254,190,57391,1,8,0:0:0:0:
254,190,57509,1,0,0:0:0:0:
253,186,57568,1,0,0:0:0:0:
253,186,57627,1,8,0:0:0:0:
254,190,57744,1,0,0:0:0:0:
253,186,57803,1,0,0:0:0:0:
253,186,57862,1,8,0:0:0:0:
254,190,57980,1,0,0:0:0:0:
253,186,58038,1,0,0:0:0:0:
253,186,58097,1,8,0:0:0:0:
253,186,58156,1,8,0:0:0:0:
253,179,58215,1,0,0:0:0:0:
253,186,58332,1,8,0:0:0:0:
247,193,58391,1,8,0:0:0:0:
253,186,58450,1,0,0:0:0:0:
247,193,58568,1,0,0:0:0:0:
248,193,58685,1,8,0:0:0:0:
252,179,58744,1,8,0:0:0:0:
248,193,58803,1,0,0:0:0:0:
248,193,58921,1,8,0:0:0:0:
248,193,59038,1,8,0:0:0:0:
248,198,59274,1,8,0:0:0:0:
248,198,59391,1,8,0:0:0:0:
248,198,59450,1,8,0:0:0:0:
248,198,59509,1,0,0:0:0:0:
248,198,59627,1,8,0:0:0:0:
248,198,59744,1,0,0:0:0:0:
248,198,59862,1,8,0:0:0:0:
248,198,59980,1,0,0:0:0:0:
248,198,60097,1,0,0:0:0:0:
248,198,60215,1,12,0:0:0:0:
238,186,60450,1,8,0:0:0:0:
247,175,60509,1,8,0:0:0:0:
238,186,60568,1,0,0:0:0:0:
238,186,60803,1,0,0:0:0:0:
238,186,60921,1,8,0:0:0:0:
238,186,61156,1,0,0:0:0:0:
234,179,61215,1,0,0:0:0:0:
229,176,61274,1,0,0:0:0:0:
238,186,61391,1,8,0:0:0:0:
229,176,61509,1,0,0:0:0:0:
238,186,61627,1,8,0:0:0:0:
229,176,61685,1,8,0:0:0:0:
238,186,61744,1,0,0:0:0:0:
230,184,61862,1,8,0:0:0:0:
238,186,62097,1,0,0:0:0:0:
238,186,62332,1,8,0:0:0:0:
238,186,62450,1,0,0:0:0:0:
238,186,62685,1,0,0:0:0:0:
238,186,62803,1,8,0:0:0:0:
247,175,62862,1,8,0:0:0:0:
247,175,62921,1,0,0:0:0:0:
238,186,63038,1,0,0:0:0:0:
238,186,63274,1,8,0:0:0:0:
238,186,63509,1,0,0:0:0:0:
237,158,63568,1,0,0:0:0:0:
238,186,63627,1,0,0:0:0:0:
238,186,63744,1,8,0:0:0:0:
238,186,63980,1,12,0:0:0:0:
238,186,64215,1,8,0:0:0:0:
238,186,64332,1,0,0:0:0:0:
244,178,64391,1,0,0:0:0:0:
247,175,64450,1,0,0:0:0:0:
238,186,64568,1,0,0:0:0:0:
238,186,64685,1,8,0:0:0:0:
238,186,64921,1,0,0:0:0:0:
238,186,65156,1,8,0:0:0:0:
238,186,65391,1,8,0:0:0:0:
250,181,65450,1,8,0:0:0:0:
238,186,65509,1,0,0:0:0:0:
238,186,65627,1,8,0:0:0:0:
238,186,65862,1,8,0:0:0:0:
241,182,65921,1,0,0:0:0:0:
241,182,65980,1,0,0:0:0:0:
238,186,66097,1,8,0:0:0:0:
238,186,66215,1,0,0:0:0:0:
241,182,66332,1,8,0:0:0:0:
241,182,66391,1,8,0:0:0:0:
238,186,66450,1,0,0:0:0:0:
238,186,66568,1,8,0:0:0:0:
238,186,66803,1,0,0:0:0:0:
238,186,67038,1,8,0:0:0:0:
238,186,67274,1,0,0:0:0:0:
241,182,67332,1,0,0:0:0:0:
238,186,67391,1,0,0:0:0:0:
238,186,67509,1,8,0:0:0:0:
238,186,67744,1,4,0:0:0:0:
238,186,67980,1,8,0:0:0:0:
238,186,68097,1,0,0:0:0:0:
238,186,68332,1,0,0:0:0:0:
238,186,68450,1,8,0:0:0:0:
238,186,68685,1,0,0:0:0:0:
238,186,68921,1,8,0:0:0:0:
238,186,69156,1,0,0:0:0:0:
238,186,69274,1,0,0:0:0:0:
238,186,69391,1,8,0:0:0:0:
238,186,69627,1,4,0:0:0:0:
238,186,69862,1,8,0:0:0:0:
238,186,69980,1,0,0:0:0:0:
238,186,70215,1,0,0:0:0:0:
238,186,70332,1,8,0:0:0:0:
238,186,70568,1,0,0:0:0:0:
238,186,70803,1,8,0:0:0:0:
238,186,71038,1,0,0:0:0:0:
238,186,71156,1,0,0:0:0:0:
238,186,71274,1,8,0:0:0:0:
238,186,71509,1,8,0:0:0:0:
260,184,71568,1,8,0:0:0:0:
238,186,71627,1,0,0:0:0:0:
238,186,71744,1,8,0:0:0:0:
238,186,71862,1,0,0:0:0:0:
260,184,71980,1,8,0:0:0:0:
260,184,72038,1,8,0:0:0:0:
238,186,72097,1,0,0:0:0:0:
238,186,72215,1,8,0:0:0:0:
238,186,72332,1,0,0:0:0:0:
238,186,72450,1,8,0:0:0:0:
260,184,72509,1,8,0:0:0:0:
238,186,72568,1,0,0:0:0:0:
238,186,72685,1,8,0:0:0:0:
238,186,72803,1,0,0:0:0:0:
238,186,72921,1,8,0:0:0:0:
260,184,72980,1,8,0:0:0:0:
238,186,73038,1,0,0:0:0:0:
260,184,73097,1,0,0:0:0:0:
238,186,73156,1,8,0:0:0:0:
238,186,73274,1,0,0:0:0:0:
253,189,73391,1,8,0:0:0:0:
253,189,73627,1,0,0:0:0:0:
253,189,73862,1,0,0:0:0:0:
253,189,74097,1,0,0:0:0:0:
253,189,74332,1,8,0:0:0:0:
255,196,74803,1,8,0:0:0:0:
253,186,75274,1,12,0:0:0:0:
253,186,75509,1,8,0:0:0:0:
253,168,75568,1,8,0:0:0:0:
253,186,75627,1,0,0:0:0:0:
253,186,75744,1,8,0:0:0:0:
253,186,75862,1,0,0:0:0:0:
253,186,75980,1,8,0:0:0:0:
259,194,76097,1,0,0:0:0:0:
254,190,76215,1,8,0:0:0:0:
254,190,76332,1,0,0:0:0:0:
253,186,76391,1,0,0:0:0:0:
253,186,76450,1,8,0:0:0:0:
254,190,76568,1,0,0:0:0:0:
253,186,76627,1,0,0:0:0:0:
253,186,76685,1,8,0:0:0:0:
254,190,76803,1,0,0:0:0:0:
253,186,76862,1,0,0:0:0:0:
253,186,76921,1,8,0:0:0:0:
250,166,76980,1,8,0:0:0:0:
253,179,77038,1,0,0:0:0:0:
253,186,77156,1,8,0:0:0:0:
253,186,77274,1,0,0:0:0:0:
253,186,77391,1,8,0:0:0:0:
253,186,77509,1,0,0:0:0:0:
253,186,77627,1,8,0:0:0:0:
278,184,77685,1,8,0:0:0:0:
253,186,77744,1,0,0:0:0:0:
254,190,77862,1,8,0:0:0:0:
254,190,77980,1,0,0:0:0:0:
253,186,78038,1,0,0:0:0:0:
253,186,78097,1,8,0:0:0:0:
254,190,78215,1,0,0:0:0:0:
253,186,78274,1,0,0:0:0:0:
253,186,78332,1,8,0:0:0:0:
254,190,78450,1,0,0:0:0:0:
253,186,78509,1,0,0:0:0:0:
253,186,78568,1,8,0:0:0:0:
260,167,78627,1,0,0:0:0:0:
253,179,78685,1,0,0:0:0:0:
271,183,78803,1,8,0:0:0:0:
271,183,78921,1,0,0:0:0:0:
250,168,79038,1,8,0:0:0:0:
250,168,79156,1,0,0:0:0:0:
253,186,79274,1,8,0:0:0:0:
249,162,79332,1,8,0:0:0:0:
253,186,79391,1,0,0:0:0:0:
253,186,79509,1,8,0:0:0:0:
253,186,79627,1,0,0:0:0:0:
253,186,79744,1,8,0:0:0:0:
253,186,79862,1,0,0:0:0:0:
254,190,79980,1,8,0:0:0:0:
254,190,80097,1,0,0:0:0:0:
253,186,80156,1,0,0:0:0:0:
253,186,80215,1,8,0:0:0:0:
254,190,80332,1,0,0:0:0:0:
253,186,80391,1,0,0:0:0:0:
253,186,80450,1,8,0:0:0:0:
254,190,80568,1,0,0:0:0:0:
253,186,80627,1,0,0:0:0:0:
253,186,80685,1,8,0:0:0:0:
253,179,80803,1,0,0:0:0:0:
253,186,80921,1,8,0:0:0:0:
253,186,81038,1,0,0:0:0:0:
253,186,81156,1,8,0:0:0:0:
246,163,81215,1,8,0:0:0:0:
253,186,81274,1,0,0:0:0:0:
253,186,81391,1,8,0:0:0:0:
253,186,81509,1,0,0:0:0:0:
254,190,81627,1,8,0:0:0:0:
254,190,81744,1,0,0:0:0:0:
253,186,81803,1,0,0:0:0:0:
253,186,81862,1,8,0:0:0:0:
254,190,81980,1,0,0:0:0:0:
253,186,82038,1,0,0:0:0:0:
253,186,82097,1,8,0:0:0:0:
254,190,82215,1,0,0:0:0:0:
253,186,82274,1,0,0:0:0:0:
253,186,82332,1,8,0:0:0:0:
260,167,82391,1,8,0:0:0:0:
253,179,82450,1,0,0:0:0:0:
271,183,82568,1,8,0:0:0:0:
271,183,82685,1,0,0:0:0:0:
250,168,82803,1,8,0:0:0:0:
250,168,82921,1,0,0:0:0:0:
253,186,83038,1,8,0:0:0:0:
268,184,83097,1,8,0:0:0:0:
253,186,83156,1,0,0:0:0:0:
253,186,83274,1,8,0:0:0:0:
253,186,83391,1,0,0:0:0:0:
253,186,83509,1,8,0:0:0:0:
253,186,83627,1,0,0:0:0:0:
254,190,83744,1,8,0:0:0:0:
264,189,83803,1,8,0:0:0:0:
254,190,83862,1,0,0:0:0:0:
253,186,83921,1,0,0:0:0:0:
253,186,83980,1,8,0:0:0:0:
254,190,84097,1,0,0:0:0:0:
253,186,84156,1,0,0:0:0:0:
253,186,84215,1,8,0:0:0:0:
254,190,84332,1,0,0:0:0:0:
253,186,84391,1,0,0:0:0:0:
253,186,84450,1,8,0:0:0:0:
253,179,84568,1,0,0:0:0:0:
253,180,84685,1,12,0:0:0:0:
253,180,84921,1,0,0:0:0:0:
253,180,85038,1,12,0:0:0:0:
253,180,85274,1,12,0:0:0:0:
263,175,85391,1,12,0:0:0:0:
251,175,85627,1,0,0:0:0:0:
251,175,85744,1,8,0:0:0:0:
251,175,85803,1,8,0:0:0:0:
251,175,85862,1,0,0:0:0:0:
251,175,85980,1,8,0:0:0:0:
251,175,86097,1,0,0:0:0:0:
251,175,86215,1,8,0:0:0:0:
251,175,86332,1,0,0:0:0:0:
239,173,86568,1,4,0:0:0:0:
239,173,86803,1,8,0:0:0:0:
242,209,86921,1,0,0:0:0:0:
240,197,87156,1,0,0:0:0:0:
240,197,87274,1,8,0:0:0:0:
240,197,87744,1,8,0:0:0:0:
244,200,87980,1,0,0:0:0:0:
244,200,88097,1,0,0:0:0:0:
244,200,88215,1,8,0:0:0:0:
239,173,88450,1,0,0:0:0:0:
239,173,88685,1,8,0:0:0:0:
242,209,88803,1,0,0:0:0:0:
240,197,89038,1,0,0:0:0:0:
240,197,89156,1,8,0:0:0:0:
240,197,89627,1,8,0:0:0:0:
244,200,89862,1,0,0:0:0:0:
244,200,89980,1,0,0:0:0:0:
244,200,90097,1,8,0:0:0:0:
239,173,90332,1,0,0:0:0:0:
239,173,90568,1,8,0:0:0:0:
242,209,90685,1,0,0:0:0:0:
240,197,90921,1,0,0:0:0:0:
240,197,91038,1,8,0:0:0:0:
240,197,91509,1,8,0:0:0:0:
244,200,91744,1,0,0:0:0:0:
244,200,91862,1,0,0:0:0:0:
244,200,91980,1,8,0:0:0:0:
239,173,92215,1,0,0:0:0:0:
239,173,92450,1,8,0:0:0:0:
242,209,92568,1,0,0:0:0:0:
250,187,92685,1,8,0:0:0:0:
240,197,92803,1,8,0:0:0:0:
240,197,92921,1,0,0:0:0:0:
240,197,93391,1,8,0:0:0:0:
244,200,93627,1,0,0:0:0:0:
244,200,93744,1,0,0:0:0:0:
244,200,93862,1,8,0:0:0:0:
239,173,94097,1,4,0:0:0:0:
239,173,94332,1,8,0:0:0:0:
242,209,94450,1,0,0:0:0:0:
240,197,94685,1,0,0:0:0:0:
240,197,94803,1,8,0:0:0:0:
239,173,94862,1,0,0:0:0:0:
226,188,94921,1,0,0:0:0:0:
226,188,95038,1,8,0:0:0:0:
240,197,95274,1,8,0:0:0:0:
244,200,95509,1,0,0:0:0:0:
244,200,95627,1,0,0:0:0:0:
244,200,95744,1,8,0:0:0:0:
239,173,95980,1,0,0:0:0:0:
239,173,96215,1,8,0:0:0:0:
242,209,96332,1,0,0:0:0:0:
240,197,96568,1,0,0:0:0:0:
240,197,96685,1,8,0:0:0:0:
240,197,97156,1,8,0:0:0:0:
244,200,97391,1,0,0:0:0:0:
244,200,97509,1,0,0:0:0:0:
244,200,97627,1,8,0:0:0:0:
239,173,97862,1,0,0:0:0:0:
239,173,98097,1,8,0:0:0:0:
242,209,98215,1,0,0:0:0:0:
240,197,98450,1,0,0:0:0:0:
240,197,98568,1,8,0:0:0:0:
240,197,99038,1,8,0:0:0:0:
244,200,99274,1,0,0:0:0:0:
244,200,99391,1,0,0:0:0:0:
244,200,99509,1,8,0:0:0:0:
254,193,99744,1,12,0:0:0:0:
254,193,99980,1,8,0:0:0:0:
254,193,100097,1,0,0:0:0:0:
254,193,100215,1,8,0:0:0:0:
268,196,100274,1,8,0:0:0:0:
254,193,100332,1,0,0:0:0:0:
254,193,100450,1,8,0:0:0:0:
261,187,100685,1,0,0:0:0:0:
249,186,100803,1,8,0:0:0:0:
261,187,100862,1,8,0:0:0:0:
261,187,100921,1,8,0:0:0:0:
249,186,101038,1,8,0:0:0:0:
249,186,101156,1,0,0:0:0:0:
249,186,101274,1,8,0:0:0:0:
249,186,101391,1,0,0:0:0:0:
249,186,101509,1,0,0:0:0:0:
255,189,101627,1,12,0:0:0:0:
249,189,101862,1,0,0:0:0:0:
249,186,102097,1,0,0:0:0:0:
249,186,102332,1,8,0:0:0:0:
249,189,102568,1,8,0:0:0:0:
236,179,102685,1,0,0:0:0:0:
249,189,102803,1,0,0:0:0:0:
249,186,103038,1,8,0:0:0:0:
249,186,103274,1,0,0:0:0:0:
249,189,103509,1,12,0:0:0:0:
249,189,103744,1,0,0:0:0:0:
249,186,103980,1,8,0:0:0:0:
249,186,104215,1,8,0:0:0:0:
249,189,104450,1,0,0:0:0:0:
251,184,104685,1,8,0:0:0:0:
249,186,104921,1,0,0:0:0:0:
253,188,105038,1,8,0:0:0:0:
249,186,105156,1,8,0:0:0:0:
249,189,105391,1,12,0:0:0:0:
251,184,105627,1,0,0:0:0:0:
245,189,105862,1,0,0:0:0:0:
245,189,106097,1,0,0:0:0:0:
249,189,106332,1,12,0:0:0:0:
245,189,106568,1,0,0:0:0:0:
245,189,106803,1,0,0:0:0:0:
245,189,107038,1,0,0:0:0:0:
249,189,107274,1,12,0:0:0:0:
250,187,107509,1,8,0:0:0:0:
250,187,107744,1,8,0:0:0:0:
250,187,107980,1,8,0:0:0:0:
249,189,108215,1,0,0:0:0:0:
260,177,108332,1,8,0:0:0:0:
260,177,108450,1,8,0:0:0:0:
260,177,108568,1,8,0:0:0:0:
274,182,108627,1,8,0:0:0:0:
250,187,108685,1,0,0:0:0:0:
248,173,108803,1,8,0:0:0:0:
248,173,108921,1,8,0:0:0:0:
248,173,109038,1,8,0:0:0:0:
248,173,109156,1,4,0:0:0:0:
266,200,109391,1,8,0:0:0:0:
266,200,109627,1,0,0:0:0:0:
266,200,109744,1,0,0:0:0:0:
266,200,109862,1,8,0:0:0:0:
249,180,109980,1,8,0:0:0:0:
248,173,110097,1,0,0:0:0:0:
266,200,110332,1,8,0:0:0:0:
266,200,110568,1,0,0:0:0:0:
266,200,110685,1,0,0:0:0:0:
266,200,110803,1,8,0:0:0:0:
248,173,111038,1,4,0:0:0:0:
266,200,111274,1,8,0:0:0:0:
266,200,111509,1,0,0:0:0:0:
266,200,111627,1,0,0:0:0:0:
266,200,111744,1,8,0:0:0:0:
248,173,111803,1,8,0:0:0:0:
255,185,111862,1,8,0:0:0:0:
248,173,111980,1,0,0:0:0:0:
266,200,112215,1,8,0:0:0:0:
266,200,112450,1,0,0:0:0:0:
257,185,112509,1,0,0:0:0:0:
266,200,112568,1,0,0:0:0:0:
266,200,112685,1,8,0:0:0:0:
266,200,112921,1,4,0:0:0:0:
266,200,113038,1,0,0:0:0:0:
266,200,113156,1,8,0:0:0:0:
266,200,113391,1,0,0:0:0:0:
266,200,113509,1,0,0:0:0:0:
266,200,113627,1,8,0:0:0:0:
266,200,113862,1,12,0:0:0:0:
266,200,113980,1,0,0:0:0:0:
266,200,114097,1,8,0:0:0:0:
266,200,114332,1,0,0:0:0:0:
266,200,114450,1,0,0:0:0:0:
266,200,114568,1,8,0:0:0:0:
272,201,114685,1,0,0:0:0:0:
272,188,114803,1,8,0:0:0:0:
261,180,114862,1,8,0:0:0:0:
263,192,114921,1,8,0:0:0:0:
263,192,115038,1,0,0:0:0:0:
274,192,115097,1,0,0:0:0:0:
263,192,115156,1,8,0:0:0:0:
263,192,115274,1,0,0:0:0:0:
274,192,115391,1,8,0:0:0:0:
263,192,115509,1,0,0:0:0:0:
274,192,115627,1,0,0:0:0:0:
263,192,115744,1,8,0:0:0:0:
263,192,116215,1,8,0:0:0:0:
253,186,116685,1,12,0:0:0:0:
253,186,116921,1,8,0:0:0:0:
253,186,117038,1,8,0:0:0:0:
263,192,117097,1,0,0:0:0:0:
253,186,117156,1,8,0:0:0:0:
253,186,117274,1,0,0:0:0:0:
253,186,117391,1,8,0:0:0:0:
253,190,117450,1,8,0:0:0:0:
259,194,117509,1,0,0:0:0:0:
254,190,117627,1,8,0:0:0:0:
254,190,117744,1,0,0:0:0:0:
253,186,117803,1,0,0:0:0:0:
253,186,117862,1,8,0:0:0:0:
267,181,117921,1,0,0:0:0:0:
254,190,117980,1,0,0:0:0:0:
253,186,118038,1,0,0:0:0:0:
253,186,118097,1,8,0:0:0:0:
254,190,118215,1,0,0:0:0:0:
253,186,118332,1,8,0:0:0:0:
250,166,118391,1,8,0:0:0:0:
253,179,118450,1,0,0:0:0:0:
253,186,118509,1,0,0:0:0:0:
253,186,118568,1,8,0:0:0:0:
253,186,118685,1,0,0:0:0:0:
253,186,118803,1,8,0:0:0:0:
253,186,118921,1,0,0:0:0:0:
253,186,119038,1,8,0:0:0:0:
253,186,119156,1,0,0:0:0:0:
254,190,119274,1,8,0:0:0:0:
258,182,119332,1,8,0:0:0:0:
254,190,119391,1,0,0:0:0:0:
253,186,119509,1,8,0:0:0:0:
254,190,119627,1,0,0:0:0:0:
253,186,119685,1,0,0:0:0:0:
253,186,119744,1,8,0:0:0:0:
254,190,119862,1,0,0:0:0:0:
253,186,119921,1,0,0:0:0:0:
253,186,119980,1,8,0:0:0:0:
260,167,120038,1,0,0:0:0:0:
253,179,120097,1,0,0:0:0:0:
271,183,120215,1,8,0:0:0:0:
271,183,120332,1,0,0:0:0:0:
250,168,120450,1,8,0:0:0:0:
247,172,120509,1,8,0:0:0:0:
250,168,120568,1,0,0:0:0:0:
253,186,120685,1,8,0:0:0:0:
253,186,120803,1,8,0:0:0:0:
256,167,120862,1,0,0:0:0:0:
253,186,120921,1,8,0:0:0:0:
253,186,121038,1,0,0:0:0:0:
253,186,121156,1,8,0:0:0:0:
250,176,121215,1,8,0:0:0:0:
253,186,121274,1,0,0:0:0:0:
254,190,121391,1,8,0:0:0:0:
254,190,121509,1,0,0:0:0:0:
253,186,121568,1,0,0:0:0:0:
253,186,121627,1,8,0:0:0:0:
249,180,121685,1,8,0:0:0:0:
254,190,121744,1,0,0:0:0:0:
253,186,121862,1,8,0:0:0:0:
253,186,121921,1,8,0:0:0:0:
254,190,121980,1,0,0:0:0:0:
253,186,122097,1,8,0:0:0:0:
253,179,122215,1,0,0:0:0:0:
253,186,122332,1,8,0:0:0:0:
245,166,122391,1,0,0:0:0:0:
253,186,122450,1,0,0:0:0:0:
237,185,122509,1,0,0:0:0:0:
253,186,122568,1,8,0:0:0:0:
253,186,122685,1,0,0:0:0:0:
253,186,122803,1,8,0:0:0:0:
257,184,122862,1,8,0:0:0:0:
253,186,122921,1,0,0:0:0:0:
240,184,122980,1,0,0:0:0:0:
254,190,123038,1,8,0:0:0:0:
254,190,123156,1,0,0:0:0:0:
253,186,123215,1,0,0:0:0:0:
253,186,123274,1,8,0:0:0:0:
254,190,123391,1,0,0:0:0:0:
253,186,123450,1,0,0:0:0:0:
253,186,123509,1,8,0:0:0:0:
254,190,123627,1,0,0:0:0:0:
253,186,123685,1,0,0:0:0:0:
253,186,123744,1,8,0:0:0:0:
253,179,123803,1,0,0:0:0:0:
273,180,123862,1,0,0:0:0:0:
271,183,123980,1,8,0:0:0:0:
271,183,124097,1,0,0:0:0:0:
253,186,124215,1,8,0:0:0:0:
253,186,124450,1,8,0:0:0:0:
263,192,124568,1,0,0:0:0:0:
253,186,124685,1,8,0:0:0:0:
280,197,124744,1,0,0:0:0:0:
253,186,124803,1,0,0:0:0:0:
240,184,124862,1,0,0:0:0:0:
253,186,124921,1,8,0:0:0:0:
253,190,124980,1,8,0:0:0:0:
259,194,125038,1,0,0:0:0:0:
254,190,125156,1,8,0:0:0:0:
254,190,125274,1,0,0:0:0:0:
253,186,125332,1,0,0:0:0:0:
253,186,125391,1,8,0:0:0:0:
254,190,125509,1,0,0:0:0:0:
253,186,125568,1,0,0:0:0:0:
253,186,125627,1,8,0:0:0:0:
254,190,125744,1,0,0:0:0:0:
253,186,125803,1,0,0:0:0:0:
253,186,125862,1,8,0:0:0:0:
250,166,125921,1,8,0:0:0:0:
253,179,125980,1,0,0:0:0:0:
253,186,126097,1,8,0:0:0:0:
253,186,126332,1,8,0:0:0:0:
253,186,126450,1,0,0:0:0:0:
253,186,126568,1,8,0:0:0:0:
257,180,126627,1,8,0:0:0:0:
253,186,126685,1,0,0:0:0:0:
258,182,126744,1,0,0:0:0:0:
254,190,126803,1,8,0:0:0:0:
254,190,126921,1,0,0:0:0:0:
253,186,127038,1,8,0:0:0:0:
254,190,127156,1,0,0:0:0:0:
253,186,127215,1,0,0:0:0:0:
253,186,127274,1,8,0:0:0:0:
254,190,127391,1,0,0:0:0:0:
253,186,127450,1,0,0:0:0:0:
253,186,127509,1,8,0:0:0:0:
253,179,127627,1,0,0:0:0:0:
257,178,127685,1,0,0:0:0:0:
271,183,127744,1,8,0:0:0:0:
247,172,127803,1,8,0:0:0:0:
270,174,127862,1,0,0:0:0:0:
273,180,127921,1,0,0:0:0:0:
250,168,127980,1,8,0:0:0:0:
265,172,128097,1,0,0:0:0:0:
250,168,128156,1,0,0:0:0:0:
253,186,128215,1,8,0:0:0:0:
253,186,128332,1,0,0:0:0:0:
253,186,128450,1,8,0:0:0:0:
253,186,128568,1,0,0:0:0:0:
253,186,128685,1,8,0:0:0:0:
253,186,128803,1,0,0:0:0:0:
254,190,128921,1,8,0:0:0:0:
254,190,129038,1,0,0:0:0:0:
253,186,129097,1,0,0:0:0:0:
253,186,129156,1,8,0:0:0:0:
254,190,129274,1,0,0:0:0:0:
253,186,129332,1,0,0:0:0:0:
253,186,129391,1,8,0:0:0:0:
254,190,129509,1,0,0:0:0:0:
253,186,129568,1,0,0:0:0:0:
253,186,129627,1,8,0:0:0:0:
253,186,129685,1,8,0:0:0:0:
253,179,129744,1,0,0:0:0:0:
253,186,129862,1,8,0:0:0:0:
247,193,129921,1,8,0:0:0:0:
253,186,129980,1,0,0:0:0:0:
247,193,130097,1,0,0:0:0:0:
248,193,130215,1,8,0:0:0:0:
252,179,130274,1,8,0:0:0:0:
248,193,130332,1,0,0:0:0:0:
248,193,130450,1,8,0:0:0:0:
248,193,130568,1,8,0:0:0:0:
248,198,130803,1,8,0:0:0:0:
248,198,130921,1,8,0:0:0:0:
248,198,130980,1,8,0:0:0:0:
248,198,131038,1,0,0:0:0:0:
248,198,131156,1,8,0:0:0:0:
248,198,131274,1,0,0:0:0:0:
248,198,131391,1,8,0:0:0:0:
248,198,131509,1,0,0:0:0:0:
248,198,131627,1,0,0:0:0:0:
248,198,131744,1,12,0:0:0:0:
238,186,131980,1,8,0:0:0:0:
247,175,132038,1,8,0:0:0:0:
238,186,132097,1,0,0:0:0:0:
237,183,132215,1,8,0:0:0:0:
238,186,132332,1,0,0:0:0:0:
238,186,132450,1,8,0:0:0:0:
238,186,132685,1,0,0:0:0:0:
238,186,132921,1,8,0:0:0:0:
229,176,133038,1,8,0:0:0:0:
238,186,133156,1,0,0:0:0:0:
245,178,133215,1,0,0:0:0:0:
238,186,133274,1,0,0:0:0:0:
230,184,133391,1,8,0:0:0:0:
238,186,133627,1,0,0:0:0:0:
238,186,133862,1,8,0:0:0:0:
238,186,133980,1,0,0:0:0:0:
238,186,134097,1,8,0:0:0:0:
238,186,134156,1,8,0:0:0:0:
238,186,134215,1,0,0:0:0:0:
238,186,134332,1,8,0:0:0:0:
238,186,134568,1,0,0:0:0:0:
232,172,134685,1,0,0:0:0:0:
238,186,134803,1,8,0:0:0:0:
229,172,134921,1,8,0:0:0:0:
238,186,135038,1,0,0:0:0:0:
237,158,135097,1,0,0:0:0:0:
238,186,135156,1,0,0:0:0:0:
238,186,135274,1,8,0:0:0:0:
238,186,135509,1,12,0:0:0:0:
238,186,135744,1,8,0:0:0:0:
238,186,135862,1,0,0:0:0:0:
244,178,135921,1,0,0:0:0:0:
247,175,135980,1,0,0:0:0:0:
238,186,136097,1,0,0:0:0:0:
238,186,136215,1,8,0:0:0:0:
238,186,136450,1,0,0:0:0:0:
238,186,136685,1,8,0:0:0:0:
243,173,136803,1,8,0:0:0:0:
238,186,136921,1,8,0:0:0:0:
250,181,136980,1,8,0:0:0:0:
238,186,137038,1,0,0:0:0:0:
238,186,137156,1,8,0:0:0:0:
238,186,137391,1,8,0:0:0:0:
241,182,137450,1,0,0:0:0:0:
241,182,137509,1,0,0:0:0:0:
238,186,137627,1,8,0:0:0:0:
238,186,137744,1,0,0:0:0:0:
241,182,137862,1,8,0:0:0:0:
241,182,137921,1,8,0:0:0:0:
238,186,137980,1,0,0:0:0:0:
240,178,138038,1,0,0:0:0:0:
238,186,138097,1,8,0:0:0:0:
238,186,138332,1,0,0:0:0:0:
238,186,138568,1,8,0:0:0:0:
238,186,138803,1,0,0:0:0:0:
241,182,138862,1,0,0:0:0:0:
238,186,138921,1,0,0:0:0:0:
238,186,139038,1,8,0:0:0:0:
238,186,139274,1,4,0:0:0:0:
238,186,139509,1,8,0:0:0:0:
238,186,139627,1,0,0:0:0:0:
238,186,139862,1,0,0:0:0:0:
238,186,139980,1,8,0:0:0:0:
238,186,140215,1,0,0:0:0:0:
238,186,140450,1,8,0:0:0:0:
238,186,140685,1,0,0:0:0:0:
238,186,140803,1,0,0:0:0:0:
238,186,140921,1,8,0:0:0:0:
238,186,141156,1,4,0:0:0:0:
238,186,141391,1,8,0:0:0:0:
238,186,141509,1,0,0:0:0:0:
238,186,141744,1,0,0:0:0:0:
238,186,141862,1,8,0:0:0:0:
238,186,142097,1,0,0:0:0:0:
238,186,142332,1,8,0:0:0:0:
238,186,142568,1,0,0:0:0:0:
240,178,142627,1,0,0:0:0:0:
238,186,142685,1,0,0:0:0:0:
238,186,142803,1,8,0:0:0:0:
238,186,143038,1,8,0:0:0:0:
260,184,143097,1,8,0:0:0:0:
238,186,143156,1,0,0:0:0:0:
238,186,143274,1,8,0:0:0:0:
238,186,143391,1,0,0:0:0:0:
260,184,143509,1,8,0:0:0:0:
260,184,143568,1,8,0:0:0:0:
238,186,143627,1,0,0:0:0:0:
238,186,143744,1,8,0:0:0:0:
238,186,143862,1,0,0:0:0:0:
238,186,143980,1,8,0:0:0:0:
260,184,144038,1,8,0:0:0:0:
238,186,144097,1,0,0:0:0:0:
238,186,144215,1,8,0:0:0:0:
238,186,144332,1,0,0:0:0:0:
238,186,144450,1,8,0:0:0:0:
260,184,144509,1,8,0:0:0:0:
238,186,144568,1,0,0:0:0:0:
260,184,144627,1,0,0:0:0:0:
238,186,144685,1,8,0:0:0:0:
238,186,144803,1,0,0:0:0:0:
253,189,144921,1,8,0:0:0:0:
253,189,145156,1,0,0:0:0:0:
253,189,145391,1,0,0:0:0:0:
253,189,145627,1,0,0:0:0:0:
253,189,145862,1,8,0:0:0:0:
251,194,146803,1,4,0:0:0:0:
245,182,147156,1,0,0:0:0:0:
245,182,147509,1,0,0:0:0:0:
245,182,147744,1,8,0:0:0:0:
245,182,148215,1,0,0:0:0:0:
251,178,148450,1,0,0:0:0:0:
245,182,148685,1,8,0:0:0:0:
245,182,149038,1,0,0:0:0:0:
245,182,149391,1,0,0:0:0:0:
245,182,149627,1,8,0:0:0:0:
245,182,149862,1,0,0:0:0:0:
245,182,150097,1,8,0:0:0:0:
245,182,150568,1,8,0:0:0:0:
245,182,150921,1,0,0:0:0:0:
245,182,151038,1,8,0:0:0:0:
245,182,151274,1,0,0:0:0:0:
245,182,151509,1,8,0:0:0:0:
245,182,151980,1,0,0:0:0:0:
245,182,152215,1,8,0:0:0:0:
245,182,152450,1,0,0:0:0:0:
245,182,152803,1,0,0:0:0:0:
245,182,153156,1,0,0:0:0:0:
245,182,153274,1,0,0:0:0:0:
245,182,153391,1,0,0:0:0:0:
245,182,153627,1,8,0:0:0:0:
245,182,153862,1,0,0:0:0:0:
222,173,154332,1,12,0:0:0:0:
222,173,154685,1,0,0:0:0:0:
222,173,155038,1,0,0:0:0:0:
222,173,155274,1,8,0:0:0:0:
222,173,155744,1,0,0:0:0:0:
242,184,155980,1,8,0:0:0:0:
222,173,156215,1,0,0:0:0:0:
222,173,156568,1,0,0:0:0:0:
222,173,156921,1,0,0:0:0:0:
222,173,157156,1,8,0:0:0:0:
222,173,157391,1,0,0:0:0:0:
222,173,157627,1,8,0:0:0:0:
222,173,158097,1,8,0:0:0:0:
222,173,158450,1,0,0:0:0:0:
214,168,158568,1,8,0:0:0:0:
222,173,158803,1,0,0:0:0:0:
222,173,159038,1,8,0:0:0:0:
222,173,159274,1,0,0:0:0:0:
222,173,159509,1,8,0:0:0:0:
242,182,159980,1,0,0:0:0:0:
242,182,160097,1,8,0:0:0:0:
235,179,160156,1,8,0:0:0:0:
242,182,160215,1,8,0:0:0:0:
240,188,160332,1,8,0:0:0:0:
240,188,160450,1,0,0:0:0:0:
240,188,160568,1,8,0:0:0:0:
240,188,160685,1,8,0:0:0:0:
240,188,160803,1,0,0:0:0:0:
240,188,160921,1,0,0:0:0:0:
240,188,161038,1,8,0:0:0:0:
240,188,161097,1,8,0:0:0:0:
240,188,161156,1,0,0:0:0:0:
240,188,161274,1,8,0:0:0:0:
240,188,161391,1,0,0:0:0:0:
240,188,161509,1,8,0:0:0:0:
240,188,161627,1,0,0:0:0:0:
240,188,161744,1,8,0:0:0:0:
233,181,161862,1,4,0:0:0:0:
239,175,162097,1,8,0:0:0:0:
239,175,162332,1,0,0:0:0:0:
239,175,162450,1,0,0:0:0:0:
239,175,162568,1,8,0:0:0:0:
233,181,162803,1,0,0:0:0:0:
227,189,162921,1,0,0:0:0:0:
239,175,163038,1,8,0:0:0:0:
239,175,163274,1,0,0:0:0:0:
239,175,163391,1,0,0:0:0:0:
239,175,163509,1,8,0:0:0:0:
233,181,163744,1,0,0:0:0:0:
239,175,163980,1,8,0:0:0:0:
239,175,164215,1,0,0:0:0:0:
239,175,164332,1,0,0:0:0:0:
239,175,164450,1,8,0:0:0:0:
217,172,164568,1,8,0:0:0:0:
233,181,164685,1,0,0:0:0:0:
227,189,164803,1,0,0:0:0:0:
239,175,164921,1,8,0:0:0:0:
239,175,165156,1,0,0:0:0:0:
239,175,165274,1,0,0:0:0:0:
239,175,165391,1,8,0:0:0:0:
217,172,165509,1,8,0:0:0:0:
233,181,165627,1,4,0:0:0:0:
239,175,165862,1,8,0:0:0:0:
239,175,166097,1,0,0:0:0:0:
239,175,166215,1,0,0:0:0:0:
239,175,166332,1,8,0:0:0:0:
233,181,166568,1,0,0:0:0:0:
227,189,166685,1,0,0:0:0:0:
239,175,166803,1,8,0:0:0:0:
239,175,167038,1,0,0:0:0:0:
239,175,167156,1,0,0:0:0:0:
239,175,167274,1,8,0:0:0:0:
233,181,167509,1,0,0:0:0:0:
239,175,167744,1,8,0:0:0:0:
239,175,167980,1,0,0:0:0:0:
239,175,168097,1,0,0:0:0:0:
239,175,168215,1,8,0:0:0:0:
233,181,168450,1,0,0:0:0:0:
227,189,168568,1,0,0:0:0:0:
239,175,168685,1,8,0:0:0:0:
217,172,168803,1,0,0:0:0:0:
239,175,168921,1,0,0:0:0:0:
239,175,169038,1,0,0:0:0:0:
239,175,169156,1,8,0:0:0:0:
233,181,169391,1,4,0:0:0:0:
239,175,169627,1,8,0:0:0:0:
239,175,169862,1,0,0:0:0:0:
239,175,169980,1,0,0:0:0:0:
239,175,170097,1,8,0:0:0:0:
254,172,170215,1,8,0:0:0:0:
233,181,170332,1,0,0:0:0:0:
285,180,170450,1,0,0:0:0:0:
239,175,170568,1,8,0:0:0:0:
239,175,170803,1,0,0:0:0:0:
239,175,170921,1,0,0:0:0:0:
239,175,171038,1,8,0:0:0:0:
233,181,171274,1,0,0:0:0:0:
239,175,171509,1,8,0:0:0:0:
239,175,171744,1,0,0:0:0:0:
239,175,171862,1,0,0:0:0:0:
239,175,171980,1,8,0:0:0:0:
233,171,172097,1,8,0:0:0:0:
233,181,172215,1,0,0:0:0:0:
227,189,172332,1,0,0:0:0:0:
239,175,172450,1,8,0:0:0:0:
239,175,172685,1,0,0:0:0:0:
239,175,172803,1,0,0:0:0:0:
239,175,172921,1,8,0:0:0:0:
233,181,173156,1,12,0:0:0:0:
234,181,173274,1,0,0:0:0:0:
239,175,173391,1,8,0:0:0:0:
239,175,173627,1,0,0:0:0:0:
239,175,173744,1,0,0:0:0:0:
239,175,173862,1,8,0:0:0:0:
233,181,174097,1,12,0:0:0:0:
227,189,174215,1,0,0:0:0:0:
239,175,174332,1,8,0:0:0:0:
239,175,174568,1,0,0:0:0:0:
239,175,174685,1,0,0:0:0:0:
239,175,174803,1,8,0:0:0:0:
251,201,175038,1,0,0:0:0:0:
251,201,175156,1,8,0:0:0:0:
251,201,175274,1,0,0:0:0:0:
251,201,175391,1,8,0:0:0:0:
251,201,175509,1,0,0:0:0:0:
251,201,175627,1,8,0:0:0:0:
251,201,175744,1,0,0:0:0:0:
251,201,175862,1,8,0:0:0:0:
240,206,175980,1,0,0:0:0:0:
258,192,176215,1,0,0:0:0:0:
258,192,176450,1,0,0:0:0:0:
258,192,176685,1,0,0:0:0:0:
258,192,176921,1,12,0:0:0:0:
258,192,177862,1,0,0:0:0:0:
251,188,178332,1,0,0:0:0:0:
253,186,178803,1,12,0:0:0:0:
253,186,179038,1,8,0:0:0:0:
253,186,179156,1,8,0:0:0:0:
263,192,179215,1,0,0:0:0:0:
253,186,179274,1,8,0:0:0:0:
253,186,179391,1,0,0:0:0:0:
253,186,179509,1,8,0:0:0:0:
253,190,179568,1,8,0:0:0:0:
259,194,179627,1,0,0:0:0:0:
254,190,179744,1,8,0:0:0:0:
254,190,179862,1,0,0:0:0:0:
253,186,179921,1,0,0:0:0:0:
253,186,179980,1,8,0:0:0:0:
267,181,180038,1,0,0:0:0:0:
254,190,180097,1,0,0:0:0:0:
253,186,180156,1,0,0:0:0:0:
253,186,180215,1,8,0:0:0:0:
254,190,180332,1,0,0:0:0:0:
253,186,180391,1,0,0:0:0:0:
253,186,180450,1,8,0:0:0:0:
250,166,180509,1,8,0:0:0:0:
253,179,180568,1,0,0:0:0:0:
253,186,180685,1,8,0:0:0:0:
247,189,180744,1,8,0:0:0:0:
253,186,180803,1,0,0:0:0:0:
253,186,180921,1,8,0:0:0:0:
253,186,181038,1,0,0:0:0:0:
253,186,181156,1,8,0:0:0:0:
253,186,181274,1,0,0:0:0:0:
254,190,181391,1,8,0:0:0:0:
258,182,181450,1,8,0:0:0:0:
254,190,181509,1,0,0:0:0:0:
249,190,181568,1,0,0:0:0:0:
253,186,181627,1,8,0:0:0:0:
254,190,181744,1,0,0:0:0:0:
253,186,181803,1,0,0:0:0:0:
253,186,181862,1,8,0:0:0:0:
254,190,181980,1,0,0:0:0:0:
253,186,182038,1,0,0:0:0:0:
253,186,182097,1,8,0:0:0:0:
260,167,182156,1,0,0:0:0:0:
253,179,182215,1,0,0:0:0:0:
271,183,182332,1,8,0:0:0:0:
271,183,182450,1,0,0:0:0:0:
250,168,182568,1,8,0:0:0:0:
247,172,182627,1,8,0:0:0:0:
250,168,182685,1,0,0:0:0:0:
249,190,182744,1,0,0:0:0:0:
253,186,182803,1,8,0:0:0:0:
253,186,182921,1,8,0:0:0:0:
256,167,182980,1,0,0:0:0:0:
253,186,183038,1,8,0:0:0:0:
249,190,183097,1,8,0:0:0:0:
253,186,183156,1,0,0:0:0:0:
253,186,183274,1,8,0:0:0:0:
250,176,183332,1,8,0:0:0:0:
253,186,183391,1,0,0:0:0:0:
254,190,183509,1,8,0:0:0:0:
254,190,183627,1,0,0:0:0:0:
253,186,183685,1,0,0:0:0:0:
253,186,183744,1,8,0:0:0:0:
237,169,183862,1,0,0:0:0:0:
253,186,183980,1,8,0:0:0:0:
253,186,184038,1,8,0:0:0:0:
254,190,184097,1,0,0:0:0:0:
249,190,184156,1,0,0:0:0:0:
253,186,184215,1,8,0:0:0:0:
253,179,184332,1,0,0:0:0:0:
253,186,184450,1,8,0:0:0:0:
245,166,184509,1,0,0:0:0:0:
253,186,184568,1,0,0:0:0:0:
237,185,184627,1,0,0:0:0:0:
253,186,184685,1,8,0:0:0:0:
253,186,184803,1,0,0:0:0:0:
253,186,184921,1,8,0:0:0:0:
257,184,184980,1,8,0:0:0:0:
253,186,185038,1,0,0:0:0:0:
240,184,185097,1,0,0:0:0:0:
254,190,185156,1,8,0:0:0:0:
254,190,185274,1,0,0:0:0:0:
253,186,185332,1,0,0:0:0:0:
253,186,185391,1,8,0:0:0:0:
254,190,185509,1,0,0:0:0:0:
253,186,185568,1,0,0:0:0:0:
253,186,185627,1,8,0:0:0:0:
269,184,185685,1,8,0:0:0:0:
254,190,185744,1,0,0:0:0:0:
253,186,185803,1,0,0:0:0:0:
253,186,185862,1,8,0:0:0:0:
253,179,185921,1,0,0:0:0:0:
273,180,185980,1,0,0:0:0:0:
277,185,186038,1,0,0:0:0:0:
271,183,186097,1,8,0:0:0:0:
271,183,186215,1,0,0:0:0:0:
253,186,186332,1,8,0:0:0:0:
253,186,186391,1,8,0:0:0:0:
254,190,186450,1,0,0:0:0:0:
253,186,186568,1,8,0:0:0:0:
263,192,186685,1,0,0:0:0:0:
253,186,186803,1,8,0:0:0:0:
280,197,186862,1,8,0:0:0:0:
253,186,186921,1,0,0:0:0:0:
240,184,186980,1,0,0:0:0:0:
253,186,187038,1,8,0:0:0:0:
253,190,187097,1,8,0:0:0:0:
259,194,187156,1,0,0:0:0:0:
254,190,187274,1,8,0:0:0:0:
254,190,187391,1,0,0:0:0:0:
253,186,187450,1,0,0:0:0:0:
253,186,187509,1,8,0:0:0:0:
254,190,187627,1,0,0:0:0:0:
253,186,187685,1,0,0:0:0:0:
253,186,187744,1,8,0:0:0:0:
254,190,187862,1,0,0:0:0:0:
253,186,187921,1,0,0:0:0:0:
253,186,187980,1,8,0:0:0:0:
250,166,188038,1,8,0:0:0:0:
253,179,188097,1,0,0:0:0:0:
253,186,188215,1,8,0:0:0:0:
254,190,188274,1,8,0:0:0:0:
254,190,188332,1,0,0:0:0:0:
253,186,188450,1,8,0:0:0:0:
253,186,188568,1,0,0:0:0:0:
253,186,188685,1,8,0:0:0:0:
240,187,188744,1,0,0:0:0:0:
254,190,188803,1,0,0:0:0:0:
253,186,188862,1,0,0:0:0:0:
253,186,188921,1,8,0:0:0:0:
240,184,188980,1,8,0:0:0:0:
254,190,189038,1,0,0:0:0:0:
253,186,189097,1,0,0:0:0:0:
253,179,189156,1,8,0:0:0:0:
271,183,189274,1,0,0:0:0:0:
270,174,189332,1,0,0:0:0:0:
271,183,189391,1,8,0:0:0:0:
253,186,189509,1,0,0:0:0:0:
257,180,189568,1,0,0:0:0:0:
253,186,189627,1,8,0:0:0:0:
258,182,189685,1,8,0:0:0:0:
254,190,189744,1,0,0:0:0:0:
265,181,189803,1,0,0:0:0:0:
254,190,189862,1,8,0:0:0:0:
260,184,189980,1,0,0:0:0:0:
250,168,190097,1,8,0:0:0:0:
247,172,190156,1,8,0:0:0:0:
250,168,190215,1,0,0:0:0:0:
253,186,190332,1,8,0:0:0:0:
253,186,190450,1,0,0:0:0:0:
253,186,190568,1,8,0:0:0:0:
253,186,190685,1,0,0:0:0:0:
253,186,190803,1,8,0:0:0:0:
253,186,190921,1,0,0:0:0:0:
254,190,191038,1,8,0:0:0:0:
254,190,191156,1,0,0:0:0:0:
253,186,191215,1,0,0:0:0:0:
253,186,191274,1,8,0:0:0:0:
254,190,191391,1,0,0:0:0:0:
253,186,191450,1,0,0:0:0:0:
253,186,191509,1,8,0:0:0:0:
253,186,191627,1,0,0:0:0:0:
254,190,191685,1,0,0:0:0:0:
253,186,191744,1,8,0:0:0:0:
253,186,191803,1,8,0:0:0:0:
253,179,191862,1,0,0:0:0:0:
253,186,191980,1,8,0:0:0:0:
247,193,192038,1,8,0:0:0:0:
253,186,192097,1,0,0:0:0:0:
249,187,192156,1,0,0:0:0:0:
247,193,192215,1,8,0:0:0:0:
253,186,192274,1,0,0:0:0:0:
248,193,192332,1,8,0:0:0:0:
252,179,192391,1,8,0:0:0:0:
248,193,192450,1,0,0:0:0:0:
253,186,192509,1,0,0:0:0:0:
248,193,192568,1,8,0:0:0:0:
248,193,192685,1,8,0:0:0:0:
248,198,192921,1,8,0:0:0:0:
248,198,193038,1,8,0:0:0:0:
248,198,193097,1,8,0:0:0:0:
248,198,193156,1,0,0:0:0:0:
248,198,193274,1,8,0:0:0:0:
248,198,193391,1,0,0:0:0:0:
248,198,193509,1,8,0:0:0:0:
248,198,193627,1,0,0:0:0:0:
248,198,193744,1,0,0:0:0:0:
248,198,193862,1,12,0:0:0:0:
238,186,194097,1,8,0:0:0:0:
247,175,194156,1,8,0:0:0:0:
238,186,194215,1,0,0:0:0:0:
237,183,194332,1,8,0:0:0:0:
238,186,194450,1,0,0:0:0:0:
238,186,194568,1,8,0:0:0:0:
238,186,194803,1,0,0:0:0:0:
234,179,194862,1,0,0:0:0:0:
229,176,194921,1,0,0:0:0:0:
238,186,195038,1,8,0:0:0:0:
229,176,195156,1,0,0:0:0:0:
238,186,195274,1,8,0:0:0:0:
229,176,195332,1,8,0:0:0:0:
238,186,195391,1,0,0:0:0:0:
250,196,195450,1,0,0:0:0:0:
230,184,195509,1,8,0:0:0:0:
238,186,195744,1,0,0:0:0:0:
238,186,195980,1,8,0:0:0:0:
238,186,196097,1,0,0:0:0:0:
238,186,196215,1,8,0:0:0:0:
238,186,196274,1,8,0:0:0:0:
238,186,196332,1,0,0:0:0:0:
238,186,196450,1,8,0:0:0:0:
238,186,196685,1,0,0:0:0:0:
250,196,196744,1,0,0:0:0:0:
232,172,196803,1,0,0:0:0:0:
238,186,196921,1,8,0:0:0:0:
229,172,197038,1,8,0:0:0:0:
238,186,197156,1,0,0:0:0:0:
237,158,197215,1,0,0:0:0:0:
238,186,197274,1,0,0:0:0:0:
228,173,197332,1,0,0:0:0:0:
238,186,197391,1,8,0:0:0:0:
238,186,197627,1,12,0:0:0:0:
238,186,197862,1,8,0:0:0:0:
238,186,197980,1,0,0:0:0:0:
244,178,198038,1,0,0:0:0:0:
247,175,198097,1,0,0:0:0:0:
238,186,198215,1,0,0:0:0:0:
238,186,198332,1,8,0:0:0:0:
238,186,198568,1,0,0:0:0:0:
238,186,198803,1,8,0:0:0:0:
243,173,198921,1,0,0:0:0:0:
238,186,199038,1,8,0:0:0:0:
250,181,199097,1,8,0:0:0:0:
238,186,199156,1,0,0:0:0:0:
238,186,199274,1,8,0:0:0:0:
238,186,199509,1,8,0:0:0:0:
241,182,199568,1,0,0:0:0:0:
241,182,199627,1,0,0:0:0:0:
238,186,199744,1,8,0:0:0:0:
238,186,199862,1,0,0:0:0:0:
241,182,199980,1,8,0:0:0:0:
241,182,200038,1,8,0:0:0:0:
238,186,200097,1,0,0:0:0:0:
240,178,200156,1,0,0:0:0:0:
238,186,200215,1,8,0:0:0:0:
248,183,200332,1,0,0:0:0:0:
238,186,200450,1,8,0:0:0:0:
238,186,200509,1,8,0:0:0:0:
241,182,200568,1,0,0:0:0:0:
238,186,200685,1,8,0:0:0:0:
238,186,200921,1,0,0:0:0:0:
241,182,200980,1,0,0:0:0:0:
238,186,201038,1,0,0:0:0:0:
238,186,201156,1,8,0:0:0:0:
238,186,201391,1,4,0:0:0:0:
238,186,201627,1,8,0:0:0:0:
238,186,201744,1,0,0:0:0:0:
238,186,201980,1,0,0:0:0:0:
238,186,202097,1,8,0:0:0:0:
246,181,202156,1,8,0:0:0:0:
246,181,202215,1,8,0:0:0:0:
238,186,202332,1,0,0:0:0:0:
238,186,202568,1,8,0:0:0:0:
238,186,202803,1,0,0:0:0:0:
238,186,202921,1,0,0:0:0:0:
238,186,203038,1,8,0:0:0:0:
238,186,203274,1,4,0:0:0:0:
238,186,203509,1,8,0:0:0:0:
238,186,203627,1,0,0:0:0:0:
238,186,203862,1,0,0:0:0:0:
238,186,203980,1,8,0:0:0:0:
238,173,204038,1,8,0:0:0:0:
238,173,204097,1,8,0:0:0:0:
238,186,204215,1,0,0:0:0:0:
238,186,204450,1,8,0:0:0:0:
238,186,204685,1,0,0:0:0:0:
240,178,204744,1,0,0:0:0:0:
238,186,204803,1,0,0:0:0:0:
238,186,204921,1,8,0:0:0:0:
238,186,205156,1,8,0:0:0:0:
267,192,205215,1,8,0:0:0:0:
238,186,205274,1,0,0:0:0:0:
238,186,205391,1,8,0:0:0:0:
238,186,205509,1,0,0:0:0:0:
260,184,205627,1,8,0:0:0:0:
260,184,205685,1,8,0:0:0:0:
238,186,205744,1,0,0:0:0:0:
238,186,205803,1,0,0:0:0:0:
238,186,205862,1,8,0:0:0:0:
238,186,205980,1,0,0:0:0:0:
238,186,206097,1,8,0:0:0:0:
269,198,206156,1,8,0:0:0:0:
238,186,206215,1,0,0:0:0:0:
238,186,206332,1,8,0:0:0:0:
238,186,206450,1,0,0:0:0:0:
238,186,206568,1,8,0:0:0:0:
260,184,206627,1,8,0:0:0:0:
238,186,206685,1,0,0:0:0:0:
260,184,206744,1,0,0:0:0:0:
238,186,206803,1,8,0:0:0:0:
238,186,206921,1,0,0:0:0:0:
253,189,207038,1,8,0:0:0:0:
253,189,207274,1,0,0:0:0:0:
253,189,207509,1,0,0:0:0:0:
253,189,207744,1,0,0:0:0:0:
253,189,207980,1,8,0:0:0:0:
253,189,208450,1,8,0:0:0:0:
253,186,208921,1,12,0:0:0:0:
253,186,209156,1,8,0:0:0:0:
253,168,209215,1,8,0:0:0:0:
253,186,209274,1,0,0:0:0:0:
253,186,209391,1,8,0:0:0:0:
253,186,209509,1,0,0:0:0:0:
253,186,209627,1,8,0:0:0:0:
252,176,209685,1,8,0:0:0:0:
259,194,209744,1,0,0:0:0:0:
254,190,209862,1,8,0:0:0:0:
254,190,209980,1,0,0:0:0:0:
253,186,210038,1,0,0:0:0:0:
253,186,210097,1,8,0:0:0:0:
254,190,210215,1,0,0:0:0:0:
253,186,210274,1,0,0:0:0:0:
253,186,210332,1,8,0:0:0:0:
254,190,210450,1,0,0:0:0:0:
253,186,210509,1,0,0:0:0:0:
253,186,210568,1,8,0:0:0:0:
250,166,210627,1,8,0:0:0:0:
253,179,210685,1,0,0:0:0:0:
253,186,210803,1,8,0:0:0:0:
252,175,210862,1,8,0:0:0:0:
253,186,210921,1,0,0:0:0:0:
253,186,211038,1,8,0:0:0:0:
253,186,211156,1,0,0:0:0:0:
253,186,211274,1,8,0:0:0:0:
278,184,211332,1,8,0:0:0:0:
253,186,211391,1,0,0:0:0:0:
254,190,211509,1,8,0:0:0:0:
254,190,211627,1,0,0:0:0:0:
253,186,211685,1,0,0:0:0:0:
253,186,211744,1,8,0:0:0:0:
254,190,211862,1,0,0:0:0:0:
253,186,211921,1,0,0:0:0:0:
253,186,211980,1,8,0:0:0:0:
254,190,212097,1,0,0:0:0:0:
253,186,212156,1,0,0:0:0:0:
253,186,212215,1,8,0:0:0:0:
260,167,212274,1,0,0:0:0:0:
253,179,212332,1,0,0:0:0:0:
271,183,212450,1,8,0:0:0:0:
271,183,212568,1,0,0:0:0:0:
250,168,212685,1,8,0:0:0:0:
250,168,212803,1,0,0:0:0:0:
253,186,212921,1,8,0:0:0:0:
249,162,212980,1,8,0:0:0:0:
253,186,213038,1,0,0:0:0:0:
253,186,213156,1,8,0:0:0:0:
253,186,213274,1,0,0:0:0:0:
253,186,213391,1,8,0:0:0:0:
252,175,213450,1,8,0:0:0:0:
253,186,213509,1,0,0:0:0:0:
254,190,213627,1,8,0:0:0:0:
254,190,213744,1,0,0:0:0:0:
253,186,213803,1,0,0:0:0:0:
253,186,213862,1,8,0:0:0:0:
254,190,213980,1,0,0:0:0:0:
253,186,214038,1,0,0:0:0:0:
253,186,214097,1,8,0:0:0:0:
254,190,214215,1,0,0:0:0:0:
253,186,214274,1,0,0:0:0:0:
253,186,214332,1,8,0:0:0:0:
253,179,214450,1,0,0:0:0:0:
253,186,214568,1,8,0:0:0:0:
253,186,214685,1,0,0:0:0:0:
253,186,214803,1,8,0:0:0:0:
246,163,214862,1,8,0:0:0:0:
253,186,214921,1,0,0:0:0:0:
253,186,215038,1,8,0:0:0:0:
253,186,215156,1,0,0:0:0:0:
254,190,215274,1,8,0:0:0:0:
254,190,215391,1,0,0:0:0:0:
253,186,215450,1,0,0:0:0:0:
253,186,215509,1,8,0:0:0:0:
254,190,215627,1,0,0:0:0:0:
253,186,215685,1,0,0:0:0:0:
253,186,215744,1,8,0:0:0:0:
254,190,215862,1,0,0:0:0:0:
253,186,215921,1,0,0:0:0:0:
253,186,215980,1,8,0:0:0:0:
260,167,216038,1,8,0:0:0:0:
253,179,216097,1,0,0:0:0:0:
271,183,216215,1,8,0:0:0:0:
271,183,216332,1,0,0:0:0:0:
250,168,216450,1,8,0:0:0:0:
251,175,216509,1,8,0:0:0:0:
250,168,216568,1,0,0:0:0:0:
253,186,216685,1,8,0:0:0:0:
253,186,216803,1,0,0:0:0:0:
253,186,216921,1,8,0:0:0:0:
253,186,217038,1,0,0:0:0:0:
253,186,217156,1,8,0:0:0:0:
271,183,217215,1,8,0:0:0:0:
253,186,217274,1,0,0:0:0:0:
254,190,217391,1,8,0:0:0:0:
264,189,217450,1,8,0:0:0:0:
254,190,217509,1,0,0:0:0:0:
253,186,217568,1,0,0:0:0:0:
253,186,217627,1,8,0:0:0:0:
254,190,217744,1,0,0:0:0:0:
253,186,217803,1,0,0:0:0:0:
253,186,217862,1,8,0:0:0:0:
254,190,217980,1,0,0:0:0:0:
253,186,218038,1,0,0:0:0:0:
253,186,218097,1,8,0:0:0:0:
253,179,218215,1,0,0:0:0:0:
253,180,218332,1,12,0:0:0:0:
253,180,218450,1,0,0:0:0:0:
253,180,218568,1,0,0:0:0:0:
253,180,218685,1,12,0:0:0:0:
253,180,218803,1,0,0:0:0:0:
253,180,218921,1,12,0:0:0:0:
263,175,219038,1,12,0:0:0:0:
251,175,219274,1,0,0:0:0:0:
251,175,219391,1,8,0:0:0:0:
251,175,219450,1,8,0:0:0:0:
251,175,219509,1,0,0:0:0:0:
251,175,219627,1,8,0:0:0:0:
251,175,219744,1,0,0:0:0:0:
251,175,219862,1,8,0:0:0:0:
251,175,219980,1,0,0:0:0:0:
246,178,220215,1,4,0:0:0:0:
256,192,220332,12,0,227509,0:0:0:0:
