osu file format v14

[General]
AudioFilename: audio.mp3
AudioLeadIn: 0
PreviewTime: 44120
Countdown: 0
SampleSet: Soft
StackLeniency: 0.4
Mode: 0
LetterboxInBreaks: 0
WidescreenStoryboard: 0

[Editor]
DistanceSpacing: 2.2
BeatDivisor: 4
GridSize: 16
TimelineZoom: 2.4

[Metadata]
Title:Fake.Fake.Fake
TitleUnicode:Fake.Fake.Fake
Artist:AZKi
ArtistUnicode:AZKi
Creator:Luscent
Version:Flame Haze's 3X
Source:
Tags:azur lane x hololive BLaCK 3rd minato aqua virtual youtuber vtuber japanese rock jrock j-rock fake fakefakefake hoto cocoa flame haze fuju tatemae
BeatmapID:3560365
BeatmapSetID:1611987

[Difficulty]
HPDrainRate:5.7
CircleSize:4
OverallDifficulty:8.7
ApproachRate:9.7
SliderMultiplier:1.7
SliderTickRate:1

[Events]
//Background and Video events
0,0,"azki.jpg",0,0
//Break Periods
//Storyboard Layer 0 (Background)
//Storyboard Layer 1 (Fail)
//Storyboard Layer 2 (Pass)
//Storyboard Layer 3 (Foreground)
//Storyboard Layer 4 (Overlay)
//Storyboard Sound Samples

[TimingPoints]
8,235.294117647059,4,2,1,60,1,0
1890,-117.647058823529,4,2,1,60,0,0
2066,-117.647058823529,4,2,1,5,0,0
2125,-117.647058823529,4,2,1,60,0,0
2772,-117.647058823529,4,2,1,5,0,0
2831,-117.647058823529,4,2,1,60,0,0
3772,-90.9090909090909,4,2,1,60,0,0
3948,-90.9090909090909,4,2,1,5,0,0
4008,-90.9090909090909,4,2,1,60,0,0
6301,-90.9090909090909,4,2,1,5,0,0
6360,-90.9090909090909,4,2,1,60,0,0
7713,-90.9090909090909,4,2,1,5,0,0
7772,-90.9090909090909,4,2,1,60,0,0
9125,-90.9090909090909,4,2,1,5,0,0
9184,-90.9090909090909,4,2,1,60,0,0
11478,-90.9090909090909,4,2,1,5,0,0
11537,-90.9090909090909,4,2,1,60,0,0
12184,-90.9090909090909,4,2,1,5,0,0
12243,-90.9090909090909,4,2,1,60,0,0
12654,-90.9090909090909,4,2,1,5,0,0
12713,-90.9090909090909,4,2,1,60,0,0
14066,-90.9090909090909,4,2,1,5,0,0
14125,-90.9090909090909,4,2,1,60,0,0
15066,-117.647058823529,4,2,1,50,0,0
16419,-117.647058823529,4,2,1,5,0,0
16478,-117.647058823529,4,2,1,50,0,0
16889,-117.647058823529,4,2,1,5,0,0
16949,-117.647058823529,4,2,1,50,0,0
17125,-117.647058823529,4,2,1,5,0,0
17184,-117.647058823529,4,2,1,50,0,0
17478,-117.647058823529,4,2,1,5,0,0
17537,-117.647058823529,4,2,1,50,0,0
17831,-117.647058823529,4,2,1,5,0,0
17890,-117.647058823529,4,2,1,50,0,0
19008,-117.647058823529,4,2,1,5,0,0
19066,-117.647058823529,4,2,1,50,0,0
19360,-117.647058823529,4,2,1,5,0,0
19419,-117.647058823529,4,2,1,50,0,0
20184,-117.647058823529,4,2,1,5,0,0
20243,-117.647058823529,4,2,1,50,0,0
20654,-117.647058823529,4,2,1,5,0,0
20713,-117.647058823529,4,2,1,50,0,0
21242,-117.647058823529,4,2,1,5,0,0
21302,-117.647058823529,4,2,1,50,0,0
23713,-117.647058823529,4,2,1,5,0,0
23772,-117.647058823529,4,2,1,50,0,0
23948,-117.647058823529,4,2,1,5,0,0
24008,-117.647058823529,4,2,1,50,0,0
24419,-117.647058823529,4,2,1,5,0,0
24478,-117.647058823529,4,2,1,50,0,0
24655,-117.647058823529,4,2,1,5,0,0
24713,-117.647058823529,4,2,1,50,0,0
25007,-117.647058823529,4,2,1,5,0,0
25066,-117.647058823529,4,2,1,50,0,0
28184,-117.647058823529,4,2,1,5,0,0
28243,-117.647058823529,4,2,1,50,0,0
30125,-142.857142857143,4,2,1,55,0,0
31713,-142.857142857143,4,2,1,5,0,0
31772,-142.857142857143,4,2,1,55,0,0
33831,-142.857142857143,4,2,1,5,0,0
33890,-142.857142857143,4,2,1,55,0,0
34772,-142.857142857143,4,2,1,5,0,0
34831,-142.857142857143,4,2,1,55,0,0
35478,-142.857142857143,4,2,1,5,0,0
35537,-142.857142857143,4,2,1,55,0,0
37184,-111.111111111111,4,2,1,55,0,0
37655,-99.9999999999999,4,2,1,60,0,0
37831,-99.9999999999999,4,2,1,5,0,0
37890,-99.9999999999999,4,2,1,60,0,0
40654,-99.9999999999999,4,2,1,5,0,0
40713,-99.9999999999999,4,2,1,60,0,0
41360,-99.9999999999999,4,2,1,5,0,0
41419,-99.9999999999999,4,2,1,60,0,0
41831,-99.9999999999999,4,2,1,5,0,0
41890,-99.9999999999999,4,2,1,60,0,0
42301,-99.9999999999999,4,2,1,5,0,0
42360,-99.9999999999999,4,2,1,60,0,0
44243,-400,4,2,1,60,0,0
44302,-400,4,2,1,5,0,0
45184,-83.3333333333333,4,2,1,90,0,1
47007,-83.3333333333333,4,2,1,5,0,1
47066,-83.3333333333333,4,2,1,90,0,1
50772,-83.3333333333333,4,2,1,5,0,1
50831,-83.3333333333333,4,2,1,90,0,1
53125,-83.3333333333333,4,2,1,5,0,1
53184,-83.3333333333333,4,2,1,90,0,1
54536,-83.3333333333333,4,2,1,5,0,1
54596,-83.3333333333333,4,2,1,90,0,1
55478,-83.3333333333333,4,2,1,5,0,1
55537,-83.3333333333333,4,2,1,90,0,1
56419,-83.3333333333333,4,2,1,5,0,1
56478,-83.3333333333333,4,2,1,90,0,1
58772,-83.3333333333333,4,2,1,5,0,1
58831,-83.3333333333333,4,2,1,90,0,1
59242,-83.3333333333333,4,2,1,5,0,1
59302,-83.3333333333333,4,2,1,90,0,1
60243,-83.3333333333333,4,2,1,80,0,1
62066,-83.3333333333333,4,2,1,5,0,1
62125,-83.3333333333333,4,2,1,80,0,1
62301,-83.3333333333333,4,2,1,5,0,1
62360,-83.3333333333333,4,2,1,80,0,1
63948,-83.3333333333333,4,2,1,5,0,1
64008,-83.3333333333333,4,2,1,80,0,1
64184,-83.3333333333333,4,2,1,5,0,1
64243,-83.3333333333333,4,2,1,80,0,1
64889,-83.3333333333333,4,2,1,5,0,1
64949,-83.3333333333333,4,2,1,80,0,1
65831,-83.3333333333333,4,2,1,5,0,1
65890,-83.3333333333333,4,2,1,80,0,1
69595,-83.3333333333333,4,2,1,5,0,1
69655,-83.3333333333333,4,2,1,80,0,1
74301,-83.3333333333333,4,2,1,5,0,1
74360,-153.846153846154,4,2,1,60,0,0
74419,-153.846153846154,4,2,1,5,0,0
75302,-90.9090909090909,4,2,1,60,0,0
75478,-90.9090909090909,4,2,1,5,0,0
75537,-90.9090909090909,4,2,1,60,0,0
79713,-90.9090909090909,4,2,1,5,0,0
79772,-90.9090909090909,4,2,1,60,0,0
81595,-90.9090909090909,4,2,1,5,0,0
81655,-90.9090909090909,4,2,1,60,0,0
83242,-90.9090909090909,4,2,1,5,0,0
83302,-90.9090909090909,4,2,1,60,0,0
86596,-117.647058823529,4,2,1,50,0,0
87948,-117.647058823529,4,2,1,5,0,0
88008,-117.647058823529,4,2,1,50,0,0
88419,-117.647058823529,4,2,1,5,0,0
88478,-117.647058823529,4,2,1,50,0,0
89360,-117.647058823529,4,2,1,5,0,0
89419,-117.647058823529,4,2,1,50,0,0
89831,-117.647058823529,4,2,1,5,0,0
89890,-117.647058823529,4,2,1,50,0,0
90301,-117.647058823529,4,2,1,5,0,0
90360,-117.647058823529,4,2,1,50,0,0
91713,-117.647058823529,4,2,1,5,0,0
91772,-117.647058823529,4,2,1,50,0,0
92184,-117.647058823529,4,2,1,5,0,0
92243,-117.647058823529,4,2,1,50,0,0
93595,-117.647058823529,4,2,1,5,0,0
93655,-117.647058823529,4,2,1,50,0,0
95242,-117.647058823529,4,2,1,5,0,0
95302,-117.647058823529,4,2,1,50,0,0
95948,-117.647058823529,4,2,1,5,0,0
96008,-117.647058823529,4,2,1,50,0,0
97831,-117.647058823529,4,2,1,5,0,0
97890,-117.647058823529,4,2,1,50,0,0
99713,-117.647058823529,4,2,1,5,0,0
99772,-117.647058823529,4,2,1,50,0,0
100654,-117.647058823529,4,2,1,5,0,0
100713,-117.647058823529,4,2,1,50,0,0
101655,-142.857142857143,4,2,1,55,0,0
102536,-142.857142857143,4,2,1,5,0,0
102596,-142.857142857143,4,2,1,55,0,0
103242,-142.857142857143,4,2,1,5,0,0
103302,-142.857142857143,4,2,1,55,0,0
105360,-142.857142857143,4,2,1,5,0,0
105419,-142.857142857143,4,2,1,55,0,0
106301,-142.857142857143,4,2,1,5,0,0
106360,-142.857142857143,4,2,1,55,0,0
107007,-142.857142857143,4,2,1,5,0,0
107066,-142.857142857143,4,2,1,55,0,0
108713,-111.111111111111,4,2,1,55,0,0
109184,-99.9999999999999,4,2,1,60,0,0
112184,-99.9999999999999,4,2,1,5,0,0
112243,-99.9999999999999,4,2,1,60,0,0
112889,-99.9999999999999,4,2,1,5,0,0
112949,-99.9999999999999,4,2,1,60,0,0
113360,-99.9999999999999,4,2,1,5,0,0
113419,-99.9999999999999,4,2,1,60,0,0
113831,-99.9999999999999,4,2,1,5,0,0
113890,-99.9999999999999,4,2,1,60,0,0
114301,-99.9999999999999,4,2,1,5,0,0
114360,-99.9999999999999,4,2,1,60,0,0
115713,-99.9999999999999,4,2,1,5,0,0
115772,-400,4,2,1,60,0,0
115831,-400,4,2,1,5,0,0
116713,-83.3333333333333,4,2,1,90,0,1
117595,-83.3333333333333,4,2,1,5,0,1
117655,-83.3333333333333,4,2,1,90,0,1
121360,-83.3333333333333,4,2,1,5,0,1
121419,-83.3333333333333,4,2,1,90,0,1
122301,-83.3333333333333,4,2,1,5,0,1
122360,-83.3333333333333,4,2,1,90,0,1
123478,-83.3333333333333,4,2,1,5,0,1
123537,-83.3333333333333,4,2,1,90,0,1
124419,-83.3333333333333,4,2,1,5,0,1
124478,-83.3333333333333,4,2,1,90,0,1
124654,-83.3333333333333,4,2,1,5,0,1
124713,-83.3333333333333,4,2,1,90,0,1
126772,-83.3333333333333,4,2,1,5,0,1
126831,-83.3333333333333,4,2,1,90,0,1
127948,-83.3333333333333,4,2,1,5,0,1
128008,-83.3333333333333,4,2,1,90,0,1
128654,-83.3333333333333,4,2,1,5,0,1
128713,-83.3333333333333,4,2,1,90,0,1
129831,-83.3333333333333,4,2,1,5,0,1
129890,-83.3333333333333,4,2,1,90,0,1
130772,-83.3333333333333,4,2,1,5,0,1
130831,-83.3333333333333,4,2,1,90,0,1
131772,-83.3333333333333,4,2,1,80,0,1
132889,-83.3333333333333,4,2,1,5,0,1
132949,-83.3333333333333,4,2,1,80,0,1
133595,-83.3333333333333,4,2,1,5,0,1
133655,-83.3333333333333,4,2,1,80,0,1
135478,-83.3333333333333,4,2,1,5,0,1
135537,-83.3333333333333,4,2,1,80,0,1
136419,-83.3333333333333,4,2,1,5,0,1
136478,-83.3333333333333,4,2,1,80,0,1
137360,-83.3333333333333,4,2,1,5,0,1
137419,-83.3333333333333,4,2,1,80,0,1
138536,-83.3333333333333,4,2,1,5,0,1
138596,-83.3333333333333,4,2,1,80,0,1
139242,-83.3333333333333,4,2,1,5,0,1
139302,-83.3333333333333,4,2,1,80,0,1
140184,-83.3333333333333,4,2,1,5,0,1
140243,-83.3333333333333,4,2,1,80,0,1
140419,-83.3333333333333,4,2,1,5,0,1
140478,-83.3333333333333,4,2,1,80,0,1
141125,-83.3333333333333,4,2,1,5,0,1
141184,-83.3333333333333,4,2,1,80,0,1
143007,-83.3333333333333,4,2,1,5,0,1
143066,-83.3333333333333,4,2,1,80,0,1
145419,-95.2380952380952,4,2,1,80,0,1
145890,-142.857142857143,4,2,1,75,0,0
145949,-142.857142857143,4,2,1,5,0,0
146831,470.588235294118,4,2,1,50,1,0
146831,-83.3333333333333,4,2,1,45,0,0
159947,-83.3333333333333,4,2,1,5,0,0
160007,235.294117647059,4,2,1,90,1,1
161889,235.294117647059,4,2,1,80,1,0
161889,-90.9090909090909,4,2,1,65,0,0
162065,-90.9090909090909,4,2,1,5,0,0
162124,-90.9090909090909,4,2,1,65,0,0
163712,-90.9090909090909,4,2,1,5,0,0
163771,-90.9090909090909,4,2,1,65,0,0
163947,-90.9090909090909,4,2,1,5,0,0
164006,-90.9090909090909,4,2,1,65,0,0
165594,-90.9090909090909,4,2,1,5,0,0
165653,-90.9090909090909,4,2,1,65,0,0
165829,-90.9090909090909,4,2,1,5,0,0
165889,-90.9090909090909,4,2,1,65,0,0
166535,-90.9090909090909,4,2,1,5,0,0
166594,-90.9090909090909,4,2,1,65,0,0
167006,-90.9090909090909,4,2,1,5,0,0
167065,-90.9090909090909,4,2,1,65,0,0
167476,-90.9090909090909,4,2,1,5,0,0
167536,-90.9090909090909,4,2,1,65,0,0
169359,-90.9090909090909,4,2,1,5,0,0
169418,-90.9090909090909,4,2,1,65,0,0
169594,-90.9090909090909,4,2,1,5,0,0
169653,-90.9090909090909,4,2,1,65,0,0
170300,-90.9090909090909,4,2,1,5,0,0
170359,-90.9090909090909,4,2,1,65,0,0
171241,-90.9090909090909,4,2,1,5,0,0
171300,-90.9090909090909,4,2,1,65,0,0
173123,-90.9090909090909,4,2,1,5,0,0
173183,-90.9090909090909,4,2,1,65,0,0
173594,-90.9090909090909,4,2,1,5,0,0
173653,-90.9090909090909,4,2,1,65,0,0
174065,-90.9090909090909,4,2,1,5,0,0
174124,-90.9090909090909,4,2,1,65,0,0
176241,-111.111111111111,4,2,1,65,0,0
176477,-125,4,2,1,65,0,0
176712,-142.857142857143,4,2,1,65,0,0
177889,-142.857142857143,4,2,1,5,0,0
178830,235.294117647059,4,2,1,95,1,1
178830,-83.3333333333333,4,2,1,95,0,1
179712,-83.3333333333333,4,2,1,5,0,1
179771,-83.3333333333333,4,2,1,95,0,1
180653,-83.3333333333333,4,2,1,5,0,1
180712,-83.3333333333333,4,2,1,95,0,1
181359,-83.3333333333333,4,2,1,5,0,1
181418,-83.3333333333333,4,2,1,95,0,1
183476,-83.3333333333333,4,2,1,5,0,1
183536,-83.3333333333333,4,2,1,95,0,1
184653,-83.3333333333333,4,2,1,5,0,1
184712,-83.3333333333333,4,2,1,95,0,1
185594,-83.3333333333333,4,2,1,5,0,1
185653,-83.3333333333333,4,2,1,95,0,1
186300,-83.3333333333333,4,2,1,5,0,1
186359,-83.3333333333333,4,2,1,95,0,1
187006,-83.3333333333333,4,2,1,5,0,1
187065,-83.3333333333333,4,2,1,95,0,1
187712,-83.3333333333333,4,2,1,5,0,1
187771,-83.3333333333333,4,2,1,95,0,1
189594,-83.3333333333333,4,2,1,5,0,1
189653,-83.3333333333333,4,2,1,95,0,1
190065,-83.3333333333333,4,2,1,5,0,1
190124,-83.3333333333333,4,2,1,95,0,1
191476,-83.3333333333333,4,2,1,5,0,1
191536,-83.3333333333333,4,2,1,95,0,1
191947,-83.3333333333333,4,2,1,5,0,1
192006,-83.3333333333333,4,2,1,95,0,1
192182,-83.3333333333333,4,2,1,5,0,1
192241,-83.3333333333333,4,2,1,95,0,1
193888,-83.3333333333333,4,2,1,80,0,1
194770,-83.3333333333333,4,2,1,5,0,1
194830,-83.3333333333333,4,2,1,80,0,1
195712,-83.3333333333333,4,2,1,5,0,1
195771,-83.3333333333333,4,2,1,80,0,1
196888,-83.3333333333333,4,2,1,5,0,1
196947,-83.3333333333333,4,2,1,80,0,1
197594,-83.3333333333333,4,2,1,5,0,1
197653,-83.3333333333333,4,2,1,80,0,1
198535,-83.3333333333333,4,2,1,5,0,1
198594,-83.3333333333333,4,2,1,80,0,1
199006,-83.3333333333333,4,2,1,5,0,1
199065,-83.3333333333333,4,2,1,80,0,1
199476,-83.3333333333333,4,2,1,5,0,1
199536,-83.3333333333333,4,2,1,80,0,1
201359,-83.3333333333333,4,2,1,5,0,1
201418,-83.3333333333333,4,2,1,80,0,1
202300,-83.3333333333333,4,2,1,5,0,1
202359,-83.3333333333333,4,2,1,80,0,1
202770,-83.3333333333333,4,2,1,5,0,1
202830,-83.3333333333333,4,2,1,80,0,1
203241,-83.3333333333333,4,2,1,5,0,1
203300,-83.3333333333333,4,2,1,80,0,1
204653,-83.3333333333333,4,2,1,5,0,1
204712,-83.3333333333333,4,2,1,80,0,1
205123,-83.3333333333333,4,2,1,5,0,1
205183,-83.3333333333333,4,2,1,80,0,1
207006,-83.3333333333333,4,2,1,5,0,1
207065,-83.3333333333333,4,2,1,80,0,1
208006,-153.846153846154,4,2,1,75,0,0
208066,-153.846153846154,4,2,1,5,0,0
208947,-90.9090909090909,4,2,1,60,0,0
209123,-90.9090909090909,4,2,1,5,0,0
209183,-90.9090909090909,4,2,1,60,0,0
209594,-90.9090909090909,4,2,1,5,0,0
209653,-90.9090909090909,4,2,1,60,0,0
211476,-90.9090909090909,4,2,1,5,0,0
211536,-90.9090909090909,4,2,1,60,0,0
212888,-90.9090909090909,4,2,1,5,0,0
212947,-90.9090909090909,4,2,1,60,0,0
215241,-90.9090909090909,4,2,1,5,0,0
215300,-90.9090909090909,4,2,1,60,0,0
220241,-416.666666666667,4,2,1,90,0,0
220301,-416.666666666667,4,2,1,5,0,0

[Colours]
Combo1 : 158,214,254
Combo2 : 227,138,140
Combo3 : 128,168,213
Combo4 : 251,174,186

[HitObjects]
443,29,1772,5,0,1:2:0:0:
443,29,1831,1,0,1:2:0:0:
443,29,1890,2,0,P|381:20|354:72,1,108.375,12|0,2:0|2:0,2:0:0:0:
361,125,2125,5,0,1:0:0:0:
368,133,2184,1,0,1:0:0:0:
374,141,2243,2,0,B|450:172|394:210|513:234,1,144.500000000001,12|0,1:2|1:0,2:0:0:0:
484,227,2596,6,0,B|427:253|462:278|382:306,1,108.375,12|0,2:0|2:0,2:0:0:0:
342,249,2831,5,8,1:2:0:0:
484,348,2949,1,8,2:0:0:0:
488,216,3066,5,8,1:2:0:0:
351,372,3184,1,8,2:0:0:0:
207,158,3302,5,8,1:2:0:0:
284,186,3419,1,8,2:0:0:0:
438,43,3537,5,8,1:2:0:0:
365,66,3655,1,8,2:0:0:0:
51,31,3772,6,0,B|96:8|96:8|136:54|102:108,1,140.25,6|0,1:2|2:0,2:0:0:0:
135,171,4008,2,0,P|105:133|112:88,1,93.5,10|0,2:0|1:0,2:0:0:0:
327,10,4243,5,10,2:0:0:0:
189,103,4360,1,0,1:0:0:0:
337,0,4478,6,0,P|381:13|426:26,1,93.5,10|0,2:0|1:2,2:0:0:0:
409,196,4713,2,0,P|397:152|356:135,1,93.5,10|0,2:0|1:0,2:0:0:0:
293,184,4890,5,0,1:2:0:0:
285,188,4949,2,0,P|251:166|228:161,2,46.75,10|0|0,2:0|1:2|2:0,2:0:0:0:
359,297,5125,5,0,1:2:0:0:
367,301,5184,2,0,P|401:279|424:274,2,46.75,10|0|0,2:0|1:2|2:0,2:0:0:0:
231,378,5419,6,0,P|191:340|220:289,1,93.5,10|0,2:0|1:0,2:0:0:0:
333,137,5655,2,0,P|368:193|390:227,1,93.5,10|0,2:0|1:0,2:0:0:0:
145,128,5890,2,2,P|205:90|231:71,1,93.5,10|0,2:0|1:2,2:0:0:0:
283,273,6125,2,0,P|253:221|170:252,1,140.25,10|0,2:0|2:0,2:0:0:0:
116,278,6360,6,0,B|177:274|199:319|184:322|197:374|278:370,1,187,10|8,2:0|2:0,2:0:0:0:
432,169,6713,1,0,1:2:0:0:
431,159,6772,1,0,1:2:0:0:
423,153,6831,2,0,P|366:169|324:181,1,93.5,10|0,2:0|1:2,2:0:0:0:
218,51,7008,5,0,1:0:0:0:
221,42,7066,2,0,P|269:24|306:64,1,93.5,10|0,2:0|1:0,2:0:0:0:
220,172,7243,5,0,1:0:0:0:
211,175,7302,2,0,P|151:150|97:129,1,93.5,10|0,2:0|1:0,2:0:0:0:
28,267,7537,6,0,P|23:329|116:336,1,140.25,12|0,1:2|2:0,2:0:0:0:
149,309,7772,2,0,P|203:288|262:287,1,93.5,10|0,2:0|1:0,2:0:0:0:
319,362,8008,5,10,2:0:0:0:
146,232,8125,1,0,1:2:0:0:
336,190,8243,5,10,2:0:0:0:
234,296,8360,1,0,1:0:0:0:
111,15,8478,6,0,P|155:23|183:60,1,93.5,10|0,2:0|1:0,2:0:0:0:
178,78,8655,1,0,1:0:0:0:
172,85,8713,1,10,2:0:0:0:
12,167,8831,1,0,1:0:0:0:
12,167,8890,1,0,1:0:0:0:
12,167,8949,2,0,B|52:153|81:200|81:200|85:252|151:245,1,140.25,10|0,2:0|2:0,2:0:0:0:
167,290,9184,6,0,P|178:269|192:250,2,46.75,10|0|0,2:0|1:0|1:0,2:0:0:0:
225,384,9419,2,0,P|270:372|315:362,1,93.5,12|0,2:0|1:0,2:0:0:0:
415,171,9655,6,0,P|367:209|371:257,1,93.5,10|0,2:0|1:0,2:0:0:0:
277,114,9890,2,0,P|253:62|228:19,1,93.5,10|0,2:0|1:0,2:0:0:0:
419,2,10125,6,0,B|431:-21|487:-28|509:22|509:105|407:110,1,187,10|8,2:0|2:0,2:0:0:0:
245,40,10478,1,0,1:0:0:0:
245,40,10537,1,0,1:0:0:0:
244,40,10596,2,0,P|289:26|338:12,1,93.5,10|0,2:0|1:0,2:0:0:0:
448,217,10831,6,0,P|397:196|383:136,1,93.5,10|0,2:0|1:0,2:0:0:0:
301,115,11008,1,0,1:0:0:0:
315,109,11066,2,0,P|366:130|380:190,1,93.5,10|0,2:0|1:0,2:0:0:0:
345,330,11243,5,0,2:0:0:0:
337,339,11302,2,0,P|267:358|202:383,1,140.25,14|0,2:0|2:0,2:0:0:0:
147,341,11537,2,0,P|148:292|207:275,1,93.5,10|0,2:0|1:0,2:0:0:0:
357,347,11772,5,10,2:0:0:0:
173,262,11890,1,0,1:0:0:0:
235,106,12008,6,0,P|301:108|320:171,1,140.25,10|0,2:0|2:0,2:0:0:0:
319,171,12243,2,0,P|273:182|228:194,1,93.5,10|0,2:0|1:0,2:0:0:0:
16,17,12419,5,0,1:0:0:0:
27,9,12478,2,0,B|105:27|64:70|149:87,1,140.25,10|0,2:0|2:0,2:0:0:0:
167,85,12713,2,0,B|180:75|185:53|185:53|161:77|117:95,1,93.5,10|0,2:0|1:0,2:0:0:0:
31,171,12890,5,0,2:0:0:0:
26,183,12949,2,0,P|52:220|96:213,1,93.5,10|0,2:0|1:0,2:0:0:0:
220,28,13184,5,14,2:0:0:0:
59,106,13302,1,0,1:2:0:0:
221,227,13419,5,14,2:0:0:0:
54,97,13537,1,0,1:2:0:0:
25,313,13655,6,8,P|70:299|132:285,1,93.5000028533936,10|8,1:2|2:0,2:0:0:0:
303,359,13890,2,0,P|256:374|203:260,1,187,10|8,2:0|2:0,2:0:0:0:
341,124,14243,5,8,2:0:0:0:
341,124,14302,1,8,2:0:0:0:
341,124,14360,2,0,P|381:154|376:221,1,93.5,10|8,2:0|2:0,2:0:0:0:
293,266,14596,5,10,2:0:0:0:
288,258,14713,1,0,1:0:0:0:
460,116,14831,5,10,2:0:0:0:
455,124,14949,1,0,1:0:0:0:
174,83,15066,6,6,B|170:46|204:18|254:8|283:39,1,144.500000000001,6|8,1:2|2:0,1:2:0:0:
393,187,15419,2,0,B|433:169|433:169|445:100|380:82,1,144.500000000001,2|0,1:2|1:0,2:0:0:0:
226,258,15772,2,0,B|304:288|255:321|337:345,1,144.500000000001,10|0,2:0|2:0,2:0:0:0:
319,112,16243,6,0,P|274:109|225:165,1,108.375,10|0,2:0|2:0,2:0:0:0:
233,164,16478,1,0,1:2:0:0:
279,281,16596,1,0,1:2:0:0:
100,266,16713,6,0,B|51:295|84:319|22:354,1,108.375,10|0,2:0|2:0,2:0:0:0:
16,343,16949,2,0,P|88:363|166:389,1,144.500000000001,0|8,1:2|2:0,2:0:0:0:
339,181,17302,2,0,P|274:199|198:222,1,144.500000000001,2|0,1:2|1:0,2:0:0:0:
114,0,17655,6,0,P|164:0|192:69,1,108.375,8|0,2:0|2:0,2:0:0:0:
144,97,17890,2,0,B|95:106|80:137|88:141|76:179|21:179,1,144.500000000001,0|8,2:0|2:0,2:0:0:0:
5,18,18360,5,0,1:2:0:0:
157,101,18478,1,0,1:2:0:0:
98,227,18596,6,0,P|74:200|39:189,1,72.2500000000003,10|0,2:0|2:0,2:0:0:0:
68,309,18831,2,0,P|99:268|189:259,1,144.500000000001,2|8,1:2|2:0,2:0:0:0:
366,384,19184,6,0,P|308:363|244:338,1,108.375,2|0,1:2|2:0,2:0:0:0:
254,328,19419,1,0,1:2:0:0:
443,205,19537,2,0,B|455:188|470:173|470:173|371:200,1,144.500000000001,8|0,2:0|2:0,2:0:0:0:
284,0,20008,6,0,P|335:8|387:55,1,108.375,10|0,2:0|2:0,2:0:0:0:
378,42,20243,2,0,L|299:77,1,72.2500000000003,2|0,1:2|1:2,2:0:0:0:
490,179,20478,2,0,P|475:136|453:69,1,108.375,10|0,2:0|2:0,2:0:0:0:
365,164,20713,6,0,B|436:192|396:233|480:261,1,144.500000000001,2|8,1:2|2:0,2:0:0:0:
512,373,21066,2,0,P|474:334|412:346,1,108.375,0|0,1:0|2:0,2:0:0:0:
418,347,21302,5,0,1:2:0:0:
238,288,21419,2,0,P|263:246|361:246,1,144.500000000001,10|0,2:0|2:0,2:0:0:0:
254,371,21890,6,0,P|204:366|174:333,1,72.2500000000003,10|0,2:0|2:0,2:0:0:0:
351,239,22125,2,0,P|331:290|316:333,1,72.2500000000003,0|0,1:0|1:0,2:0:0:0:
154,241,22360,6,0,P|149:223|143:207,3,36.1250000000001,10|0|0|0,2:0|2:0|2:0|2:0,2:0:0:0:
133,134,22596,6,0,B|94:134|74:168|74:168|70:214|35:224,1,144.500000000001,4|8,1:2|2:0,2:0:0:0:
72,324,22949,2,0,B|131:338|131:338|146:361|146:361|218:376,1,144.500000000001,0|0,1:0|1:0,2:0:0:0:
342,178,23302,5,10,2:0:0:0:
236,216,23419,1,2,2:0:0:0:
71,18,23537,6,0,P|107:31|182:56,1,108.375,2|0,2:0|2:0,2:0:0:0:
211,119,23772,2,0,P|173:92|178:25,1,108.375,8|0,2:0|2:0,2:0:0:0:
188,27,24008,5,0,2:0:0:0:
68,100,24125,1,0,2:0:0:0:
127,293,24243,6,0,P|142:243|107:182,1,108.375,10|0,2:0|2:0,2:0:0:0:
110,177,24478,6,0,P|158:189|265:208,1,144.500000000001,2|8,1:2|2:0,2:0:0:0:
416,299,24831,6,0,B|355:314|390:356|306:366,1,108.375,2|0,1:2|2:0,2:0:0:0:
318,358,25066,1,0,1:2:0:0:
418,106,25184,2,0,B|440:77|490:95|505:165|448:193,1,144.500000000001,10|0,2:0|2:0,2:0:0:0:
299,21,25655,6,0,L|397:4,1,72.2500000000003,10|0,2:0|2:0,2:0:0:0:
269,121,25890,1,0,1:2:0:0:
164,56,26008,1,0,1:2:0:0:
389,229,26125,6,0,P|361:193|313:186,1,72.2500000000003,10|0,2:0|2:0,2:0:0:0:
263,198,26360,2,0,P|320:181|345:98,1,144.500000000001,2|8,1:2|2:0,2:0:0:0:
168,187,26713,6,0,P|216:205|246:294,1,144.500000000001,2|0,1:2|2:0,2:0:0:0:
449,321,27066,2,0,B|394:340|394:340|381:366|381:366|310:390,1,144.500000000001,10|0,2:0|2:0,2:0:0:0:
217,61,27537,6,0,P|274:78|314:92,1,72.2500000000003,8|0,2:0|2:0,2:0:0:0:
451,4,27772,2,0,P|405:17|360:28,1,72.2500000000003,0|0,1:2|1:2,2:0:0:0:
296,189,28008,2,0,P|273:152|326:105,1,108.375,10|0,2:0|2:0,2:0:0:0:
378,108,28243,6,0,P|419:142|448:165,1,72.2500000000003,4|0,2:0|2:0,2:0:0:0:
400,265,28478,1,12,2:0:0:0:
400,265,28596,2,0,B|316:292|375:328|270:357,1,144.500000000001,0|0,1:2|1:2,2:0:0:0:
190,283,28949,2,0,P|202:244|250:239,1,72.2500000000003,12|0,2:0|2:0,2:0:0:0:
299,369,29184,5,12,2:0:0:0:
124,235,29302,1,8,2:0:0:0:
116,378,29419,5,8,2:0:0:0:
308,225,29537,1,8,2:0:0:0:
153,21,29655,5,8,2:3:0:0:
106,97,29772,1,8,2:3:0:0:
149,236,29890,5,4,2:3:0:0:
95,91,30008,1,4,2:3:0:0:
246,311,30125,6,0,P|295:282|306:217,2,119,4|0|0,1:2|1:2|1:2,2:0:0:0:
32,80,30831,1,2,1:2:0:0:
32,80,31066,2,0,L|162:118,1,119,2|2,1:2|1:2,2:0:0:0:
358,0,31537,6,0,P|317:5|277:53,1,89.2499999999999,2|0,1:2|2:0,2:0:0:0:
283,36,31772,2,0,P|319:87|333:104,1,59.4999999999999,10|0,1:2|2:0,2:0:0:0:
431,228,32008,6,0,P|413:199|321:176,2,119,6|0|2,1:2|1:2|1:2,2:0:0:0:
343,370,32713,2,0,P|317:318|337:262,1,119,2|0,1:2|1:0,2:0:0:0:
504,305,33184,1,2,1:2:0:0:
366,380,33419,1,0,1:2:0:0:
237,120,33655,6,0,P|286:130|332:141,1,89.2499999999999,10|0,1:2|2:0,2:0:0:0:
336,134,33890,5,4,1:2:0:0:
202,233,34125,1,0,1:2:0:0:
338,327,34360,1,0,1:2:0:0:
499,6,34596,6,0,B|449:16|487:46|410:60,1,89.2499999999999,2|0,1:2|2:0,2:0:0:0:
408,51,34831,2,2,P|439:61|492:136,1,119,6|2,1:2|1:2,1:2:0:0:
264,235,35302,2,0,P|295:225|344:160,1,89.2499999999999,2|0,1:2|2:0,2:0:0:0:
335,170,35537,1,10,1:2:0:0:
133,17,35772,5,6,1:2:0:0:
330,91,36008,1,8,2:0:0:0:
348,76,36243,5,2,1:2:0:0:
128,229,36478,1,10,1:2:0:0:
28,111,36713,5,0,1:0:0:0:
198,149,36831,1,8,2:0:0:0:
27,100,36949,5,2,1:2:0:0:
214,144,37066,1,8,2:0:0:0:
79,325,37184,6,0,P|63:263|41:233,1,76.5000000000001,4|8,1:3|2:0,2:0:0:0:
228,137,37419,2,0,P|211:171|205:209,1,76.5000000000001,2|8,1:2|2:0,2:0:0:0:
27,0,37655,6,0,P|82:-9|132:57,1,127.5,6|0,1:2|2:0,2:0:0:0:
125,112,37890,2,0,B|64:145|64:145|59:178|59:178|-20:220,1,170,8|0,2:0|1:0,2:0:0:0:
43,120,38243,1,0,1:2:0:0:
132,362,38360,6,0,P|170:327|212:315,1,85.0000000000001,10|0,2:0|2:0,2:0:0:0:
119,256,38596,2,0,P|166:294|276:284,2,170,2|8|0,1:2|2:0|1:2,2:0:0:0:
119,256,39184,1,0,1:2:0:0:
302,131,39302,6,0,P|344:153|369:213,1,85.0000000000001,10|0,2:0|2:0,2:0:0:0:
477,267,39537,2,0,B|421:272|409:322|420:324|415:368|347:378,2,170,6|8|0,1:2|2:0|1:2,2:0:0:0:
477,267,40125,1,0,1:2:0:0:
339,303,40243,6,0,P|295:280|258:265,1,85.0000000000001,10|0,2:0|2:0,2:0:0:0:
238,18,40478,2,0,P|304:10|330:88,1,127.5,2|0,1:2|2:0,2:0:0:0:
330,64,40713,2,0,P|278:95|240:121,1,85.0000000000001,8|0,2:0|2:0,2:0:0:0:
216,14,40949,5,0,1:2:0:0:
216,14,41066,1,0,1:2:0:0:
416,162,41184,6,0,B|451:141|451:141|476:84|407:47,1,127.5,10|0,2:0|2:0,2:0:0:0:
423,51,41419,2,0,P|470:63|511:73,1,85.0000000000001,4|0,1:2|1:2,2:0:0:0:
411,170,41655,6,0,B|364:188|364:188|350:213|350:213|288:240,1,127.5,8|0,2:0|2:0,2:0:0:0:
236,207,41890,2,0,P|214:164|249:118,1,85.0000000000001,0|0,1:2|1:2,2:0:0:0:
315,354,42125,6,0,P|280:319|203:325,1,127.5,8|0,2:0|2:0,2:0:0:0:
197,333,42360,1,4,1:2:0:0:
316,240,42478,1,0,1:2:0:0:
102,160,42596,6,0,B|54:144|54:144|-13:171|16:248,1,170,8|0,2:0|1:2,2:0:0:0:
123,150,42949,1,0,1:2:0:0:
35,376,43066,2,0,P|88:354|120:342,1,85.0000000000001,10|0,2:0|2:0,2:0:0:0:
273,303,43302,5,6,1:2:0:0:
123,150,43419,1,8,2:0:0:0:
318,91,43537,1,0,1:2:0:0:
236,211,43655,1,8,2:0:0:0:
66,1,43772,5,0,1:2:0:0:
202,40,43890,1,8,2:3:0:0:
142,142,44008,5,4,2:3:0:0:
33,186,44125,1,4,2:3:0:0:
300,335,44243,6,0,P|314:280|281:326,1,159.375,6|0,1:2|2:0,2:0:0:0:
301,305,45184,6,0,B|252:273|210:318|210:318|197:371|132:373,1,204,6|8,1:2|2:0,2:0:0:0:
37,214,45537,2,0,B|22:179|0:165|0:165|69:203|143:207,1,204,2|0,1:2|1:2,2:0:0:0:
261,8,45890,2,0,B|219:-19|219:-19|134:37|205:122,1,204,10|8,2:0|2:0,2:0:0:0:
443,67,46243,5,0,1:2:0:0:
443,67,46302,1,0,1:2:0:0:
443,67,46360,2,0,P|391:43|337:19,1,102,10|0,2:0|2:0,2:0:0:0:
296,198,46596,2,0,P|330:160|379:154,1,102,10|0,2:0|1:2,2:0:0:0:
505,245,46831,6,0,B|446:278|446:278|449:303|449:303|396:333,1,153,10|0,2:0|2:0,2:0:0:0:
390,350,47066,2,0,P|349:304|297:293,1,102,10|0,2:0|1:2,2:0:0:0:
117,356,47302,2,0,P|165:372|213:388,1,102,8|0,2:0|1:2,2:0:0:0:
218,176,47537,5,8,2:0:0:0:
150,206,47655,1,0,1:2:0:0:
15,60,47772,5,10,2:0:0:0:
88,87,47890,1,0,1:2:0:0:
57,294,48008,6,0,P|40:240|16:184,1,102,10|0,2:0|1:2,2:0:0:0:
211,40,48243,2,0,P|191:87|176:135,1,102,8|0,2:0|1:2,2:0:0:0:
65,67,48419,5,0,1:2:0:0:
56,54,48478,2,0,P|2:42|-7:42,2,51,8|0|0,2:0|1:0|1:2,2:0:0:0:
185,157,48713,2,0,P|239:145|248:145,2,51,8|0|0,2:0|1:0|1:2,2:0:0:0:
16,269,48949,6,0,B|92:272|96:332|86:331|102:390|181:380,1,204,14|8,2:0|2:0,2:0:0:0:
302,207,49302,1,2,1:2:0:0:
404,182,49419,2,0,P|376:217|318:233,1,102,8|0,2:0|1:2,2:0:0:0:
165,38,49655,2,0,P|222:54|267:67,1,102,10|0,2:0|1:2,2:0:0:0:
102,258,49890,6,0,P|142:192|198:200,1,102,8|0,2:0|1:2,2:0:0:0:
297,334,50066,1,0,1:2:0:0:
278,349,50125,2,0,P|222:325|167:310,1,102,10|0,2:0|1:2,2:0:0:0:
418,139,50302,5,0,1:2:0:0:
399,124,50360,2,0,P|343:148|288:163,1,102,10|0,2:0|1:2,2:0:0:0:
372,317,50596,6,0,B|392:292|394:226|394:226|413:261|457:277,1,153,10|0,2:0|2:0,2:0:0:0:
451,266,50831,1,10,2:0:0:0:
284,136,50949,1,0,1:2:0:0:
199,377,51066,2,0,P|247:363|323:346,1,102,8|0,2:0|1:2,2:0:0:0:
431,101,51302,5,10,2:0:0:0:
302,242,51419,1,0,1:2:0:0:
169,0,51537,2,0,P|217:14|293:31,1,102,8|0,2:0|1:2,2:0:0:0:
428,138,51772,6,0,B|412:127|412:127|359:132|370:207,1,102,10|0,2:0|1:2,2:0:0:0:
340,330,51949,1,0,1:2:0:0:
352,343,52008,2,0,P|403:325|473:308,1,102,8|0,2:0|1:2,2:0:0:0:
285,181,52243,6,0,P|229:175|193:246,1,102,8|0,2:0|1:0,2:0:0:0:
95,352,52419,1,0,1:2:0:0:
85,354,52478,2,0,B|59:351|45:320|45:320|62:343|106:353,1,102,10|0,2:0|1:2,2:0:0:0:
174,379,52713,6,0,P|219:344|288:345,1,102,14|0,2:0|1:2,2:0:0:0:
195,91,52949,2,0,P|164:161|134:231,1,153,8|0,2:0|2:0,2:0:0:0:
107,249,53184,1,10,2:0:0:0:
295,180,53302,1,0,1:2:0:0:
46,31,53419,5,10,2:0:0:0:
203,78,53537,1,0,1:2:0:0:
50,145,53655,6,0,P|14:169|15:237,1,102,10|0,2:0|1:2,2:0:0:0:
107,332,53831,1,0,1:2:0:0:
124,347,53890,2,0,P|191:318|238:307,1,102,8|0,2:0|1:2,2:0:0:0:
401,81,54125,6,0,P|343:65|268:41,1,102,8|0,2:0|1:2,2:0:0:0:
191,19,54302,1,0,1:2:0:0:
210,9,54360,2,0,B|273:23|255:88|255:88|265:127|318:153,1,153,10|0,2:0|2:0,2:0:0:0:
313,138,54596,5,14,2:0:0:0:
192,200,54713,1,0,1:2:0:0:
374,84,54831,5,8,2:0:0:0:
436,246,54949,1,0,1:2:0:0:
303,52,55066,5,10,2:0:0:0:
493,1,55184,1,0,1:2:0:0:
416,258,55302,6,0,P|389:204|296:203,1,153,10|0,2:0|2:0,2:0:0:0:
264,263,55537,2,0,P|290:318|307:361,1,102,10|0,2:0|1:2,2:0:0:0:
512,77,55772,2,0,P|486:132|469:175,1,102,8|0,2:0|1:2,2:0:0:0:
254,53,56008,6,0,P|280:6|345:10,1,102,8|0,2:0|1:2,2:0:0:0:
400,48,56184,1,0,1:2:0:0:
396,65,56243,2,0,B|345:101|345:101|341:125|341:125|282:169,1,153,10|0,2:0|2:0,2:0:0:0:
218,193,56478,6,0,P|228:253|304:263,1,102,14|0,2:0|1:2,2:0:0:0:
451,136,56713,2,0,P|385:116|339:101,1,102,8|0,2:0|1:0,2:0:0:0:
305,342,56949,5,8,2:0:0:0:
481,268,57066,1,0,1:0:0:0:
300,351,57184,2,0,P|367:374|403:387,1,102,8|0,2:0|1:0,2:0:0:0:
461,156,57419,6,0,B|403:177|441:206|377:228,1,102,8|0,2:0|1:2,2:0:0:0:
299,167,57596,1,0,1:2:0:0:
285,154,57655,2,0,P|294:105|339:85,1,102,8|0,2:0|1:2,2:0:0:0:
260,298,57890,6,0,P|202:272|158:256,1,102,8|0,2:0|1:2,2:0:0:0:
12,372,58125,2,0,P|56:324|100:332,1,102,10|0,2:0|1:2,2:0:0:0:
174,384,58360,5,14,2:0:0:0:
29,234,58478,1,0,1:2:0:0:
205,67,58596,6,0,B|120:95|181:148|79:169,1,153,8|0,2:0|2:0,2:0:0:0:
72,152,58831,1,12,2:0:0:0:
240,225,58949,1,12,2:0:0:0:
152,368,59066,6,0,P|117:303|45:290,1,153,12|0,2:0|2:0,2:0:0:0:
24,303,59302,1,14,2:0:0:0:
222,112,59419,5,8,2:0:0:0:
222,112,59478,1,8,2:0:0:0:
222,111,59537,2,0,P|237:161|253:209,1,102,0|8,1:2|2:0,2:0:0:0:
49,28,59772,5,10,2:0:0:0:
241,94,59890,1,0,1:2:0:0:
169,191,60008,5,8,2:0:0:0:
40,231,60125,1,0,1:0:0:0:
251,371,60243,6,0,B|315:377|337:323|337:323|358:263|446:280,1,204,6|8,1:2|2:0,2:0:0:0:
494,80,60596,2,0,B|456:70|426:49|426:49|424:132|360:157,1,204,2|0,1:2|1:2,2:0:0:0:
177,28,60949,2,0,B|161:5|146:-18|146:-18|228:11|293:32,2,204,10|0|10,2:0|1:2|2:0,2:0:0:0:
231,254,61655,6,0,P|275:211|273:153,1,102,2|0,1:2|1:2,2:0:0:0:
132,176,61890,2,0,B|43:201|93:240|8:269,1,153,10|0,2:0|2:0,2:0:0:0:
89,315,62125,6,0,B|150:333|150:333|159:362|159:362|234:384,1,153,2|0,1:2|2:0,2:0:0:0:
280,348,62360,1,8,2:0:0:0:
502,143,62478,6,0,B|434:100|365:157|365:157|396:170|418:213,1,204,0|0,1:2|1:0,2:0:0:0:
199,23,62831,2,0,P|257:43|285:80,1,102,10|0,2:0|2:0,2:0:0:0:
178,210,63066,6,0,P|106:152|-5:118,2,204,2|8|0,1:2|2:0|1:2,2:0:0:0:
257,184,63655,1,0,1:2:0:0:
59,310,63772,6,0,P|87:363|175:343,1,153,8|0,2:0|2:0,2:0:0:0:
236,292,64008,2,0,P|161:311|88:332,1,153,6|0,1:2|2:0,2:0:0:0:
59,310,64243,1,8,2:0:0:0:
317,101,64360,6,0,B|378:98|405:143|405:143|401:205|476:219,1,204,2|0,1:2|1:2,2:0:0:0:
370,365,64713,2,0,P|314:366|305:265,1,153,10|0,2:0|2:0,2:0:0:0:
300,277,64949,1,0,1:2:0:0:
368,0,65184,6,0,P|422:27|466:38,1,102,10|0,2:0|2:0,2:0:0:0:
226,204,65419,2,0,P|280:177|324:166,1,102,2|0,1:2|1:2,2:0:0:0:
172,12,65655,2,0,B|130:-2|130:-2|67:35|105:109,1,153,10|0,2:0|2:0,2:0:0:0:
149,141,65890,6,0,B|221:146|241:97|224:91|254:36|333:53,1,204,2|8,1:2|2:0,2:0:0:0:
512,232,66243,2,0,P|466:260|380:164,1,204,0|0,1:2|1:2,2:0:0:0:
456,3,66596,2,0,P|486:52|515:90,1,102,8|0,2:0|2:0,2:0:0:0:
411,271,66831,6,0,P|317:249|263:329,2,204,2|8|0,1:2|2:0|1:2,2:0:0:0:
384,352,67419,1,0,1:2:0:0:
240,186,67537,2,0,P|287:205|338:227,1,102,8|0,2:0|2:0,2:0:0:0:
38,366,67772,6,0,B|101:379|131:329|116:320|141:266|211:275,1,204,6|8,1:2|2:0,2:0:0:0:
333,345,68125,1,0,1:2:0:0:
333,345,68243,2,0,P|272:370|239:342,1,102,0|0,2:0|1:2,2:0:0:0:
146,140,68478,2,0,P|193:117|254:86,1,102,10|0,2:0|2:0,2:0:0:0:
177,358,68713,6,0,P|143:304|11:309,2,204,2|8|0,1:2|2:0|1:2,2:0:0:0:
177,358,69302,1,0,1:2:0:0:
409,160,69419,6,0,B|354:157|337:200|348:202|334:254|259:240,1,153,10|0,2:0|2:0,2:0:0:0:
247,301,69655,2,0,P|217:241|238:183,1,102,6|0,1:2|2:0,2:0:0:0:
432,266,69890,5,8,2:0:0:0:
175,18,70008,2,0,B|206:46|254:48|254:48|269:77|269:77|312:71|370:114,1,204,0|0,1:2|1:2,2:0:0:0:
146,288,70360,2,0,P|106:249|111:194,1,102,10|0,2:0|2:0,2:0:0:0:
37,44,70596,6,0,P|110:104|226:47,2,204,2|8|0,1:2|2:0|1:2,2:0:0:0:
129,27,71184,1,0,1:2:0:0:
7,233,71302,2,0,P|55:217|105:205,1,102,10|0,2:0|2:0,2:0:0:0:
243,282,71537,5,14,2:0:0:0:
98,192,71655,1,0,1:2:0:0:
98,322,71772,5,10,2:0:0:0:
229,156,71890,1,0,1:2:0:0:
197,378,72008,6,0,P|151:355|102:341,1,102,10|0,2:0|1:0,2:0:0:0:
340,128,72243,2,0,P|294:150|245:164,1,102,10|0,2:0|1:0,2:0:0:0:
359,384,72478,5,10,2:0:0:0:
414,273,72596,1,0,1:2:0:0:
373,204,72713,5,10,2:0:0:0:
499,384,72831,1,0,1:2:0:0:
406,60,72949,6,0,P|356:49|311:25,1,102,10|0,2:0|1:0,2:0:0:0:
210,300,73184,2,0,P|255:272|319:258,1,102,10|0,2:0|1:0,2:0:0:0:
159,91,73419,5,6,1:2:0:0:
76,232,73537,1,8,2:0:0:0:
0,5,73655,6,0,P|57:28|116:33,1,102,8|0,1:3|1:3,2:0:0:0:
182,193,73890,2,0,P|239:170|298:165,1,102,0|8,1:2|2:3,2:0:0:0:
384,10,74125,6,0,P|455:23|478:92,1,153,4|0,1:3|2:0,2:0:0:0:
432,159,74360,6,0,B|371:160|317:114|322:65|322:65|378:98|347:240|316:166|267:211|268:301,1,414.375,6|0,1:2|2:0,2:0:0:0:
268,281,75302,6,0,P|322:306|392:252,1,140.25,6|0,1:2|2:0,2:0:0:0:
460,220,75537,2,0,P|403:242|382:276,1,93.5,10|0,2:0|1:2,2:0:0:0:
265,384,75772,6,0,P|333:362|379:351,1,93.5,10|0,2:0|1:0,2:0:0:0:
230,173,76008,2,0,P|212:227|193:286,1,93.5,10|0,2:0|1:0,2:0:0:0:
404,137,76243,6,0,P|343:113|301:99,1,93.5,10|0,2:0|1:2,2:0:0:0:
117,35,76419,1,0,1:2:0:0:
127,24,76478,2,0,P|194:9|241:43,1,93.5,10|0,2:0|1:2,2:0:0:0:
221,160,76713,6,0,L|149:190,2,46.75,10|0|0,2:0|1:2|1:2,2:0:0:0:
334,232,76949,2,0,L|406:262,2,46.75,10|0|0,2:0|1:2|1:2,2:0:0:0:
117,320,77184,6,0,P|179:338|201:394,1,93.5,10|0,2:0|1:0,2:0:0:0:
87,137,77419,2,0,P|56:174|22:213,1,93.5,10|0,2:0|1:2,2:0:0:0:
313,130,77655,2,0,P|256:98|209:65,1,93.5,10|0,2:0|1:2,2:0:0:0:
114,332,77890,6,0,B|196:343|239:270|239:270|209:294|182:301,1,187,10|8,2:0|2:0,2:0:0:0:
2,79,78243,1,0,1:2:0:0:
2,79,78302,1,0,1:2:0:0:
2,79,78360,2,0,P|57:102|111:118,1,93.5,10|0,2:0|1:0,2:0:0:0:
276,32,78537,5,0,1:0:0:0:
262,16,78596,2,0,P|206:10|168:43,1,93.5,10|0,2:0|1:2,2:0:0:0:
210,159,78831,2,0,P|239:192|253:210,2,46.75,10|0|0,2:0|1:0|1:0,2:0:0:0:
41,176,79066,6,0,B|1:215|44:227|-18:280,1,93.5,12|0,2:0|1:2,2:0:0:0:
56,333,79302,2,0,P|101:343|144:360,1,93.5,10|0,2:0|1:2,2:0:0:0:
304,172,79537,6,0,P|257:124|191:136,1,140.25,10|0,2:0|2:0,2:0:0:0:
183,144,79772,2,0,P|266:184|375:238,1,187,10|10,2:0|2:0,2:0:0:0:
470,28,80125,5,0,1:0:0:0:
470,28,80184,1,0,1:0:0:0:
470,28,80243,2,0,P|401:36|392:76,1,93.5,10|0,2:0|1:0,2:0:0:0:
407,143,80478,6,0,P|441:182|449:192,2,46.75,10|0|0,2:0|1:2|1:2,2:0:0:0:
302,41,80713,2,0,P|336:2|344:-8,2,46.75,10|0|0,2:0|1:2|1:2,2:0:0:0:
266,185,80949,6,0,P|198:177|185:120,1,93.5,10|0,2:0|1:2,2:0:0:0:
131,0,81184,2,0,P|180:10|238:23,1,93.5,10|0,2:0|1:2,2:0:0:0:
444,46,81419,6,0,B|391:41|374:98|387:96|399:144|336:160,1,140.25,10|0,2:0|2:0,2:0:0:0:
310,204,81655,2,0,P|280:156|376:130,1,187,10|8,2:0|2:0,2:0:0:0:
456,315,82008,5,0,1:2:0:0:
456,315,82066,1,0,1:2:0:0:
456,315,82125,2,0,P|398:337|345:358,1,93.5,10|0,2:0|1:2,2:0:0:0:
224,228,82302,5,0,1:2:0:0:
236,214,82360,2,0,P|284:237|339:249,1,93.5,10|0,2:0|1:2,2:0:0:0:
117,362,82537,1,0,1:2:0:0:
129,376,82596,2,0,P|177:353|232:341,1,93.5,10|0,2:0|1:2,2:0:0:0:
75,118,82831,6,0,P|54:160|29:209,1,93.5,12|0,2:0|1:2,2:0:0:0:
216,98,83066,2,0,P|196:37|113:34,1,140.25,10|0,2:0|2:0,2:0:0:0:
118,37,83302,6,0,P|191:21|237:11,1,93.5,10|0,2:0|1:2,2:0:0:0:
382,179,83537,2,0,P|309:163|263:153,1,93.5,10|0,2:0|1:2,2:0:0:0:
88,229,83772,6,0,P|133:238|154:278,1,93.5,10|0,2:0|1:2,2:0:0:0:
255,365,83949,1,0,1:2:0:0:
238,379,84008,2,0,P|189:362|128:348,1,93.5,10|0,2:0|1:0,2:0:0:0:
255,183,84184,5,0,1:0:0:0:
274,188,84243,2,0,B|294:240|294:240|272:308,1,93.5,10|0,2:0|1:0,2:0:0:0:
83,130,84419,1,0,1:0:0:0:
78,110,84478,2,0,B|114:67|114:67|184:55,1,93.5,10|0,2:0|1:0,2:0:0:0:
212,18,84655,5,0,1:2:0:0:
227,27,84713,1,12,2:0:0:0:
345,100,84831,1,0,1:0:0:0:
379,20,84949,5,12,2:0:0:0:
202,123,85066,1,12,2:0:0:0:
32,240,85184,2,0,P|29:304|88:335,1,93.5,0|0,1:2|1:2,2:0:0:0:
267,379,85419,6,0,B|321:348|326:297|324:269|264:237|249:279,1,187,14|8,2:0|2:0,2:0:0:0:
397,378,85772,1,8,2:0:0:0:
397,378,85831,1,8,2:0:0:0:
397,378,85890,5,10,2:0:0:0:
452,227,86008,1,0,1:0:0:0:
263,84,86125,5,10,2:0:0:0:
312,237,86243,1,0,1:0:0:0:
477,11,86360,6,0,P|420:33|357:57,1,93.5,10|0,2:0|1:0,2:0:0:0:
177,75,86596,6,0,B|222:62|248:101|248:101|233:129|237:179,1,144.500000000001,6|8,1:2|2:0,2:0:0:0:
499,189,86949,2,0,B|434:161|434:161|362:234,1,144.500000000001,2|0,1:2|1:0,2:0:0:0:
323,381,87302,2,0,P|266:360|276:275,1,144.500000000001,10|0,2:0|2:0,2:0:0:0:
465,79,87772,6,0,P|487:138|521:207,1,108.375,10|0,2:0|2:0,2:0:0:0:
499,189,88008,1,0,1:2:0:0:
354,85,88125,1,0,1:2:0:0:
220,308,88243,6,0,P|275:285|335:255,1,108.375,10|0,2:0|2:0,2:0:0:0:
389,283,88478,2,0,P|401:345|326:369,1,144.500000000001,2|8,1:2|2:0,2:0:0:0:
164,121,88831,2,0,B|215:137|215:137|230:169|230:169|294:189,1,144.500000000001,2|0,1:2|1:0,2:0:0:0:
145,353,89184,2,0,P|100:303|137:252,1,108.375,10|0,2:0|2:0,2:0:0:0:
131,263,89419,1,0,2:0:0:0:
220,12,89655,6,0,L|105:65,1,108.375,8|0,2:0|2:0,2:0:0:0:
107,55,89890,1,0,1:2:0:0:
265,114,90008,1,0,1:2:0:0:
187,293,90125,6,0,P|141:286|121:219,1,108.375,10|0,2:0|2:0,2:0:0:0:
251,252,90360,6,0,B|205:275|207:317|218:310|226:353|164:390,1,144.500000000001,2|8,1:2|2:0,2:0:0:0:
16,212,90713,2,0,B|-8:179|-8:179|100:210,1,144.500000000001,2|0,1:2|1:0,2:0:0:0:
281,41,91066,2,0,B|238:28|204:52|204:52|197:92|136:109,1,144.500000000001,10|0,2:0|2:0,2:0:0:0:
23,0,91537,6,0,L|142:25,1,108.375,10|0,2:0|2:0,2:0:0:0:
143,17,91772,1,2,1:2:0:0:
27,91,91890,1,0,1:2:0:0:
291,130,92008,6,0,P|233:130|201:192,1,108.375,10|0,2:0|2:0,2:0:0:0:
221,240,92243,2,0,B|272:276|272:276|276:302|276:302|333:344,1,144.500000000001,2|8,1:2|2:0,2:0:0:0:
448,157,92596,5,0,1:2:0:0:
448,157,92713,2,0,P|401:178|386:227,1,72.2500000000003,2|0,2:0|1:2,2:0:0:0:
468,376,92949,2,0,P|502:327|455:239,1,144.500000000001,10|0,2:0|2:0,2:0:0:0:
272,315,93419,6,0,L|393:349,1,108.375,10|0,2:0|2:0,2:0:0:0:
391,364,93655,2,0,L|312:344,1,72.2500000000003,0|0,1:2|1:2,2:0:0:0:
243,237,93890,6,0,P|265:204|274:193,3,36.1250000000001,10|0|0|0,2:0|2:0|2:0|2:0,2:0:0:0:
318,130,94125,6,0,B|362:137|379:174|368:179|380:216|434:220,1,144.500000000001,4|8,1:2|2:0,2:0:0:0:
321,294,94478,2,0,P|269:307|178:334,1,144.500000000001,0|0,1:2|1:0,2:0:0:0:
106,166,94831,5,10,2:0:0:0:
233,214,94949,1,2,2:0:0:0:
348,18,95066,6,0,P|294:29|277:89,1,108.375,2|0,2:0|2:0,2:0:0:0:
280,92,95302,1,8,2:0:0:0:
483,130,95537,5,0,1:2:0:0:
336,13,95655,1,0,1:2:0:0:
301,238,95772,2,0,P|356:215|363:152,1,108.375,10|0,2:0|2:0,2:0:0:0:
293,126,96008,6,0,B|244:143|244:143|225:174|225:174|162:193,1,144.500000000001,2|8,1:2|2:0,2:0:0:0:
36,22,96360,2,0,B|74:0|74:0|128:33|93:105,1,144.500000000001,2|0,1:2|1:0,2:0:0:0:
49,249,96713,2,0,P|38:201|-4:110,2,144.500000000001,10|0|10,2:0|2:0|2:0,2:0:0:0:
176,131,97419,5,0,1:2:0:0:
176,131,97537,1,0,1:2:0:0:
113,43,97655,2,0,P|151:51|183:118,1,108.375,10|0,2:0|2:0,2:0:0:0:
249,307,97890,6,0,B|217:281|213:241|213:241|182:263|133:259,1,144.500002756119,2|8,1:2|2:0,2:0:0:0:
18,384,98243,2,0,P|96:361|176:342,1,144.500000000001,2|0,1:2|1:0,2:0:0:0:
286,209,98596,2,0,P|232:164|165:182,2,144.500000000001,10|0|10,2:0|2:0|2:0,2:0:0:0:
222,384,99302,6,0,P|207:336|187:302,1,72.2500000000003,0|0,1:2|1:2,2:0:0:0:
375,166,99537,2,0,P|356:223|343:283,1,108.375,10|0,2:0|2:0,2:0:0:0:
387,333,99772,6,0,P|428:320|453:285,1,72.2500000000003,6|0,1:2|2:0,2:0:0:0:
499,73,100008,2,0,P|456:93|423:109,1,72.2500000000003,12|0,2:0|1:2,2:0:0:0:
248,0,100243,2,0,P|303:11|326:40,1,72.2500000000003,6|0,2:0|1:2,2:0:0:0:
332,119,100478,6,0,B|278:147|312:171|252:207,1,108.375,14|0,2:0|2:0,2:0:0:0:
235,197,100713,1,8,2:0:0:0:
350,276,100831,6,0,P|397:296|410:303,2,36.1250000000001,8|8|8,2:0|2:0|2:0,2:0:0:0:
157,178,101066,1,0,1:0:0:0:
153,321,101184,5,8,2:0:0:0:
303,208,101302,1,0,1:0:0:0:
308,355,101419,5,8,2:0:0:0:
151,169,101537,1,0,1:0:0:0:
51,372,101655,6,0,P|94:374|162:326,2,119,4|0|0,1:2|1:2|1:2,2:0:0:0:
4,73,102360,2,0,P|37:93|44:159,1,89.2499999999999,2|0,1:2|2:0,2:0:0:0:
70,177,102596,2,0,P|59:131|112:74,1,119,2|2,1:2|1:2,2:0:0:0:
334,108,103066,6,0,P|293:127|253:146,1,89.2499999999999,2|0,1:2|2:0,2:0:0:0:
239,147,103302,1,14,2:0:0:0:
103,4,103537,6,0,B|176:13|141:56|220:58,1,118.999996368408,6|0,1:2|1:0,2:0:0:0:
397,7,104008,1,2,1:2:0:0:
339,61,104243,2,0,B|324:17|364:-10|364:-10|397:7,1,118.999996368408,2|0,1:2|1:2,2:0:0:0:
457,219,104713,6,0,P|490:179|474:108,1,119,2|0,1:2|1:2,2:0:0:0:
280,256,105184,2,0,P|335:273|380:288,1,89.2499999999999,10|0,2:0|2:0,2:0:0:0:
382,272,105419,5,4,1:2:0:0:
219,351,105655,1,0,1:2:0:0:
339,162,105890,1,0,1:2:0:0:
508,296,106125,6,0,B|463:318|488:340|446:365,1,89.2499999999999,2|0,1:2|2:0,2:0:0:0:
368,305,106360,2,0,P|420:329|439:391,1,119,6|2,1:2|1:2,2:0:0:0:
261,145,106831,6,0,P|209:169|194:220,1,89.2499999999999,2|0,1:2|2:0,2:0:0:0:
200,215,107066,1,10,2:0:0:0:
430,85,107302,5,4,1:2:0:0:
251,12,107537,1,8,2:0:0:0:
23,212,107772,5,2,1:2:0:0:
250,129,108008,1,10,2:0:0:0:
386,326,108243,5,0,1:2:0:0:
254,273,108360,1,8,2:0:0:0:
103,344,108478,5,2,1:2:0:0:
256,245,108596,1,8,2:0:0:0:
337,310,108713,6,0,P|352:346|370:380,1,76.5000000000001,8|8,1:3|2:3,2:0:0:0:
174,166,108949,2,0,P|158:201|141:234,1,76.5000000000001,6|4,1:3|1:3,2:0:0:0:
363,90,109184,6,0,P|334:42|228:42,2,170,6|8|0,1:2|2:0|1:2,2:0:0:0:
182,107,109772,1,0,1:2:0:0:
297,244,109890,6,0,P|328:215|396:199,1,85.0000000000001,10|0,2:0|2:0,2:0:0:0:
461,350,110125,2,0,B|387:370|353:311|353:311|376:297|391:275,2,170,2|8|0,1:2|2:0|1:2,2:0:0:0:
507,286,110713,1,0,1:2:0:0:
204,312,110831,6,0,P|244:331|296:359,1,85.0000000000001,10|0,2:0|2:0,2:0:0:0:
455,86,111066,2,0,P|405:75|338:166,2,170,6|8|0,1:2|2:0|1:2,2:0:0:0:
412,152,111655,1,0,1:2:0:0:
279,0,111772,6,0,P|256:47|218:65,1,85.0000000000001,10|0,2:0|2:0,2:0:0:0:
153,51,112008,2,0,P|215:58|245:130,1,127.5,2|0,1:2|2:0,2:0:0:0:
246,110,112243,2,0,L|167:160,1,85.0000000000001,8|0,2:0|2:0,2:0:0:0:
36,92,112478,5,0,1:2:0:0:
171,172,112596,1,0,1:2:0:0:
87,343,112713,6,0,B|43:301|43:301|91:238,1,127.5,10|0,2:0|2:0,2:0:0:0:
99,233,112949,6,0,P|138:253|145:294,1,85.0000000000001,6|0,1:2|1:2,2:0:0:0:
10,78,113184,2,0,B|62:96|62:96|72:118|72:118|141:142,1,127.5,8|0,2:0|2:0,2:0:0:0:
130,131,113419,5,0,1:2:0:0:
10,195,113537,1,0,1:0:0:0:
156,368,113655,6,0,P|211:350|230:273,1,127.5,8|0,2:0|2:0,2:0:0:0:
208,264,113890,1,4,1:2:0:0:
345,373,114008,1,0,1:0:0:0:
458,103,114125,6,0,B|397:130|438:167|364:203,1,127.5,8|0,2:0|2:0,2:0:0:0:
349,191,114360,1,0,1:0:0:0:
233,80,114478,1,0,1:0:0:0:
363,8,114596,6,0,P|415:20|474:37,1,85.0000000000001,10|0,2:0|2:0,2:0:0:0:
467,121,114831,5,6,1:2:0:0:
317,189,114949,1,8,2:0:0:0:
248,121,115066,5,0,1:0:0:0:
436,247,115184,1,8,2:0:0:0:
341,335,115302,5,8,1:3:0:0:
211,382,115419,1,8,2:3:0:0:
91,152,115537,6,0,P|135:140|166:226,1,127.5,4|0,1:3|2:0,2:0:0:0:
66,368,115772,6,0,P|52:313|85:359,1,159.375,6|0,1:2|2:0,2:0:0:0:
63,338,116713,6,0,B|116:331|150:286|150:286|158:343|220:380,1,204,6|8,1:2|2:0,2:0:0:0:
415,198,117066,1,2,1:2:0:0:
357,146,117184,2,0,P|307:148|271:184,1,102,8|0,2:0|1:2,2:0:0:0:
313,273,117419,6,0,B|394:307|342:337|432:373,1,153,10|0,2:0|2:0,2:0:0:0:
490,337,117655,2,0,P|507:290|460:268,1,102,8|0,2:0|1:2,2:0:0:0:
295,368,117831,5,0,1:2:0:0:
283,371,117890,2,0,P|234:340|258:283,1,102,10|0,2:0|1:0,2:0:0:0:
408,130,118066,5,0,1:0:0:0:
424,142,118125,2,0,P|454:195|486:247,1,102,10|0,2:0|1:0,2:0:0:0:
225,101,118302,5,0,1:2:0:0:
239,84,118360,2,0,P|288:72|335:48,1,102,10|0,2:0|1:0,2:0:0:0:
339,229,118596,5,10,2:0:0:0:
267,206,118713,1,0,1:0:0:0:
129,355,118831,5,8,2:0:0:0:
201,332,118949,1,0,1:0:0:0:
94,124,119066,6,0,P|74:185|53:238,1,102,8|0,2:0|1:0,2:0:0:0:
249,71,119302,1,10,2:0:0:0:
80,111,119419,1,0,1:0:0:0:
262,264,119537,6,0,P|245:213|188:206,1,102,10|0,2:0|1:0,2:0:0:0:
83,299,119713,1,0,1:0:0:0:
76,316,119772,2,0,P|92:342|99:374,2,51,8|0|0,2:0|1:0|1:0,2:0:0:0:
4,142,119949,5,0,1:0:0:0:
15,161,120008,2,0,P|73:180|113:128,1,102,8|0,2:0|1:0,2:0:0:0:
179,22,120184,5,0,1:0:0:0:
161,7,120243,2,0,P|94:26|54:38,1,102,8|0,2:0|1:0,2:0:0:0:
179,149,120478,6,0,B|237:162|261:108|261:108|303:65|372:108,1,204,14|8,2:0|2:0,2:0:0:0:
498,237,120831,2,0,P|442:215|389:197,1,102,2|8,1:2|2:0,2:0:0:0:
249,360,121066,5,0,1:2:0:0:
320,371,121184,2,0,B|355:351|355:351|365:280|287:253,1,153,10|0,2:0|2:0,2:0:0:0:
248,216,121419,2,0,P|230:266|258:316,1,102,8|0,2:0|1:0,2:0:0:0:
466,110,121596,5,0,1:0:0:0:
476,99,121655,2,0,P|412:72|361:50,1,102,10|0,2:0|1:2,2:0:0:0:
434,267,121890,2,0,P|475:215|530:217,1,102,10|0,2:0|1:0,2:0:0:0:
337,141,122125,6,0,B|257:179|308:222|223:253,1,153,10|0,2:0|2:0,2:0:0:0:
171,216,122360,5,10,2:0:0:0:
410,305,122478,1,0,1:2:0:0:
419,49,122596,2,0,P|359:64|279:84,1,102,8|0,2:0|1:0,2:0:0:0:
131,327,122831,5,10,2:0:0:0:
304,143,122949,1,0,1:2:0:0:
390,375,123066,2,0,P|435:350|487:329,1,102,8|0,2:0|1:0,2:0:0:0:
338,198,123302,6,0,P|262:157|280:77,1,153,10|0,2:0|2:0,2:0:0:0:
320,48,123537,2,0,B|364:68|364:68|372:85|372:85|422:105,1,102,8|0,2:0|1:0,2:0:0:0:
361,278,123713,5,0,1:0:0:0:
350,286,123772,2,0,P|292:287|276:272,2,51,8|0|0,2:0|1:0|1:0,2:0:0:0:
464,178,124008,2,0,P|522:177|538:192,2,51,10|0|0,2:0|1:0|1:0,2:0:0:0:
111,49,124243,6,0,P|133:1|227:6,1,153,14|0,2:0|2:0,2:0:0:0:
206,81,124478,2,0,B|156:114|156:114|148:157|148:157|68:207,1,153,8|0,2:0|2:0,2:0:0:0:
33,157,124713,5,10,2:0:0:0:
227,209,124831,1,0,1:0:0:0:
189,71,124949,5,10,2:0:0:0:
107,108,125066,1,0,1:0:0:0:
29,0,125184,5,10,2:0:0:0:
215,70,125302,1,0,1:0:0:0:
50,154,125419,6,0,P|24:198|71:252,1,102,8|0,2:0|1:2,2:0:0:0:
176,322,125596,1,0,1:0:0:0:
190,333,125655,2,0,P|225:313|254:306,2,51,8|0|0,2:0|1:0|1:0,2:0:0:0:
65,384,125890,2,0,P|41:374|19:360,2,51,10|0|0,2:0|1:0|1:0,2:0:0:0:
272,240,126125,6,0,P|221:224|174:209,1,102,14|0,2:0|1:2,2:0:0:0:
322,383,126360,2,0,P|374:366|420:352,1,102,8|0,2:0|1:2,2:0:0:0:
506,158,126596,6,0,B|517:140|504:120|504:120|434:128|440:229,1,153,10|0,2:0|2:0,2:0:0:0:
385,247,126831,2,0,P|441:275|488:258,1,102,10|0,2:0|1:2,2:0:0:0:
407,53,127066,5,10,2:0:0:0:
304,240,127184,1,0,1:0:0:0:
304,240,127243,1,0,1:0:0:0:
304,240,127302,2,0,P|285:193|259:150,1,102,8|0,2:0|1:0,2:0:0:0:
405,18,127537,6,0,P|454:16|483:55,1,102,8|0,2:0|1:0,2:0:0:0:
396,155,127713,1,0,1:0:0:0:
384,161,127772,2,0,B|341:157|321:114|321:114|341:146|382:149,1,153,10|0,2:0|2:0,2:0:0:0:
429,241,128008,5,14,2:0:0:0:
306,287,128125,1,0,1:0:0:0:
170,87,128243,5,8,2:0:0:0:
296,124,128360,1,0,1:0:0:0:
178,222,128478,6,0,B|108:230|106:277|114:277|114:322|41:337,1,153,8|0,2:0|2:0,2:0:0:0:
60,324,128713,5,8,2:0:0:0:
220,384,128831,1,0,1:0:0:0:
170,87,128949,6,0,P|124:92|101:147,1,102,8|0,2:0|1:0,2:0:0:0:
197,258,129125,1,0,1:0:0:0:
213,254,129184,2,0,P|234:199|255:153,1,102,8|0,2:0|1:0,2:0:0:0:
58,16,129360,1,0,1:0:0:0:
47,28,129419,2,0,P|67:74|85:122,1,102,8|0,2:0|1:0,2:0:0:0:
292,44,129655,6,0,B|236:34|236:34|219:7|219:7|148:-6,1,153,10|0,2:0|2:0,2:0:0:0:
95,34,129890,2,0,P|87:90|161:117,1,102,14|0,2:0|2:0,2:0:0:0:
306,25,130125,5,8,2:0:0:0:
103,137,130243,1,8,2:0:0:0:
264,351,130360,5,4,1:2:0:0:
244,209,130478,1,12,2:0:0:0:
223,67,130596,2,0,P|293:65|335:147,1,153,8|0,2:0|2:0,2:0:0:0:
319,199,130831,5,6,1:2:0:0:
131,248,130949,1,8,2:0:0:0:
131,248,131008,1,8,0:0:0:0:
131,248,131066,1,0,1:2:0:0:
216,60,131184,1,8,2:0:0:0:
421,204,131302,5,2,1:2:0:0:
271,272,131419,1,8,2:0:0:0:
260,134,131537,5,0,1:0:0:0:
421,204,131655,1,8,2:0:0:0:
441,349,131772,6,0,B|461:321|489:311|489:311|503:223|413:202,1,204,6|8,1:2|2:0,2:0:0:0:
194,336,132125,2,0,B|180:317|146:309|146:309|227:303|198:362|290:354,1,203.999993774414,2|0,1:2|1:0,2:0:0:0:
497,169,132478,6,0,P|464:127|412:124,1,102,10|0,2:0|2:0,2:0:0:0:
409,46,132713,2,0,P|390:117|321:142,1,153,0|0,1:2|2:0,2:0:0:0:
308,138,132949,5,10,2:0:0:0:
65,0,133184,6,0,P|125:14|181:29,1,102,2|0,1:2|1:2,2:0:0:0:
234,222,133419,2,0,P|171:205|159:119,1,153,10|0,2:0|2:0,2:0:0:0:
254,211,133655,6,0,B|195:224|188:282|202:284|197:344|115:353,1,204,2|8,1:2|2:0,2:0:0:0:
0,130,134008,2,0,B|39:121|66:83|66:83|55:138|99:206,1,204,0|0,1:2|1:0,2:0:0:0:
247,7,134360,2,0,P|190:11|158:62,1,102,10|0,2:0|2:0,2:0:0:0:
287,174,134596,6,0,P|385:120|477:88,2,204,2|8|0,1:2|2:0|1:0,2:0:0:0:
209,145,135184,1,0,1:0:0:0:
444,310,135302,6,0,P|408:244|336:258,1,153,8|0,2:0|2:0,2:0:0:0:
285,303,135537,2,0,B|318:343|368:331|368:331|384:356|384:356|424:356|469:385,1,204,6|8,1:2|2:0,2:0:0:0:
512,140,135890,2,0,B|515:110|494:79|494:79|412:79|387:180,1,204,2|0,1:2|1:0,2:0:0:0:
301,380,136243,6,0,P|366:354|447:323,1,153,10|0,2:0|2:0,2:0:0:0:
479,264,136478,1,0,1:0:0:0:
411,16,136713,6,0,P|360:15|339:86,1,102,10|0,2:0|2:0,2:0:0:0:
306,226,136949,2,0,P|367:201|427:177,1,102,2|0,1:2|1:0,2:0:0:0:
229,356,137184,2,0,P|164:324|163:251,1,153,10|0,2:0|2:0,2:0:0:0:
213,192,137419,6,0,B|252:217|252:217|269:304|172:331,1,204,2|8,1:2|2:0,2:0:0:0:
8,1,137772,2,0,B|80:1|88:71|68:69|86:129|163:122,1,204,0|0,1:2|1:0,2:0:0:0:
303,0,138125,2,0,P|233:16|172:29,1,102,8|0,2:0|2:0,2:0:0:0:
94,261,138360,6,0,P|167:257|206:195,1,153,2|0,1:2|2:0,2:0:0:0:
207,122,138596,2,0,P|237:172|293:178,1,102,8|0,2:0|2:0,2:0:0:0:
424,280,138831,6,0,P|371:304|324:330,1,102,0|0,1:0|1:0,2:0:0:0:
194,108,139066,2,0,P|276:105|301:190,1,153,8|0,2:0|2:0,2:0:0:0:
162,350,139302,6,0,B|151:268|151:268|115:251|115:251|101:149,1,204,6|8,1:2|2:0,2:0:0:0:
422,384,139655,2,0,P|395:312|271:339,1,204,0|0,1:2|1:0,2:0:0:0:
175,47,140008,6,0,B|218:49|240:82|240:82|236:130|193:149,1,153,10|0,2:0|2:0,2:0:0:0:
143,196,140243,2,0,P|57:171|35:85,1,153,2|0,1:2|2:0,2:0:0:0:
43,96,140478,1,8,2:0:0:0:
333,40,140713,5,0,1:2:0:0:
216,89,140831,1,0,1:2:0:0:
343,32,140949,2,0,P|404:31|423:109,1,153,10|0,2:0|2:0,2:0:0:0:
373,169,141184,6,0,B|335:212|350:265|350:265|411:283|455:252,1,204,6|8,1:2|2:0,2:0:0:0:
512,0,141537,2,0,B|434:28|434:28|422:64|422:64|337:94,1,204,0|0,1:2|1:0,2:0:0:0:
487,276,141890,2,0,P|505:199|524:149,1,102,10|0,2:0|2:0,2:0:0:0:
288,285,142125,6,0,P|343:369|458:343,2,204,2|8|0,1:2|2:0|1:0,2:0:0:0:
379,290,142713,1,0,1:0:0:0:
106,52,142831,6,0,B|205:65|146:117|257:125,1,153,10|0,2:0|2:0,2:0:0:0:
303,102,143066,5,14,2:0:0:0:
235,244,143184,1,0,1:0:0:0:
86,384,143302,5,10,2:0:0:0:
56,246,143419,1,0,1:2:0:0:
24,70,143537,5,10,2:0:0:0:
164,129,143655,1,0,1:2:0:0:
372,181,143772,5,10,2:0:0:0:
235,244,143890,1,0,1:0:0:0:
214,31,144008,6,0,P|261:50|312:56,1,102,10|0,2:0|1:0,2:0:0:0:
399,265,144243,2,0,P|446:246|496:241,1,102,10|0,2:0|1:0,2:0:0:0:
459,116,144478,5,10,2:0:0:0:
305,200,144596,1,0,1:0:0:0:
313,56,144713,5,10,2:0:0:0:
399,265,144831,1,0,1:0:0:0:
174,384,144949,6,0,P|140:341|148:284,1,102,6|8,1:2|2:0,2:0:0:0:
49,263,145184,2,0,P|74:219|120:199,1,102,0|8,1:0|2:3,2:0:0:0:
373,6,145419,6,0,P|387:53|364:109,1,89.25,8|8,1:3|2:3,2:0:0:0:
470,136,145655,2,0,P|447:174|408:194,1,89.25,0|4,1:2|2:3,2:0:0:0:
174,290,145890,6,0,B|183:231|116:192|71:212|42:254|48:304|86:362|133:360|211:312|194:300|250:272|318:334,1,446.25,6|0,1:2|2:0,2:0:0:0:
319,335,146831,6,0,P|273:349|211:271,2,153,6|0|2,1:2|1:0|1:2,2:0:0:0:
433,122,147772,2,0,L|373:150,1,51,10|0,2:0|2:0,2:0:0:0:
315,210,148242,6,0,L|424:158,1,102,0|0,1:0|2:0,2:0:0:0:
495,261,148713,6,0,B|427:272|470:320|391:344,1,127.5,2|0,1:2|2:0,2:0:0:0:
300,159,149066,2,0,B|378:195|378:195|334:209,1,127.5,2|0,1:2|2:0,2:0:0:0:
237,113,149419,2,0,P|269:86|313:83,1,76.5,2|0,1:2|2:0,2:0:0:0:
352,144,149654,5,10,2:0:0:0:
146,51,149889,1,0,1:0:0:0:
341,9,150125,2,0,P|288:12|251:56,1,102,10|0,2:0|2:0,2:0:0:0:
114,280,150595,6,0,P|155:256|238:208,1,127.5,2|0,1:2|2:0,2:0:0:0:
115,106,150948,2,0,P|85:142|100:202,1,102,2|0,1:2|2:0,2:0:0:0:
226,64,151301,2,0,P|187:53|159:45,1,51,2|0,1:2|2:0,2:0:0:0:
252,179,151536,6,0,P|300:157|345:137,1,102,10|0,2:0|2:0,2:0:0:0:
226,259,152007,1,2,1:2:0:0:
138,225,152242,2,0,P|118:253|118:298,1,76.5,2|0,2:0|2:0,2:0:0:0:
182,349,152478,6,0,B|140:332|140:332|133:303|133:303|80:279,1,127.5,2|0,1:2|2:0,2:0:0:0:
16,321,152831,2,0,P|10:259|52:214,1,127.5,2|0,1:2|2:0,2:0:0:0:
86,360,153183,1,2,1:2:0:0:
228,96,153419,6,0,B|188:116|188:116|178:137|178:137|133:158,1,102,2|8,1:2|2:3,2:0:0:0:
13,9,153889,2,0,P|57:21|119:40,1,102,2|0,1:2|2:0,2:0:0:0:
228,96,154360,6,0,P|209:150|134:141,1,127.5,6|0,1:2|2:0,2:0:0:0:
240,18,154713,2,0,P|285:34|365:57,1,127.5,2|0,1:2|2:0,2:0:0:0:
408,122,155066,2,0,P|434:92|438:40,1,76.5,2|0,1:2|2:0,2:0:0:0:
320,145,155301,6,0,P|323:157|326:169,1,25.4999992218018,8|0,2:0|2:0,2:0:0:0:
465,322,155772,5,2,1:2:0:0:
313,247,156007,1,2,2:0:0:0:
452,314,156242,6,0,B|387:327|418:375|350:379,1,127.5,2|0,1:2|2:0,2:0:0:0:
252,265,156595,2,0,B|333:307|333:307|288:317,1,127.5,2|0,1:2|2:0,2:0:0:0:
276,196,156948,2,0,P|238:190|207:210,1,76.5,2|0,1:2|2:0,2:0:0:0:
252,265,157183,5,8,2:0:0:0:
413,186,157419,1,0,1:0:0:0:
206,47,157654,5,10,2:0:0:0:
206,47,158125,2,0,P|256:55|301:-3,1,127.5,6|0,1:2|2:0,2:0:0:0:
197,38,158478,2,0,P|146:64|81:98,1,127.5,2|0,1:2|2:0,2:0:0:0:
183,129,158831,2,0,P|221:145|231:194,1,76.5,2|0,1:2|2:0,2:0:0:0:
172,227,159066,5,8,2:0:0:0:
413,151,159301,1,0,1:0:0:0:
431,224,159536,6,0,P|376:218|354:100,1,178.5,14|0,2:0|2:0,2:0:0:0:
406,72,160007,6,0,P|457:90|506:104,1,85,6|0,1:2|1:0,2:0:0:0:
352,154,160242,2,0,P|313:176|299:241,1,85,8|8,2:0|2:0,2:0:0:0:
470,299,160477,5,0,1:0:0:0:
351,144,160595,1,8,1:2:0:0:
295,360,160712,5,8,2:0:0:0:
449,313,160830,1,0,1:0:0:0:
265,234,160948,6,0,P|212:258|174:275,1,85,10|8,2:0|2:0,2:0:0:0:
362,63,161183,2,0,P|415:87|453:104,1,85,8|8,2:0|2:0,2:0:0:0:
205,103,161418,6,0,P|193:55|231:14,1,85,8|8,2:0|2:0,2:0:0:0:
364,256,161654,2,0,P|376:304|338:345,1,85,8|8,2:0|2:0,2:0:0:0:
124,219,161889,6,0,B|165:201|165:201|211:244|180:311,1,140.25,6|0,1:2|2:0,2:0:0:0:
150,355,162124,2,0,P|103:340|43:320,1,93.5,8|0,2:0|2:0,2:0:0:0:
0,136,162359,5,0,1:0:0:0:
133,229,162477,1,0,1:0:0:0:
231,37,162594,2,0,P|179:52|114:68,1,93.5,8|0,2:0|2:0,2:0:0:0:
265,146,162830,5,0,1:0:0:0:
265,146,162947,1,0,1:0:0:0:
182,330,163065,2,0,P|139:286|143:231,1,93.5,8|0,2:0|2:0,2:0:0:0:
284,234,163300,2,0,B|322:254|322:254|328:264|328:264|371:283,1,93.5,0|0,1:0|1:0,2:0:0:0:
487,36,163536,6,0,P|437:21|388:99,1,140.25,10|0,2:0|2:0,2:0:0:0:
396,149,163771,6,0,B|472:181|423:217|505:253,1,140.25,2|0,1:2|2:0,2:0:0:0:
504,242,164006,2,0,P|458:260|448:315,1,93.5,8|0,2:0|2:0,2:0:0:0:
493,372,164241,5,0,1:0:0:0:
331,278,164359,1,0,1:0:0:0:
275,384,164477,2,0,P|326:368|375:355,1,93.5,10|0,2:0|2:0,2:0:0:0:
433,124,164712,5,2,1:2:0:0:
365,158,164830,1,0,1:0:0:0:
242,0,164947,2,0,P|293:16|342:29,1,93.5,8|0,2:0|2:0,2:0:0:0:
186,172,165183,6,0,P|145:151|139:96,1,93.5,0|0,1:0|1:0,2:0:0:0:
356,238,165418,2,0,P|309:258|221:300,1,140.25,10|0,2:0|2:0,2:0:0:0:
159,312,165653,6,0,B|125:296|107:274|107:274|115:324|194:330,1,140.25,6|0,1:2|2:0,2:0:0:0:
249,357,165889,2,0,P|274:309|266:257,1,93.5,8|0,2:0|2:0,2:0:0:0:
65,142,166124,6,0,P|83:187|101:235,1,93.5,0|0,1:2|1:0,2:0:0:0:
229,61,166359,2,0,P|185:9|102:36,1,140.25,10|0,2:0|2:0,2:0:0:0:
104,36,166594,5,2,1:2:0:0:
255,144,166712,1,0,1:2:0:0:
76,276,166830,2,0,P|89:226|117:123,1,140.25,8|0,2:0|2:0,2:0:0:0:
124,134,167065,5,0,1:2:0:0:
0,207,167183,1,0,1:2:0:0:
151,338,167300,2,0,B|204:320|204:320|215:293|215:293|287:267,1,140.25,10|0,2:0|2:0,2:0:0:0:
336,290,167536,6,0,P|345:350|313:382,1,93.5,2|0,1:2|2:0,2:0:0:0:
222,130,167771,2,0,P|299:155|403:188,1,187,8|0,2:0|1:0,2:0:0:0:
254,249,168124,1,0,1:0:0:0:
426,28,168241,6,0,P|374:33|339:78,1,93.5,8|0,2:0|2:0,2:0:0:0:
476,172,168477,1,0,1:0:0:0:
444,29,168594,1,0,1:0:0:0:
268,183,168712,6,0,P|318:167|379:147,1,93.5,8|0,2:0|2:0,2:0:0:0:
501,362,168947,2,0,P|451:346|390:326,1,93.5,0|0,1:0|1:0,2:0:0:0:
337,0,169183,6,0,P|396:1|416:95,1,140.25,10|0,2:0|2:0,2:0:0:0:
374,117,169418,6,0,B|314:113|299:153|317:160|301:202|253:216,1,140.25,6|0,1:2|2:0,2:0:0:0:
246,207,169653,2,0,B|226:197|217:166|217:166|230:190|253:202,1,93.5,8|0,2:0|2:0,2:0:0:0:
386,307,169889,2,0,P|442:278|446:229,1,93.5,2|0,1:2|1:0,2:0:0:0:
299,384,170124,6,0,B|250:367|250:367|238:340|238:340|170:320,1,140.25,10|0,2:0|2:0,2:0:0:0:
119,284,170359,2,0,P|142:236|206:251,1,93.5,0|0,1:2|1:0,2:0:0:0:
306,347,170594,6,0,P|246:372|213:388,1,93.5,8|0,2:0|2:0,2:0:0:0:
92,193,170830,2,0,P|152:218|185:234,1,93.5,0|0,1:0|1:0,2:0:0:0:
251,39,171065,6,0,B|233:28|215:0|215:0|208:52|178:113,1,140.25,10|0,2:0|2:0,2:0:0:0:
225,150,171300,2,0,P|275:143|260:23,2,187,2|8|2,1:2|2:0|1:2,2:0:0:0:
160,100,171889,1,0,1:0:0:0:
105,267,172006,6,0,B|151:239|151:239|210:308|158:360,1,187,10|0,2:0|1:0,2:0:0:0:
17,274,172359,1,0,1:0:0:0:
224,149,172477,6,0,P|163:134|119:124,1,93.5,8|0,2:0|2:0,2:0:0:0:
250,293,172712,2,0,P|311:278|355:268,1,93.5,0|0,1:0|1:0,2:0:0:0:
104,372,172947,2,0,P|59:343|107:259,1,140.25,10|0,2:0|2:0,2:0:0:0:
137,226,173183,6,0,P|170:274|198:308,1,93.5,6|0,1:2|1:0,2:0:0:0:
11,148,173418,2,0,P|32:87|61:2,1,140.25,8|0,2:0|2:0,2:0:0:0:
126,11,173653,6,0,P|91:51|51:26,1,93.5,0|0,1:0|1:0,2:0:0:0:
179,83,173889,2,0,B|254:105|218:147|319:163,1,140.25,8|0,2:0|2:0,2:0:0:0:
362,127,174124,5,6,1:2:0:0:
206,210,174241,1,0,1:0:0:0:
400,376,174359,2,0,P|411:317|421:261,1,93.5,8|0,2:0|2:0,2:0:0:0:
294,74,174594,2,0,P|253:112|282:169,1,93.5,0|0,1:2|1:0,2:0:0:0:
491,57,174830,2,0,B|466:15|466:15|397:20,1,93.5,8|0,2:0|2:0,2:0:0:0:
367,172,175065,5,6,1:2:0:0:
375,169,175183,1,8,2:0:0:0:
254,9,175300,5,0,1:0:0:0:
296,26,175418,1,8,2:0:0:0:
162,157,175536,5,0,1:0:0:0:
233,135,175653,1,8,2:0:0:0:
69,27,175771,5,0,1:0:0:0:
148,56,175889,1,8,2:0:0:0:
56,176,176006,6,0,P|36:217|60:254,1,93.5,8|0,2:3|2:0,2:0:0:0:
169,383,176241,6,0,P|130:362|85:354,1,76.5000000000001,0|8,1:0|2:3,2:0:0:0:
265,189,176477,6,0,P|226:210|188:217,1,68,0|4,1:0|2:3,2:0:0:0:
398,358,176712,6,0,P|359:337|325:331,1,59.4999999999999,0|4,1:0|2:3,2:0:0:0:
437,160,176947,5,6,1:2:0:0:
256,192,177006,12,0,177889,2:0:0:0:
77,53,178830,6,0,B|57:37|35:32|35:32|80:22|117:57|107:59|132:106|210:78,1,203.999993774414,6|8,1:2|2:0,2:0:0:0:
363,212,179183,2,0,P|410:167|313:132,1,204,2|0,1:2|1:0,2:0:0:0:
134,313,179536,6,0,B|182:323|201:282|195:278|218:232|297:256,1,153,10|0,2:0|2:0,2:0:0:0:
326,286,179771,2,0,P|306:355|299:393,1,102,8|0,2:0|1:0,2:0:0:0:
151,197,179947,5,0,1:0:0:0:
138,178,180006,2,0,P|90:157|39:184,1,102,10|0,2:0|1:0,2:0:0:0:
62,331,180183,5,0,1:0:0:0:
75,343,180241,2,0,P|133:364|182:383,1,102,10|0,2:0|1:0,2:0:0:0:
315,239,180418,5,0,1:0:0:0:
324,221,180477,2,0,B|294:173|294:173|304:136|304:136|261:61,1,153,10|0,2:0|2:0,2:0:0:0:
220,37,180712,6,0,P|185:79|211:123,1,102,10|0,2:0|1:0,2:0:0:0:
380,9,180947,2,0,P|436:31|486:57,1,102,8|0,2:0|1:0,2:0:0:0:
466,200,181183,6,0,B|414:204|397:243|408:244|395:291|322:289,1,153,8|0,2:0|2:0,2:0:0:0:
279,259,181418,2,0,P|300:198|310:150,1,102,10|0,2:0|1:0,2:0:0:0:
408,374,181653,6,0,P|457:370|481:327,1,102,10|0,2:0|1:0,2:0:0:0:
445,129,181830,1,0,1:0:0:0:
422,115,181889,2,0,P|379:139|322:164,1,102,8|0,2:0|1:0,2:0:0:0:
180,31,182065,5,0,1:0:0:0:
190,19,182124,2,0,P|247:25|272:77,1,102,8|0,2:0|1:0,2:0:0:0:
200,193,182300,5,0,1:0:0:0:
189,205,182359,2,0,P|169:256|174:276,2,51,8|0|0,2:0|1:0|1:0,2:0:0:0:
303,243,182594,6,0,B|374:252|386:311|370:310|376:369|458:371,1,204,14|8,2:0|2:0,2:0:0:0:
512,129,182947,1,2,1:2:0:0:
442,96,183065,2,0,P|425:142|391:220,1,102,8|0,2:0|1:0,2:0:0:0:
133,300,183300,6,0,P|203:327|275:353,1,153,10|0,2:0|2:0,2:0:0:0:
347,345,183536,2,0,P|347:283|293:278,1,102,8|0,2:0|1:0,2:0:0:0:
170,95,183712,5,0,1:0:0:0:
169,78,183771,2,0,P|227:59|276:39,1,102,10|0,2:0|1:0,2:0:0:0:
90,217,184006,2,0,P|46:198|38:148,1,102,10|0,2:0|1:0,2:0:0:0:
246,203,184241,2,0,B|274:242|274:242|259:320,1,102,10|0,2:0|1:0,2:0:0:0:
14,298,184477,6,0,P|40:359|117:352,1,153,10|0,2:0|2:0,2:0:0:0:
163,295,184712,1,8,2:0:0:0:
80,92,184830,1,0,1:0:0:0:
263,5,184947,6,0,P|251:68|241:126,1,102,10|0,2:0|1:0,2:0:0:0:
78,224,185183,2,0,P|66:161|56:103,1,102,8|0,2:0|1:0,2:0:0:0:
133,2,185418,6,0,B|185:1|207:43|200:44|216:83|273:78,1,153,10|0,2:0|2:0,2:0:0:0:
324,112,185653,2,0,P|333:59|266:15,1,102,8|0,2:0|1:0,2:0:0:0:
158,256,185889,6,0,P|214:274|270:294,1,102,8|0,2:0|1:0,2:0:0:0:
464,155,186065,1,0,1:0:0:0:
453,140,186124,2,0,B|388:156|388:156|375:182|375:182|310:200,1,153,10|0,2:0|2:0,2:0:0:0:
252,158,186359,5,14,2:0:0:0:
433,262,186477,1,0,1:0:0:0:
453,140,186594,5,8,2:0:0:0:
280,285,186712,1,0,1:0:0:0:
212,0,186830,6,0,B|237:75|254:166,1,153,10|0,2:0|2:0,2:0:0:0:
289,209,187065,2,0,P|346:172|336:130,1,102,10|0,2:0|1:0,2:0:0:0:
114,20,187300,6,0,P|97:78|72:125,1,102,10|0,2:0|1:0,2:0:0:0:
53,215,187477,1,0,1:0:0:0:
68,233,187536,2,0,B|156:239|109:297|220:296,1,153,8|0,2:0|1:0,2:0:0:0:
271,332,187771,6,0,P|264:359|190:375,1,102,8|0,2:0|1:0,2:0:0:0:
210,136,187947,1,0,1:0:0:0:
228,126,188006,2,0,P|262:175|295:216,1,102,10|2,2:0|1:2,2:0:0:0:
196,289,188241,5,14,2:0:0:0:
63,227,188359,1,0,1:0:0:0:
97,121,188477,5,8,2:0:0:0:
214,70,188594,1,0,1:0:0:0:
403,194,188712,6,0,P|361:222|311:224,1,102,10|0,2:0|1:2,2:0:0:0:
131,24,188947,2,0,P|181:26|220:57,1,102,10|0,2:0|1:2,2:0:0:0:
121,360,189183,6,0,B|81:323|81:323|96:236,1,102,10|0,2:0|1:0,2:0:0:0:
169,163,189359,1,0,1:0:0:0:
183,155,189418,2,0,B|237:183|237:183|245:212|245:212|323:245,1,153,8|0,2:0|1:0,2:0:0:0:
373,217,189653,2,0,P|418:195|446:177,2,51,8|0|0,2:0|1:0|1:0,2:0:0:0:
211,303,189889,6,0,P|227:355|332:328,1,153,10|0,2:0|2:0,2:0:0:0:
359,301,190124,1,14,2:0:0:0:
184,382,190241,1,0,1:0:0:0:
111,178,190359,6,0,P|161:192|225:209,1,102,8|0,2:0|1:0,2:0:0:0:
382,42,190594,2,0,P|332:56|268:73,1,102,8|0,2:0|1:0,2:0:0:0:
308,231,190830,5,8,2:0:0:0:
431,140,190947,1,0,1:0:0:0:
269,68,191065,1,8,2:0:0:0:
467,243,191183,1,0,1:0:0:0:
467,243,191241,1,0,1:0:0:0:
467,243,191300,6,0,B|380:267|429:307|345:327,1,153,8|0,2:0|2:0,2:0:0:0:
278,310,191536,2,0,P|276:284|272:259,2,51,8|0|0,2:0|1:0|1:0,2:0:0:0:
12,295,191771,6,0,B|19:255|71:229|71:229|103:253|148:252,1,153,10|0,2:0|2:0,2:0:0:0:
192,306,192006,6,0,P|180:350|94:328,1,153,14|0,2:0|2:0,2:0:0:0:
214,185,192241,2,0,B|235:169|264:159|264:159|237:170|213:195,1,102,8|0,2:0|2:0,2:0:0:0:
119,259,192477,5,12,2:0:0:0:
50,136,192594,1,12,2:0:0:0:
316,264,192712,1,12,2:0:0:0:
325,272,192947,5,14,2:0:0:0:
140,347,193065,1,0,1:0:0:0:
220,173,193183,1,8,2:0:0:0:
351,375,193300,1,0,1:0:0:0:
460,121,193418,5,10,2:0:0:0:
309,183,193536,1,0,1:0:0:0:
351,90,193653,1,8,2:0:0:0:
461,257,193771,1,0,1:0:0:0:
207,271,193889,6,0,B|270:251|303:312|294:316|320:371|423:336,1,204,6|8,1:2|2:0,2:0:0:0:
488,58,194241,2,0,B|437:20|437:20|367:42|354:110|383:154,1,204,2|0,1:2|1:0,2:0:0:0:
289,27,194594,2,0,B|232:44|232:44|216:77|216:77|161:93,1,153,10|0,2:0|2:0,2:0:0:0:
98,63,194830,1,0,1:2:0:0:
98,63,195065,6,0,P|149:56|211:111,1,102,10|0,2:0|2:0,2:0:0:0:
182,257,195300,1,2,1:2:0:0:
285,141,195418,1,0,1:2:0:0:
360,377,195536,2,0,P|294:346|211:323,1,153,10|0,2:0|2:0,2:0:0:0:
182,257,195771,6,0,B|191:181|254:162|254:162|266:190|309:219,1,204,2|8,1:2|2:0,2:0:0:0:
142,368,196124,2,0,B|85:336|11:328|11:328|46:326|76:313,1,204,0|0,1:2|1:0,2:0:0:0:
274,268,196477,2,0,B|337:254|337:254|287:280,1,102,10|0,2:0|2:0,2:0:0:0:
416,305,196712,6,0,P|372:281|380:176,1,153,2|0,1:2|2:0,2:0:0:0:
423,138,196947,2,0,P|475:168|526:192,1,102,8|0,2:0|2:0,2:0:0:0:
432,320,197183,6,0,P|386:343|343:369,1,102,0|0,1:0|1:0,2:0:0:0:
161,216,197418,2,0,P|220:203|269:297,1,153,8|0,2:0|2:0,2:0:0:0:
218,363,197653,6,0,B|145:334|145:334|138:292|138:292|40:249,1,204,6|8,1:2|2:0,2:0:0:0:
0,67,198006,2,0,B|52:67|87:18|87:18|93:76|167:115,1,203.999993774414,2|0,1:2|1:0,2:0:0:0:
43,343,198359,2,0,P|30:277|8:185,1,152.999995330811,10|0,2:0|2:0,2:0:0:0:
64,135,198594,1,0,1:0:0:0:
384,372,198830,6,0,B|393:346|423:330|423:330|439:278|367:234,1,153,10|0,2:0|2:0,2:0:0:0:
327,191,199065,2,0,P|298:212|331:198,1,102,2|0,1:2|1:0,2:0:0:0:
466,58,199300,6,0,B|412:42|379:23|379:23|406:43|422:79,1,153,10|0,2:0|2:0,2:0:0:0:
509,115,199536,2,0,B|452:95|418:135|418:135|399:199|323:187,1,204,2|8,1:2|2:0,2:0:0:0:
180,23,199889,2,0,B|158:-10|158:-10|273:13|273:13|302:71,1,204,0|0,1:2|1:0,2:0:0:0:
226,322,200241,2,0,P|178:270|190:228,1,102,8|0,2:0|2:0,2:0:0:0:
451,334,200477,6,0,P|401:345|352:359,1,102,2|0,1:2|2:0,2:0:0:0:
193,118,200712,2,0,P|242:131|291:143,1,102,8|0,2:0|2:0,2:0:0:0:
167,368,200947,6,0,B|125:332|125:332|141:262,1,102,0|0,1:2|1:0,2:0:0:0:
345,117,201183,2,0,B|298:96|298:96|230:127|249:206,1,153,8|0,2:0|2:0,2:0:0:0:
281,246,201418,6,0,B|344:252|367:310|352:310|372:369|444:369,1,204,6|8,1:2|2:0,2:0:0:0:
469,52,201771,2,0,B|418:58|390:101|390:101|384:86|384:86|350:133|280:128,1,204,0|0,1:2|1:0,2:0:0:0:
62,51,202124,6,0,P|103:-9|174:6,1,153,10|0,2:0|2:0,2:0:0:0:
199,78,202359,2,0,P|175:134|153:206,1,102,2|0,1:2|2:0,2:0:0:0:
221,376,202594,6,0,P|202:323|103:323,1,153,8|0,2:0|2:0,2:0:0:0:
105,325,202830,1,0,1:0:0:0:
264,247,202947,1,0,1:0:0:0:
44,132,203065,6,0,B|0:87|31:25|31:25|84:48,1,153,10|0,2:0|2:0,2:0:0:0:
119,95,203300,6,0,B|162:141|212:124|212:124|252:79|203:-11,1,204,6|8,1:2|2:0,2:0:0:0:
56,319,203653,2,0,B|35:301|10:295|10:295|102:292|55:353|168:341,1,203.999993774414,0|0,1:2|1:0,2:0:0:0:
334,268,204006,6,0,P|283:279|201:301,1,102,10|0,2:0|2:0,2:0:0:0:
20,118,204241,2,0,P|69:129|134:143,1,102,2|0,1:2|2:0,2:0:0:0:
344,23,204477,2,0,P|292:7|228:94,1,153,8|0,2:0|2:0,2:0:0:0:
271,179,204712,6,0,P|302:138|299:86,1,102,0|0,1:0|1:0,2:0:0:0:
192,9,204947,2,0,P|227:74|300:89,1,153,10|0,2:0|2:0,2:0:0:0:
352,31,205183,5,14,2:0:0:0:
180,165,205300,1,0,1:0:0:0:
192,9,205418,5,10,2:0:0:0:
357,207,205536,1,0,1:0:0:0:
128,334,205653,5,10,2:0:0:0:
180,165,205771,1,0,1:0:0:0:
373,323,205889,5,10,2:0:0:0:
209,266,206006,1,0,1:0:0:0:
9,14,206124,6,0,P|57:28|107:40,1,102,10|0,2:0|1:0,2:0:0:0:
180,165,206359,2,0,P|227:148|277:139,1,102,10|0,2:0|1:0,2:0:0:0:
312,17,206594,6,0,B|372:26|345:54|421:62,1,102,10|0,2:0|1:0,2:0:0:0:
512,247,206830,2,0,B|415:250|461:307|343:296,1,153,10|0,2:0|2:0,2:0:0:0:
356,312,207065,6,0,P|417:305|459:278,1,102,6|8,1:2|2:0,2:0:0:0:
352,174,207300,5,0,1:2:0:0:
267,373,207418,1,8,2:0:0:0:
150,92,207536,6,0,P|212:95|255:120,1,102,0|8,1:2|2:3,2:0:0:0:
79,302,207771,5,0,1:2:0:0:
4,148,207889,1,4,2:3:0:0:
202,260,208006,6,0,B|252:258|318:208|318:208|254:258|224:319|261:371|300:396|341:383,1,386.75,6|0,1:2|2:0,2:0:0:0:
494,264,208947,6,0,P|425:283|419:344,1,140.25,14|0,2:0|2:0,2:0:0:0:
418,343,209183,2,0,P|374:307|325:307,1,93.5,10|0,2:0|1:2,2:0:0:0:
262,101,209418,6,0,B|249:70|249:70|368:125,1,140.25,10|0,2:0|2:0,2:0:0:0:
358,117,209653,2,0,P|316:172|303:220,1,93.5,10|0,2:0|1:0,2:0:0:0:
82,286,209889,6,0,P|117:250|190:254,1,93.5,10|0,2:0|1:0,2:0:0:0:
236,328,210065,1,0,1:0:0:0:
246,344,210124,2,0,P|314:329|322:287,1,93.5,10|0,2:0|1:0,2:0:0:0:
239,89,210300,5,0,1:0:0:0:
226,98,210359,2,0,B|194:136|194:136|223:195,1,93.5,10|0,2:0|1:0,2:0:0:0:
409,90,210536,1,0,1:0:0:0:
419,77,210594,2,0,P|373:54|314:30,1,93.5,10|0,2:0|1:0,2:0:0:0:
385,245,210830,6,0,P|421:207|476:176,1,93.5,10|0,2:0|1:0,2:0:0:0:
206,33,211065,2,0,P|242:71|297:102,1,93.5,10|0,2:0|1:0,2:0:0:0:
160,285,211300,2,0,P|158:218|216:185,1,140.25,10|0,2:0|2:0,2:0:0:0:
255,264,211536,6,0,B|187:266|171:325|182:329|159:377|94:370,1,187,10|8,2:0|2:0,2:0:0:0:
11,172,211889,1,0,1:0:0:0:
11,172,211947,1,0,1:0:0:0:
11,172,212006,2,0,P|34:125|63:59,1,93.5,10|0,2:0|1:0,2:0:0:0:
215,185,212183,5,0,1:0:0:0:
212,201,212241,2,0,P|163:229|125:257,1,93.5,10|0,2:0|1:0,2:0:0:0:
8,31,212418,5,0,1:0:0:0:
22,22,212477,2,0,P|60:48|101:71,1,93.5,10|0,2:0|1:0,2:0:0:0:
312,238,212712,6,0,B|260:254|260:254|246:283|246:283|194:299,1,140.25,14|0,2:0|2:0,2:0:0:0:
132,250,212947,2,0,P|121:206|151:170,1,93.5,10|0,2:0|1:0,2:0:0:0:
302,368,213183,6,0,P|359:377|407:379,1,93.5,10|0,2:0|1:0,2:0:0:0:
496,226,213418,2,0,B|470:173|470:173|391:211|417:297,1,187,10|10,2:0|2:0,2:0:0:0:
253,102,213771,5,0,1:0:0:0:
253,102,213830,1,0,1:0:0:0:
253,102,213889,2,0,P|311:120|328:165,1,93.5,10|0,2:0|1:0,2:0:0:0:
464,13,214124,2,0,P|409:28|353:40,1,93.5,10|0,2:0|1:0,2:0:0:0:
250,200,214300,1,0,1:0:0:0:
257,214,214359,2,0,P|314:238|355:219,1,93.5,10|0,2:0|1:0,2:0:0:0:
211,0,214594,6,0,B|201:34|201:34|186:44|186:44|175:83,1,93.5,14|0,2:0|2:0,2:0:0:0:
325,145,214830,2,0,P|391:126|435:116,1,93.5,10|0,2:0|1:0,2:0:0:0:
356,312,215065,2,0,P|287:293|270:229,1,140.25,10|0,2:0|2:0,2:0:0:0:
367,304,215300,6,0,P|278:294|229:369,1,187,10|8,2:0|2:0,2:0:0:0:
471,302,215653,1,0,1:0:0:0:
471,302,215712,1,0,1:0:0:0:
471,302,215771,2,0,P|511:238|506:188,1,93.5,10|0,2:0|1:0,2:0:0:0:
369,57,216006,6,0,P|414:86|463:96,1,93.5,10|0,2:0|1:0,2:0:0:0:
248,190,216183,1,0,1:0:0:0:
268,212,216241,2,0,P|313:183|362:173,1,93.5,10|0,2:0|2:0,2:0:0:0:
168,26,216477,6,0,P|143:74|119:120,1,93.5,14|0,2:0|2:0,2:0:0:0:
282,108,216712,1,10,2:0:0:0:
160,13,216830,1,0,1:0:0:0:
41,250,216947,2,0,P|90:229|132:215,1,93.5,10|0,2:0|2:0,2:0:0:0:
261,347,217183,6,0,P|209:361|179:328,1,93.5,10|0,2:0|1:0,2:0:0:0:
310,180,217418,2,0,P|342:235|371:282,1,93.5,10|0,2:0|1:0,2:0:0:0:
186,136,217594,1,0,1:0:0:0:
175,122,217653,2,0,P|122:124|72:183,1,93.5,10|0,2:0|1:0,2:0:0:0:
41,300,217889,6,0,P|50:322|60:353,2,46.75,10|0|0,2:0|1:0|1:0,2:0:0:0:
102,153,218124,2,0,P|109:130|118:109,2,46.75,10|0|0,2:0|1:0|1:0,2:0:0:0:
168,279,218359,6,0,P|219:251|224:204,1,93.5,14|0,2:0|1:2,2:0:0:0:
99,0,218594,1,14,2:0:0:0:
22,164,218712,1,12,2:0:0:0:
221,52,218830,2,0,P|270:48|313:90,1,93.5,6|8,1:2|2:0,2:0:0:0:
365,260,219065,6,0,P|368:172|449:136,1,187,12|8,2:0|2:0,2:0:0:0:
512,298,219418,1,8,2:0:0:0:
512,298,219477,1,8,2:0:0:0:
512,298,219536,2,0,P|450:320|413:336,1,93.5,8|8,2:0|2:0,2:0:0:0:
198,101,219771,5,8,1:3:0:0:
356,186,219889,1,8,2:3:0:0:
314,67,220006,5,4,1:3:0:0:
236,269,220124,1,4,2:3:0:0:
90,159,220241,6,0,B|11:133|7:-2|170:-32|255:68|168:198|168:198|178:203|178:203|104:297|166:370|244:389|314:377|369:270|292:200|292:200|298:197|298:197|290:179|234:69|336:-22|449:0|486:103|466:166|399:192,1,1264.8,6|0,1:2|2:0,2:0:0:0:
