osu file format v14

[General]
AudioFilename: audio.mp3
AudioLeadIn: 0
PreviewTime: 165172
Countdown: 0
SampleSet: Soft
StackLeniency: 0.7
Mode: 0
LetterboxInBreaks: 0
WidescreenStoryboard: 1

[Editor]
Bookmarks: 12735,24735,48735,60735,81735,96735,120735,132735,177735,201735,219735
DistanceSpacing: 1.3
BeatDivisor: 4
GridSize: 32
TimelineZoom: 1.5

[Metadata]
Title:Aoi Yume
TitleUnicode:青い夢
Artist:AZKi
ArtistUnicode:AZKi
Creator:domSaur
Version:Normal
Source:
Tags:inonaka music innk hololive ホロライブ virtual diva youtuber vtuber pop japanese
BeatmapID:2542940
BeatmapSetID:1222587

[Difficulty]
HPDrainRate:4
CircleSize:4
OverallDifficulty:4
ApproachRate:5
SliderMultiplier:2.2
SliderTickRate:1

[Events]
//Background and Video events
0,0,"nayuta.jpg",0,0
//Break Periods
2,96935,106597
2,159110,161535
2,165935,175785
//Storyboard Layer 0 (Background)
//Storyboard Layer 1 (Fail)
//Storyboard Layer 2 (Pass)
//Storyboard Layer 3 (Foreground)
//Storyboard Layer 4 (Overlay)
//Storyboard Sound Samples

[TimingPoints]
735,750,4,2,1,40,1,0
12735,-100,4,2,1,40,0,0
24735,-100,4,2,1,50,0,0
48735,-100,4,2,1,40,0,0
56985,-100,4,2,1,50,0,0
57735,-100,4,2,1,50,0,0
60735,-100,4,2,1,70,0,0
72172,-100,4,2,1,70,0,0
72735,-100,4,2,1,70,0,0
78735,-100,4,2,1,40,0,0
81735,-100,4,2,1,50,0,0
96735,-100,4,2,1,40,0,0
108735,-100,4,2,1,50,0,0
120735,-100,4,2,1,40,0,0
128985,-100,4,2,1,40,0,0
129735,-100,4,2,1,40,0,0
132735,-100,4,2,1,70,0,0
158985,-100,4,2,1,40,0,0
159110,-100,4,2,1,40,0,0
176985,-100,4,2,1,50,0,0
178485,-100,4,2,1,60,0,0
179235,-100,4,2,1,70,0,0
189172,-100,4,2,1,70,0,0
189735,-100,4,2,1,70,0,0
195735,-100,4,2,1,70,0,0
198360,-133.333333333333,4,2,1,70,0,0
200235,-100,4,2,1,70,0,0
201735,-100,4,2,1,60,0,0
219735,-100,4,2,1,10,0,0

[Colours]
Combo1 : 255,94,55
Combo2 : 173,255,95
Combo3 : 17,254,176
Combo4 : 255,88,100

[HitObjects]
53,110,12735,6,0,B|126:106|107:144|185:131,1,110,0|0,1:0|0:0,0:0:0:0:
216,92,13297,1,2,1:2:0:0:
423,36,13860,2,0,B|433:63|433:63|426:108,1,55,2|0,0:0|0:0,0:0:0:0:
419,160,14235,2,0,B|450:196|438:243|438:243|393:272,1,110,2|2,0:0|0:0,0:0:0:0:
394,320,14797,1,0,1:0:0:0:
183,360,15360,2,0,P|179:326|185:297,1,55,2|2,0:0|0:0,0:0:0:0:
229,251,15735,6,0,L|219:132,1,110,2|2,1:2|0:0,0:0:0:0:
259,81,16297,1,0,1:0:0:0:
132,24,16672,1,0,0:0:0:0:
132,24,16860,2,0,L|141:134,1,110,2|2,0:0|0:3,0:0:0:0:
70,258,17610,2,0,B|54:202|54:202|64:147,1,110,0|2,1:0|0:3,0:0:0:0:
151,269,18360,1,2,0:3:0:0:
151,269,18547,1,2,0:3:0:0:
214,302,18735,6,0,L|332:292,1,110,2|2,1:2|0:0,0:0:0:0:
380,249,19297,1,2,1:2:0:0:
381,37,19860,1,2,0:0:0:0:
381,37,20047,2,0,B|258:35,1,110,2|0,0:0|0:0,0:0:0:0:
223,89,20610,2,0,L|158:86,1,55,0|0,0:3|1:0,0:0:0:0:
21,243,21360,2,0,L|101:237,1,55,2|2,0:0|0:0,0:0:0:0:
138,204,21735,6,0,B|156:238|156:238|152:274|139:320,1,110,0|2,1:0|0:0,0:0:0:0:
184,365,22297,1,0,1:0:0:0:
402,366,22860,1,2,0:0:0:0:
402,366,23047,2,0,P|461:366|508:304,1,110,0|0,0:0|1:0,0:0:0:0:
488,262,23610,2,0,B|495:209|495:209|470:132,1,110,0|2,1:0|0:3,0:0:0:0:
319,105,24360,2,0,L|250:127,1,55,2|2,0:3|0:3,0:0:0:0:
206,83,24735,6,0,P|134:99|63:140,1,110,6|2,1:2|0:0,0:0:0:0:
52,166,25297,1,2,1:2:0:0:
197,324,25860,2,0,L|142:334,2,55,2|2|0,0:0|0:0|0:0,0:0:0:0:
316,246,26610,2,0,P|321:192|299:137,1,110,2|2,0:3|0:3,0:0:0:0:
161,171,27360,1,0,0:0:0:0:
197,309,27735,6,0,B|155:315|155:315|128:339|128:339|84:349,1,110,0|0,1:0|0:0,0:0:0:0:
41,301,28297,2,0,P|30:271|27:235,1,55,2|2,1:2|0:3,0:0:0:0:
67,110,28860,1,2,0:0:0:0:
191,180,29235,1,2,0:3:0:0:
286,73,29610,1,0,1:0:0:0:
399,160,29985,1,2,0:3:0:0:
442,296,30360,2,0,L|374:282,1,55,2|2,0:0|0:3,0:0:0:0:
328,323,30735,6,0,P|262:333|185:344,1,110,6|0,1:2|0:0,0:0:0:0:
148,343,31297,1,2,1:2:0:0:
268,167,31860,1,2,0:0:0:0:
268,167,32047,2,0,P|205:151|130:151,1,110,2|0,0:0|0:0,0:0:0:0:
130,83,32610,2,0,P|78:95|15:125,1,110,2|2,1:2|0:3,0:0:0:0:
49,259,33360,2,0,P|84:250|131:241,1,55,2|0,0:0|0:0,0:0:0:0:
173,251,33735,6,0,P|226:262|279:277,1,110,2|0,1:2|0:0,0:0:0:0:
345,304,34297,1,2,1:2:0:0:
491,146,34860,2,0,L|483:73,1,55,2|0,0:0|0:0,0:0:0:0:
436,38,35235,1,2,0:3:0:0:
333,137,35610,1,0,1:0:0:0:
230,36,35985,1,2,0:3:0:0:
104,101,36360,2,0,L|96:168,1,55,2|2,0:3|0:3,0:0:0:0:
133,219,36735,6,0,B|180:225|180:225|197:242|197:242|260:253,1,110,6|0,1:2|0:0,0:0:0:0:
299,280,37297,1,0,1:0:0:0:
282,69,37860,1,2,0:0:0:0:
282,69,38047,2,0,P|220:73|171:109,1,110
143,159,38610,2,0,P|83:150|17:149,1,110,2|2,0:0|0:3,0:0:0:0:
11,290,39360,2,0,B|6:324|6:324|18:355,1,55,2|0,0:0|0:0,0:0:0:0:
82,361,39735,6,0,L|208:349,1,110,2|0,1:2|0:0,0:0:0:0:
229,290,40297,1,2,1:2:0:0:
439,351,40860,1,0,0:0:0:0:
439,351,41047,1,0,0:0:0:0:
484,295,41235,2,0,B|497:261|497:261|489:174,1,110,2|0,0:3|1:0,0:0:0:0:
413,67,41985,1,2,0:3:0:0:
322,177,42360,2,0,B|312:149|312:149|314:111,1,55,2|0,0:0|0:0,0:0:0:0:
324,52,42735,6,0,B|284:59|284:59|257:76|257:76|215:82,1,110,6|0,1:2|0:0,0:0:0:0:
176,138,43297,1,2,1:2:0:0:
422,292,44047,1,2,0:0:0:0:
422,292,44235,2,0,P|364:292|300:310,1,110,2|0,0:0|0:0,0:0:0:0:
261,352,44797,2,0,L|185:345,1,55,2|2,1:2|0:3,0:0:0:0:
69,320,45360,1,2,0:0:0:0:
130,191,45735,6,0,L|120:79,1,110,2|0,1:2|1:0,0:0:0:0:
130,191,47235,6,0,L|120:79,1,110,2|0,1:2|1:0,0:0:0:0:
256,38,47985,2,0,P|262:97|265:152,1,110,2|2,0:0|0:0,0:0:0:0:
245,289,48735,6,0,B|365:288|338:352|459:353,1,220,2|2,0:0|0:0,0:0:0:0:
469,210,49860,2,0,B|476:133|476:133|441:94,1,110,2|2,0:0|0:0,0:0:0:0:
175,35,50985,1,2,0:0:0:0:
129,170,51360,1,2,0:0:0:0:
256,235,51735,6,0,B|137:239|177:325|48:317,1,220,2|2,0:0|0:0,0:0:0:0:
41,175,52860,2,0,P|93:157|174:165,1,110,2|2,0:0|0:0,0:0:0:0:
376,329,53985,1,2,0:0:0:0:
453,207,54360,2,0,L|456:140,1,55,2|2,0:0|0:0,0:0:0:0:
441,81,54735,6,0,B|330:77|356:164|225:155,1,220,2|2,0:0|0:0,0:0:0:0:
262,297,55860,2,0,P|339:292|390:284,1,110,2|2,0:0|0:0,0:0:0:0:
170,83,56985,2,0,P|165:143|181:213,1,110,10|0,1:2|0:0,0:0:0:0:
158,334,57735,6,0,P|98:337|32:356,2,110,6|10|10,1:2|0:0|0:0,0:0:0:0:
238,215,58860,1,10,0:0:0:0:
102,151,59235,2,0,B|72:113|80:80|80:80|114:50,1,110,6|0,1:2|1:0,0:0:0:0:
170,31,59797,2,0,L|233:21,1,55,8|8,0:0|0:0,0:0:0:0:
271,76,60172,2,0,L|334:66,1,55,8|8,0:0|0:0,0:0:0:0:
391,105,60547,1,8,0:0:0:0:
391,105,60735,6,0,P|402:152|413:241,2,110,4|2|8,1:2|1:2|0:0,0:0:0:0:
318,228,61860,2,0,P|322:255|331:295,1,55,2|8,0:0|0:0,0:0:0:0:
366,342,62235,2,0,P|311:322|242:337,1,110,2|2,1:2|1:2,0:0:0:0:
197,356,62797,1,2,0:0:0:0:
197,356,62985,1,8,0:0:0:0:
69,290,63360,1,2,0:2:0:0:
210,261,63735,6,0,P|200:197|192:115,1,110,2|0,1:2|1:0,0:0:0:0:
318,78,64485,2,0,P|327:141|335:223,1,110,10|0,0:0|0:0,0:0:0:0:
287,243,65047,1,10,0:0:0:0:
287,243,65235,2,0,B|281:264|281:264|288:297,2,55,2|8|2,1:2|0:0|1:2,0:0:0:0:
420,295,65985,2,0,B|426:315|426:315|419:348,2,55,10|0|2,0:0|0:0|0:0,0:0:0:0:
373,159,66735,6,0,P|318:162|256:173,2,110,6|2|10,1:2|1:2|0:0,0:0:0:0:
445,153,67672,2,0,L|449:91,1,55,0|2,0:0|0:0,0:0:0:0:
406,46,68047,1,8,0:0:0:0:
406,46,68235,2,0,P|359:32|280:52,2,110,2|2|8,1:2|1:2|0:0,0:0:0:0:
283,116,69360,1,2,0:0:0:0:
283,116,69547,1,8,0:0:0:0:
214,136,69735,6,0,P|208:183|222:245,2,110,2|2|14,1:2|1:2|0:0,0:0:0:0:
223,64,70672,2,0,L|223:-8,1,55,0|2,1:0|0:2,0:0:0:0:
353,68,71235,2,0,B|394:64|434:76|434:76|469:68,2,110,10|10|0,0:0|0:0|1:0,0:0:0:0:
294,109,72172,2,0,B|278:133|278:133|288:224,1,110,12|8,0:0|0:0,0:0:0:0:
233,261,72735,6,0,B|187:266|182:299|110:296,2,110,2|2|12,1:2|1:2|0:0,0:0:0:0:
372,294,73860,2,0,B|383:267|383:267|371:222,1,55,0|8,0:0|0:0,0:0:0:0:
334,184,74235,2,0,P|326:128|328:60,2,110,2|0|8,1:2|1:0|0:0,0:0:0:0:
403,59,75360,1,2,0:0:0:0:
263,27,75735,6,0,P|224:62|254:150,1,110,2|0,1:2|1:0,0:0:0:0:
314,226,76485,2,0,P|319:171|323:116,1,110,10|0,0:0|0:0,0:0:0:0:
463,87,77235,2,0,P|481:60|490:-5,2,73.3333333333333,6|10|10,1:2|0:0|0:0,0:0:0:0:
390,149,77985,2,0,L|302:136,2,73.3333333333333,2|10|10,1:2|0:3|0:3,0:0:0:0:
477,185,78735,5,6,1:2:0:0:
220,312,79485,2,0,P|161:321|85:305,2,110,2|2|2,0:0|0:0|0:0,0:0:0:0:
322,125,80797,1,8,0:0:0:0:
322,125,80985,2,0,P|338:176|336:216,1,55,2|8,1:2|0:0,0:0:0:0:
314,244,81360,2,0,L|253:257,1,55,8|8,0:0|0:0,0:0:0:0:
201,296,81735,6,0,P|152:294|89:325,2,110,4|2|8,1:2|1:2|0:0,0:0:0:0:
329,359,82860,2,0,B|402:352,1,55,0|10,0:0|0:0,0:0:0:0:
414,289,83235,1,0,1:0:0:0:
428,147,83610,2,0,B|375:148|372:129|303:131,1,110,2|10,1:2|0:0,0:0:0:0:
226,22,84360,2,0,L|146:33,1,55,2|8,0:0|0:0,0:0:0:0:
119,79,84735,6,0,L|134:225,2,110,2|2|8,1:2|1:2|0:0,0:0:0:0:
218,182,85860,2,0,P|215:209|211:238,1,55,2|8,0:0|0:0,0:0:0:0:
259,289,86235,2,0,P|286:286|319:281,2,55,2|10|2,1:2|0:0|1:2,0:0:0:0:
120,252,86985,2,0,P|93:249|60:244,2,55,10|8|2,0:0|0:0|1:2,0:0:0:0:
153,112,87735,6,0,P|212:91|257:99,2,110,6|2|10,1:2|1:2|0:0,0:0:0:0:
138,254,88860,2,0,P|140:295|147:324,1,55,2|10,0:0|0:0,0:0:0:0:
207,339,89235,1,2,1:2:0:0:
275,213,89610,2,0,P|281:158|268:105,1,110,2|8,1:2|0:0,0:0:0:0:
132,63,90360,1,2,0:0:0:0:
44,176,90735,6,0,P|45:226|61:303,2,110,6|8|8,1:2|0:0|0:0,0:0:0:0:
166,101,91860,2,0,P|171:128|173:155,1,55,2|0,0:0|1:0,0:0:0:0:
165,226,92235,2,0,L|295:208,1,110,8|8,0:0|0:0,0:0:0:0:
404,270,92985,2,0,B|414:300|414:300|403:338,1,55,4|8,1:2|0:0,0:0:0:0:
339,300,93360,1,8,0:3:0:0:
256,192,93453,12,2,96735,0:0:0:0:
337,276,107797,5,8,0:0:0:0:
337,276,107985,2,0,L|268:271,1,55,8|8,0:0|0:0,0:0:0:0:
224,314,108360,1,8,0:3:0:0:
82,292,108735,6,0,B|59:265|59:265|54:226|58:175,1,110,4|2,1:2|0:0,0:0:0:0:
114,148,109297,2,0,P|112:111|109:71,1,55,0|8,1:0|0:0,0:0:0:0:
246,40,109860,1,2,1:2:0:0:
246,40,110047,2,0,L|240:180,1,110,2|8,1:2|0:0,0:0:0:0:
224,219,110610,2,0,P|180:222|112:234,1,110,0|8,1:0|0:0,0:0:0:0:
192,354,111360,2,0,L|289:348,1,55,2|8,0:0|0:0,0:0:0:0:
311,320,111735,6,0,P|327:265|302:205,1,110,2|0,1:2|0:0,0:0:0:0:
268,159,112297,2,0,L|252:88,1,55,2|8,1:2|0:0,0:0:0:0:
126,42,112860,2,0,P|130:70|133:102,1,55,0|0,0:0|1:0,0:0:0:0:
100,160,113235,2,0,L|22:171,2,55,0|8|0,1:0|0:0|1:0,0:0:0:0:
227,95,113985,2,0,P|292:96|338:97,1,110,10|2,0:0|0:0,0:0:0:0:
395,146,114547,1,8,0:0:0:0:
395,146,114735,6,0,P|408:195|396:275,1,110,6|2,1:2|0:0,0:0:0:0:
386,323,115297,2,0,L|313:316,1,55,2|8,1:2|0:0,0:0:0:0:
120,323,116047,1,2,1:2:0:0:
120,323,116235,2,0,L|111:230,1,55,2|8,1:2|0:0,0:0:0:0:
174,228,116610,2,0,P|169:171|160:112,1,110,2|8,1:2|0:0,0:0:0:0:
268,23,117360,2,0,L|330:21,1,55,2|8,0:0|0:0,0:0:0:0:
382,60,117735,6,0,P|402:119|381:184,1,110,2|0,1:2|1:0,0:0:0:0:
147,312,118860,1,2,0:0:0:0:
212,185,119235,6,0,P|161:165|107:173,1,110,2|0,1:2|1:0,0:0:0:0:
59,237,120735,6,0,B|43:283|67:345|67:345|150:319|160:270,1,220,2|2,0:0|0:0,0:0:0:0:
140,142,121860,2,0,B|80:128|14:164,1,110,2|2,0:0|0:0,0:0:0:0:
309,82,122985,1,2,0:0:0:0:
216,191,123360,1,0,0:0:0:0:
216,191,123735,6,0,P|140:173|112:298,1,220,2|2,0:0|0:0,0:0:0:0:
226,355,124860,1,2,0:0:0:0:
354,292,125235,1,2,0:0:0:0:
248,27,125985,1,2,0:0:0:0:
215,166,126360,2,0,L|222:220,1,55,0|2,0:0|0:0,0:0:0:0:
185,282,126735,6,0,B|151:303|98:316|98:316|53:251|60:180,1,220,2|2,0:0|0:0,0:0:0:0:
163,119,127860,2,0,P|106:118|47:108,1,110,2|2,0:0|0:0,0:0:0:0:
331,42,128985,1,2,1:2:0:0:
390,172,129360,1,0,0:0:0:0:
322,297,129735,6,0,P|262:300|196:319,1,110,6|10,1:2|0:0,0:0:0:0:
103,221,130485,2,0,P|156:233|211:236,1,110,2|10,1:2|0:0,0:0:0:0:
300,124,131235,2,0,B|307:98|307:98|291:54,2,55,6|8|0,1:2|0:0|1:0,0:0:0:0:
253,178,131797,1,10,0:0:0:0:
253,178,131985,2,0,L|172:173,1,55,8|8,0:0|0:0,0:0:0:0:
133,144,132360,2,0,B|125:116|125:116|134:74,1,55,10|8,0:0|0:0,0:0:0:0:
151,22,132735,6,0,L|280:35,1,110,6|2,1:2|1:2,0:0:0:0:
399,66,133485,2,0,P|419:120|367:185,1,110,10|0,0:0|0:0,0:0:0:0:
349,216,134047,1,8,0:0:0:0:
349,216,134235,2,0,P|349:251|357:310,2,55,2|8|0,1:2|0:0|1:0,0:0:0:0:
235,128,134985,2,0,P|162:123|83:120,1,110,10|0,0:0|0:0,0:0:0:0:
145,262,135735,6,0,P|218:267|297:270,1,110,2|0,1:2|1:0,0:0:0:0:
199,136,136485,1,10,0:2:0:0:
80,216,136860,1,0,0:0:0:0:
158,335,137235,2,0,L|219:331,1,55,2|8,1:2|0:0,0:0:0:0:
213,259,137610,2,0,P|160:262|99:268,1,110,0|10,1:0|0:2,0:0:0:0:
28,144,138360,1,0,0:0:0:0:
132,45,138735,5,6,1:2:0:0:
270,80,139110,1,2,1:2:0:0:
412,68,139485,2,0,P|437:115|424:167,2,110,10|2|0,0:0|0:0|1:0,0:0:0:0:
367,125,140422,1,8,0:0:0:0:
367,125,140610,2,0,P|310:127|246:129,1,110,0|8,1:0|0:0,0:0:0:0:
139,46,141360,1,2,0:0:0:0:
153,188,141735,6,0,P|163:299|168:316,1,110,2|2,1:2|1:2,0:0:0:0:
301,347,142485,1,12,0:2:0:0:
301,347,142672,2,0,P|313:292|327:235,1,110,0|0,1:0|1:0,0:0:0:0:
344,170,143235,2,0,P|342:102|330:42,1,110,14|10,0:2|0:2,0:0:0:0:
196,25,143985,2,0,B|158:23|158:23|121:38,2,73.3333333333333,4|8|8,1:2|0:0|0:0,0:0:0:0:
237,111,144735,6,0,B|226:149|230:195,2,73.3333333333333,6|2|2,1:2|0:0|0:0,0:0:0:0:
313,53,145485,2,0,P|361:74|373:126,1,110,14|0,0:0|0:0,0:0:0:0:
341,266,146235,2,0,P|339:294|342:340,2,73.3333333333333,2|2|2,1:2|0:0|0:0,0:0:0:0:
422,215,146985,2,0,P|431:269|427:333,1,110,10|0,0:0|0:0,0:0:0:0:
288,353,147735,6,0,P|253:359|214:362,2,73.3333333333333,0|2|2,1:0|0:0|0:0,0:0:0:0:
352,282,148485,2,0,B|359:256|359:256|349:191,2,73.3333333333333,10|2|2,0:0|0:0|0:0,0:0:0:0:
425,342,149235,2,0,L|530:320,2,73.3333333333333,6|10|10,1:2|0:0|0:0,0:0:0:0:
343,291,149985,2,0,P|314:296|253:310,2,73.3333333333333,2|10|10,1:2|0:3|0:3,0:0:0:0:
395,211,150735,5,6,1:2:0:0:
256,192,150828,12,0,158235,0:0:0:0:
128,111,162735,5,2,0:3:0:0:
128,111,163485,5,2,0:3:0:0:
128,111,164235,1,2,0:3:0:0:
281,118,164610,1,2,0:3:0:0:
272,271,164985,1,2,0:3:0:0:
272,271,165735,5,6,1:2:0:0:
73,69,176985,6,0,B|184:62|161:157|284:143,1,220,2|0,0:0|0:0,0:0:0:0:
271,144,178485,2,0,P|234:148|202:165,2,73.3333333333333,4|8|8,1:2|0:0|0:0,0:0:0:0:
361,175,179235,6,0,L|358:304,1,110,2|0,1:2|1:0,0:0:0:0:
310,337,179797,2,0,P|275:344|236:348,1,55,2|10,0:0|0:0,0:0:0:0:
112,338,180360,1,2,0:0:0:0:
217,241,180735,6,0,B|236:188|236:188|224:134,1,110,2|2,1:2|1:2,0:0:0:0:
122,36,181485,2,0,B|102:88|102:88|114:142,1,110,10|2,0:0|0:0,0:0:0:0:
162,201,182047,1,8,0:0:0:0:
162,201,182235,2,0,P|173:222|173:254,2,55,6|8|2,1:2|0:0|1:2,0:0:0:0:
86,322,182985,2,0,P|85:349|97:373,2,55,10|0|2,0:0|0:0|0:0,0:0:0:0:
228,338,183735,6,0,P|289:321|366:310,2,110,2|2|8,1:2|1:2|0:0,0:0:0:0:
216,267,184672,2,0,L|203:203,1,55,2|2,0:0|0:0,0:0:0:0:
249,158,185047,1,8,0:0:0:0:
249,158,185235,6,0,P|309:147|384:126,2,110,2|2|10,1:2|1:2|0:0,0:0:0:0:
153,58,186360,1,2,0:0:0:0:
153,58,186547,1,10,0:0:0:0:
84,79,186735,6,0,P|91:133|106:186,1,110,12|12,0:0|0:0,0:0:0:0:
150,322,187485,2,0,B|207:315|207:315|263:303,2,110,4|0|6,1:2|0:0|1:2,0:0:0:0:
194,185,188610,2,0,B|200:182|200:182|252:168|312:200,1,110,2|0,1:2|1:0,0:0:0:0:
319,263,189172,2,0,B|376:261|365:302|444:294,1,110,6|8,0:0|0:0,0:0:0:0:
467,238,189735,6,0,P|472:194|469:126,2,110,6|0|12,1:2|1:0|0:0,0:0:0:0:
401,223,190672,1,0,0:0:0:0:
401,223,190860,2,0,L|336:220,1,55,2|8,0:0|0:0,0:0:0:0:
301,164,191235,2,0,P|280:103|299:61,2,110,2|0|10,1:2|1:0|0:0,0:0:0:0:
376,285,192360,1,0,0:0:0:0:
244,341,192735,6,0,B|202:353|202:353|124:352,1,110,2|0,1:2|1:0,0:0:0:0:
69,224,193485,2,0,P|62:168|69:114,1,110,10|0,0:0|0:0,0:0:0:0:
205,73,194235,2,0,P|223:46|232:-19,2,73.3333333333333,6|10|10,1:2|0:0|0:0,0:0:0:0:
165,159,194985,2,0,L|177:257,2,73.3333333333333,2|10|10,1:2|0:3|0:3,0:0:0:0:
260,159,195735,5,4,1:2:0:0:
478,342,196485,2,0,P|419:351|343:335,1,110,2|2,0:0|0:0,0:0:0:0:
354,202,197235,1,2,0:0:0:0:
225,36,197797,1,2,0:0:0:0:
225,36,197985,2,0,L|217:101,1,55,2|2,0:0|0:0,0:0:0:0:
193,157,198360,6,0,B|78:222|136:351|136:351|235:246|334:295,1,412.500015735627,2|0,0:0|0:0,0:0:0:0:
434,237,200610,2,0,B|443:206|443:206|428:154,2,55,8|8|8,0:3|0:0|0:0,0:0:0:0:
370,205,201172,1,8,0:0:0:0:
367,201,201360,2,0,L|360:130,1,55,8|8,0:0|0:0,0:0:0:0:
320,87,201735,6,0,P|282:88|196:95,2,110,4|2|8,1:2|1:2|0:0,0:0:0:0:
326,230,202860,2,0,L|251:233,1,55,0|10,0:0|0:0,0:0:0:0:
212,191,203235,1,0,1:0:0:0:
69,196,203610,2,0,B|61:174|61:174|54:130|57:78,1,110,2|10,1:2|0:0,0:0:0:0:
193,40,204360,1,2,0:0:0:0:
193,40,204547,1,8,0:0:0:0:
264,35,204735,6,0,P|299:75|293:157,2,110,2|2|8,1:2|1:2|0:0,0:0:0:0:
241,176,205860,1,2,0:0:0:0:
321,295,206235,6,0,P|348:292|457:297,1,110,2|2,1:2|1:2,0:0:0:0:
479,158,206985,2,0,P|446:160|402:158,1,55,10|0,0:0|0:0,0:0:0:0:
360,126,207360,1,2,1:2:0:0:
357,122,207547,1,8,0:0:0:0:
293,155,207735,6,0,P|250:156|167:147,2,110,6|2|10,1:2|1:2|0:0,0:0:0:0:
388,261,208860,2,0,B|396:288|396:288|384:332,1,55,2|10,0:0|0:0,0:0:0:0:
322,287,209235,1,2,1:2:0:0:
191,346,209610,2,0,P|178:292|185:238,1,110,2|8,1:2|0:0,0:0:0:0:
214,101,210360,1,2,0:0:0:0:
214,101,210547,1,8,0:0:0:0:
279,129,210735,6,0,B|287:160|287:160|273:198,1,55,2|0,1:2|1:0,0:0:0:0:
272,253,211110,2,0,P|215:247|146:241,1,110,8|8,0:0|0:0,0:0:0:0:
60,342,211860,2,0,P|87:339|114:334,1,55,0|0,0:0|1:0,0:0:0:0:
185,322,212235,2,0,P|235:327|299:337,1,110,8|10,0:0|0:0,0:0:0:0:
431,294,212985,2,0,B|437:271|437:271|429:238,1,55,2|8,1:2|0:0,0:0:0:0:
399,175,213360,1,8,0:3:0:0:
256,192,213453,12,0,219735,0:0:0:0:
