osu file format v14

[General]
AudioFilename: audio.mp3
AudioLeadIn: 0
PreviewTime: 165172
Countdown: 0
SampleSet: Soft
StackLeniency: 0.7
Mode: 0
LetterboxInBreaks: 0
WidescreenStoryboard: 0

[Editor]
Bookmarks: 12735,24735,48735,60735,81735,96735,120735,132735,177735,201735
DistanceSpacing: 1.3
BeatDivisor: 4
GridSize: 32
TimelineZoom: 1.5

[Metadata]
Title:Aoi Yume
TitleUnicode:青い夢
Artist:AZKi
ArtistUnicode:AZKi
Creator:domSaur
Version:Insane
Source:
Tags:inonaka music innk hololive ホロライブ virtual diva youtuber vtuber pop japanese
BeatmapID:2542939
BeatmapSetID:1222587

[Difficulty]
HPDrainRate:6
CircleSize:4
OverallDifficulty:8
ApproachRate:8
SliderMultiplier:2.7
SliderTickRate:1

[Events]
//Background and Video events
0,0,"nayuta.jpg",0,0
//Break Periods
2,165935,176235
//Storyboard Layer 0 (Background)
//Storyboard Layer 1 (Fail)
//Storyboard Layer 2 (Pass)
//Storyboard Layer 3 (Foreground)
//Storyboard Layer 4 (Overlay)
//Storyboard Sound Samples

[TimingPoints]
735,750,4,2,1,40,1,0
12735,-111.111111111111,4,2,1,40,0,0
24735,-100,4,2,1,50,0,0
48735,-111.111111111111,4,2,1,40,0,0
56985,-499.999999999997,4,2,1,50,0,0
57735,-83.3333333333333,4,2,1,50,0,0
60735,-76.9230769230769,4,2,1,70,0,0
72172,-200,4,2,1,70,0,0
72735,-76.9230769230769,4,2,1,70,0,0
78735,-133.333333333333,4,2,1,45,0,0
81735,-100,4,2,1,50,0,0
96735,-111.111111111111,4,2,1,40,0,0
108735,-100,4,2,1,50,0,0
120735,-111.111111111111,4,2,1,40,0,0
128985,-499.999999999997,4,2,1,40,0,0
129735,-83.3333333333333,4,2,1,40,0,0
132735,-76.9230769230769,4,2,1,70,0,0
152985,-133.333333333333,4,2,1,70,0,0
158985,-500,4,2,1,40,0,0
165169,-76.9230769230769,4,2,1,40,0,0
176985,-76.9230769230769,4,2,1,50,0,0
178485,-76.9230769230769,4,2,1,60,0,0
179235,-76.9230769230769,4,2,1,70,0,0
189172,-200,4,2,1,70,0,0
189735,-76.9230769230769,4,2,1,70,0,0
195735,-133.333333333333,4,2,1,70,0,0
201735,-100,4,2,1,60,0,0
219735,-100,4,2,1,10,0,0

[Colours]
Combo1 : 255,94,55
Combo2 : 173,255,95
Combo3 : 17,254,176
Combo4 : 255,88,100

[HitObjects]
53,110,12735,6,0,B|126:106|107:144|185:131,1,121.499996292114,0|0,1:0|0:0,0:0:0:0:
253,82,13297,2,0,B|259:50|259:50|241:10,1,60.7499981460572,2|2,1:2|0:3,0:0:0:0:
401,164,13860,1,2,0:0:0:0:
353,91,14047,1,0,0:0:0:0:
291,162,14235,2,0,B|260:198|272:245|272:245|317:274,1,121.499996292114,2|2,0:0|0:0,0:0:0:0:
389,338,14797,2,0,L|401:273,1,60.7499981460572,0|2,1:0|0:3,0:0:0:0:
439,126,15360,1,2,0:0:0:0:
361,56,15547,1,2,0:0:0:0:
460,135,15735,6,0,L|328:158,1,121.499996292114,2|2,1:2|0:0,0:0:0:0:
333,161,16297,2,0,L|265:156,1,60.7499981460572,0|2,1:0|0:3,0:0:0:0:
187,116,16672,1,0,0:0:0:0:
114,164,16860,2,0,L|124:233,2,60.7499981460572,2|0|2,0:0|0:0|0:3,0:0:0:0:
132,54,17422,1,0,0:0:0:0:
117,228,17610,2,0,P|111:292|102:368,1,121.499996292114,0|2,1:0|0:3,0:0:0:0:
217,320,18172,1,0,0:0:0:0:
296,364,18360,1,2,0:3:0:0:
375,337,18547,1,2,0:3:0:0:
300,280,18735,6,0,P|280:219|298:151,1,121.499996292114,2|2,1:2|0:0,0:0:0:0:
409,115,19297,2,0,L|324:105,1,60.7499981460572,2|2,1:2|0:3,0:0:0:0:
347,101,19860,1,2,0:0:0:0:
254,99,20047,1,2,0:0:0:0:
166,160,20235,2,0,B|140:103|140:103|164:29,1,121.499996292114,0|0,0:0|0:3,0:0:0:0:
45,15,20797,2,0,L|50:85,1,60.7499981460572,0|2,1:0|0:3,0:0:0:0:
78,279,21360,1,2,0:0:0:0:
136,202,21547,1,2,0:0:0:0:
66,290,21735,6,0,L|76:354,1,60.7499981460572,0|0,1:0|0:0,0:0:0:0:
163,325,22110,1,2,0:0:0:0:
231,220,22297,2,0,P|181:184|106:204,1,121.499996292114,0|0,1:0|0:0,0:0:0:0:
264,309,22860,2,0,L|325:320,1,60.7499981460572,2|0,0:0|0:0,0:0:0:0:
484,291,23235,1,2,0:3:0:0:
412,353,23422,1,0,1:0:0:0:
339,207,23610,1,0,1:0:0:0:
335,199,23985,2,0,P|374:208|395:231,1,60.7499981460572,2|0,0:3|0:0,0:0:0:0:
420,344,24360,1,2,0:3:0:0:
298,301,24547,1,2,0:3:0:0:
150,310,24735,6,0,P|78:326|7:367,1,135,6|2,1:2|0:0,0:0:0:0:
71,246,25297,2,0,P|74:207|81:169,1,67.5,2|2,1:2|0:3,0:0:0:0:
210,109,25860,1,2,0:0:0:0:
146,48,26047,2,0,L|141:12,2,33.75,2|0|0,0:0|0:0|0:0,0:0:0:0:
217,120,26422,1,0,1:0:0:0:
311,81,26610,1,2,0:3:0:0:
393,139,26797,1,0,0:0:0:0:
297,173,26985,2,0,L|314:319,1,135,2|0,0:3|0:0,0:0:0:0:
384,242,27547,1,2,0:0:0:0:
225,311,27735,6,0,B|177:317|177:317|144:345|144:345|73:356,1,135,0|0,1:0|0:0,0:0:0:0:
13,278,28297,2,0,L|82:262,1,67.5,2|2,1:2|0:3,0:0:0:0:
39,110,28860,2,0,P|36:145|51:174,1,67.5,2|0,0:0|0:0,0:0:0:0:
63,181,29235,2,0,P|70:212|76:248,1,67.5,2|0,0:3|1:0,0:0:0:0:
189,353,29610,2,0,B|122:359|120:332|54:337,1,135,0|2,1:0|0:3,0:0:0:0:
258,265,30360,1,2,0:0:0:0:
363,316,30547,1,2,0:3:0:0:
190,364,30735,6,0,P|180:298|169:221,1,135,6|0,1:2|0:0,0:0:0:0:
328,244,31297,2,0,L|259:258,1,67.5,2|2,1:2|0:3,0:0:0:0:
265,248,31860,1,2,0:0:0:0:
358,351,32047,2,0,P|289:341|220:335,1,135,2|0,0:0|0:0,0:0:0:0:
95,316,32610,1,2,1:2:0:0:
51,239,32797,1,0,1:0:0:0:
167,284,32985,2,0,P|115:296|79:315,1,67.5,2|0,0:3|0:0,0:0:0:0:
41,232,33360,2,0,L|20:146,1,67.5,2|0,0:0|0:0,0:0:0:0:
144,26,33735,6,0,P|130:76|112:163,1,135,2|0,1:2|0:0,0:0:0:0:
119,164,34297,2,0,L|139:241,1,67.5,2|2,1:2|0:3,0:0:0:0:
233,365,34860,1,2,0:0:0:0:
197,291,35047,1,0,0:0:0:0:
254,227,35235,2,0,L|270:161,1,67.5,2|0,0:3|1:0,0:0:0:0:
341,36,35610,2,0,P|346:71|353:120,1,67.5,0|0,1:0|0:0,0:0:0:0:
446,125,35985,1,2,0:3:0:0:
367,186,36172,1,0,1:0:0:0:
260,130,36360,1,2,0:3:0:0:
146,70,36547,1,2,0:3:0:0:
47,133,36735,6,0,L|64:273,1,135,6|0,1:2|0:0,0:0:0:0:
134,343,37297,2,0,B|149:315|149:315|142:263,1,67.5,0|2,1:0|0:3,0:0:0:0:
298,350,37860,2,0,L|336:358,6,22.5,2|0|0|0|0|0|0,0:0|0:0|0:0|0:0|0:0|0:0|0:0,0:0:0:0:
250,288,38422,1,0,0:0:0:0:
316,217,38610,1,2,0:0:0:0:
239,133,38797,1,0,1:0:0:0:
309,18,38985,1,2,0:3:0:0:
305,27,39360,2,0,P|302:67|321:104,1,67.5,2|0,0:0|0:0,0:0:0:0:
440,146,39735,6,0,P|364:143|322:195,1,135,2|0,1:2|0:0,0:0:0:0:
444,248,40297,2,0,L|368:236,1,67.5,2|2,1:2|0:3,0:0:0:0:
369,243,40860,1,0,0:0:0:0:
263,223,41047,1,0,0:0:0:0:
92,292,41235,2,0,L|-1:284,1,67.5,2|0,0:3|1:0,0:0:0:0:
157,355,41610,2,0,L|228:350,1,67.5,0|0,1:0|0:0,0:0:0:0:
88,215,41985,2,0,B|76:253|76:253|93:299,1,67.5,2|0,0:3|0:0,0:0:0:0:
224,206,42360,1,2,0:0:0:0:
147,88,42547,1,0,0:0:0:0:
153,164,42735,6,0,B|210:157|210:157|237:140|237:140|299:133,1,135,6|0,1:2|0:0,0:0:0:0:
368,90,43297,1,2,1:2:0:0:
459,211,44047,1,2,0:0:0:0:
364,182,44235,2,0,P|327:195|297:231,1,67.5,2|0,0:0|0:0,0:0:0:0:
227,195,44610,1,0,0:0:0:0:
251,275,44797,2,0,L|271:344,1,67.5,2|2,1:2|0:3,0:0:0:0:
219,191,45360,1,2,0:0:0:0:
259,98,45547,1,0,0:0:0:0:
183,36,45735,6,0,L|45:61,1,135,2|0,1:2|1:0,0:0:0:0:
50,60,46860,1,2,0:0:0:0:
237,98,47235,6,0,L|101:128,1,135,2|0,1:2|1:0,0:0:0:0:
181,152,47985,1,2,0:0:0:0:
232,214,48172,1,0,0:0:0:0:
185,281,48360,2,0,L|99:269,1,67.5,2|0,0:0|0:0,0:0:0:0:
21,320,48735,6,0,P|66:281|142:289,1,121.499996292114,2|0,0:0|0:0,0:0:0:0:
251,312,49297,2,0,P|246:345|245:378,1,60.7499981460572,2|2,0:0|0:0,0:0:0:0:
201,250,49860,2,0,P|194:183|188:123,1,121.499996292114,2|2,0:0|0:0,0:0:0:0:
163,35,50985,2,0,P|139:51|88:61,1,60.7499981460572,2|0,0:0|0:0,0:0:0:0:
14,124,51360,2,0,P|43:133|69:150,1,60.7499981460572,2|0,0:0|0:0,0:0:0:0:
199,228,51735,6,0,P|150:226|89:279,1,121.499996292114,2|0,0:0|0:0,0:0:0:0:
133,341,52297,1,2,0:0:0:0:
274,196,52485,2,0,P|230:155|165:158,2,121.499996292114,2|2|2,0:0|0:0|0:0,0:0:0:0:
174,50,53985,2,0,B|165:81|165:81|185:173,1,121.499996292114,2|2,0:0|0:0,0:0:0:0:
201,278,54547,1,2,0:0:0:0:
242,359,54735,6,0,L|120:344,1,121.499996292114,2|0,0:0|0:0,0:0:0:0:
227,245,55485,2,0,L|299:234,1,60.7499981460572,2|0,0:0|0:0,0:0:0:0:
401,304,55860,2,0,P|366:289|337:287,1,60.7499981460572,2|0,0:0|0:0,0:0:0:0:
316,167,56235,1,2,0:0:0:0:
158,32,56985,6,0,P|149:59|155:76,1,47.25,10|0,1:2|0:0,0:0:0:0:
225,106,57735,6,0,L|130:121,1,80.9999975280763,6|0,1:2|0:0,0:0:0:0:
309,189,58110,2,0,L|408:197,1,80.9999975280763,10|0,0:0|0:0,0:0:0:0:
229,330,58485,2,0,P|215:274|214:226,1,80.9999975280763,10|0,0:0|0:0,0:0:0:0:
312,106,58860,2,0,P|326:162|327:210,1,80.9999975280763,10|0,0:0|0:0,0:0:0:0:
202,247,59235,5,6,1:2:0:0:
162,107,59422,1,8,0:0:0:0:
300,61,59610,1,0,1:0:0:0:
347,198,59797,1,8,0:0:0:0:
347,209,59891,1,8,0:0:0:0:
347,219,59985,1,8,0:0:0:0:
252,154,60172,5,8,0:0:0:0:
345,47,60360,1,8,0:0:0:0:
472,104,60547,1,8,0:0:0:0:
431,284,60735,6,0,P|384:296|333:317,1,87.749995983124,4|0,1:2|0:0,0:0:0:0:
158,233,61110,2,0,P|210:243|255:262,1,87.749995983124,2|0,1:2|0:0,0:0:0:0:
323,190,61485,1,8,0:0:0:0:
168,365,61672,1,2,0:0:0:0:
222,286,61860,1,2,0:0:0:0:
141,171,62047,1,8,0:0:0:0:
141,171,62141,1,8,0:0:0:0:
141,171,62235,2,0,L|127:67,1,87.749995983124,2|8,1:2|0:0,0:0:0:0:
260,25,62610,1,2,1:2:0:0:
214,97,62797,1,2,0:0:0:0:
345,155,62985,1,8,0:0:0:0:
345,161,63360,1,2,0:2:0:0:
254,255,63547,1,8,0:0:0:0:
254,255,63641,1,8,0:0:0:0:
254,255,63735,6,0,L|264:361,1,87.749995983124,2|0,1:2|0:0,0:0:0:0:
344,167,64110,2,0,L|335:79,1,87.749995983124,0|0,1:0|0:0,0:0:0:0:
208,24,64485,2,0,P|140:51|139:158,1,175.499991966248,10|0,0:0|0:0,0:0:0:0:
213,221,65047,1,10,0:0:0:0:
213,221,65141,1,8,0:0:0:0:
213,221,65235,1,2,1:2:0:0:
312,192,65422,1,8,0:0:0:0:
119,151,65610,2,0,B|85:148|85:148|54:153|17:168,1,87.749995983124,2|0,1:2|0:0,0:0:0:0:
167,294,65985,1,10,0:0:0:0:
213,221,66172,1,0,0:0:0:0:
176,71,66360,1,2,0:0:0:0:
96,39,66547,1,8,0:0:0:0:
96,39,66641,1,8,0:0:0:0:
96,39,66735,6,0,P|46:26|-9:25,1,87.749995983124,6|0,1:2|0:0,0:0:0:0:
181,86,67110,2,0,L|284:73,1,87.749995983124,2|0,1:2|0:0,0:0:0:0:
353,33,67485,1,10,0:0:0:0:
468,146,67672,1,0,0:0:0:0:
377,119,67860,1,2,0:0:0:0:
317,224,68047,1,8,0:0:0:0:
317,224,68141,1,8,0:0:0:0:
317,224,68235,2,0,P|364:210|413:200,1,87.749995983124,2|8,1:2|0:0,0:0:0:0:
484,254,68610,1,2,1:2:0:0:
357,317,68797,1,0,0:0:0:0:
458,357,68985,1,8,0:0:0:0:
463,350,69360,1,2,0:0:0:0:
254,317,69547,1,8,0:0:0:0:
253,316,69641,1,8,0:0:0:0:
253,316,69735,6,0,L|241:212,1,87.749995983124,2|0,1:2|0:0,0:0:0:0:
376,142,70110,2,0,L|373:232,1,87.749995983124,2|0,1:2|0:0,0:0:0:0:
266,131,70485,1,14,0:0:0:0:
355,39,70672,2,0,P|398:28|444:22,1,87.749995983124,0|2,1:0|0:2,0:0:0:0:
372,133,71047,1,0,1:0:0:0:
249,26,71235,2,0,B|222:23|222:23|193:26|159:36,1,87.749995983124,10|2,0:0|1:2,0:0:0:0:
51,94,71610,2,0,P|136:78|195:156,1,175.499991966248,10|0,0:0|1:0,0:0:0:0:
132,195,72172,6,0,P|125:229|141:264,1,67.5,12|8,0:0|0:0,0:0:0:0:
221,230,72641,1,8,0:0:0:0:
221,230,72735,6,0,P|175:235|139:274,1,87.749995983124,2|0,1:2|0:0,0:0:0:0:
296,367,73110,2,0,P|314:324|298:273,1,87.749995983124,2|0,1:2|0:0,0:0:0:0:
201,348,73485,1,12,0:0:0:0:
297,203,73672,1,2,0:0:0:0:
380,242,73860,1,0,0:0:0:0:
457,182,74047,1,8,0:0:0:0:
457,182,74141,1,8,0:0:0:0:
457,182,74235,2,0,L|441:80,1,87.749995983124,2|8,1:2|0:0,0:0:0:0:
289,49,74610,2,0,L|302:135,1,87.749995983124,0|0,1:0|0:0,0:0:0:0:
376,32,74985,1,8,0:0:0:0:
379,40,75360,1,2,0:0:0:0:
213,106,75547,1,8,0:0:0:0:
213,106,75641,1,8,0:0:0:0:
213,106,75735,6,0,P|187:53|200:8,1,87.749995983124,2|0,1:2|0:0,0:0:0:0:
326,160,76110,2,0,L|228:187,1,87.749995983124,0|0,1:0|0:0,0:0:0:0:
123,240,76485,2,0,B|207:231|202:296|294:297,1,175.499991966248,10|0,0:0|0:0,0:0:0:0:
418,187,77047,1,8,0:0:0:0:
418,187,77141,1,8,0:0:0:0:
418,187,77235,6,0,P|436:160|447:118,1,58.4999973220826,6|0,1:2|0:0,0:0:0:0:
340,212,77485,2,0,P|308:208|266:220,1,58.4999973220826,10|0,0:0|0:0,0:0:0:0:
400,269,77735,2,0,P|413:298|444:328,1,58.4999973220826,10|0,0:0|0:0,0:0:0:0:
451,150,77985,6,0,P|424:138|389:136,1,58.4999973220826,2|0,1:2|0:0,0:0:0:0:
314,76,78235,2,0,P|284:73|250:84,1,58.4999973220826,10|0,0:3|0:0,0:0:0:0:
159,61,78485,2,0,P|130:69|102:90,1,58.4999973220826,10|0,0:3|0:0,0:0:0:0:
42,161,78735,5,6,1:2:0:0:
47,167,79485,2,0,P|41:133|33:109,1,50.6250019311906,2|0,0:0|0:0,0:0:0:0:
116,218,79860,2,0,P|122:252|130:276,1,50.6250019311906,2|0,0:0|0:0,0:0:0:0:
185,149,80235,1,2,0:0:0:0:
389,75,80797,1,8,0:0:0:0:
389,75,80891,1,8,0:0:0:0:
389,75,80985,1,2,1:2:0:0:
440,249,81172,1,8,0:0:0:0:
261,208,81360,1,8,0:0:0:0:
363,169,81547,1,8,0:0:0:0:
454,261,81735,6,0,P|419:263|374:288,1,67.5,4|0,1:2|0:0,0:0:0:0:
255,336,82110,2,0,P|288:340|321:347,1,67.5,2|0,1:2|0:0,0:0:0:0:
164,243,82485,2,0,B|141:279|141:279|177:400,1,135,8|0,0:0|0:0,0:0:0:0:
221,187,83047,1,10,0:0:0:0:
147,48,83235,1,0,1:0:0:0:
95,134,83422,1,8,0:0:0:0:
155,39,83610,2,0,P|111:30|76:22,1,67.5,2|0,1:2|0:0,0:0:0:0:
17,86,83985,1,10,0:0:0:0:
237,20,84360,1,2,0:0:0:0:
318,74,84547,1,8,0:0:0:0:
424,16,84735,6,0,P|452:34|465:80,1,67.5,2|0,1:2|0:0,0:0:0:0:
481,176,85110,2,0,P|447:159|415:157,1,67.5,2|2,1:2|0:0,0:0:0:0:
332,208,85485,1,8,0:0:0:0:
327,211,85672,1,2,0:0:0:0:
446,296,85860,1,2,0:0:0:0:
305,338,86047,1,8,0:0:0:0:
408,233,86235,1,2,1:2:0:0:
296,350,86422,1,10,0:0:0:0:
152,304,86610,2,0,P|111:291|69:286,1,67.5,2|0,1:2|0:0,0:0:0:0:
201,171,86985,1,10,0:0:0:0:
237,261,87172,1,8,0:0:0:0:
98,206,87360,2,0,P|64:210|25:225,1,67.5,2|0,1:2|0:0,0:0:0:0:
173,70,87735,6,0,P|143:85|128:129,1,67.5,6|0,1:2|0:0,0:0:0:0:
301,175,88110,2,0,P|303:141|272:106,1,67.5,2|0,1:2|0:0,0:0:0:0:
126,128,88485,2,0,L|145:282,1,135,10|2,0:0|0:0,0:0:0:0:
211,353,89047,1,10,0:0:0:0:
222,220,89235,1,2,1:2:0:0:
206,362,89422,1,8,0:0:0:0:
358,285,89610,2,0,P|317:278|269:271,1,67.5,2|0,1:2|0:0,0:0:0:0:
211,202,89985,1,8,0:0:0:0:
75,327,90360,1,2,0:0:0:0:
166,302,90547,1,8,0:0:0:0:
347,365,90735,5,6,1:2:0:0:
271,309,90922,1,0,1:0:0:0:
331,187,91110,2,0,P|370:176|408:177,1,67.5,8|0,0:0|0:0,0:0:0:0:
234,160,91485,2,0,P|204:131|186:98,1,67.5,8|0,0:0|1:0,0:0:0:0:
311,15,91860,2,0,P|306:43|304:89,1,67.5,2|0,0:0|1:0,0:0:0:0:
385,158,92235,2,0,P|423:164|452:170,1,67.5,8|0,0:0|0:0,0:0:0:0:
306,91,92610,2,0,P|272:84|239:79,1,67.5,8|0,0:0|0:0,0:0:0:0:
85,104,92985,1,4,1:2:0:0:
200,188,93172,1,8,0:0:0:0:
223,47,93360,1,8,0:3:0:0:
256,192,93453,12,0,96547,0:0:0:0:
240,134,96735,6,0,B|190:133|163:164|99:166,1,121.499996292114,2|0,0:0|0:0,0:0:0:0:
75,94,97297,1,2,0:0:0:0:
242,40,97860,1,2,0:0:0:0:
242,40,98047,2,0,L|363:46,1,121.499996292114,2|0,0:0|0:0,0:0:0:0:
453,31,98610,1,2,0:0:0:0:
453,31,98797,1,2,0:0:0:0:
374,157,99360,1,2,0:0:0:0:
450,206,99547,6,0,B|477:258|432:282|457:346,1,121.499996292114,2|0,0:0|0:0,0:0:0:0:
373,291,100110,1,2,0:0:0:0:
306,329,100297,1,2,0:0:0:0:
173,254,100672,1,2,0:0:0:0:
173,254,100860,1,2,0:0:0:0:
337,173,101235,1,0,0:0:0:0:
337,173,102360,1,2,0:0:0:0:
284,36,102547,6,0,P|214:36|163:91,1,121.499996292114,2|0,0:0|0:0,0:0:0:0:
172,140,103110,1,2,0:0:0:0:
172,140,103297,1,2,0:0:0:0:
220,357,103860,1,2,0:0:0:0:
170,274,104047,2,0,P|106:269|32:295,1,121.499996292114,2|0,0:0|0:0,0:0:0:0:
100,345,104610,1,0,0:0:0:0:
100,345,104797,1,2,0:0:0:0:
245,288,105360,1,2,0:0:0:0:
277,210,105547,1,0,0:0:0:0:
212,129,105735,6,0,P|196:77|215:13,1,121.499996292114,2|0,0:0|0:0,0:0:0:0:
304,13,106297,2,0,B|352:15|352:15|379:30|379:30|439:33,1,121.499996292114,2|0,0:0|0:0,0:0:0:0:
496,102,106860,1,2,0:0:0:0:
496,102,107047,1,2,0:0:0:0:
380,144,107235,1,0,0:0:0:0:
477,271,107797,1,8,0:0:0:0:
477,271,107891,1,8,0:0:0:0:
477,271,107985,1,8,0:0:0:0:
377,222,108172,1,8,0:0:0:0:
285,301,108360,1,8,0:3:0:0:
218,357,108547,1,2,0:0:0:0:
134,323,108735,6,0,B|120:291|120:291|127:255,1,67.5,4|0,1:2|0:0,0:0:0:0:
207,208,109110,1,2,0:0:0:0:
127,138,109297,2,0,P|121:98|117:62,1,67.5,0|8,1:0|0:0,0:0:0:0:
416,52,109860,1,2,1:2:0:0:
389,146,110047,2,0,L|386:294,1,135,2|8,1:2|0:0,0:0:0:0:
475,333,110610,1,0,1:0:0:0:
379,294,110797,2,0,P|340:302|307:309,1,67.5,2|8,0:0|0:0,0:0:0:0:
182,263,111360,1,2,0:0:0:0:
253,364,111547,1,8,0:0:0:0:
253,364,111641,1,8,0:0:0:0:
253,364,111735,6,0,P|184:357|109:349,1,135,2|0,1:2|0:0,0:0:0:0:
53,278,112297,1,2,1:2:0:0:
123,149,112485,2,0,P|162:198|140:261,1,135,8|0,0:0|0:0,0:0:0:0:
47,104,113047,1,0,1:0:0:0:
107,38,113235,1,0,1:0:0:0:
190,71,113422,1,8,0:0:0:0:
325,21,113610,1,0,1:0:0:0:
485,148,113985,2,0,P|449:139|410:136,1,67.5,10|0,0:0|0:0,0:0:0:0:
499,237,114360,1,2,0:0:0:0:
420,299,114547,1,8,0:0:0:0:
420,299,114641,1,8,0:0:0:0:
420,299,114735,6,0,P|366:309|334:317,1,67.5,6|0,1:2|0:0,0:0:0:0:
269,301,115110,1,2,0:0:0:0:
193,348,115297,1,2,1:2:0:0:
305,221,115485,1,8,0:0:0:0:
74,319,116047,1,2,1:2:0:0:
191,358,116235,1,2,1:2:0:0:
123,224,116422,1,8,0:0:0:0:
45,337,116610,2,0,L|36:270,1,67.5,2|0,1:2|0:0,0:0:0:0:
65,159,116985,1,8,0:0:0:0:
286,33,117360,1,2,0:0:0:0:
221,98,117547,1,8,0:0:0:0:
221,98,117641,1,8,0:0:0:0:
221,98,117735,6,0,L|69:86,1,135,2|0,1:2|1:0,0:0:0:0:
86,87,118860,1,2,0:0:0:0:
251,191,119235,6,0,L|99:179,1,135,2|0,1:2|1:0,0:0:0:0:
47,321,120735,6,0,P|90:284|168:290,1,121.499996292114,2|0,0:0|0:0,0:0:0:0:
236,307,121297,2,0,P|229:340|228:373,1,60.7499981460572,2|2,0:0|0:0,0:0:0:0:
306,154,121860,2,0,P|322:213|318:274,1,121.499996292114,2|2,0:0|0:0,0:0:0:0:
196,35,122797,1,2,0:0:0:0:
317,33,122985,2,0,P|285:58|211:123,1,121.499996292114,2|0,0:0|0:0,0:0:0:0:
132,103,123547,1,2,0:0:0:0:
178,196,123735,6,0,P|127:181|47:166,1,121.499996292114,2|2,0:0|0:0,0:0:0:0:
113,253,124297,1,2,0:0:0:0:
225,339,124485,2,0,B|242:306|242:306|239:267|220:217,2,121.499996292114,2|2|2,0:0|0:0|0:0,0:0:0:0:
288,173,125985,2,0,P|350:166|420:162,1,121.499996292114,2|0,0:0|0:0,0:0:0:0:
368,80,126547,1,2,0:0:0:0:
460,53,126735,6,0,P|398:60|328:64,1,121.499996292114,2|0,0:0|0:0,0:0:0:0:
170,33,127485,2,0,P|204:31|230:23,1,60.7499981460572,2|0,0:0|0:0,0:0:0:0:
111,110,127860,2,0,P|77:112|50:119,1,60.7499981460572,2|0,0:0|0:0,0:0:0:0:
191,151,128235,1,2,0:0:0:0:
191,151,128985,6,0,P|182:178|188:195,1,47.25,2|0,1:2|0:0,0:0:0:0:
254,238,129735,6,0,P|264:198|273:158,1,80.9999975280763,6|0,1:2|0:0,0:0:0:0:
113,65,130110,2,0,P|103:105|94:145,1,80.9999975280763,10|0,0:0|0:0,0:0:0:0:
207,306,130485,2,0,P|167:313|127:321,1,80.9999975280763,2|0,1:2|0:0,0:0:0:0:
281,166,130860,2,0,P|321:159|360:150,1,80.9999975280763,10|0,0:0|0:0,0:0:0:0:
184,38,131235,5,6,1:2:0:0:
110,163,131422,1,8,0:0:0:0:
237,234,131610,1,0,1:0:0:0:
318,116,131797,1,10,0:0:0:0:
318,116,131891,1,8,0:0:0:0:
318,116,131985,1,8,0:0:0:0:
188,172,132172,5,8,0:0:0:0:
259,303,132360,1,10,0:0:0:0:
402,288,132547,1,8,0:0:0:0:
481,152,132735,6,0,P|441:175|369:191,1,87.749995983124,6|0,1:2|0:0,0:0:0:0:
281,97,133110,2,0,P|226:79|185:82,1,87.749995983124,2|0,1:2|0:0,0:0:0:0:
48,178,133485,2,0,P|35:267|112:306,1,175.499991966248,10|0,0:0|0:0,0:0:0:0:
251,238,134047,1,8,0:0:0:0:
251,238,134141,1,8,0:0:0:0:
251,238,134235,1,2,1:2:0:0:
339,316,134422,1,8,0:0:0:0:
165,347,134610,2,0,P|201:323|254:317,1,87.749995983124,0|0,1:0|0:0,0:0:0:0:
393,175,134985,2,0,P|402:265|325:329,1,175.499991966248,10|0,0:0|0:0,0:0:0:0:
245,180,135547,1,8,0:0:0:0:
245,180,135641,1,8,0:0:0:0:
245,180,135735,6,0,P|239:128|230:77,1,87.749995983124,2|0,1:2|0:0,0:0:0:0:
384,27,136110,2,0,P|374:82|369:125,1,87.749995983124,0|0,1:0|0:0,0:0:0:0:
487,264,136485,2,0,P|427:201|334:231,1,175.499991966248,10|0,0:2|0:0,0:0:0:0:
256,280,137047,1,8,0:0:0:0:
256,280,137141,1,8,0:0:0:0:
256,280,137235,1,2,1:2:0:0:
340,348,137422,1,8,0:0:0:0:
99,281,137610,2,0,P|116:325|120:372,1,87.749995983124,0|0,1:0|0:0,0:0:0:0:
205,137,137985,2,0,P|204:223|218:322,1,175.499991966248,10|0,0:2|0:0,0:0:0:0:
282,109,138547,1,8,0:0:0:0:
282,109,138641,1,8,0:0:0:0:
282,109,138735,6,0,P|292:59|299:19,1,87.749995983124,6|0,1:2|0:0,0:0:0:0:
125,132,139110,2,0,P|132:175|141:218,1,87.749995983124,2|0,1:2|0:0,0:0:0:0:
295,260,139485,2,0,P|251:269|202:287,1,87.749995983124,10|0,0:0|0:0,0:0:0:0:
39,161,139860,2,0,P|64:135|120:135,1,87.749995983124,2|8,0:0|0:0,0:0:0:0:
113,132,140141,1,8,0:0:0:0:
113,132,140235,1,0,1:0:0:0:
157,261,140422,1,8,0:0:0:0:
292,214,140610,1,0,1:0:0:0:
292,214,140985,2,0,P|310:264|321:305,1,87.749995983124,8|0,0:0|0:0,0:0:0:0:
243,343,141360,1,2,0:0:0:0:
397,235,141547,1,8,0:0:0:0:
397,235,141641,1,8,0:0:0:0:
397,235,141735,6,0,P|401:188|412:139,1,87.749995983124,2|0,1:2|0:0,0:0:0:0:
284,16,142110,2,0,P|291:60|294:128,1,87.749995983124,2|0,1:2|0:0,0:0:0:0:
231,215,142485,1,12,0:2:0:0:
385,153,142672,2,0,P|321:139|226:192,1,175.499991966248,0|0,1:0|1:0,0:0:0:0:
333,241,143235,1,14,0:2:0:0:
222,318,143422,1,0,1:0:0:0:
200,190,143610,1,10,0:2:0:0:
324,334,143797,1,0,1:0:0:0:
246,238,143985,5,4,1:2:0:0:
193,233,144110,1,8,0:0:0:0:
154,269,144235,1,8,0:0:0:0:
115,305,144360,1,8,0:0:0:0:
62,298,144485,1,8,0:0:0:0:
29,256,144610,1,8,0:0:0:0:
38,204,144735,6,0,B|53:156|12:128|40:70,2,116.999994644165,6|2|2,1:2|0:0|0:0,0:0:0:0:
249,45,145485,2,0,P|167:24|110:85,1,175.499991966248,14|0,0:0|0:0,0:0:0:0:
350,168,146047,1,8,0:0:0:0:
350,168,146141,1,8,0:0:0:0:
350,168,146235,2,0,B|343:112|361:97|347:42,2,116.999994644165,2|2|2,1:2|0:0|0:0,0:0:0:0:
480,219,146985,2,0,B|410:213|397:285|298:274,1,175.499991966248,10|0,0:0|0:0,0:0:0:0:
179,257,147547,1,8,0:0:0:0:
179,257,147641,1,8,0:0:0:0:
179,257,147735,6,0,P|225:279|232:344,2,116.999994644165,0|2|2,1:0|0:0|0:0,0:0:0:0:
76,169,148485,2,0,B|51:151|51:151|42:109|52:47,2,116.999994644165,10|2|2,0:0|0:0|0:0,0:0:0:0:
151,213,149047,1,8,0:0:0:0:
151,213,149141,1,8,0:0:0:0:
151,213,149235,6,0,P|180:208|217:185,1,58.4999973220826,6|0,1:2|0:0,0:0:0:0:
217,77,149485,2,0,P|235:99|274:120,1,58.4999973220826,10|0,0:0|0:0,0:0:0:0:
394,163,149735,2,0,P|365:168|328:191,1,58.4999973220826,10|0,0:0|0:0,0:0:0:0:
322,297,149985,2,0,P|304:275|265:254,1,58.4999973220826,2|0,1:2|0:0,0:0:0:0:
130,203,150235,2,0,P|137:230|143:261,1,58.4999973220826,10|0,0:3|0:0,0:0:0:0:
217,138,150485,2,0,P|210:111|204:80,1,58.4999973220826,10|0,0:3|0:0,0:0:0:0:
328,158,150735,5,6,1:2:0:0:
328,158,152235,1,2,0:0:0:0:
328,158,152985,2,0,B|298:156|279:174|249:175,2,75.9375028967858,2|2|2,0:0|0:0|0:0,0:0:0:0:
256,192,154016,12,0,158985,0:0:0:0:
176,161,159110,6,0,L|181:193,1,27,2|0,0:0|0:0,0:0:0:0:
237,255,159735,1,2,0:0:0:0:
237,255,160110,2,0,L|229:314,1,54,2|0,0:0|0:0,0:0:0:0:
138,361,161110,6,0,B|120:337|120:337|114:249,1,117,2|2,0:0|0:3,0:0:0:0:
111,259,163485,1,2,0:3:0:0:
111,259,164235,1,2,0:3:0:0:
157,190,164610,1,2,0:3:0:0:
109,126,164985,1,2,0:3:0:0:
164,45,165172,1,2,0:0:0:0:
176,54,165360,2,0,B|213:51|213:51|225:46|225:46|280:41,1,87.749995983124,2|0,0:0|0:0,0:0:0:0:
336,77,165735,5,6,1:2:0:0:
365,179,176985,5,2,0:0:0:0:
365,179,177172,1,2,0:0:0:0:
289,204,177360,1,2,0:0:0:0:
267,128,177547,1,2,0:0:0:0:
342,103,177735,1,0,0:0:0:0:
289,204,178485,5,4,1:2:0:0:
248,170,178610,1,8,0:0:0:0:
197,156,178735,1,8,0:0:0:0:
147,172,178860,1,8,0:0:0:0:
84,216,178985,1,8,0:0:0:0:
16,180,179110,1,8,0:0:0:0:
29,105,179235,6,0,P|80:109|132:130,1,87.749995983124,2|8,1:2|0:0,0:0:0:0:
257,179,179610,1,0,1:0:0:0:
165,251,179797,1,2,0:0:0:0:
220,89,179985,1,10,0:0:0:0:
220,89,180360,1,2,0:0:0:0:
61,39,180547,1,10,0:0:0:0:
61,39,180641,1,8,0:0:0:0:
61,39,180735,6,0,B|52:85|52:85|82:133,1,87.749995983124,2|8,1:2|0:0,0:0:0:0:
232,135,181110,2,0,B|241:89|241:89|211:41,1,87.749995983124,2|0,1:2|0:0,0:0:0:0:
109,206,181485,2,0,B|204:201|164:270|295:263,1,175.499991966248,10|2,0:0|0:0,0:0:0:0:
432,229,182047,1,8,0:0:0:0:
432,229,182141,1,8,0:0:0:0:
432,229,182235,1,6,1:2:0:0:
331,187,182422,1,8,0:0:0:0:
263,336,182610,2,0,P|215:343|166:355,1,87.749995983124,2|0,1:2|0:0,0:0:0:0:
90,243,182985,1,10,0:0:0:0:
183,272,183172,1,0,0:0:0:0:
107,103,183360,1,2,0:0:0:0:
215,74,183547,1,8,0:0:0:0:
215,74,183641,1,8,0:0:0:0:
215,74,183735,6,0,L|220:184,1,87.749995983124,2|0,1:2|0:0,0:0:0:0:
318,139,184110,1,2,1:2:0:0:
201,268,184297,2,0,L|197:180,1,87.749995983124,2|8,0:0|0:0,0:0:0:0:
196,52,184672,1,2,0:0:0:0:
28,42,184860,1,2,0:0:0:0:
136,169,185047,1,8,0:0:0:0:
136,169,185141,1,8,0:0:0:0:
136,169,185235,2,0,L|123:267,1,87.749995983124,2|8,1:2|0:0,0:0:0:0:
96,366,185610,1,2,1:2:0:0:
7,285,185797,1,0,0:0:0:0:
224,360,185985,1,10,0:0:0:0:
224,360,186360,1,2,0:0:0:0:
327,274,186547,1,10,0:0:0:0:
326,273,186641,1,8,0:0:0:0:
326,273,186735,6,0,L|312:170,1,87.749995983124,12|2,0:0|0:2,0:0:0:0:
467,249,187110,2,0,L|463:336,1,87.749995983124,12|0,0:0|0:0,0:0:0:0:
249,129,187485,2,0,P|290:115|338:112,1,87.749995983124,4|2,1:2|1:2,0:0:0:0:
422,36,187860,1,0,0:0:0:0:
328,126,188047,1,0,1:0:0:0:
418,253,188235,2,0,B|435:289|435:289|428:336,1,87.749995983124,6|0,1:2|1:0,0:0:0:0:
313,232,188610,2,0,B|276:194|276:194|277:129|348:94,1,175.499991966248,2|0,1:2|1:0,0:0:0:0:
256,23,189172,6,0,B|225:25|215:42|184:45,1,67.5,6|8,0:0|0:0,0:0:0:0:
121,90,189641,1,8,0:0:0:0:
121,90,189735,6,0,P|167:95|203:134,1,87.749995983124,6|0,1:2|0:0,0:0:0:0:
50,203,190110,2,0,P|86:174|139:176,1,87.749995983124,0|2,1:0|0:0,0:0:0:0:
275,246,190485,1,12,0:0:0:0:
133,75,190672,1,0,0:0:0:0:
143,175,190860,1,2,0:0:0:0:
106,299,191047,1,8,0:0:0:0:
106,299,191141,1,8,0:0:0:0:
106,299,191235,2,0,P|52:305|3:320,1,87.749995983124,2|8,1:2|0:0,0:0:0:0:
209,357,191610,2,0,P|263:351|312:336,1,87.749995983124,0|0,1:0|0:0,0:0:0:0:
163,201,191985,1,10,0:0:0:0:
163,201,192360,1,0,0:0:0:0:
232,58,192547,1,8,0:0:0:0:
232,58,192641,1,8,0:0:0:0:
232,58,192735,6,0,P|245:97|252:154,1,87.749995983124,2|0,1:2|0:0,0:0:0:0:
349,197,193110,2,0,L|328:298,1,87.749995983124,0|0,1:0|0:0,0:0:0:0:
214,350,193485,2,0,P|151:265|204:225,1,175.499991966248,10|0,0:0|0:0,0:0:0:0:
359,196,194047,1,8,0:0:0:0:
359,196,194141,1,8,0:0:0:0:
359,196,194235,6,0,P|385:221|395:252,1,58.4999973220826,6|0,1:2|0:0,0:0:0:0:
349,113,194485,6,0,P|381:95|414:95,1,58.4999973220826,10|0,0:0|0:0,0:0:0:0:
266,87,194735,6,0,P|259:50|269:19,1,58.4999973220826,10|0,0:0|0:0,0:0:0:0:
222,159,194985,6,0,P|185:154|158:134,1,58.4999973220826,2|0,1:2|0:0,0:0:0:0:
274,224,195235,6,0,P|258:257|231:276,1,58.4999973220826,10|0,0:3|0:0,0:0:0:0:
359,196,195485,6,0,P|385:221|395:252,1,58.4999973220826,10|0,0:3|0:0,0:0:0:0:
363,335,195735,5,4,1:2:0:0:
71,220,196485,2,0,P|65:186|57:162,1,50.6250019311906,2|0,0:0|0:0,0:0:0:0:
157,262,196860,2,0,P|163:296|171:320,1,50.6250019311906,2|0,0:0|0:0,0:0:0:0:
209,182,197235,1,2,0:0:0:0:
209,182,197797,1,2,0:0:0:0:
211,187,197985,1,2,0:0:0:0:
323,234,198172,1,2,0:0:0:0:
408,141,198360,1,2,0:0:0:0:
256,192,198453,12,0,200235,0:0:0:0:
249,192,200610,5,8,0:3:0:0:
405,214,200797,1,8,0:0:0:0:
405,214,200891,1,8,0:0:0:0:
405,214,200985,1,8,0:0:0:0:
279,107,201172,1,8,0:0:0:0:
181,271,201360,1,8,0:0:0:0:
330,172,201547,1,8,0:0:0:0:
474,327,201735,6,0,P|444:340|394:354,1,67.5,4|0,1:2|0:0,0:0:0:0:
298,242,202110,2,0,L|314:329,1,67.5,2|0,1:2|0:0,0:0:0:0:
415,214,202485,2,0,P|411:141|388:58,1,135,8|0,0:0|0:0,0:0:0:0:
298,136,203047,1,10,0:0:0:0:
177,42,203235,1,0,1:0:0:0:
107,122,203422,1,8,0:0:0:0:
185,35,203610,2,0,P|141:26|100:25,1,67.5,2|0,1:2|0:0,0:0:0:0:
24,77,203985,1,10,0:0:0:0:
195,28,204360,1,2,0:0:0:0:
313,92,204547,1,8,0:0:0:0:
170,187,204735,6,0,P|140:191|85:216,1,67.5,2|0,1:2|0:0,0:0:0:0:
257,284,205110,2,0,P|225:272|192:267,1,67.5,2|2,1:2|0:0,0:0:0:0:
236,127,205485,1,8,0:0:0:0:
86,287,205860,2,0,L|11:310,1,67.5,2|8,0:0|0:0,0:0:0:0:
179,347,206235,1,2,1:2:0:0:
260,274,206422,1,10,0:0:0:0:
349,361,206610,2,0,P|352:324|357:291,1,67.5,2|0,1:2|0:0,0:0:0:0:
472,225,206985,1,10,0:0:0:0:
354,266,207172,1,0,0:0:0:0:
485,148,207360,1,2,1:2:0:0:
345,259,207547,1,8,0:0:0:0:
357,77,207735,6,0,P|391:90|414:118,1,67.5,6|0,1:2|0:0,0:0:0:0:
215,38,208110,2,0,L|291:25,1,67.5,2|0,1:2|0:0,0:0:0:0:
39,103,208485,2,0,L|189:122,1,135,10|2,0:0|0:0,0:0:0:0:
56,196,209047,1,10,0:0:0:0:
185,115,209235,1,2,1:2:0:0:
120,33,209422,1,8,0:0:0:0:
206,220,209610,2,0,P|168:211|117:206,1,67.5,2|0,1:2|0:0,0:0:0:0:
267,153,209985,1,8,0:0:0:0:
69,307,210360,1,2,0:0:0:0:
172,289,210547,1,8,0:0:0:0:
307,359,210735,5,2,1:2:0:0:
170,283,210922,1,0,1:0:0:0:
308,159,211110,2,0,P|347:148|389:148,1,67.5,8|2,0:0|0:0,0:0:0:0:
457,279,211485,2,0,P|423:276|391:266,1,67.5,8|0,0:0|1:0,0:0:0:0:
217,213,211860,1,0,0:0:0:0:
290,293,212047,1,0,1:0:0:0:
434,126,212235,2,0,P|443:158|446:191,1,67.5,8|0,0:0|0:0,0:0:0:0:
300,76,212610,1,10,0:0:0:0:
403,24,212797,1,0,1:0:0:0:
322,213,212985,1,2,1:2:0:0:
170,179,213172,1,8,0:0:0:0:
201,26,213360,1,8,0:3:0:0:
256,192,213453,12,0,219735,0:0:0:0:
