osu file format v14

[General]
AudioFilename: audio.mp3
AudioLeadIn: 0
PreviewTime: 165172
Countdown: 0
SampleSet: Soft
StackLeniency: 0.7
Mode: 0
LetterboxInBreaks: 0
WidescreenStoryboard: 1

[Editor]
Bookmarks: 12735,24735,48735,60735,81735,96735,120735,132735,177735,201735
DistanceSpacing: 1.3
BeatDivisor: 4
GridSize: 32
TimelineZoom: 1.5

[Metadata]
Title:Aoi Yume
TitleUnicode:青い夢
Artist:AZKi
ArtistUnicode:AZKi
Creator:domSaur
Version:Hard
Source:
Tags:inonaka music innk hololive ホロライブ virtual diva youtuber vtuber pop japanese
BeatmapID:2542938
BeatmapSetID:1222587

[Difficulty]
HPDrainRate:5
CircleSize:4
OverallDifficulty:6
ApproachRate:7
SliderMultiplier:2.5
SliderTickRate:1

[Events]
//Background and Video events
0,0,"nayuta.jpg",0,0
//Break Periods
2,96935,106897
2,159110,161835
2,165935,176085
//Storyboard Layer 0 (Background)
//Storyboard Layer 1 (Fail)
//Storyboard Layer 2 (Pass)
//Storyboard Layer 3 (Foreground)
//Storyboard Layer 4 (Overlay)
//Storyboard Sound Samples

[TimingPoints]
735,750,4,2,1,40,1,0
12735,-133.333333333333,4,2,1,40,0,0
24735,-100,4,2,1,50,0,0
48735,-133.333333333333,4,2,1,40,0,0
56985,-100,4,2,1,50,0,0
57735,-100,4,2,1,50,0,0
60735,-100,4,2,1,70,0,0
72172,-100,4,2,1,70,0,0
72735,-100,4,2,1,70,0,0
78735,-100,4,2,1,40,0,0
81735,-100,4,2,1,50,0,0
96735,-100,4,2,1,40,0,0
108735,-100,4,2,1,50,0,0
120735,-133.333333333333,4,2,1,40,0,0
128985,-100,4,2,1,40,0,0
129735,-100,4,2,1,40,0,0
132735,-100,4,2,1,70,0,0
158985,-100,4,2,1,40,0,0
159110,-100,4,2,1,40,0,0
176985,-100,4,2,1,50,0,0
178485,-100,4,2,1,60,0,0
179235,-100,4,2,1,70,0,0
189172,-100,4,2,1,70,0,0
189735,-100,4,2,1,70,0,0
195735,-100,4,2,1,70,0,0
201735,-100,4,2,1,60,0,0
219735,-100,4,2,1,10,0,0

[Colours]
Combo1 : 255,94,55
Combo2 : 173,255,95
Combo3 : 17,254,176
Combo4 : 255,88,100

[HitObjects]
78,60,12735,6,0,P|71:103|87:162,1,93.7500035762788,0|0,1:0|0:0,0:0:0:0:
155,192,13297,2,0,B|213:187,1,46.8750017881394,2|2,1:2|0:3,0:0:0:0:
365,65,13860,2,0,L|299:54,1,46.8750017881394,2|0,0:0|0:0,0:0:0:0:
238,31,14235,2,0,P|189:38|118:55,1,93.7500035762788,2|2,0:0|0:0,0:0:0:0:
94,114,14797,2,0,L|101:161,1,46.8750017881394,0|2,1:0|0:3,0:0:0:0:
185,328,15360,1,2,0:0:0:0:
185,328,15547,1,2,0:0:0:0:
218,250,15735,6,0,L|86:273,1,93.7500035762788,2|2,1:2|0:0,0:0:0:0:
45,294,16297,2,0,B|35:271|35:271|41:187,1,93.7500035762788,0|0,1:0|0:0,0:0:0:0:
78,127,16860,2,0,P|128:111|188:115,1,93.7500035762788,2|2,0:0|0:3,0:0:0:0:
253,138,17422,1,0,0:0:0:0:
253,138,17610,2,0,P|246:77|243:41,1,93.7500035762788,0|2,1:0|0:3,0:0:0:0:
348,23,18172,1,0,0:0:0:0:
425,77,18360,1,2,0:3:0:0:
424,87,18547,1,2,0:3:0:0:
373,178,18735,6,0,P|382:223|387:276,1,93.7500035762788,2|2,1:2|0:0,0:0:0:0:
350,346,19297,2,0,L|265:336,1,46.8750017881394,2|2,1:2|0:3,0:0:0:0:
172,242,19860,2,0,L|125:248,1,46.8750017881394,2|2,0:0|0:0,0:0:0:0:
80,319,20235,2,0,B|117:305|117:305|154:309|194:335,1,93.7500035762788,0|0,0:0|0:3,0:0:0:0:
266,351,20797,2,0,P|262:325|259:304,1,46.8750017881394,0|2,1:0|0:3,0:0:0:0:
285,103,21360,1,2,0:0:0:0:
285,103,21547,1,2,0:0:0:0:
220,43,21735,6,0,B|182:46|182:46|164:57|164:57|118:63,1,93.7500035762788,0|2,1:0|0:0,0:0:0:0:
52,111,22297,2,0,P|102:110|138:139,1,93.7500035762788,0|0,1:0|0:0,0:0:0:0:
180,207,22860,2,0,L|173:263,1,46.8750017881394,2|0,0:0|0:0,0:0:0:0:
114,323,23235,1,2,0:3:0:0:
114,323,23422,1,0,1:0:0:0:
185,367,23610,1,0,1:0:0:0:
356,326,23985,2,0,P|350:279|354:232,1,93.7500035762788,2|2,0:3|0:3,0:0:0:0:
423,185,24547,1,2,0:3:0:0:
392,76,24735,6,0,P|326:97|246:105,1,125,6|2,1:2|0:0,0:0:0:0:
157,48,25297,2,0,P|188:42|219:40,1,62.5,2|2,1:2|0:3,0:0:0:0:
342,188,25860,1,2,0:0:0:0:
342,188,26047,2,0,P|270:198|202:222,1,125,2|0,0:0|1:0,0:0:0:0:
120,216,26610,2,0,B|105:188|105:188|103:145,1,62.5,2|0,0:3|0:0,0:0:0:0:
142,58,26985,2,0,P|202:44|264:79,1,125,2|0,0:3|0:0,0:0:0:0:
369,139,27547,1,2,0:0:0:0:
369,139,27735,6,0,B|321:145|321:145|288:173|288:173|217:184,1,125,0|0,1:0|0:0,0:0:0:0:
158,151,28297,2,0,P|127:158|96:162,1,62.5,2|2,1:2|0:3,0:0:0:0:
217,71,28860,1,2,0:0:0:0:
184,249,29235,2,0,P|191:280|197:316,1,62.5,2|0,0:3|1:0,0:0:0:0:
109,359,29610,2,0,B|75:301|93:228,1,125,0|2,1:0|0:3,0:0:0:0:
169,82,30360,2,0,P|198:83|240:101,1,62.5,2|2,0:0|0:3,0:0:0:0:
331,146,30735,6,0,B|303:128|303:128|283:72|340:21,1,125,6|0,1:2|0:0,0:0:0:0:
419,33,31297,2,0,B|430:55|430:55|425:93,1,62.5,2|2,1:2|0:3,0:0:0:0:
417,285,31860,1,2,0:0:0:0:
417,285,32047,2,0,P|352:290|281:300,1,125,2|0,0:0|0:0,0:0:0:0:
205,348,32610,2,0,L|126:356,1,62.5,2|0,1:2|1:0,0:0:0:0:
46,326,32985,1,2,0:3:0:0:
37,126,33360,2,0,P|40:165|55:206,1,62.5,2|0,0:0|0:0,0:0:0:0:
134,224,33735,6,0,P|146:164|163:102,1,125,2|0,1:2|0:0,0:0:0:0:
241,39,34297,2,0,B|269:48|269:48|308:55,1,62.5,2|2,1:2|0:3,0:0:0:0:
441,190,34860,1,2,0:0:0:0:
441,190,35047,1,0,0:0:0:0:
361,251,35235,2,0,B|373:229|373:229|352:122,1,125,2|0,0:3|1:0,0:0:0:0:
168,23,35985,2,0,P|158:56|170:89,1,62.5,2|0,0:3|1:0,0:0:0:0:
254,142,36360,1,2,0:3:0:0:
254,142,36547,1,2,0:3:0:0:
185,227,36735,6,0,B|178:267|178:267|202:367,1,125,6|0,1:2|0:0,0:0:0:0:
294,361,37297,2,0,B|309:333|309:333|302:281,1,62.5,0|2,1:0|0:3,0:0:0:0:
300,114,37860,1,2,0:0:0:0:
300,114,38047,2,0,B|233:115|243:158|175:158,1,125
115,107,38610,2,0,B|104:71|104:71|119:28,1,62.5,2|0,0:0|1:0,0:0:0:0:
195,18,38985,1,2,0:3:0:0:
398,38,39360,2,0,P|408:78|414:115,1,62.5,2|0,0:0|0:0,0:0:0:0:
450,191,39735,6,0,P|374:188|332:240,1,125,2|0,1:2|0:0,0:0:0:0:
385,308,40297,2,0,L|309:296,1,62.5,2|2,1:2|0:3,0:0:0:0:
149,208,40860,1,0,0:0:0:0:
149,208,41047,1,0,0:0:0:0:
98,280,41235,2,0,P|93:212|85:132,1,125,2|0,0:3|1:0,0:0:0:0:
182,55,41985,1,2,0:3:0:0:
355,137,42360,1,2,0:0:0:0:
355,137,42547,1,0,0:0:0:0:
429,209,42735,6,0,B|384:213|384:213|357:232|357:232|308:238,1,125,6|0,1:2|0:0,0:0:0:0:
236,200,43297,1,2,1:2:0:0:
347,38,44047,1,2,0:0:0:0:
347,38,44235,2,0,P|286:49|204:53,1,125,2|0,0:0|0:0,0:0:0:0:
128,31,44797,2,0,P|140:59|150:101,1,62.5,2|2,1:2|0:3,0:0:0:0:
69,273,45360,1,2,0:0:0:0:
70,266,45547,1,0,0:0:0:0:
144,198,45735,6,0,L|21:220,1,125,2|0,1:2|1:0,0:0:0:0:
253,339,46860,1,2,0:0:0:0:
144,198,47235,6,0,L|21:220,1,125,2|0,1:2|1:0,0:0:0:0:
250,211,47985,1,2,0:0:0:0:
253,217,48172,1,0,0:0:0:0:
211,125,48360,2,0,L|125:113,1,62.5,2|0,0:0|0:0,0:0:0:0:
86,49,48735,6,0,P|96:100|104:155,2,93.7500035762788,2|0|2,0:0|0:0|0:0,0:0:0:0:
39,192,49860,2,0,P|70:219|124:218,1,93.7500035762788,2|2,0:0|0:0,0:0:0:0:
316,31,50985,2,0,B|297:54|297:54|308:137,1,93.7500035762788,2|2,0:0|0:0,0:0:0:0:
447,166,51735,6,0,P|406:160|366:197,1,93.7500035762788,2|0,0:0|0:0,0:0:0:0:
298,324,52485,2,0,B|250:322|253:302|189:305,2,93.7500035762788,2|2|2,0:0|0:0|0:0,0:0:0:0:
449,164,53985,1,2,0:0:0:0:
449,164,54360,1,2,0:0:0:0:
379,108,54735,6,0,P|325:104|261:98,1,93.7500035762788,2|0,0:0|0:0,0:0:0:0:
176,44,55485,2,0,P|122:48|58:54,1,93.7500035762788,2|2,0:0|0:0,0:0:0:0:
197,128,56235,1,2,0:0:0:0:
197,128,56985,2,0,P|119:180|162:251,1,187.5,10|0,1:2|0:0,0:0:0:0:
259,309,57735,6,0,P|229:313|197:332,1,62.5,6|0,1:2|0:0,0:0:0:0:
337,349,58110,2,0,P|362:347|394:328,1,62.5,10|0,0:0|0:0,0:0:0:0:
448,244,58485,2,0,L|452:172,1,62.5,10|0,0:0|0:0,0:0:0:0:
356,133,58860,2,0,P|362:175|366:215,1,62.5,10|0,0:0|0:0,0:0:0:0:
292,265,59235,5,6,1:2:0:0:
292,265,59422,1,8,0:0:0:0:
206,303,59610,1,0,1:0:0:0:
128,270,59797,1,8,0:0:0:0:
128,270,59891,1,8,0:0:0:0:
128,270,59985,1,8,0:0:0:0:
98,181,60172,2,0,B|87:152|87:152|94:114,1,62.5,8|8,0:0|0:0,0:0:0:0:
151,57,60547,1,8,0:0:0:0:
255,82,60735,6,0,P|308:93|374:58,2,125,4|2|8,1:2|1:2|0:0,0:0:0:0:
70,116,61860,1,2,0:0:0:0:
146,188,62047,1,8,0:0:0:0:
146,188,62141,1,8,0:0:0:0:
146,188,62235,2,0,B|160:220|140:255,1,62.5,2|8,1:2|0:0,0:0:0:0:
77,312,62610,2,0,L|158:321,1,62.5,2|2,1:2|0:0,0:0:0:0:
227,287,62985,1,8,0:0:0:0:
416,268,63360,1,2,0:2:0:0:
416,268,63547,1,8,0:0:0:0:
337,215,63735,6,0,P|326:149|322:90,1,125,2|0,1:2|1:0,0:0:0:0:
164,18,64485,2,0,P|175:84|179:143,1,125,10|0,0:0|0:0,0:0:0:0:
116,204,65047,1,10,0:0:0:0:
116,204,65141,1,8,0:0:0:0:
116,204,65235,1,2,1:2:0:0:
36,238,65422,1,8,0:0:0:0:
7,158,65610,1,2,1:2:0:0:
92,324,65985,2,0,P|126:326|167:338,1,62.5,10|0,0:0|0:0,0:0:0:0:
245,360,66360,1,2,0:0:0:0:
352,318,66547,1,8,0:0:0:0:
352,318,66641,1,8,0:0:0:0:
352,318,66735,6,0,P|351:246|344:182,2,125,6|2|10,1:2|1:2|0:0,0:0:0:0:
261,159,67860,1,2,0:0:0:0:
306,80,68047,1,8,0:0:0:0:
306,80,68141,1,8,0:0:0:0:
306,80,68235,2,0,P|349:70|391:62,1,62.5,2|8,1:2|0:0,0:0:0:0:
432,138,68610,2,0,P|389:148|347:156,1,62.5,2|0,1:2|0:0,0:0:0:0:
341,233,68985,1,8,0:0:0:0:
191,338,69360,1,2,0:0:0:0:
249,274,69547,1,8,0:0:0:0:
248,273,69641,1,8,0:0:0:0:
248,273,69735,6,0,B|253:240|253:240|242:193,1,62.5,2|0,1:2|0:0,0:0:0:0:
170,159,70110,2,0,L|103:168,1,62.5,2|0,1:2|0:0,0:0:0:0:
159,77,70485,1,14,0:0:0:0:
159,77,70672,2,0,P|215:66|294:45,1,125,0|0,1:0|1:0,0:0:0:0:
379,110,71235,2,0,P|350:115|318:124,1,62.5,10|2,0:0|1:2,0:0:0:0:
249,198,71610,2,0,B|237:235|237:235|256:320,1,125,10|0,0:0|1:0,0:0:0:0:
351,332,72172,2,0,P|288:333|235:367,1,125,12|8,0:0|0:0,0:0:0:0:
136,311,72735,6,0,B|69:318|80:269|18:274,2,125,2|2|12,1:2|1:2|0:0,0:0:0:0:
206,167,73860,1,0,0:0:0:0:
158,98,74047,1,8,0:0:0:0:
158,98,74141,1,8,0:0:0:0:
158,98,74235,2,0,B|146:66|146:66|149:31,1,62.5,2|8,1:2|0:0,0:0:0:0:
242,19,74610,2,0,L|313:29,1,62.5,0|0,1:0|0:0,0:0:0:0:
400,49,74985,1,8,0:0:0:0:
480,239,75360,1,2,0:0:0:0:
396,223,75547,1,8,0:0:0:0:
396,223,75641,1,8,0:0:0:0:
396,223,75735,6,0,P|366:169|402:117,1,125,2|0,1:2|1:0,0:0:0:0:
414,299,76485,2,0,B|346:298|367:349|288:350,1,125,10|0,0:0|0:0,0:0:0:0:
214,319,77047,1,8,0:0:0:0:
214,319,77141,1,8,0:0:0:0:
214,319,77235,6,0,L|125:337,2,83.3333333333333,6|10|10,1:2|0:0|0:0,0:0:0:0:
285,235,77985,2,0,L|374:217,2,83.3333333333333,2|10|10,1:2|0:3|0:3,0:0:0:0:
177,195,78735,5,6,1:2:0:0:
177,195,80235,1,2,0:0:0:0:
389,75,80797,1,8,0:0:0:0:
389,75,80891,1,8,0:0:0:0:
389,75,80985,2,0,L|381:160,1,62.5,2|8,1:2|0:0,0:0:0:0:
403,215,81360,1,8,0:0:0:0:
403,215,81547,1,8,0:0:0:0:
475,259,81735,6,0,P|440:261|371:327,1,125,4|2,1:2|1:2,0:0:0:0:
297,358,82297,2,0,P|290:325|285:283,1,62.5,0|8,0:0|0:0,0:0:0:0:
186,196,82860,1,0,0:0:0:0:
106,165,83047,1,10,0:0:0:0:
106,165,83235,2,0,B|96:132|96:132|107:95,1,62.5,0|8,1:0|0:0,0:0:0:0:
176,61,83610,2,0,B|185:87|185:87|178:121,1,62.5,2|0,1:2|0:0,0:0:0:0:
106,31,83985,1,10,0:0:0:0:
388,134,84360,1,2,0:0:0:0:
388,134,84547,1,8,0:0:0:0:
428,56,84735,6,0,P|456:74|471:167,1,125,2|2,1:2|1:2,0:0:0:0:
406,225,85297,2,0,L|328:220,1,62.5,2|8,0:0|0:0,0:0:0:0:
185,265,85860,1,2,0:0:0:0:
261,318,86047,1,8,0:0:0:0:
261,318,86235,2,0,B|272:285|272:285|258:240,1,62.5,2|10,1:2|0:0,0:0:0:0:
224,177,86610,2,0,L|220:114,1,62.5,2|0,1:2|0:0,0:0:0:0:
267,40,86985,2,0,B|301:30|301:30|341:37,1,62.5,10|8,0:0|0:0,0:0:0:0:
405,112,87360,2,0,B|371:122|371:122|331:115,1,62.5,2|0,1:2|0:0,0:0:0:0:
209,91,87735,6,0,B|148:89|152:125|85:132,1,125,6|2,1:2|1:2,0:0:0:0:
26,193,88297,2,0,P|63:197|104:216,1,62.5,0|10,0:0|0:0,0:0:0:0:
199,226,88860,1,2,0:0:0:0:
199,226,89047,1,10,0:0:0:0:
270,276,89235,2,0,P|263:321|264:373,1,62.5,2|8,1:2|0:0,0:0:0:0:
352,306,89610,2,0,P|359:261|358:209,1,62.5,2|0,1:2|0:0,0:0:0:0:
300,166,89985,1,8,0:0:0:0:
436,49,90360,1,2,0:0:0:0:
436,49,90547,1,8,0:0:0:0:
460,134,90735,6,0,P|447:189|458:227,1,62.5,6|0,1:2|1:0,0:0:0:0:
471,281,91110,1,8,0:0:0:0:
303,363,91485,1,8,0:0:0:0:
303,363,91672,1,0,1:0:0:0:
207,328,91860,2,0,P|169:335|138:339,1,62.5,2|0,0:0|1:0,0:0:0:0:
58,298,92235,2,0,P|40:239|45:221,1,62.5,8|0,0:0|0:0,0:0:0:0:
114,193,92610,2,0,L|125:103,1,62.5,8|0,0:0|0:0,0:0:0:0:
183,37,92985,1,4,1:2:0:0:
264,76,93172,1,8,0:0:0:0:
351,35,93360,1,8,0:3:0:0:
256,192,93453,12,2,96735,0:0:0:0:
477,271,107797,5,8,0:0:0:0:
477,271,107891,1,8,0:0:0:0:
477,271,107985,1,8,0:0:0:0:
399,310,108172,1,8,0:0:0:0:
316,339,108360,2,0,P|273:348|242:352,1,62.5,8|2,0:3|0:0,0:0:0:0:
172,320,108735,6,0,B|158:288|158:288|172:188,1,125,4|2,1:2|0:0,0:0:0:0:
223,128,109297,2,0,P|217:88|213:52,1,62.5,0|8,1:0|0:0,0:0:0:0:
378,27,109860,1,2,1:2:0:0:
378,27,110047,2,0,L|375:175,1,125,2|8,1:2|0:0,0:0:0:0:
409,232,110610,2,0,P|370:240|280:258,1,125,0|8,1:0|0:0,0:0:0:0:
117,305,111360,1,2,0:0:0:0:
189,361,111547,1,8,0:0:0:0:
189,361,111641,1,8,0:0:0:0:
189,361,111735,6,0,P|196:292|204:217,1,125,2|0,1:2|0:0,0:0:0:0:
256,168,112297,1,2,1:2:0:0:
206,95,112485,2,0,B|160:100|160:100|132:118|132:118|76:129,1,125,8|0,0:0|0:0,0:0:0:0:
48,47,113047,1,0,1:0:0:0:
48,47,113235,2,0,P|79:34|120:32,1,62.5,0|8,1:0|0:0,0:0:0:0:
193,47,113610,1,0,1:0:0:0:
418,91,113985,2,0,P|378:91|343:168,1,125,10|2,0:0|0:0,0:0:0:0:
424,223,114547,1,8,0:0:0:0:
424,223,114641,1,8,0:0:0:0:
424,223,114735,6,0,P|370:233|290:266,1,125,6|2,1:2|0:0,0:0:0:0:
238,315,115297,2,0,L|168:305,1,62.5,2|8,1:2|0:0,0:0:0:0:
106,186,116047,1,2,1:2:0:0:
42,246,116235,2,0,B|26:221|26:221|19:163,1,62.5,2|8,1:2|0:0,0:0:0:0:
41,102,116610,2,0,L|190:113,1,125,2|8,1:2|0:0,0:0:0:0:
319,27,117360,1,2,0:0:0:0:
375,106,117547,1,8,0:0:0:0:
375,106,117641,1,8,0:0:0:0:
375,106,117735,6,0,P|377:165|363:258,1,125,2|0,1:2|1:0,0:0:0:0:
317,29,118860,1,2,0:0:0:0:
375,106,119235,6,0,P|377:165|363:258,1,125,2|0,1:2|1:0,0:0:0:0:
53,297,120735,6,0,P|96:260|163:276,1,93.7500035762788,2|0,0:0|0:0,0:0:0:0:
204,290,121297,2,0,P|197:323|193:350,1,46.8750017881394,2|2,0:0|0:0,0:0:0:0:
236,180,121860,2,0,P|229:113|226:62,1,93.7500035762788,2|2,0:0|0:0,0:0:0:0:
439,70,122985,2,0,P|394:64|324:51,1,93.7500035762788,2|0,0:0|0:0,0:0:0:0:
272,92,123547,1,2,0:0:0:0:
216,33,123735,6,0,P|164:36|125:63,1,93.7500035762788,2|2,0:0|0:0,0:0:0:0:
89,126,124297,2,0,L|96:185,1,46.8750017881394,2|2,0:0|0:0,0:0:0:0:
232,272,124860,2,0,B|249:239|249:239|246:200|238:183,1,93.7500035762788,2|2,0:0|0:0,0:0:0:0:
116,44,125985,2,0,P|178:37|219:66,1,93.7500035762788,2|0,0:0|0:0,0:0:0:0:
279,74,126547,1,2,0:0:0:0:
358,73,126735,6,0,P|361:101|372:196,1,93.7500035762788,2|0,0:0|0:0,0:0:0:0:
455,302,127485,2,0,P|449:255|444:208,1,93.7500035762788,2|2,0:0|0:0,0:0:0:0:
466,50,128235,1,2,0:0:0:0:
254,238,128985,1,2,1:2:0:0:
254,238,129735,6,0,P|264:198|273:158,1,62.5,6|0,1:2|0:0,0:0:0:0:
194,112,130110,2,0,P|184:152|175:192,1,62.5,10|0,0:0|0:0,0:0:0:0:
94,222,130485,2,0,P|54:229|14:237,1,62.5,2|0,1:2|0:0,0:0:0:0:
152,290,130860,1,10,0:0:0:0:
184,38,131235,5,6,1:2:0:0:
184,38,131422,1,8,0:0:0:0:
231,100,131610,1,0,1:0:0:0:
318,116,131797,1,10,0:0:0:0:
318,116,131891,1,8,0:0:0:0:
318,116,131985,2,0,L|315:185,1,62.5,8|8,0:0|0:0,0:0:0:0:
404,282,132360,2,0,L|409:206,1,62.5,10|8,0:0|0:0,0:0:0:0:
481,152,132735,6,0,P|441:175|369:191,1,62.5,6|0,1:2|0:0,0:0:0:0:
337,235,133110,2,0,L|263:213,1,62.5,2|0,1:2|0:0,0:0:0:0:
198,171,133485,2,0,P|120:212|81:254,1,125,10|0,0:0|0:0,0:0:0:0:
27,322,134047,1,8,0:0:0:0:
27,322,134141,1,8,0:0:0:0:
27,322,134235,1,2,1:2:0:0:
126,357,134422,1,8,0:0:0:0:
126,357,134610,2,0,P|162:333|215:327,1,62.5,0|0,1:0|0:0,0:0:0:0:
266,292,134985,2,0,P|332:288|412:345,1,125,10|0,0:0|0:0,0:0:0:0:
452,227,135547,1,8,0:0:0:0:
452,227,135641,1,8,0:0:0:0:
452,227,135735,6,0,L|473:137,1,62.5,2|0,1:2|0:0,0:0:0:0:
384,27,136110,2,0,P|374:82|369:125,1,62.5,0|0,1:0|0:0,0:0:0:0:
317,165,136485,2,0,P|257:102|203:86,1,125,10|0,0:2|0:0,0:0:0:0:
127,59,137047,1,8,0:0:0:0:
127,59,137141,1,8,0:0:0:0:
127,59,137235,1,2,1:2:0:0:
144,142,137422,1,8,0:0:0:0:
33,116,137610,2,0,P|40:146|52:174,1,62.5,0|0,1:0|0:0,0:0:0:0:
139,222,137985,2,0,P|183:213|255:245,1,125,10|0,0:2|0:0,0:0:0:0:
322,355,138547,1,8,0:0:0:0:
322,355,138641,1,8,0:0:0:0:
322,355,138735,6,0,P|332:305|339:265,1,62.5,6|0,1:2|0:0,0:0:0:0:
405,227,139110,2,0,P|399:196|394:165,1,62.5,2|0,1:2|0:0,0:0:0:0:
334,79,139485,2,0,B|290:88|261:71|197:104,1,125,10|2,0:0|0:0,0:0:0:0:
141,170,140047,1,8,0:0:0:0:
141,170,140141,1,8,0:0:0:0:
141,170,140235,1,0,1:0:0:0:
179,250,140422,1,8,0:0:0:0:
266,271,140610,2,0,P|342:302|353:343,1,125,0|8,1:0|0:0,0:0:0:0:
318,179,141360,1,2,0:0:0:0:
397,235,141547,1,8,0:0:0:0:
397,235,141641,1,8,0:0:0:0:
397,235,141735,6,0,P|401:188|412:139,1,62.5,2|0,1:2|0:0,0:0:0:0:
317,81,142110,2,0,P|324:125|327:193,1,62.5,2|0,1:2|0:0,0:0:0:0:
242,189,142485,1,12,0:2:0:0:
242,189,142672,2,0,P|178:175|83:228,1,125,0|0,1:0|1:0,0:0:0:0:
119,270,143235,2,0,L|42:249,1,62.5,14|0,0:2|1:0,0:0:0:0:
29,179,143610,2,0,L|92:160,1,62.5,10|0,0:2|1:0,0:0:0:0:
156,111,143985,2,0,L|165:54,2,41.6666666666667,4|8|8,1:2|0:0|0:0,0:0:0:0:
214,161,144360,2,0,L|223:218,2,41.6666666666667,8|8|8,0:0|0:0|0:0,0:0:0:0:
283,120,144735,6,0,B|331:135|359:94|400:115,2,83.3333333333333,6|2|2,1:2|0:0|0:0,0:0:0:0:
249,45,145485,2,0,P|167:24|110:85,1,125,14|0,0:0|0:0,0:0:0:0:
56,125,146047,1,8,0:0:0:0:
56,125,146141,1,8,0:0:0:0:
56,125,146235,2,0,B|63:181|45:196|56:237,2,83.3333333333333,2|2|2,1:2|0:0|0:0,0:0:0:0:
153,130,146985,2,0,P|176:190|154:243,1,125,10|0,0:0|0:0,0:0:0:0:
71,313,147547,1,8,0:0:0:0:
71,313,147641,1,8,0:0:0:0:
71,313,147735,6,0,P|112:311|173:328,2,83.3333333333333,0|2|2,1:0|0:0|0:0,0:0:0:0:
54,216,148485,2,0,L|46:95,2,83.3333333333333,10|2|2,0:0|0:0|0:0,0:0:0:0:
151,213,149235,6,0,P|180:208|234:238,1,83.3333333333333,6|10,1:2|0:0,0:0:0:0:
324,201,149735,2,0,P|354:173|394:163,1,83.3333333333333,10|2,0:0|1:2,0:0:0:0:
384,71,150235,2,0,P|313:37|292:40,1,83.3333333333333,10|10,0:3|0:3,0:0:0:0:
226,91,150735,5,6,1:2:0:0:
256,192,150828,12,0,158235,0:0:0:0:
111,259,162735,5,2,0:3:0:0:
111,259,163485,5,2,0:3:0:0:
111,259,164235,1,2,0:3:0:0:
161,192,164610,1,2,0:3:0:0:
121,117,164985,2,0,B|190:99|239:159|309:142,1,187.5,2|0,0:3|0:0,0:0:0:0:
330,67,165735,5,6,1:2:0:0:
281,108,176985,6,0,P|190:106|246:218,1,250,2|0,0:0|0:0,0:0:0:0:
227,218,178485,2,0,P|270:206|293:206,2,41.6666666666667,4|8|8,1:2|0:0|0:0,0:0:0:0:
148,266,178860,2,0,P|127:261|108:254,2,41.6666666666667,8|8|8,0:0|0:0|0:0,0:0:0:0:
224,313,179235,6,0,B|260:318|301:324,1,62.5,2|8,1:2|0:0,0:0:0:0:
386,303,179610,2,0,L|470:291,1,62.5,0|2,1:0|0:0,0:0:0:0:
479,196,179985,1,10,0:0:0:0:
297,240,180360,1,2,0:0:0:0:
297,240,180547,1,10,0:0:0:0:
364,179,180735,6,0,P|357:111|349:54,1,125,2|2,1:2|1:2,0:0:0:0:
145,17,181485,2,0,P|152:85|160:142,1,125,10|2,0:0|0:0,0:0:0:0:
256,152,182047,1,8,0:0:0:0:
256,152,182141,1,8,0:0:0:0:
256,152,182235,1,6,1:2:0:0:
238,247,182422,1,8,0:0:0:0:
143,234,182610,1,2,1:2:0:0:
47,59,182985,2,0,P|86:56|121:51,1,62.5,10|0,0:0|0:0,0:0:0:0:
199,31,183360,1,2,0:0:0:0:
305,71,183547,1,8,0:0:0:0:
305,71,183641,1,8,0:0:0:0:
305,71,183735,6,0,P|377:72|441:79,2,125,2|2|8,1:2|1:2|0:0,0:0:0:0:
227,220,184860,1,2,0:0:0:0:
321,263,185047,1,8,0:0:0:0:
321,263,185141,1,8,0:0:0:0:
321,263,185235,2,0,P|359:255|405:252,1,62.5,2|8,1:2|0:0,0:0:0:0:
412,152,185610,2,0,P|374:160|328:163,1,62.5,2|0,1:2|0:0,0:0:0:0:
273,100,185985,1,10,0:0:0:0:
132,196,186360,1,2,0:0:0:0:
204,274,186547,1,10,0:0:0:0:
203,275,186641,1,8,0:0:0:0:
203,275,186735,6,0,B|206:311|206:311|197:355,1,62.5,12|2,0:0|0:2,0:0:0:0:
105,367,187110,2,0,L|36:359,1,62.5,12|0,0:0|0:0,0:0:0:0:
23,241,187485,1,4,1:2:0:0:
23,241,187672,2,0,L|11:95,1,125,2|0,1:2|1:0,0:0:0:0:
92,45,188235,2,0,P|92:77|101:109,1,62.5,6|0,1:2|1:0,0:0:0:0:
180,151,188610,2,0,B|192:188|192:188|185:273,1,125,2|0,1:2|1:0,0:0:0:0:
130,353,189172,2,0,P|182:320|244:319,1,125,6|8,0:0|0:0,0:0:0:0:
354,346,189735,6,0,B|424:361|409:315|490:344,2,125,6|0|12,1:2|1:0|0:0,0:0:0:0:
362,136,190860,1,2,0:0:0:0:
286,183,191047,1,8,0:0:0:0:
286,183,191141,1,8,0:0:0:0:
286,183,191235,2,0,B|270:153|270:153|275:113,1,62.5,2|8,1:2|0:0,0:0:0:0:
323,41,191610,2,0,L|394:51,1,62.5,0|0,1:0|0:0,0:0:0:0:
469,91,191985,1,10,0:0:0:0:
482,298,192360,1,0,0:0:0:0:
399,347,192547,1,8,0:0:0:0:
399,347,192641,1,8,0:0:0:0:
399,347,192735,6,0,P|394:290|381:211,1,125,2|0,1:2|1:0,0:0:0:0:
449,24,193485,2,0,P|454:81|467:160,1,125,10|0,0:0|0:0,0:0:0:0:
350,92,194047,1,8,0:0:0:0:
350,92,194141,1,8,0:0:0:0:
350,92,194235,6,0,P|343:51|328:-6,2,83.3333333333333,6|10|10,1:2|0:0|0:0,0:0:0:0:
286,178,194985,2,0,P|293:219|308:276,2,83.3333333333333,2|10|10,1:2|0:3|0:3,0:0:0:0:
184,130,195735,5,4,1:2:0:0:
184,130,197235,5,2,0:0:0:0:
200,303,197797,1,2,0:0:0:0:
202,308,197985,1,2,0:0:0:0:
293,280,198172,1,2,0:0:0:0:
366,335,198360,1,2,0:0:0:0:
256,192,198453,12,0,200235,0:0:0:0:
260,130,200610,5,8,0:3:0:0:
339,77,200797,1,8,0:0:0:0:
339,77,200891,1,8,0:0:0:0:
339,77,200985,2,0,L|423:71,1,62.5,8|8,0:0|0:0,0:0:0:0:
471,137,201360,1,8,0:0:0:0:
471,137,201547,1,8,0:0:0:0:
441,243,201735,6,0,B|377:241|392:286|312:284,1,125,4|2,1:2|1:2,0:0:0:0:
228,270,202297,2,0,P|235:303|238:331,1,62.5,0|8,0:0|0:0,0:0:0:0:
318,139,202860,1,0,0:0:0:0:
239,177,203047,1,10,0:0:0:0:
239,177,203235,2,0,B|230:141|230:141|237:90,1,62.5,0|8,1:0|0:0,0:0:0:0:
278,29,203610,2,0,B|193:43,1,62.5,2|0,1:2|0:0,0:0:0:0:
115,20,203985,1,10,0:0:0:0:
57,206,204360,1,2,0:0:0:0:
57,206,204547,1,8,0:0:0:0:
88,301,204735,6,0,B|137:298|137:298|169:308|169:308|213:306,1,125,2|2,1:2|1:2,0:0:0:0:
288,242,205297,2,0,P|257:235|212:223,1,62.5,2|8,0:0|0:0,0:0:0:0:
366,353,205860,1,2,0:0:0:0:
455,306,206047,1,8,0:0:0:0:
455,306,206235,2,0,B|463:273|463:273|448:206,1,62.5,2|10,1:2|0:0,0:0:0:0:
370,200,206610,2,0,B|363:172|363:172|371:139,1,62.5,2|0,1:2|0:0,0:0:0:0:
440,66,206985,1,10,0:0:0:0:
440,66,207172,1,0,0:0:0:0:
345,32,207360,2,0,B|269:39,1,62.5,2|8,1:2|0:0,0:0:0:0:
147,31,207735,6,0,P|107:75|136:161,1,125,6|2,1:2|1:2,0:0:0:0:
38,201,208297,2,0,P|75:205|116:224,1,62.5,0|10,0:0|0:0,0:0:0:0:
266,325,208860,1,2,0:0:0:0:
266,325,209047,1,10,0:0:0:0:
173,349,209235,2,0,P|175:317|180:287,1,62.5,2|8,1:2|0:0,0:0:0:0:
256,221,209610,2,0,P|263:176|262:124,1,62.5,2|0,1:2|0:0,0:0:0:0:
191,90,209985,1,8,0:0:0:0:
333,272,210360,1,2,0:0:0:0:
333,272,210547,1,8,0:0:0:0:
442,188,210735,6,0,P|409:182|369:177,1,62.5,2|0,1:2|1:0,0:0:0:0:
303,113,211110,2,0,P|270:107|230:102,1,62.5,8|2,0:0|0:0,0:0:0:0:
161,50,211485,1,8,0:0:0:0:
161,50,211672,1,0,1:0:0:0:
80,109,211860,2,0,P|80:140|90:170,1,62.5,0|0,0:0|1:0,0:0:0:0:
185,217,212235,2,0,P|184:248|175:277,1,62.5,8|0,0:0|0:0,0:0:0:0:
79,332,212610,2,0,L|69:245,1,62.5,10|0,0:0|1:0,0:0:0:0:
93,146,212985,1,2,1:2:0:0:
183,104,213172,1,8,0:0:0:0:
289,136,213360,1,8,0:3:0:0:
256,192,213453,12,0,219735,0:0:0:0:
