osu file format v14

[General]
AudioFilename: audio.mp3
AudioLeadIn: 0
PreviewTime: 51875
Countdown: 0
SampleSet: Soft
StackLeniency: 0.7
Mode: 1
LetterboxInBreaks: 0
WidescreenStoryboard: 0

[Editor]
DistanceSpacing: 0.8
BeatDivisor: 4
GridSize: 16
TimelineZoom: 1.2

[Metadata]
Title:Torikoriko PLEASE!!
TitleUnicode:トリコリコPLEASE!!
Artist:AZALEA
ArtistUnicode:AZALEA
Creator:ensan71714
Version:Oni
Source:ラブライブ!サンシャイン!!
Tags:school idol project sunshine!! 小宮有紗 Takatsuki Kanako 高槻かなこ 諏訪ななか 黒澤ダイヤ Kunikida Hanamaru 国木田花丸 松浦果南
BeatmapID:1140003
BeatmapSetID:536483

[Difficulty]
HPDrainRate:5
CircleSize:5
OverallDifficulty:5
ApproachRate:5
SliderMultiplier:1.4
SliderTickRate:1

[Events]
//Background and Video events
0,0,"Torikoriko_PLEASE!!.jpg",0,70
//Break Periods
//Storyboard Layer 0 (Background)
//Storyboard Layer 1 (Fail)
//Storyboard Layer 2 (Pass)
//Storyboard Layer 3 (Foreground)
//Storyboard Sound Samples

[TimingPoints]
553.571446131144,428.571428571429,4,2,0,100,1,0
51982,-100,4,2,0,100,0,1
77696,-100,4,2,0,100,0,0
125716,-100,4,2,0,100,0,1
137696,-100,4,2,0,100,0,0
190839,-100,4,2,0,100,0,1
202866,-100,4,2,0,100,0,0

[HitObjects]
256,192,2267,5,0,0:0:0:0:
256,192,2696,1,0,0:0:0:0:
256,192,3125,1,4,0:0:0:0:
256,192,3339,1,4,0:0:0:0:
256,192,3982,1,2,0:0:0:0:
256,192,4196,1,0,0:0:0:0:
256,192,4410,1,2,0:0:0:0:
256,192,4625,1,0,0:0:0:0:
256,192,4732,1,2,0:0:0:0:
256,192,4946,1,2,0:0:0:0:
256,192,5053,1,0,0:0:0:0:
256,192,5267,1,2,0:0:0:0:
256,192,5482,1,0,0:0:0:0:
256,192,5696,1,2,0:0:0:0:
256,192,5910,1,0,0:0:0:0:
256,192,6125,1,2,0:0:0:0:
256,192,6339,1,0,0:0:0:0:
256,192,6446,1,0,0:0:0:0:
256,192,6660,1,0,0:0:0:0:
256,192,6767,1,2,0:0:0:0:
256,192,6982,1,2,0:0:0:0:
256,192,7196,1,0,0:0:0:0:
256,192,7410,1,2,0:0:0:0:
256,192,7625,1,0,0:0:0:0:
256,192,7839,1,2,0:0:0:0:
256,192,8053,1,0,0:0:0:0:
256,192,8160,1,2,0:0:0:0:
256,192,8375,1,2,0:0:0:0:
256,192,8482,1,0,0:0:0:0:
256,192,8696,1,2,0:0:0:0:
256,192,8910,1,0,0:0:0:0:
256,192,9125,1,0,0:0:0:0:
256,192,9232,1,0,0:0:0:0:
256,192,9339,1,2,0:0:0:0:
256,192,9553,1,0,0:0:0:0:
256,192,9767,1,0,0:0:0:0:
256,192,9875,1,0,0:0:0:0:
256,192,9982,1,2,0:0:0:0:
256,192,10089,1,2,0:0:0:0:
256,192,10196,1,0,0:0:0:0:
256,192,10303,1,0,0:0:0:0:
256,192,10410,1,2,0:0:0:0:
256,192,10517,1,2,0:0:0:0:
256,192,10625,1,0,0:0:0:0:
256,192,10732,1,0,0:0:0:0:
256,192,10839,1,0,0:0:0:0:
256,192,11267,1,2,0:0:0:0:
256,192,11482,1,0,0:0:0:0:
256,192,11696,1,2,0:0:0:0:
256,192,12339,1,0,0:0:0:0:
256,192,12553,1,2,0:0:0:0:
256,192,12767,1,2,0:0:0:0:
256,192,12875,1,2,0:0:0:0:
256,192,12982,1,2,0:0:0:0:
256,192,13196,1,0,0:0:0:0:
256,192,13410,1,2,0:0:0:0:
256,192,14053,1,0,0:0:0:0:
256,192,14267,1,2,0:0:0:0:
256,192,14482,1,2,0:0:0:0:
256,192,14589,1,2,0:0:0:0:
256,192,14696,1,2,0:0:0:0:
256,192,14910,1,0,0:0:0:0:
256,192,15125,1,2,0:0:0:0:
256,192,15339,1,2,0:0:0:0:
256,192,15446,1,2,0:0:0:0:
256,192,15553,1,2,0:0:0:0:
256,192,15767,1,0,0:0:0:0:
256,192,15982,1,2,0:0:0:0:
256,192,16196,1,2,0:0:0:0:
256,192,16410,1,0,0:0:0:0:
256,192,16625,1,2,0:0:0:0:
256,192,16839,1,0,0:0:0:0:
256,192,17696,1,0,0:0:0:0:
256,192,17910,1,0,0:0:0:0:
256,192,18125,1,2,0:0:0:0:
256,192,18339,1,0,0:0:0:0:
256,192,18446,1,0,0:0:0:0:
256,192,18553,1,2,0:0:0:0:
256,192,18767,1,0,0:0:0:0:
256,192,18982,1,2,0:0:0:0:
256,192,19196,1,0,0:0:0:0:
256,192,19410,1,0,0:0:0:0:
256,192,19839,1,2,0:0:0:0:
256,192,20053,1,0,0:0:0:0:
256,192,20482,1,0,0:0:0:0:
256,192,20696,1,0,0:0:0:0:
256,192,20910,1,2,0:0:0:0:
256,192,21125,2,0,B|32:16|32:16|32:304|32:304,1,560
256,192,24553,5,2,0:0:0:0:
256,192,24982,1,2,0:0:0:0:
256,192,25196,1,0,0:0:0:0:
256,192,25303,1,0,0:0:0:0:
256,192,25410,1,2,0:0:0:0:
256,192,26053,1,0,0:0:0:0:
256,192,26267,1,2,0:0:0:0:
256,192,26482,1,2,0:0:0:0:
256,192,26589,1,2,0:0:0:0:
256,192,26696,1,2,0:0:0:0:
256,192,26910,1,0,0:0:0:0:
256,192,27125,1,2,0:0:0:0:
256,192,27767,1,0,0:0:0:0:
256,192,27982,1,2,0:0:0:0:
256,192,28196,1,2,0:0:0:0:
256,192,28303,1,2,0:0:0:0:
256,192,28410,1,2,0:0:0:0:
256,192,28625,1,0,0:0:0:0:
256,192,28839,1,2,0:0:0:0:
256,192,29053,1,2,0:0:0:0:
256,192,29160,1,0,0:0:0:0:
256,192,29267,1,2,0:0:0:0:
256,192,29482,1,0,0:0:0:0:
256,192,29696,1,2,0:0:0:0:
256,192,30125,1,0,0:0:0:0:
256,192,30339,1,2,0:0:0:0:
256,192,30767,1,0,0:0:0:0:
256,192,30982,1,0,0:0:0:0:
256,192,31196,1,0,0:0:0:0:
256,192,31410,1,2,0:0:0:0:
256,192,31625,1,0,0:0:0:0:
256,192,31732,1,0,0:0:0:0:
256,192,31839,1,2,0:0:0:0:
256,192,32053,1,0,0:0:0:0:
256,192,32267,1,2,0:0:0:0:
256,192,32696,1,2,0:0:0:0:
256,192,32910,1,0,0:0:0:0:
256,192,33125,1,2,0:0:0:0:
256,192,33553,1,2,0:0:0:0:
256,192,33767,1,0,0:0:0:0:
256,192,34196,1,0,0:0:0:0:
256,192,34410,1,0,0:0:0:0:
256,192,34625,1,2,0:0:0:0:
256,192,34839,1,0,0:0:0:0:
256,192,34946,1,0,0:0:0:0:
256,192,35053,1,0,0:0:0:0:
256,192,35267,1,2,0:0:0:0:
256,192,35482,1,0,0:0:0:0:
256,192,35589,1,0,0:0:0:0:
256,192,35696,1,0,0:0:0:0:
256,192,35910,1,2,0:0:0:0:
256,192,36125,1,0,0:0:0:0:
256,192,36339,1,2,0:0:0:0:
256,192,36446,1,2,0:0:0:0:
256,192,36553,1,0,0:0:0:0:
256,192,38267,1,2,0:0:0:0:
256,192,38696,1,2,0:0:0:0:
256,192,39125,1,2,0:0:0:0:
256,192,39553,1,2,0:0:0:0:
256,192,39982,1,2,0:0:0:0:
256,192,40410,1,2,0:0:0:0:
256,192,40839,1,2,0:0:0:0:
256,192,41267,1,2,0:0:0:0:
256,192,41696,1,2,0:0:0:0:
256,192,42125,1,2,0:0:0:0:
256,192,42339,1,2,0:0:0:0:
256,192,42553,1,2,0:0:0:0:
256,192,42767,1,2,0:0:0:0:
256,192,42982,1,2,0:0:0:0:
256,192,43196,1,2,0:0:0:0:
256,192,43410,1,2,0:0:0:0:
256,192,43839,1,2,0:0:0:0:
256,192,44267,1,2,0:0:0:0:
256,192,44696,1,2,0:0:0:0:
256,192,44910,1,0,0:0:0:0:
256,192,45125,1,0,0:0:0:0:
256,192,45339,1,0,0:0:0:0:
256,192,45553,1,0,0:0:0:0:
256,192,45767,1,0,0:0:0:0:
256,192,45982,1,0,0:0:0:0:
256,192,46196,1,0,0:0:0:0:
256,192,46410,1,0,0:0:0:0:
256,192,46625,1,0,0:0:0:0:
256,192,46732,1,0,0:0:0:0:
256,192,46839,1,0,0:0:0:0:
256,192,47053,1,0,0:0:0:0:
256,192,47267,1,0,0:0:0:0:
256,192,47482,1,0,0:0:0:0:
256,192,47696,1,0,0:0:0:0:
256,192,47910,1,0,0:0:0:0:
256,192,48125,1,0,0:0:0:0:
256,192,48339,1,0,0:0:0:0:
256,192,48553,1,0,0:0:0:0:
256,192,48660,1,0,0:0:0:0:
256,192,48767,1,0,0:0:0:0:
256,192,48875,1,0,0:0:0:0:
256,192,48982,1,2,0:0:0:0:
256,192,49089,1,2,0:0:0:0:
256,192,49196,1,2,0:0:0:0:
256,192,49303,1,2,0:0:0:0:
256,192,49410,1,0,0:0:0:0:
256,192,49517,1,0,0:0:0:0:
256,192,49625,1,2,0:0:0:0:
256,192,49732,1,2,0:0:0:0:
256,192,49839,1,0,0:0:0:0:
256,192,49946,1,0,0:0:0:0:
256,192,50053,1,2,0:0:0:0:
256,192,50160,1,2,0:0:0:0:
256,192,50267,1,0,0:0:0:0:
256,192,51125,1,4,0:0:0:0:
256,192,51553,1,4,0:0:0:0:
256,192,51982,1,0,0:0:0:0:
256,192,52196,1,0,0:0:0:0:
256,192,52303,1,0,0:0:0:0:
256,192,52410,1,2,0:0:0:0:
256,192,52625,1,0,0:0:0:0:
256,192,52839,1,0,0:0:0:0:
256,192,52946,1,0,0:0:0:0:
256,192,53053,1,0,0:0:0:0:
256,192,53160,1,0,0:0:0:0:
256,192,53267,1,2,0:0:0:0:
256,192,53482,1,0,0:0:0:0:
256,192,53696,1,0,0:0:0:0:
256,192,53910,1,0,0:0:0:0:
256,192,54017,1,0,0:0:0:0:
256,192,54125,1,2,0:0:0:0:
256,192,54339,1,0,0:0:0:0:
256,192,54553,1,0,0:0:0:0:
256,192,54660,1,0,0:0:0:0:
256,192,54767,1,2,0:0:0:0:
256,192,54875,1,0,0:0:0:0:
256,192,54982,1,2,0:0:0:0:
256,192,55196,1,0,0:0:0:0:
256,192,55303,1,0,0:0:0:0:
256,192,55410,1,0,0:0:0:0:
256,192,55625,1,0,0:0:0:0:
256,192,55839,1,2,0:0:0:0:
256,192,56053,1,0,0:0:0:0:
256,192,56482,1,0,0:0:0:0:
256,192,56696,1,2,0:0:0:0:
256,192,56910,1,0,0:0:0:0:
256,192,57125,1,0,0:0:0:0:
256,192,57232,1,0,0:0:0:0:
256,192,57339,1,2,0:0:0:0:
256,192,57446,1,2,0:0:0:0:
256,192,57553,1,0,0:0:0:0:
256,192,57767,1,0,0:0:0:0:
256,192,57875,1,2,0:0:0:0:
256,192,57982,1,0,0:0:0:0:
256,192,58196,1,2,0:0:0:0:
256,192,58410,1,2,0:0:0:0:
256,192,58625,1,0,0:0:0:0:
256,192,58732,1,0,0:0:0:0:
256,192,58839,1,0,0:0:0:0:
256,192,59053,1,0,0:0:0:0:
256,192,59160,1,0,0:0:0:0:
256,192,59267,1,2,0:0:0:0:
256,192,59482,1,0,0:0:0:0:
256,192,59696,1,0,0:0:0:0:
256,192,59803,1,0,0:0:0:0:
256,192,59910,1,0,0:0:0:0:
256,192,60017,1,0,0:0:0:0:
256,192,60125,1,2,0:0:0:0:
256,192,60339,1,0,0:0:0:0:
256,192,60553,1,0,0:0:0:0:
256,192,60767,1,0,0:0:0:0:
256,192,60875,1,0,0:0:0:0:
256,192,60982,1,2,0:0:0:0:
256,192,61196,1,2,0:0:0:0:
256,192,61410,1,0,0:0:0:0:
256,192,61517,1,0,0:0:0:0:
256,192,61625,1,2,0:0:0:0:
256,192,61732,1,0,0:0:0:0:
256,192,61839,1,2,0:0:0:0:
256,192,62053,1,0,0:0:0:0:
256,192,62160,1,0,0:0:0:0:
256,192,62267,1,0,0:0:0:0:
256,192,62482,1,0,0:0:0:0:
256,192,62696,1,2,0:0:0:0:
256,192,62910,1,0,0:0:0:0:
256,192,63339,1,4,0:0:0:0:
256,192,63767,1,6,0:0:0:0:
256,192,64625,1,0,0:0:0:0:
256,192,64732,1,0,0:0:0:0:
256,192,64839,1,2,0:0:0:0:
256,192,64946,1,2,0:0:0:0:
256,192,65053,1,0,0:0:0:0:
256,192,65160,1,0,0:0:0:0:
256,192,65267,1,2,0:0:0:0:
256,192,65375,1,2,0:0:0:0:
256,192,65482,1,0,0:0:0:0:
256,192,65589,1,2,0:0:0:0:
256,192,65696,1,0,0:0:0:0:
256,192,65910,1,0,0:0:0:0:
256,192,66017,1,0,0:0:0:0:
256,192,66125,1,2,0:0:0:0:
256,192,66339,1,0,0:0:0:0:
256,192,66553,1,0,0:0:0:0:
256,192,66660,1,0,0:0:0:0:
256,192,66767,1,0,0:0:0:0:
256,192,66875,1,0,0:0:0:0:
256,192,66982,1,2,0:0:0:0:
256,192,67196,1,0,0:0:0:0:
256,192,67410,1,0,0:0:0:0:
256,192,67625,1,0,0:0:0:0:
256,192,67732,1,0,0:0:0:0:
256,192,67839,1,2,0:0:0:0:
256,192,68053,1,0,0:0:0:0:
256,192,68267,1,0,0:0:0:0:
256,192,68375,1,0,0:0:0:0:
256,192,68482,1,2,0:0:0:0:
256,192,68589,1,0,0:0:0:0:
256,192,68696,1,2,0:0:0:0:
256,192,68910,1,2,0:0:0:0:
256,192,69125,1,0,0:0:0:0:
256,192,69339,1,0,0:0:0:0:
256,192,69446,1,0,0:0:0:0:
256,192,69553,1,2,0:0:0:0:
256,192,69767,1,0,0:0:0:0:
256,192,70196,1,4,0:0:0:0:
256,192,70625,1,4,0:0:0:0:
256,192,70839,1,0,0:0:0:0:
256,192,70946,1,0,0:0:0:0:
256,192,71053,1,2,0:0:0:0:
256,192,71160,1,2,0:0:0:0:
256,192,71267,1,0,0:0:0:0:
256,192,71482,1,0,0:0:0:0:
256,192,71589,1,2,0:0:0:0:
256,192,71696,1,0,0:0:0:0:
256,192,71910,1,2,0:0:0:0:
256,192,72125,1,2,0:0:0:0:
256,192,72339,1,0,0:0:0:0:
256,192,72446,1,0,0:0:0:0:
256,192,72553,1,0,0:0:0:0:
256,192,72767,1,0,0:0:0:0:
256,192,72875,1,0,0:0:0:0:
256,192,72982,1,2,0:0:0:0:
256,192,73196,1,0,0:0:0:0:
256,192,73410,1,0,0:0:0:0:
256,192,73517,1,0,0:0:0:0:
256,192,73625,1,0,0:0:0:0:
256,192,73732,1,0,0:0:0:0:
256,192,73839,1,2,0:0:0:0:
256,192,74053,1,0,0:0:0:0:
256,192,74267,1,0,0:0:0:0:
256,192,74482,1,0,0:0:0:0:
256,192,74589,1,0,0:0:0:0:
256,192,74696,1,2,0:0:0:0:
256,192,74910,1,2,0:0:0:0:
256,192,75339,1,6,0:0:0:0:
256,192,75767,1,4,0:0:0:0:
256,192,76625,1,0,0:0:0:0:
256,192,76839,1,0,0:0:0:0:
256,192,77053,1,0,0:0:0:0:
256,192,77267,1,0,0:0:0:0:
256,192,77375,1,0,0:0:0:0:
256,192,77482,1,0,0:0:0:0:
256,192,77589,1,0,0:0:0:0:
256,192,77696,1,2,0:0:0:0:
256,192,77910,1,0,0:0:0:0:
256,192,78125,1,2,0:0:0:0:
256,192,78339,1,0,0:0:0:0:
256,192,78446,1,2,0:0:0:0:
256,192,78660,1,2,0:0:0:0:
256,192,78767,1,0,0:0:0:0:
256,192,78982,1,2,0:0:0:0:
256,192,79196,1,0,0:0:0:0:
256,192,79410,1,2,0:0:0:0:
256,192,79625,1,0,0:0:0:0:
256,192,79839,1,2,0:0:0:0:
256,192,80053,1,0,0:0:0:0:
256,192,80160,1,0,0:0:0:0:
256,192,80375,1,0,0:0:0:0:
256,192,80482,1,2,0:0:0:0:
256,192,80696,1,2,0:0:0:0:
256,192,80910,1,0,0:0:0:0:
256,192,81125,1,2,0:0:0:0:
256,192,81339,1,0,0:0:0:0:
256,192,81553,1,2,0:0:0:0:
256,192,81767,1,0,0:0:0:0:
256,192,81875,1,2,0:0:0:0:
256,192,82089,1,2,0:0:0:0:
256,192,82196,1,0,0:0:0:0:
256,192,82410,1,2,0:0:0:0:
256,192,82625,1,0,0:0:0:0:
256,192,82839,1,0,0:0:0:0:
256,192,82946,1,0,0:0:0:0:
256,192,83053,1,2,0:0:0:0:
256,192,83267,1,0,0:0:0:0:
256,192,83482,1,0,0:0:0:0:
256,192,83589,1,0,0:0:0:0:
256,192,83696,1,2,0:0:0:0:
256,192,83803,1,2,0:0:0:0:
256,192,83910,1,0,0:0:0:0:
256,192,84017,1,0,0:0:0:0:
256,192,84125,1,2,0:0:0:0:
256,192,84232,1,2,0:0:0:0:
256,192,84339,1,0,0:0:0:0:
256,192,84446,1,0,0:0:0:0:
256,192,84553,1,2,0:0:0:0:
256,192,84982,1,0,0:0:0:0:
256,192,85196,1,0,0:0:0:0:
256,192,85410,1,2,0:0:0:0:
256,192,86053,1,0,0:0:0:0:
256,192,86267,1,2,0:0:0:0:
256,192,86482,1,2,0:0:0:0:
256,192,86589,1,2,0:0:0:0:
256,192,86696,1,2,0:0:0:0:
256,192,86910,1,0,0:0:0:0:
256,192,87125,1,2,0:0:0:0:
256,192,87767,1,0,0:0:0:0:
256,192,87982,1,2,0:0:0:0:
256,192,88196,1,2,0:0:0:0:
256,192,88303,1,2,0:0:0:0:
256,192,88410,1,2,0:0:0:0:
256,192,88625,1,0,0:0:0:0:
256,192,88839,1,2,0:0:0:0:
256,192,89053,1,0,0:0:0:0:
256,192,89160,1,0,0:0:0:0:
256,192,89267,1,2,0:0:0:0:
256,192,89482,1,0,0:0:0:0:
256,192,89696,1,0,0:0:0:0:
256,192,89910,1,2,0:0:0:0:
256,192,90125,1,2,0:0:0:0:
256,192,90339,1,2,0:0:0:0:
256,192,90553,1,0,0:0:0:0:
256,192,91410,1,0,0:0:0:0:
256,192,92696,1,2,0:0:0:0:
256,192,92910,1,2,0:0:0:0:
256,192,93125,1,0,0:0:0:0:
256,192,94410,1,2,0:0:0:0:
256,192,94625,1,2,0:0:0:0:
256,192,94839,1,0,0:0:0:0:
256,192,95696,1,0,0:0:0:0:
256,192,96553,1,0,0:0:0:0:
256,192,96767,1,0,0:0:0:0:
256,192,96875,1,0,0:0:0:0:
256,192,96982,1,2,0:0:0:0:
256,192,97196,1,0,0:0:0:0:
256,192,97303,1,0,0:0:0:0:
256,192,97410,1,2,0:0:0:0:
256,192,97625,1,2,0:0:0:0:
256,192,97839,1,0,0:0:0:0:
256,192,98267,1,0,0:0:0:0:
256,192,98696,1,2,0:0:0:0:
256,192,98910,1,0,0:0:0:0:
256,192,99017,1,0,0:0:0:0:
256,192,99125,1,2,0:0:0:0:
256,192,99767,1,0,0:0:0:0:
256,192,99982,1,2,0:0:0:0:
256,192,100196,1,0,0:0:0:0:
256,192,100303,1,0,0:0:0:0:
256,192,100410,1,2,0:0:0:0:
256,192,100625,1,0,0:0:0:0:
256,192,100839,1,2,0:0:0:0:
256,192,101482,1,0,0:0:0:0:
256,192,101696,1,2,0:0:0:0:
256,192,101910,1,0,0:0:0:0:
256,192,102017,1,0,0:0:0:0:
256,192,102125,1,2,0:0:0:0:
256,192,102339,1,0,0:0:0:0:
256,192,102553,1,2,0:0:0:0:
256,192,102767,1,0,0:0:0:0:
256,192,102875,1,0,0:0:0:0:
256,192,102982,1,2,0:0:0:0:
256,192,103196,1,0,0:0:0:0:
256,192,103410,1,2,0:0:0:0:
256,192,103839,1,2,0:0:0:0:
256,192,104053,1,2,0:0:0:0:
256,192,104482,1,0,0:0:0:0:
256,192,104910,1,0,0:0:0:0:
256,192,105125,1,2,0:0:0:0:
256,192,105339,1,0,0:0:0:0:
256,192,105446,1,0,0:0:0:0:
256,192,105553,1,2,0:0:0:0:
256,192,105767,1,0,0:0:0:0:
256,192,105982,1,2,0:0:0:0:
256,192,106410,1,2,0:0:0:0:
256,192,106625,1,0,0:0:0:0:
256,192,106839,1,2,0:0:0:0:
256,192,107267,1,2,0:0:0:0:
256,192,107482,1,0,0:0:0:0:
256,192,107910,1,0,0:0:0:0:
256,192,108125,1,0,0:0:0:0:
256,192,108339,1,2,0:0:0:0:
256,192,108553,1,0,0:0:0:0:
256,192,108660,1,0,0:0:0:0:
256,192,108767,1,0,0:0:0:0:
256,192,108982,1,2,0:0:0:0:
256,192,109196,1,0,0:0:0:0:
256,192,109303,1,0,0:0:0:0:
256,192,109410,1,2,0:0:0:0:
256,192,109625,1,0,0:0:0:0:
256,192,109839,1,0,0:0:0:0:
256,192,110053,1,2,0:0:0:0:
256,192,110160,1,2,0:0:0:0:
256,192,110267,1,4,0:0:0:0:
256,192,111982,1,2,0:0:0:0:
256,192,112410,1,2,0:0:0:0:
256,192,112839,1,2,0:0:0:0:
256,192,113267,1,2,0:0:0:0:
256,192,113696,1,2,0:0:0:0:
256,192,114125,1,2,0:0:0:0:
256,192,114553,1,2,0:0:0:0:
256,192,114982,1,2,0:0:0:0:
256,192,115410,1,2,0:0:0:0:
256,192,115839,1,2,0:0:0:0:
256,192,116053,1,2,0:0:0:0:
256,192,116267,1,2,0:0:0:0:
256,192,116482,1,2,0:0:0:0:
256,192,116696,1,2,0:0:0:0:
256,192,116910,1,2,0:0:0:0:
256,192,117125,1,2,0:0:0:0:
256,192,117553,1,2,0:0:0:0:
256,192,117982,1,2,0:0:0:0:
256,192,118410,1,2,0:0:0:0:
256,192,118625,1,0,0:0:0:0:
256,192,118839,1,0,0:0:0:0:
256,192,119053,1,0,0:0:0:0:
256,192,119267,1,0,0:0:0:0:
256,192,119482,1,0,0:0:0:0:
256,192,119696,1,0,0:0:0:0:
256,192,119910,1,0,0:0:0:0:
256,192,120125,1,0,0:0:0:0:
256,192,120339,1,0,0:0:0:0:
256,192,120446,1,0,0:0:0:0:
256,192,120553,1,0,0:0:0:0:
256,192,120767,1,0,0:0:0:0:
256,192,120982,1,0,0:0:0:0:
256,192,121196,1,0,0:0:0:0:
256,192,121410,1,0,0:0:0:0:
256,192,121625,1,0,0:0:0:0:
256,192,121839,1,0,0:0:0:0:
256,192,122053,1,0,0:0:0:0:
256,192,122267,1,0,0:0:0:0:
256,192,122375,1,0,0:0:0:0:
256,192,122482,1,0,0:0:0:0:
256,192,122589,1,0,0:0:0:0:
256,192,122696,1,2,0:0:0:0:
256,192,122803,1,2,0:0:0:0:
256,192,122910,1,2,0:0:0:0:
256,192,123017,1,2,0:0:0:0:
256,192,123125,1,0,0:0:0:0:
256,192,123232,1,0,0:0:0:0:
256,192,123339,1,2,0:0:0:0:
256,192,123446,1,2,0:0:0:0:
256,192,123553,1,0,0:0:0:0:
256,192,123660,1,0,0:0:0:0:
256,192,123767,1,2,0:0:0:0:
256,192,123875,1,2,0:0:0:0:
256,192,123982,1,0,0:0:0:0:
256,192,124839,1,4,0:0:0:0:
256,192,125267,1,4,0:0:0:0:
256,192,125696,1,0,0:0:0:0:
256,192,125910,1,0,0:0:0:0:
256,192,126017,1,0,0:0:0:0:
256,192,126124,1,2,0:0:0:0:
256,192,126339,1,0,0:0:0:0:
256,192,126553,1,0,0:0:0:0:
256,192,126660,1,0,0:0:0:0:
256,192,126767,1,0,0:0:0:0:
256,192,126874,1,0,0:0:0:0:
256,192,126981,1,2,0:0:0:0:
256,192,127196,1,0,0:0:0:0:
256,192,127410,1,0,0:0:0:0:
256,192,127624,1,0,0:0:0:0:
256,192,127731,1,0,0:0:0:0:
256,192,127839,1,2,0:0:0:0:
256,192,128053,1,0,0:0:0:0:
256,192,128267,1,0,0:0:0:0:
256,192,128375,1,0,0:0:0:0:
256,192,128481,1,2,0:0:0:0:
256,192,128589,1,0,0:0:0:0:
256,192,128696,1,2,0:0:0:0:
256,192,128910,1,0,0:0:0:0:
256,192,129017,1,0,0:0:0:0:
256,192,129124,1,0,0:0:0:0:
256,192,129339,1,0,0:0:0:0:
256,192,129553,1,2,0:0:0:0:
256,192,129767,1,0,0:0:0:0:
256,192,130196,1,0,0:0:0:0:
256,192,130410,1,2,0:0:0:0:
256,192,130624,1,0,0:0:0:0:
256,192,130839,1,0,0:0:0:0:
256,192,130946,1,0,0:0:0:0:
256,192,131053,1,2,0:0:0:0:
256,192,131160,1,2,0:0:0:0:
256,192,131267,1,0,0:0:0:0:
256,192,131481,1,0,0:0:0:0:
256,192,131589,1,2,0:0:0:0:
256,192,131696,1,0,0:0:0:0:
256,192,131910,1,2,0:0:0:0:
256,192,132124,1,2,0:0:0:0:
256,192,132339,1,0,0:0:0:0:
256,192,132446,1,0,0:0:0:0:
256,192,132553,1,0,0:0:0:0:
256,192,132767,1,0,0:0:0:0:
256,192,132874,1,0,0:0:0:0:
256,192,132981,1,2,0:0:0:0:
256,192,133196,1,0,0:0:0:0:
256,192,133410,1,0,0:0:0:0:
256,192,133517,1,0,0:0:0:0:
256,192,133624,1,0,0:0:0:0:
256,192,133731,1,0,0:0:0:0:
256,192,133839,1,2,0:0:0:0:
256,192,134053,1,0,0:0:0:0:
256,192,134267,1,0,0:0:0:0:
256,192,134481,1,0,0:0:0:0:
256,192,134589,1,0,0:0:0:0:
256,192,134696,1,2,0:0:0:0:
256,192,134910,1,2,0:0:0:0:
256,192,135125,1,0,0:0:0:0:
256,192,135232,1,0,0:0:0:0:
256,192,135339,1,2,0:0:0:0:
256,192,135446,1,0,0:0:0:0:
256,192,135553,1,2,0:0:0:0:
256,192,135767,1,0,0:0:0:0:
256,192,135874,1,0,0:0:0:0:
256,192,135981,1,0,0:0:0:0:
256,192,136196,1,0,0:0:0:0:
256,192,136410,1,2,0:0:0:0:
256,192,136624,1,0,0:0:0:0:
256,192,137053,1,4,0:0:0:0:
256,192,137481,1,6,0:0:0:0:
256,192,139410,5,0,0:0:0:0:
256,192,139517,1,0,0:0:0:0:
256,192,139625,1,0,0:0:0:0:
256,192,139839,1,2,0:0:0:0:
256,192,140053,1,0,0:0:0:0:
256,192,140160,1,0,0:0:0:0:
256,192,140267,1,0,0:0:0:0:
256,192,140482,1,0,0:0:0:0:
256,192,140696,1,2,0:0:0:0:
256,192,140910,1,0,0:0:0:0:
256,192,141125,1,0,0:0:0:0:
256,192,141232,1,0,0:0:0:0:
256,192,141339,1,2,0:0:0:0:
256,192,141553,1,0,0:0:0:0:
256,192,141767,1,0,0:0:0:0:
256,192,141875,1,0,0:0:0:0:
256,192,142089,1,0,0:0:0:0:
256,192,142196,1,0,0:0:0:0:
256,192,142410,1,2,0:0:0:0:
256,192,142625,1,0,0:0:0:0:
256,192,142732,1,0,0:0:0:0:
256,192,142839,1,0,0:0:0:0:
256,192,142946,1,0,0:0:0:0:
256,192,143053,1,0,0:0:0:0:
256,192,143267,1,2,0:0:0:0:
256,192,143482,1,0,0:0:0:0:
256,192,143589,1,0,0:0:0:0:
256,192,143803,1,0,0:0:0:0:
256,192,143910,1,0,0:0:0:0:
256,192,144125,1,2,0:0:0:0:
256,192,144339,1,0,0:0:0:0:
256,192,144553,1,0,0:0:0:0:
256,192,144660,1,0,0:0:0:0:
256,192,144767,1,0,0:0:0:0:
256,192,144982,1,2,0:0:0:0:
256,192,145196,1,0,0:0:0:0:
256,192,145303,1,0,0:0:0:0:
256,192,145517,1,0,0:0:0:0:
256,192,145625,1,0,0:0:0:0:
256,192,145839,1,0,0:0:0:0:
256,192,146053,1,0,0:0:0:0:
256,192,146267,1,0,0:0:0:0:
256,192,146375,1,0,0:0:0:0:
256,192,146482,1,2,0:0:0:0:
256,192,146696,1,2,0:0:0:0:
256,192,146910,1,0,0:0:0:0:
256,192,147125,1,2,0:0:0:0:
256,192,147232,1,0,0:0:0:0:
256,192,147339,1,0,0:0:0:0:
256,192,147553,1,0,0:0:0:0:
256,192,147767,1,4,0:0:0:0:
256,192,147982,1,0,0:0:0:0:
256,192,148196,1,4,0:0:0:0:
256,192,148410,1,0,0:0:0:0:
256,192,148625,1,6,0:0:0:0:
256,192,148839,1,0,0:0:0:0:
256,192,149053,1,6,0:0:0:0:
256,192,149267,1,0,0:0:0:0:
256,192,149482,1,0,0:0:0:0:
256,192,149589,1,0,0:0:0:0:
256,192,149696,1,2,0:0:0:0:
256,192,149803,1,0,0:0:0:0:
256,192,149910,1,0,0:0:0:0:
256,192,150017,1,2,0:0:0:0:
256,192,150125,1,0,0:0:0:0:
256,192,150232,1,0,0:0:0:0:
256,192,150339,1,2,0:0:0:0:
256,192,150446,1,0,0:0:0:0:
256,192,150553,1,0,0:0:0:0:
256,192,150660,1,0,0:0:0:0:
256,192,150767,1,2,0:0:0:0:
256,192,150875,1,0,0:0:0:0:
256,192,150982,1,2,0:0:0:0:
256,192,151089,1,0,0:0:0:0:
256,192,151196,1,0,0:0:0:0:
256,192,151410,12,0,152696,0:0:0:0:
256,192,153125,5,4,0:0:0:0:
256,192,153446,1,4,0:0:0:0:
256,192,153767,1,6,0:0:0:0:
256,192,154089,1,6,0:0:0:0:
256,192,154410,1,0,0:0:0:0:
256,192,154625,1,0,0:0:0:0:
256,192,154732,1,0,0:0:0:0:
256,192,154839,1,6,0:0:0:0:
256,192,155160,1,6,0:0:0:0:
256,192,155482,1,4,0:0:0:0:
256,192,155803,1,4,0:0:0:0:
256,192,156125,1,2,0:0:0:0:
256,192,156339,1,2,0:0:0:0:
256,192,156446,1,2,0:0:0:0:
256,192,156553,1,4,0:0:0:0:
256,192,156875,1,6,0:0:0:0:
256,192,157196,1,4,0:0:0:0:
256,192,157517,1,6,0:0:0:0:
256,192,157839,1,0,0:0:0:0:
256,192,158053,1,0,0:0:0:0:
256,192,158267,1,4,0:0:0:0:
256,192,158589,1,4,0:0:0:0:
256,192,158910,1,6,0:0:0:0:
256,192,159232,1,6,0:0:0:0:
256,192,159553,1,2,0:0:0:0:
256,192,159767,1,2,0:0:0:0:
256,192,159982,1,0,0:0:0:0:
256,192,160196,1,0,0:0:0:0:
256,192,160410,1,0,0:0:0:0:
256,192,160625,1,0,0:0:0:0:
256,192,160839,1,0,0:0:0:0:
256,192,161053,1,0,0:0:0:0:
256,192,161267,1,0,0:0:0:0:
256,192,161482,1,0,0:0:0:0:
256,192,161696,1,0,0:0:0:0:
256,192,161803,1,0,0:0:0:0:
256,192,161910,1,0,0:0:0:0:
256,192,162125,1,0,0:0:0:0:
256,192,162339,1,0,0:0:0:0:
256,192,162446,1,0,0:0:0:0:
256,192,162553,1,2,0:0:0:0:
256,192,162660,1,2,0:0:0:0:
256,192,162767,1,0,0:0:0:0:
256,192,162875,1,0,0:0:0:0:
256,192,162982,1,2,0:0:0:0:
256,192,163089,1,2,0:0:0:0:
256,192,163196,1,0,0:0:0:0:
256,192,163303,1,0,0:0:0:0:
256,192,163410,1,2,0:0:0:0:
256,192,163839,1,2,0:0:0:0:
256,192,164267,1,2,0:0:0:0:
256,192,164696,1,2,0:0:0:0:
256,192,165125,1,2,0:0:0:0:
256,192,165553,1,2,0:0:0:0:
256,192,165982,1,2,0:0:0:0:
256,192,166410,1,2,0:0:0:0:
256,192,166839,1,2,0:0:0:0:
256,192,167267,1,2,0:0:0:0:
256,192,167482,1,2,0:0:0:0:
256,192,167696,1,2,0:0:0:0:
256,192,167910,1,2,0:0:0:0:
256,192,168125,1,2,0:0:0:0:
256,192,168339,1,2,0:0:0:0:
256,192,168553,1,2,0:0:0:0:
256,192,168982,1,2,0:0:0:0:
256,192,169410,1,2,0:0:0:0:
256,192,169839,1,2,0:0:0:0:
256,192,170053,1,0,0:0:0:0:
256,192,170267,1,0,0:0:0:0:
256,192,170482,1,0,0:0:0:0:
256,192,170696,1,0,0:0:0:0:
256,192,170910,1,0,0:0:0:0:
256,192,171125,1,0,0:0:0:0:
256,192,171339,1,0,0:0:0:0:
256,192,171553,1,0,0:0:0:0:
256,192,171767,1,0,0:0:0:0:
256,192,171875,1,0,0:0:0:0:
256,192,171982,1,0,0:0:0:0:
256,192,172196,1,0,0:0:0:0:
256,192,172410,1,0,0:0:0:0:
256,192,172625,1,0,0:0:0:0:
256,192,172839,1,0,0:0:0:0:
256,192,173053,1,0,0:0:0:0:
256,192,173267,1,0,0:0:0:0:
256,192,173482,1,0,0:0:0:0:
256,192,173696,1,0,0:0:0:0:
256,192,173803,1,0,0:0:0:0:
256,192,173910,1,0,0:0:0:0:
256,192,174017,1,0,0:0:0:0:
256,192,174125,1,2,0:0:0:0:
256,192,174232,1,2,0:0:0:0:
256,192,174339,1,2,0:0:0:0:
256,192,174446,1,2,0:0:0:0:
256,192,174553,1,0,0:0:0:0:
256,192,174660,1,0,0:0:0:0:
256,192,174767,1,2,0:0:0:0:
256,192,174875,1,2,0:0:0:0:
256,192,174982,1,0,0:0:0:0:
256,192,175089,1,0,0:0:0:0:
256,192,175196,1,2,0:0:0:0:
256,192,175303,1,2,0:0:0:0:
256,192,175410,1,0,0:0:0:0:
256,192,176267,1,4,0:0:0:0:
256,192,176696,1,4,0:0:0:0:
256,192,177125,12,0,177982,0:0:0:0:
256,192,178410,5,2,0:0:0:0:
256,192,178625,1,0,0:0:0:0:
256,192,179053,1,0,0:0:0:0:
256,192,179267,1,2,0:0:0:0:
256,192,179482,1,0,0:0:0:0:
256,192,179910,1,0,0:0:0:0:
256,192,180017,1,0,0:0:0:0:
256,192,180125,1,0,0:0:0:0:
256,192,180339,12,0,181410,0:0:0:0:
256,192,181839,5,2,0:0:0:0:
256,192,182053,1,0,0:0:0:0:
256,192,182267,5,0,0:0:0:0:
256,192,182375,1,0,0:0:0:0:
256,192,182482,1,2,0:0:0:0:
256,192,182589,1,0,0:0:0:0:
256,192,182696,1,0,0:0:0:0:
256,192,182910,1,0,0:0:0:0:
256,192,183017,1,0,0:0:0:0:
256,192,183125,1,0,0:0:0:0:
256,192,183339,1,2,0:0:0:0:
256,192,183446,1,2,0:0:0:0:
256,192,183553,1,2,0:0:0:0:
256,192,183982,12,0,184839,0:0:0:0:
256,192,185267,5,2,0:0:0:0:
256,192,185482,1,0,0:0:0:0:
256,192,185910,5,0,0:0:0:0:
256,192,186017,1,0,0:0:0:0:
256,192,186125,1,2,0:0:0:0:
256,192,186339,1,0,0:0:0:0:
256,192,186767,1,0,0:0:0:0:
256,192,186875,1,0,0:0:0:0:
256,192,186982,1,0,0:0:0:0:
256,192,187196,1,2,0:0:0:0:
256,192,187410,1,0,0:0:0:0:
256,192,187625,1,0,0:0:0:0:
256,192,187732,1,0,0:0:0:0:
256,192,187839,1,2,0:0:0:0:
256,192,188053,1,0,0:0:0:0:
256,192,188482,1,4,0:0:0:0:
256,192,188910,1,6,0:0:0:0:
256,192,189767,1,0,0:0:0:0:
256,192,189874,1,0,0:0:0:0:
256,192,189981,1,2,0:0:0:0:
256,192,190088,1,2,0:0:0:0:
256,192,190195,1,0,0:0:0:0:
256,192,190302,1,0,0:0:0:0:
256,192,190409,1,2,0:0:0:0:
256,192,190517,1,2,0:0:0:0:
256,192,190624,1,0,0:0:0:0:
256,192,190731,1,2,0:0:0:0:
256,192,190838,1,0,0:0:0:0:
256,192,191052,1,0,0:0:0:0:
256,192,191159,1,0,0:0:0:0:
256,192,191267,1,2,0:0:0:0:
256,192,191481,1,0,0:0:0:0:
256,192,191696,1,0,0:0:0:0:
256,192,191803,1,0,0:0:0:0:
256,192,191909,1,0,0:0:0:0:
256,192,192017,1,0,0:0:0:0:
256,192,192124,1,2,0:0:0:0:
256,192,192338,1,0,0:0:0:0:
256,192,192553,1,0,0:0:0:0:
256,192,192767,1,0,0:0:0:0:
256,192,192874,1,0,0:0:0:0:
256,192,192981,1,2,0:0:0:0:
256,192,193195,1,0,0:0:0:0:
256,192,193410,1,0,0:0:0:0:
256,192,193517,1,0,0:0:0:0:
256,192,193624,1,2,0:0:0:0:
256,192,193731,1,0,0:0:0:0:
256,192,193838,1,2,0:0:0:0:
256,192,194052,1,2,0:0:0:0:
256,192,194267,1,0,0:0:0:0:
256,192,194481,1,0,0:0:0:0:
256,192,194588,1,0,0:0:0:0:
256,192,194695,1,2,0:0:0:0:
256,192,194909,1,0,0:0:0:0:
256,192,195338,1,4,0:0:0:0:
256,192,195767,1,4,0:0:0:0:
256,192,195981,1,0,0:0:0:0:
256,192,196088,1,0,0:0:0:0:
256,192,196195,1,2,0:0:0:0:
256,192,196302,1,2,0:0:0:0:
256,192,196409,1,0,0:0:0:0:
256,192,196624,1,0,0:0:0:0:
256,192,196731,1,2,0:0:0:0:
256,192,196838,1,0,0:0:0:0:
256,192,197052,1,2,0:0:0:0:
256,192,197267,1,2,0:0:0:0:
256,192,197481,1,0,0:0:0:0:
256,192,197588,1,0,0:0:0:0:
256,192,197695,1,0,0:0:0:0:
256,192,197909,1,0,0:0:0:0:
256,192,198017,1,0,0:0:0:0:
256,192,198124,1,2,0:0:0:0:
256,192,198338,1,0,0:0:0:0:
256,192,198553,1,0,0:0:0:0:
256,192,198660,1,0,0:0:0:0:
256,192,198767,1,0,0:0:0:0:
256,192,198874,1,0,0:0:0:0:
256,192,198981,1,2,0:0:0:0:
256,192,199195,1,0,0:0:0:0:
256,192,199410,1,0,0:0:0:0:
256,192,199624,1,0,0:0:0:0:
256,192,199731,1,0,0:0:0:0:
256,192,199838,1,2,0:0:0:0:
256,192,200052,1,2,0:0:0:0:
256,192,200481,1,6,0:0:0:0:
256,192,200909,1,4,0:0:0:0:
256,192,201767,5,0,0:0:0:0:
256,192,201981,1,0,0:0:0:0:
256,192,202195,1,0,0:0:0:0:
256,192,202410,5,0,0:0:0:0:
256,192,202517,1,0,0:0:0:0:
256,192,202625,1,0,0:0:0:0:
256,192,202732,1,0,0:0:0:0:
256,192,202839,1,2,0:0:0:0:
256,192,203053,1,0,0:0:0:0:
256,192,203267,1,2,0:0:0:0:
256,192,203482,1,0,0:0:0:0:
256,192,203589,1,2,0:0:0:0:
256,192,203803,1,2,0:0:0:0:
256,192,203910,1,0,0:0:0:0:
256,192,204125,1,2,0:0:0:0:
256,192,204339,1,0,0:0:0:0:
256,192,204553,5,2,0:0:0:0:
256,192,204767,1,0,0:0:0:0:
256,192,204982,1,2,0:0:0:0:
256,192,205196,1,0,0:0:0:0:
256,192,205303,1,0,0:0:0:0:
256,192,205517,1,0,0:0:0:0:
256,192,205625,1,2,0:0:0:0:
256,192,205839,1,2,0:0:0:0:
256,192,206053,1,0,0:0:0:0:
256,192,206267,1,2,0:0:0:0:
256,192,206482,1,0,0:0:0:0:
256,192,206696,1,2,0:0:0:0:
256,192,206910,1,0,0:0:0:0:
256,192,207017,1,2,0:0:0:0:
256,192,207232,1,2,0:0:0:0:
256,192,207339,1,0,0:0:0:0:
256,192,207553,1,2,0:0:0:0:
256,192,207767,1,0,0:0:0:0:
256,192,207982,1,0,0:0:0:0:
256,192,208089,1,0,0:0:0:0:
256,192,208196,1,2,0:0:0:0:
256,192,208410,1,0,0:0:0:0:
256,192,208625,1,0,0:0:0:0:
256,192,208732,1,0,0:0:0:0:
256,192,208839,1,2,0:0:0:0:
256,192,208946,1,2,0:0:0:0:
256,192,209053,1,0,0:0:0:0:
256,192,209160,1,0,0:0:0:0:
256,192,209267,1,2,0:0:0:0:
256,192,209375,1,2,0:0:0:0:
256,192,209482,1,0,0:0:0:0:
256,192,209589,1,0,0:0:0:0:
256,192,209696,1,2,0:0:0:0:
256,192,209910,1,0,0:0:0:0:
256,192,210125,1,2,0:0:0:0:
256,192,210339,1,0,0:0:0:0:
256,192,210446,1,2,0:0:0:0:
256,192,210660,1,2,0:0:0:0:
256,192,210767,1,0,0:0:0:0:
256,192,210982,1,2,0:0:0:0:
256,192,211196,1,0,0:0:0:0:
256,192,211410,1,2,0:0:0:0:
256,192,211625,1,0,0:0:0:0:
256,192,211839,1,2,0:0:0:0:
256,192,212053,1,0,0:0:0:0:
256,192,212160,1,0,0:0:0:0:
256,192,212375,1,0,0:0:0:0:
256,192,212482,1,2,0:0:0:0:
256,192,212696,1,2,0:0:0:0:
256,192,212910,1,0,0:0:0:0:
256,192,213125,1,2,0:0:0:0:
256,192,213339,1,0,0:0:0:0:
256,192,213553,1,2,0:0:0:0:
256,192,213767,1,0,0:0:0:0:
256,192,213875,1,2,0:0:0:0:
256,192,214089,1,2,0:0:0:0:
256,192,214196,5,0,0:0:0:0:
256,192,214410,1,2,0:0:0:0:
256,192,214625,1,0,0:0:0:0:
256,192,214839,1,0,0:0:0:0:
256,192,214946,1,0,0:0:0:0:
256,192,215053,1,2,0:0:0:0:
256,192,215267,1,0,0:0:0:0:
256,192,215482,1,0,0:0:0:0:
256,192,215589,1,0,0:0:0:0:
256,192,215696,1,2,0:0:0:0:
256,192,215803,1,2,0:0:0:0:
256,192,215910,1,0,0:0:0:0:
256,192,216017,1,0,0:0:0:0:
256,192,216125,1,2,0:0:0:0:
256,192,216232,1,2,0:0:0:0:
256,192,216339,1,0,0:0:0:0:
256,192,216446,1,2,0:0:0:0:
256,192,216553,1,0,0:0:0:0:
