osu file format v14

[General]
AudioFilename: audio.mp3
AudioLeadIn: 0
PreviewTime: 51875
Countdown: 0
SampleSet: Soft
StackLeniency: 0.7
Mode: 1
LetterboxInBreaks: 0
WidescreenStoryboard: 0

[Editor]
DistanceSpacing: 0.8
BeatDivisor: 4
GridSize: 16
TimelineZoom: 0.5999999

[Metadata]
Title:Torikoriko PLEASE!!
TitleUnicode:トリコリコPLEASE!!
Artist:AZALEA
ArtistUnicode:AZALEA
Creator:ensan71714
Version:Kantan
Source:ラブライブ!サンシャイン!!
Tags:lovelive school idol project sunshine!! aqours 小宮有紗 Komiya Arisa 高槻かなこ Takatsuki Kanako 諏訪ななか Suwa Nanaka 黒澤ダイヤ Kurosawa Dia 国木田花丸 Kunikida Hanamaru 松浦果南 Matsuura Kanan
BeatmapID:1136161
BeatmapSetID:536483

[Difficulty]
HPDrainRate:7
CircleSize:5
OverallDifficulty:3
ApproachRate:5
SliderMultiplier:1.4
SliderTickRate:1

[Events]
//Background and Video events
0,0,"Torikoriko_PLEASE!!.jpg",0,70
//Break Periods
2,139610,151925
//Storyboard Layer 0 (Background)
//Storyboard Layer 1 (Fail)
//Storyboard Layer 2 (Pass)
//Storyboard Layer 3 (Foreground)
//Storyboard Sound Samples

[TimingPoints]
553.571446131144,428.571428571429,4,2,0,100,1,0
51982,-100,4,2,0,100,0,1
77696,-100,4,2,0,100,0,0
125716,-100,4,2,0,100,0,1
137696,-100,4,2,0,100,0,0
190839,-100,4,2,0,100,0,1
202866,-100,4,2,0,100,0,0

[HitObjects]
256,192,2267,5,0,0:0:0:0:
256,192,2696,1,0,0:0:0:0:
256,192,3125,1,4,0:0:0:0:
256,192,3982,1,0,0:0:0:0:
256,192,5696,1,0,0:0:0:0:
256,192,7410,1,0,0:0:0:0:
256,192,9125,1,0,0:0:0:0:
256,192,9982,1,0,0:0:0:0:
256,192,10839,1,0,0:0:0:0:
256,192,11267,1,0,0:0:0:0:
256,192,11696,1,0,0:0:0:0:
256,192,12553,1,0,0:0:0:0:
256,192,12982,1,0,0:0:0:0:
256,192,13410,1,2,0:0:0:0:
256,192,14267,1,0,0:0:0:0:
256,192,15125,1,2,0:0:0:0:
256,192,15982,1,0,0:0:0:0:
256,192,17696,1,0,0:0:0:0:
256,192,18553,1,2,0:0:0:0:
256,192,19410,1,0,0:0:0:0:
256,192,19839,1,0,0:0:0:0:
256,192,20267,1,0,0:0:0:0:
256,192,21125,2,0,B|0:0|0:0|0:240|0:240|0:240|0:240,1,560
256,192,24553,1,0,0:0:0:0:
256,192,25410,1,2,0:0:0:0:
256,192,26267,1,0,0:0:0:0:
256,192,26696,1,0,0:0:0:0:
256,192,27125,1,0,0:0:0:0:
256,192,27982,1,0,0:0:0:0:
256,192,28839,1,0,0:0:0:0:
256,192,29696,1,0,0:0:0:0:
256,192,30125,1,0,0:0:0:0:
256,192,30553,1,0,0:0:0:0:
256,192,31410,1,2,0:0:0:0:
256,192,31839,1,2,0:0:0:0:
256,192,32267,1,2,0:0:0:0:
256,192,33125,1,0,0:0:0:0:
256,192,33553,1,0,0:0:0:0:
256,192,33982,1,0,0:0:0:0:
256,192,34839,2,0,B|0:0|0:0|0:240|0:240,1,560
256,192,38267,1,2,0:0:0:0:
256,192,39125,1,2,0:0:0:0:
256,192,39982,1,2,0:0:0:0:
256,192,40839,1,2,0:0:0:0:
256,192,41696,1,2,0:0:0:0:
256,192,42553,1,2,0:0:0:0:
256,192,43410,1,2,0:0:0:0:
256,192,44267,1,2,0:0:0:0:
256,192,45125,1,0,0:0:0:0:
256,192,45553,1,0,0:0:0:0:
256,192,45982,1,0,0:0:0:0:
256,192,46410,1,0,0:0:0:0:
256,192,46839,1,0,0:0:0:0:
256,192,47267,1,0,0:0:0:0:
256,192,47696,1,0,0:0:0:0:
256,192,48125,1,0,0:0:0:0:
256,192,48553,2,0,L|32:16,1,280
256,192,50267,1,0,0:0:0:0:
256,192,51125,1,4,0:0:0:0:
256,192,51553,1,6,0:0:0:0:
256,192,51982,2,0,B|32:16|32:16,1,280
256,192,53696,1,0,0:0:0:0:
256,192,54553,1,0,0:0:0:0:
256,192,54982,1,0,0:0:0:0:
256,192,55410,2,0,B|32:16|32:16,1,280
256,192,57125,1,0,0:0:0:0:
256,192,57982,1,2,0:0:0:0:
256,192,58410,1,2,0:0:0:0:
256,192,58839,2,0,B|32:16|32:16,1,280
256,192,60553,1,0,0:0:0:0:
256,192,61410,1,0,0:0:0:0:
256,192,61839,1,0,0:0:0:0:
256,192,62267,1,0,0:0:0:0:
256,192,63339,1,4,0:0:0:0:
256,192,63767,1,6,0:0:0:0:
256,192,65267,1,0,0:0:0:0:
256,192,65696,2,0,B|32:16|32:16,1,280
256,192,67410,1,0,0:0:0:0:
256,192,68267,1,0,0:0:0:0:
256,192,68696,1,0,0:0:0:0:
256,192,69125,2,0,B|32:16|32:16,1,280
256,192,70839,1,0,0:0:0:0:
256,192,71696,1,2,0:0:0:0:
256,192,72125,1,2,0:0:0:0:
256,192,72553,2,0,B|32:16|32:16,1,280
256,192,74267,1,0,0:0:0:0:
256,192,75125,1,2,0:0:0:0:
256,192,75553,1,2,0:0:0:0:
256,192,75982,1,6,0:0:0:0:
256,192,77696,1,0,0:0:0:0:
256,192,79410,1,0,0:0:0:0:
256,192,81125,1,0,0:0:0:0:
256,192,82839,1,0,0:0:0:0:
256,192,84553,1,0,0:0:0:0:
256,192,85410,1,2,0:0:0:0:
256,192,86267,1,0,0:0:0:0:
256,192,87982,1,0,0:0:0:0:
256,192,88839,1,2,0:0:0:0:
256,192,89696,1,0,0:0:0:0:
256,192,91410,1,2,0:0:0:0:
256,192,93125,1,2,0:0:0:0:
256,192,94839,1,0,0:0:0:0:
256,192,96553,1,0,0:0:0:0:
256,192,97410,1,0,0:0:0:0:
256,192,97839,1,2,0:0:0:0:
256,192,98267,1,0,0:0:0:0:
256,192,99125,1,2,0:0:0:0:
256,192,99982,1,0,0:0:0:0:
256,192,100410,1,0,0:0:0:0:
256,192,100839,1,2,0:0:0:0:
256,192,101696,1,0,0:0:0:0:
256,192,102553,1,0,0:0:0:0:
256,192,103410,1,0,0:0:0:0:
256,192,103839,1,0,0:0:0:0:
256,192,104267,1,0,0:0:0:0:
256,192,105125,1,2,0:0:0:0:
256,192,105553,1,2,0:0:0:0:
256,192,105982,1,2,0:0:0:0:
256,192,106839,1,0,0:0:0:0:
256,192,107267,1,0,0:0:0:0:
256,192,107696,1,0,0:0:0:0:
256,192,108553,2,0,B|16:16|16:16|16:160,1,420
256,192,110267,1,0,0:0:0:0:
256,192,111982,1,2,0:0:0:0:
256,192,112839,1,2,0:0:0:0:
256,192,113696,1,2,0:0:0:0:
256,192,114553,1,2,0:0:0:0:
256,192,115410,1,2,0:0:0:0:
256,192,116267,1,2,0:0:0:0:
256,192,117125,1,2,0:0:0:0:
256,192,117982,1,2,0:0:0:0:
256,192,118839,1,0,0:0:0:0:
256,192,119267,1,0,0:0:0:0:
256,192,119696,1,0,0:0:0:0:
256,192,120125,1,0,0:0:0:0:
256,192,120553,1,0,0:0:0:0:
256,192,120982,1,0,0:0:0:0:
256,192,121410,1,0,0:0:0:0:
256,192,121839,1,0,0:0:0:0:
256,192,122267,2,0,L|32:16,1,280
256,192,123982,1,0,0:0:0:0:
256,192,124839,1,4,0:0:0:0:
256,192,125267,1,6,0:0:0:0:
256,192,125696,1,0,0:0:0:0:
256,192,126553,1,0,0:0:0:0:
256,192,127410,1,0,0:0:0:0:
256,192,128267,1,2,0:0:0:0:
256,192,128696,1,2,0:0:0:0:
256,192,129125,1,2,0:0:0:0:
256,192,129982,1,2,0:0:0:0:
256,192,130839,1,2,0:0:0:0:
256,192,131696,1,0,0:0:0:0:
256,192,132125,1,0,0:0:0:0:
256,192,132553,1,0,0:0:0:0:
256,192,133410,1,0,0:0:0:0:
256,192,134267,1,0,0:0:0:0:
256,192,135125,1,0,0:0:0:0:
256,192,135553,1,0,0:0:0:0:
256,192,135982,1,2,0:0:0:0:
256,192,137053,1,4,0:0:0:0:
256,192,137482,1,6,0:0:0:0:
256,192,139410,1,0,0:0:0:0:
256,192,153125,5,4,0:0:0:0:
256,192,153767,1,4,0:0:0:0:
256,192,154839,1,6,0:0:0:0:
256,192,155482,1,6,0:0:0:0:
256,192,156553,1,4,0:0:0:0:
256,192,157196,1,4,0:0:0:0:
256,192,158267,1,6,0:0:0:0:
256,192,158910,1,6,0:0:0:0:
256,192,159982,1,0,0:0:0:0:
256,192,160839,1,0,0:0:0:0:
256,192,161696,1,0,0:0:0:0:
256,192,162553,1,0,0:0:0:0:
256,192,162982,1,0,0:0:0:0:
256,192,163410,1,2,0:0:0:0:
256,192,164267,1,2,0:0:0:0:
256,192,165125,1,2,0:0:0:0:
256,192,165982,1,2,0:0:0:0:
256,192,166839,1,2,0:0:0:0:
256,192,167696,1,2,0:0:0:0:
256,192,168553,1,2,0:0:0:0:
256,192,169410,1,2,0:0:0:0:
256,192,170267,1,0,0:0:0:0:
256,192,170696,1,0,0:0:0:0:
256,192,171125,1,0,0:0:0:0:
256,192,171553,1,0,0:0:0:0:
256,192,171982,1,0,0:0:0:0:
256,192,172410,1,0,0:0:0:0:
256,192,172839,1,0,0:0:0:0:
256,192,173267,1,0,0:0:0:0:
256,192,173696,2,0,L|32:16,1,280
256,192,175410,1,0,0:0:0:0:
256,192,177125,12,0,177982,0:0:0:0:
256,192,178839,5,0,0:0:0:0:
256,192,179696,1,0,0:0:0:0:
256,192,180553,12,0,181410,0:0:0:0:
256,192,182267,5,0,0:0:0:0:
256,192,183125,1,2,0:0:0:0:
256,192,183982,12,0,184839,0:0:0:0:
256,192,185696,5,0,0:0:0:0:
256,192,186553,1,0,0:0:0:0:
256,192,187410,1,0,0:0:0:0:
256,192,188482,1,4,0:0:0:0:
256,192,188910,1,6,0:0:0:0:
256,192,190839,1,0,0:0:0:0:
256,192,191696,1,0,0:0:0:0:
256,192,192553,1,0,0:0:0:0:
256,192,193410,1,0,0:0:0:0:
256,192,193839,1,0,0:0:0:0:
256,192,194267,1,0,0:0:0:0:
256,192,194910,1,4,0:0:0:0:
256,192,195553,1,2,0:0:0:0:
256,192,195982,1,2,0:0:0:0:
256,192,196839,1,0,0:0:0:0:
256,192,197267,1,0,0:0:0:0:
256,192,197696,1,0,0:0:0:0:
256,192,198553,1,0,0:0:0:0:
256,192,199410,1,0,0:0:0:0:
256,192,200267,1,2,0:0:0:0:
256,192,200696,1,2,0:0:0:0:
256,192,201125,1,6,0:0:0:0:
256,192,201982,1,0,0:0:0:0:
256,192,202410,1,0,0:0:0:0:
256,192,202839,1,0,0:0:0:0:
256,192,204553,1,0,0:0:0:0:
256,192,206267,1,0,0:0:0:0:
256,192,207982,1,0,0:0:0:0:
256,192,208839,1,0,0:0:0:0:
256,192,209696,1,0,0:0:0:0:
256,192,210553,1,2,0:0:0:0:
256,192,211410,1,0,0:0:0:0:
256,192,212267,1,2,0:0:0:0:
256,192,213125,1,0,0:0:0:0:
256,192,213982,1,2,0:0:0:0:
256,192,214839,1,0,0:0:0:0:
256,192,215696,1,0,0:0:0:0:
256,192,216125,1,2,0:0:0:0:
256,192,216553,1,0,0:0:0:0:
