osu file format v14

[General]
AudioFilename: audio.mp3
AudioLeadIn: 0
PreviewTime: 55533
Countdown: 0
SampleSet: Soft
StackLeniency: 0.7
Mode: 0
LetterboxInBreaks: 0
WidescreenStoryboard: 1

[Editor]
Bookmarks: 74883
DistanceSpacing: 1
BeatDivisor: 4
GridSize: 4
TimelineZoom: 1.9

[Metadata]
Title:LONELY TUNING
TitleUnicode:LONELY TUNING
Artist:AZALEA
ArtistUnicode:AZALEA
Creator:- Neon -
Version:Normal
Source:Lovelive! Sunshine!!
Tags:ラブライブ!サンシャイン!! school idol project Kunikida Hanamaru 国木田花丸 Matsuura Kanan 松浦果南 Kurosawa Dia 黒澤ダイヤ Takatsuki Kanako 高槻かなこ Suwa Nanaka 諏訪ななか Komiya Arisa 小宮有紗
BeatmapID:1223017
BeatmapSetID:575233

[Difficulty]
HPDrainRate:4
CircleSize:3.4
OverallDifficulty:4
ApproachRate:5
SliderMultiplier:1.10000000596046
SliderTickRate:1

[Events]
//Background and Video events
0,0,"Azalea2.png",0,0
//Break Periods
//Storyboard Layer 0 (Background)
//Storyboard Layer 1 (Fail)
//Storyboard Layer 2 (Pass)
//Storyboard Layer 3 (Foreground)
//Storyboard Sound Samples

[TimingPoints]
610,461.538461538462,4,2,0,100,1,0
7994,-100,4,2,0,50,0,0
55994,-100,4,2,0,70,0,1
85533,-100,4,2,0,50,0,0
107917,-100,4,2,0,10,0,0

[HitObjects]
408,288,7994,6,0,B|336:304|336:304|284:284,1,110.000000596046
264,248,8686,1,0,0:0:0:0:
232,204,8917,2,0,B|198:190|198:190|126:206,1,110.000000596046
80,236,9610,1,0,0:0:0:0:
88,288,9840,2,0,L|40:344,2,55.000000298023
144,296,10533,1,0,0:0:0:0:
144,296,10763,1,0,0:0:0:0:
296,292,11225,6,0,L|324:352,2,55.000000298023
212,196,12148,1,0,0:0:0:0:
212,196,12379,1,0,0:0:0:0:
212,196,12610,2,0,P|204:140|248:84,1,110.000000596046
200,52,13302,2,0,L|320:64,1,110.000000596046
348,100,13994,2,0,L|336:168,2,55.000000298023
480,200,14917,6,0,L|468:276,1,55.000000298023
504,296,15379,2,0,L|436:328,1,55.000000298023
436,372,15840,2,0,L|380:368,1,55.000000298023
328,372,16302,2,0,L|304:320,1,55.000000298023
252,304,16763,2,0,L|292:252,1,55.000000298023
260,212,17225,6,0,P|312:196|376:216,1,110.000000596046
412,236,17917,1,0,0:0:0:0:
448,276,18148,1,0,0:0:0:0:
396,372,18610,2,0,L|328:376,1,55.000000298023
288,376,19071,6,0,B|232:364|232:364|168:376|120:328,2,165.000000894069
256,192,20917,12,0,25533,0:0:0:0:
304,88,26456,6,0,L|232:112,1,55.000000298023
204,76,26917,2,0,L|176:132,1,55.000000298023
136,160,27379,2,0,P|160:208|228:236,1,110.000000596046
260,224,28071,1,0,0:0:0:0:
312,208,28302,2,0,B|308:316|308:316|260:356,2,165.000000894069
204,200,30148,6,0,L|220:144,1,55.000000298023
180,108,30610,2,0,L|236:72,1,55.000000298023
216,24,31071,2,0,B|280:24|264:56|340:52,1,110.000000596046
316,108,31763,6,0,P|364:128|436:112,1,110.000000596046
468,88,32456,2,0,L|476:156,1,55.000000298023
508,184,32917,2,0,L|424:272,1,110.000000596046
344,332,33840,6,0,L|284:328,1,55.000000298023
256,284,34302,2,0,L|196:276,1,55.000000298023
152,300,34763,2,0,L|184:176,1,110.000000596046
220,156,35456,1,0,0:0:0:0:
276,152,35686,6,0,L|264:224,1,55.000000298023
304,248,36148,1,0,0:0:0:0:
304,248,36379,2,0,L|256:284,1,55.000000298023
260,336,36840,2,0,L|196:320,1,55.000000298023
152,308,37302,1,0,0:0:0:0:
112,268,37533,6,0,L|124:204,1,55.000000298023
168,184,37994,2,0,L|180:112,1,55.000000298023
164,76,38456,2,0,B|224:64|220:96|292:76,1,110.000000596046
292,132,39148,6,0,P|284:192|244:248,1,110.000000596046
224,276,39840,2,0,L|356:280,1,110.000000596046
456,96,41225,6,0,L|344:84,1,110.000000596046
268,160,42148,2,0,L|379:174,1,110.000000596046
432,268,43071,2,0,L|318:252,1,110.000000596046
240,324,43994,2,0,L|360:344,1,110.000000596046
432,268,44917,6,0,L|444:208,1,55.000000298023
480,172,45379,2,0,L|492:104,1,55.000000298023
476,64,45840,2,0,P|424:76|352:60,1,110.000000596046
328,28,46533,2,0,L|324:156,1,110.000000596046
304,188,47225,1,0,0:0:0:0:
248,280,47686,1,0,0:0:0:0:
248,280,48610,6,0,P|192:292|136:276,2,110.000000596046
332,208,49994,1,0,0:0:0:0:
332,208,50225,2,0,P|384:192|444:208,1,110.000000596046
472,248,50917,2,0,L|460:308,1,55.000000298023
424,340,51379,2,0,B|372:360|372:360|312:344,1,110.000000596046
256,192,52071,12,0,55071,0:0:0:0:
