osu file format v14

[General]
AudioFilename: audio.mp3
AudioLeadIn: 0
PreviewTime: 60634
Countdown: 0
SampleSet: Soft
StackLeniency: 0.7
Mode: 0
LetterboxInBreaks: 0
WidescreenStoryboard: 1

[Editor]
DistanceSpacing: 0.8
BeatDivisor: 4
GridSize: 4
TimelineZoom: 1.3

[Metadata]
Title:INNOCENT BIRD
TitleUnicode:INNOCENT BIRD
Artist:AZALEA
ArtistUnicode:AZALEA
Creator:Noctiam
Version:Affection
Source:ラブライブ!サンシャイン!!
Tags:love live! sunshine!! aqours matsuura kanan 松浦果南 suwa nanaka 諏訪ななか kurosawa dia 黒澤ダイヤ komiya arisa 小宮有紗 kunikida hanamaru 国木田花丸 takatsuki kanako 高槻かなこ
BeatmapID:1632669
BeatmapSetID:762505

[Difficulty]
HPDrainRate:6
CircleSize:4
OverallDifficulty:6
ApproachRate:8.3
SliderMultiplier:1.59999990463257
SliderTickRate:1

[Events]
//Background and Video events
0,0,"BG.jpg",0,0
//Break Periods
2,8334,14884
2,90834,96446
2,125989,127384
2,158334,170509
2,175209,181759
//Storyboard Layer 0 (Background)
//Storyboard Layer 1 (Fail)
//Storyboard Layer 2 (Pass)
//Storyboard Layer 3 (Foreground)
//Storyboard Sound Samples

[TimingPoints]
634.432835820895,468.75,4,2,0,100,1,0
15634,-83.3333333333333,4,2,0,100,0,0
30634,-76.9230769230769,4,2,0,100,0,0
36259,-64.5161290322581,4,2,0,100,0,0
36728,-71.4285714285714,4,2,0,100,0,0
37196,-76.9230769230769,4,2,0,100,0,0
37665,-83.3333333333333,4,2,0,100,0,0
38134,-76.9230769230769,4,2,0,100,0,0
58759,-52.6315789473684,4,2,0,100,0,0
60634,-76.9230769230769,4,2,0,100,0,1
68134,-76.9230769230769,4,2,0,100,0,0
75634,-76.9230769230769,4,2,0,100,0,1
83134,-76.9230769230769,4,2,0,100,0,0
90634,-83.3333333333333,4,2,0,100,0,0
98134,-74.0740740740741,4,2,0,100,0,0
103759,-62.5,4,2,0,100,0,0
104228,-66.6666666666667,4,2,0,100,0,0
104696,-71.4285714285714,4,2,0,100,0,0
105165,-74.0740740740741,4,2,0,100,0,0
105634,-76.9230769230769,4,2,0,100,0,0
126259,-52.6315789473684,4,2,0,100,0,0
128134,-76.9230769230769,4,2,0,100,0,1
135634,-76.9230769230769,4,2,0,100,0,0
143134,-76.9230769230769,4,2,0,100,0,1
150634,-76.9230769230769,4,2,0,100,0,0
158134,-76.9230769230769,4,2,0,100,0,0
171259,-62.5,4,2,0,100,0,0
171728,-66.6666666666667,4,2,0,100,0,0
172196,-71.4285714285714,4,2,0,100,0,0
172665,-76.9230769230769,4,2,0,100,0,0
180634,-52.6315789473684,4,2,0,100,0,0
182509,-76.9230769230769,4,2,0,100,0,1
190009,-76.9230769230769,4,2,0,100,0,0
197040,-76.9230769230769,4,2,0,100,0,0
197509,-76.9230769230769,4,2,0,100,0,1
205009,-76.9230769230769,4,2,0,100,0,0
212509,-83.3333333333333,4,2,0,100,0,0

[HitObjects]
176,100,634,5,0,0:0:0:0:
332,100,1103,1,0,0:0:0:0:
120,192,1571,1,0,0:0:0:0:
384,192,2040,1,0,0:0:0:0:
256,192,2275,1,0,0:0:0:0:
128,304,2509,2,0,L|216:304,2,79.9999952316285
256,224,3212,1,0,0:0:0:0:
384,304,3446,2,0,L|296:304,2,79.9999952316285
348,112,4384,5,0,0:0:0:0:
348,268,4853,1,0,0:0:0:0:
256,56,5321,1,0,0:0:0:0:
256,320,5790,1,0,0:0:0:0:
256,192,6025,1,0,0:0:0:0:
144,64,6259,2,0,L|144:152,2,79.9999952316285
224,192,6962,1,0,0:0:0:0:
144,320,7196,2,0,L|144:232,2,79.9999952316285
256,192,8134,1,0,0:0:0:0:
96,320,15634,6,0,L|196:320,1,95.9999913482669
192,240,16103,2,0,L|80:240,1,95.9999913482669
262,177,16571,2,0,L|262:277,1,95.9999913482669
355,275,17040,2,0,L|355:155,1,95.9999913482669
309,125,17509,2,0,L|245:125,1,47.9999956741335
261,69,17743,2,0,L|261:121,1,47.9999956741335
261,177,17978,1,0,0:0:0:0:
100,176,18212,1,0,0:0:0:0:
196,292,18446,2,0,L|292:292,2,95.9999913482669
423,63,19384,6,0,L|323:63,1,95.9999913482669
327,143,19853,2,0,L|439:143,1,95.9999913482669
256,208,20321,2,0,L|256:108,1,95.9999913482669
180,112,20790,2,0,L|180:232,1,95.9999913482669
280,224,21259,2,0,L|344:224,1,47.9999956741335
328,280,21493,2,0,L|328:228,1,47.9999956741335
328,172,21728,1,0,0:0:0:0:
424,224,21962,1,0,0:0:0:0:
316,92,22196,2,0,L|220:92,1,95.9999913482669
104,208,22665,2,0,L|200:208,1,95.9999913482669
416,320,23134,6,0,L|316:320,1,95.9999913482669
320,240,23603,2,0,L|432:240,1,95.9999913482669
256,176,24071,2,0,L|256:276,1,95.9999913482669
180,272,24540,2,0,L|180:152,1,95.9999913482669
280,160,25009,2,0,L|344:160,1,47.9999956741335
328,104,25243,2,0,L|328:156,1,47.9999956741335
328,212,25478,1,0,0:0:0:0:
424,160,25712,1,0,0:0:0:0:
316,292,25946,2,0,L|220:292,2,95.9999913482669
96,64,26884,6,0,L|196:64,1,95.9999913482669
192,144,27353,2,0,L|80:144,1,95.9999913482669
260,208,27821,2,0,L|260:108,1,95.9999913482669
336,112,28290,2,0,L|336:232,1,95.9999913482669
232,224,28759,2,0,L|168:224,1,47.9999956741335
184,280,28993,2,0,L|184:228,1,47.9999956741335
184,172,29228,1,0,0:0:0:0:
88,224,29462,1,0,0:0:0:0:
196,92,29696,2,0,L|292:92,1,95.9999913482669
408,208,30165,2,0,L|312:208,2,95.9999913482669
108,100,30868,5,0,0:0:0:0:
204,116,31103,1,0,0:0:0:0:
128,184,31337,2,0,P|180:208|236:200,1,103.999989040375
288,152,31806,1,0,0:0:0:0:
216,288,32040,2,0,P|269:268|303:222,2,103.999989040375
404,284,32743,5,0,0:0:0:0:
308,268,32978,1,0,0:0:0:0:
384,200,33212,2,0,P|332:176|276:184,1,103.999989040375
224,232,33681,1,0,0:0:0:0:
296,96,33915,2,0,P|242:115|208:161,2,103.999989040375
409,109,34618,5,0,0:0:0:0:
347,184,34853,1,0,0:0:0:0:
326,85,35087,2,0,P|280:118|259:170,1,103.999989040375
274,239,35556,1,0,0:0:0:0:
192,109,35790,2,0,P|183:165|205:217,1,103.999989040375
312,144,36259,6,0,P|392:104|476:144,1,185.999990332604
472,188,36728,2,0,P|392:156|308:196,1,167.999984859467
324,224,37196,2,0,P|400:196|484:236,1,155.999983560563
464,256,37665,2,0,P|396:236|328:260,1,143.9999870224
397,304,38134,1,0,0:0:0:0:
132,96,38368,5,0,0:0:0:0:
64,172,38603,1,0,0:0:0:0:
180,164,38837,2,0,P|164:220|120:248,1,103.999989040375
199,73,39306,1,0,0:0:0:0:
274,143,39540,2,0,P|223:171|172:159,2,103.999989040375
380,288,40243,5,0,0:0:0:0:
448,212,40478,1,0,0:0:0:0:
341,194,40712,2,0,P|357:138|401:110,1,103.999989040375
320,296,41181,1,0,0:0:0:0:
248,216,41415,2,0,P|298:187|349:199,2,103.999989040375
116,288,42118,5,0,0:0:0:0:
48,212,42353,1,0,0:0:0:0:
164,220,42587,2,0,P|148:164|104:136,1,103.999989040375
185,309,43056,1,0,0:0:0:0:
257,241,43290,2,0,P|206:212|155:224,2,103.999989040375
156,192,44696,5,0,0:0:0:0:
348,192,45165,1,0,0:0:0:0:
124,48,45634,6,0,L|124:156,1,103.999989040375
216,112,46103,2,0,L|216:216,1,103.999989040375
300,172,46571,2,0,L|300:280,1,103.999989040375
392,236,47040,2,0,L|392:340,1,103.999989040375
256,344,47509,2,0,P|80:280|168:108,1,415.999956161501
400,60,48915,6,0,L|292:60,1,103.999989040375
336,152,49384,2,0,L|232:152,1,103.999989040375
276,236,49852,2,0,L|168:236,1,103.999989040375
212,328,50321,2,0,L|108:328,1,103.999989040375
104,192,50790,2,0,P|72:152|72:80,1,103.999989040375
272,200,51259,2,0,P|304:160|304:88,1,103.999989040375
136,48,51728,2,0,P|186:40|248:76,1,103.999989040375
192,168,52196,5,0,0:0:0:0:
344,264,52431,1,0,0:0:0:0:
96,176,52665,1,0,0:0:0:0:
280,356,52900,1,0,0:0:0:0:
216,236,53134,1,0,0:0:0:0:
388,336,53603,6,0,L|388:228,1,103.999989040375
296,272,54072,2,0,L|296:168,1,103.999989040375
212,212,54540,2,0,L|212:104,1,103.999989040375
120,148,55009,2,0,L|120:44,1,103.999989040375
388,48,55478,2,0,L|388:156,1,103.999989040375
296,112,55947,2,0,L|296:216,1,103.999989040375
212,172,56415,2,0,L|212:280,1,103.999989040375
116,120,56884,1,0,0:0:0:0:
256,40,57118,2,0,P|432:104|256:312,1,519.999945201877
221,236,58759,6,0,P|197:277|167:293,1,75.9999934406283,8|0,0:0|0:0,0:0:0:0:
290,236,58993,2,0,P|314:277|338:289,1,75.9999934406283,8|0,0:0|0:0,0:0:0:0:
190,186,59228,2,0,P|167:212|130:229,1,75.9999934406283,8|0,0:0|0:0,0:0:0:0:
321,186,59462,2,0,P|344:212|385:232,1,75.9999934406283,8|0,0:0|0:0,0:0:0:0:
155,141,59696,2,0,P|122:158|79:161,1,75.9999934406283,8|0,0:0|0:0,0:0:0:0:
356,141,59931,2,0,P|389:158|429:161,1,75.9999934406283,8|0,0:0|0:0,0:0:0:0:
256,192,60165,1,8,0:0:0:0:
72,208,60634,5,0,0:0:0:0:
144,276,60868,1,0,0:0:0:0:
180,156,61103,1,0,0:0:0:0:
304,256,61337,1,0,0:0:0:0:
264,72,61571,1,0,0:0:0:0:
368,128,61806,2,0,P|424:156|428:204,1,103.999989040375
320,320,62275,2,0,P|188:304|232:172,1,311.999967121126
422,134,63446,6,0,L|374:234,1,103.999989040375
318,121,63915,1,0,0:0:0:0:
304,212,64150,2,0,L|236:292,2,103.999989040375
192,168,64853,1,0,0:0:0:0:
112,248,65087,2,0,L|200:340,2,103.999989040375
344,92,66025,6,0,L|344:196,1,103.999989040375
176,120,66493,2,0,L|176:228,1,103.999989040375
266,345,66962,2,0,L|266:237,1,103.999989040375
268,69,67431,2,0,L|268:137,4,51.9999945201877
440,176,68134,5,0,0:0:0:0:
368,108,68368,1,0,0:0:0:0:
332,228,68603,1,0,0:0:0:0:
208,128,68837,1,0,0:0:0:0:
248,312,69071,1,0,0:0:0:0:
144,256,69306,2,0,P|88:228|84:180,1,103.999989040375
192,64,69775,2,0,P|324:80|280:212,1,311.999967121126
120,256,70946,6,0,L|168:156,1,103.999989040375
236,264,71415,1,0,0:0:0:0:
260,140,71650,2,0,L|328:60,2,103.999989040375
320,216,72353,1,0,0:0:0:0:
400,136,72587,2,0,L|312:44,2,103.999989040375
168,292,73525,6,0,L|168:188,1,103.999989040375
336,264,73993,2,0,L|336:156,1,103.999989040375
208,40,74462,2,0,L|208:148,1,103.999989040375
208,300,74931,2,0,L|208:232,2,51.9999945201877
296,216,75282,2,0,L|296:280,2,51.9999945201877
150,40,75634,5,0,0:0:0:0:
127,137,75868,1,0,0:0:0:0:
249,108,76103,1,0,0:0:0:0:
224,265,76337,1,0,0:0:0:0:
363,138,76571,1,0,0:0:0:0:
367,256,76806,2,0,P|371:319|331:346,1,103.999989040375
177,311,77275,2,0,P|125:189|261:161,1,311.999967121126
379,277,78446,6,0,L|268:286,1,103.999989040375
324,177,78915,1,0,0:0:0:0:
207,213,79150,2,0,L|104:194,2,103.999989040375
253,116,79853,1,0,0:0:0:0:
135,95,80087,2,0,L|99:217,2,103.999989040375
386,218,81025,6,0,L|296:270,1,103.999989040375
278,86,81493,2,0,L|184:140,1,103.999989040375
148,309,81962,2,0,L|241:255,1,103.999989040375
373,179,82431,2,0,L|314:213,4,51.9999945201877
361,343,83134,5,0,0:0:0:0:
384,246,83368,1,0,0:0:0:0:
262,275,83603,1,0,0:0:0:0:
287,118,83837,1,0,0:0:0:0:
148,245,84071,1,0,0:0:0:0:
144,127,84306,2,0,P|140:64|180:37,1,103.999989040375
334,72,84775,2,0,P|386:194|250:222,1,311.999967121126
132,106,85946,6,0,L|243:97,1,103.999989040375
183,210,86415,1,0,0:0:0:0:
275,160,86650,2,0,L|378:179,2,103.999989040375
313,289,87353,1,0,0:0:0:0:
425,311,87587,2,0,L|461:189,2,103.999989040375
125,165,88525,6,0,L|215:113,1,103.999989040375
233,297,88993,2,0,L|327:243,1,103.999989040375
363,74,89462,2,0,L|270:128,1,103.999989040375
138,204,89931,2,0,L|197:170,2,51.9999945201877
222,251,90282,2,0,L|166:283,2,51.9999945201877
259,180,90634,1,0,0:0:0:0:
256,192,97196,5,0,0:0:0:0:
256,192,97665,1,0,0:0:0:0:
256,56,98134,5,0,0:0:0:0:
156,136,98368,2,0,L|72:208,1,107.999993974686
296,160,98837,1,0,0:0:0:0:
224,256,99071,2,0,L|144:328,1,107.999993974686
296,160,99540,2,0,L|376:232,2,107.999993974686
156,248,100243,6,0,L|68:172,1,107.999993974686
320,200,100712,1,0,0:0:0:0:
224,128,100946,2,0,L|144:56,1,107.999993974686
324,204,101415,2,0,L|404:132,2,107.999993974686
104,292,102353,5,0,0:0:0:0:
284,300,102587,1,0,0:0:0:0:
184,224,102821,2,0,P|144:176|132:132,1,107.999993974686
260,172,103290,2,0,P|264:108|296:80,1,107.999993974686
76,92,103759,6,0,L|76:284,1,191.999988555908
116,280,104228,2,0,L|116:92,1,179.999996137619
160,100,104696,2,0,L|160:272,1,167.999984859467
208,264,105165,2,0,L|208:100,1,161.999990962029
260,191,105634,5,0,0:0:0:0:
356,248,105868,2,0,L|440:176,1,103.999989040375
192,200,106337,1,0,0:0:0:0:
288,128,106571,2,0,L|368:56,1,103.999989040375
216,224,107040,2,0,L|136:152,2,103.999989040375
356,136,107743,6,0,L|444:212,1,103.999989040375
192,184,108212,1,0,0:0:0:0:
288,256,108446,2,0,L|368:328,1,103.999989040375
216,160,108915,2,0,L|136:232,2,103.999989040375
316,212,109618,5,0,0:0:0:0:
408,92,109853,1,0,0:0:0:0:
228,84,110087,1,0,0:0:0:0:
328,160,110321,2,0,P|368:208|380:252,1,103.999989040375
252,212,110790,2,0,P|248:276|216:304,1,103.999989040375
116,184,111259,1,0,0:0:0:0:
135,192,112196,5,0,0:0:0:0:
374,191,112431,1,0,0:0:0:0:
256,193,112665,1,0,0:0:0:0:
128,80,113134,6,0,P|176:68|240:72,1,103.999989040375
200,136,113603,2,0,P|249:141|307:166,1,103.999989040375
232,208,114071,2,0,P|276:229|322:273,1,103.999989040375
248,288,114540,2,0,P|282:323|310:380,1,103.999989040375
164,255,115009,2,0,B|75:255|75:255|75:199|75:199|132:200|132:200|133:254|133:254|75:255|75:255|76:199|76:199|131:200|131:200|131:200,1,415.999956161501
384,304,116415,6,0,P|336:316|272:312,1,103.999989040375
312,248,116884,2,0,P|262:242|204:217,1,103.999989040375
280,176,117352,2,0,P|235:154|189:110,1,103.999989040375
264,96,117821,2,0,P|229:60|201:3,1,103.999989040375
372,124,118290,2,0,P|404:172|408:224,1,103.999989040375
172,232,118759,2,0,P|140:184|136:132,1,103.999989040375
253,37,119228,1,0,0:0:0:0:
344,308,119696,5,0,0:0:0:0:
216,316,119931,1,0,0:0:0:0:
292,180,120165,1,0,0:0:0:0:
132,144,120400,1,0,0:0:0:0:
268,32,120634,1,0,0:0:0:0:
368,320,121103,6,0,P|380:272|376:208,1,103.999989040375
312,248,121572,2,0,P|306:198|281:140,1,103.999989040375
240,216,122040,2,0,P|218:171|174:125,1,103.999989040375
157,206,122509,2,0,P|121:171|64:143,1,103.999989040375
83,43,122978,2,0,P|71:91|75:155,1,103.999989040375
165,214,123447,2,0,P|145:166|139:115,1,103.999989040375
212,147,123915,2,0,P|233:191|277:237,1,103.999989040375
375,222,124384,1,0,0:0:0:0:
436,112,124618,2,0,B|236:64|236:64|272:256|272:256|360:136,1,519.999945201877
256,136,128134,5,0,0:0:0:0:
196,292,128368,1,0,0:0:0:0:
336,184,128603,1,0,0:0:0:0:
168,188,128837,1,0,0:0:0:0:
316,288,129071,1,0,0:0:0:0:
372,96,129306,2,0,P|404:136|404:192,1,103.999989040375
200,284,129775,2,0,B|264:204|212:156|164:212|164:212|96:168|72:264|160:292,1,311.999967121126
436,116,130946,6,0,L|444:228,1,103.999989040375
324,168,131415,1,0,0:0:0:0:
372,236,131650,2,0,L|340:336,1,103.999989040375
265,249,132118,1,0,0:0:0:0:
112,292,132353,2,0,L|228:320,1,103.999989040375
96,224,132821,1,0,0:0:0:0:
54,131,133056,2,0,L|170:171,1,103.999989040375
228,80,133525,6,0,P|288:80|332:108,1,103.999989040375
280,164,133993,2,0,P|336:188|376:224,1,103.999989040375
296,268,134462,2,0,P|248:308|240:352,1,103.999989040375
380,312,134931,2,0,L|456:312,4,51.9999945201877
208,136,135634,5,0,0:0:0:0:
300,236,135868,1,0,0:0:0:0:
132,204,136103,1,0,0:0:0:0:
352,188,136337,1,0,0:0:0:0:
208,312,136571,1,0,0:0:0:0:
104,136,136806,2,0,P|140:92|200:80,1,103.999989040375
400,328,137275,2,0,B|376:188|376:188|256:312,1,311.999967121126
264,120,138446,6,0,P|240:176|188:180,1,103.999989040375
172,100,138915,1,0,0:0:0:0:
272,228,139150,2,0,P|224:264|164:248,1,103.999989040375
120,176,139618,1,0,0:0:0:0:
64,296,139853,2,0,P|128:332|164:328,1,103.999989040375
160,228,140321,1,0,0:0:0:0:
252,308,140556,2,0,P|312:280|320:240,1,103.999989040375
216,60,141025,6,0,P|160:84|116:116,1,103.999989040375
300,164,141493,2,0,P|356:196|392:228,1,103.999989040375
200,312,141962,2,0,P|140:264|116:228,1,103.999989040375
312,320,142431,2,0,L|344:268,2,51.9999945201877
265,238,142782,2,0,L|296:196,2,51.9999945201877
240,288,143134,5,0,0:0:0:0:
300,132,143368,1,0,0:0:0:0:
160,240,143603,1,0,0:0:0:0:
328,236,143837,1,0,0:0:0:0:
180,136,144071,1,0,0:0:0:0:
124,328,144306,2,0,P|92:288|92:232,1,103.999989040375
296,140,144775,2,0,B|232:220|284:268|332:212|332:212|400:256|424:160|336:132,1,311.999967121126
96,312,145946,6,0,L|88:200,1,103.999989040375
172,256,146415,1,0,0:0:0:0:
124,188,146650,2,0,L|156:88,1,103.999989040375
192,172,147118,1,0,0:0:0:0:
384,132,147353,2,0,L|268:104,1,103.999989040375
400,200,147821,1,0,0:0:0:0:
448,280,148056,2,0,L|332:240,1,103.999989040375
268,344,148525,6,0,P|208:344|164:316,1,103.999989040375
216,260,148993,2,0,P|160:236|120:200,1,103.999989040375
200,156,149462,2,0,P|248:116|256:72,1,103.999989040375
116,112,149931,2,0,L|40:112,4,51.9999945201877
288,288,150634,5,0,0:0:0:0:
196,188,150868,1,0,0:0:0:0:
364,220,151103,1,0,0:0:0:0:
144,236,151337,1,0,0:0:0:0:
288,112,151571,1,0,0:0:0:0:
392,288,151806,2,0,P|356:332|296:344,1,103.999989040375
96,96,152275,2,0,B|120:236|120:236|240:112,1,311.999967121126
232,304,153446,6,0,P|256:248|308:244,1,103.999989040375
324,324,153915,1,0,0:0:0:0:
224,196,154150,2,0,P|272:160|332:176,1,103.999989040375
376,248,154618,1,0,0:0:0:0:
432,128,154853,2,0,P|368:92|332:96,1,103.999989040375
314,194,155321,1,0,0:0:0:0:
175,176,155556,2,0,P|195:130|244:116,1,103.999989040375
280,364,156025,6,0,P|336:340|380:308,1,103.999989040375
196,260,156493,2,0,P|140:228|104:196,1,103.999989040375
296,112,156962,2,0,P|356:160|380:196,1,103.999989040375
187,172,157431,1,0,0:0:0:0:
258,283,157665,2,0,L|290:239,3,51.9999945201877
257,191,158134,1,0,0:0:0:0:
104,236,171259,6,0,P|172:288|152:228,1,191.999988555908
200,192,171728,2,0,P|256:140|248:200,1,179.999996137619
295,250,172196,2,0,P|355:286|343:222,1,167.999984859467
260,61,172665,1,0,0:0:0:0:
248,200,173134,6,0,B|280:308|280:308|384:284,1,207.999978080751
380,248,173720,2,0,L|424:244,4,38.9999958901408
332,96,174540,1,0,0:0:0:0:
208,208,175009,1,0,0:0:0:0:
177,359,182509,5,0,0:0:0:0:
272,330,182743,1,0,0:0:0:0:
186,239,182978,1,0,0:0:0:0:
335,182,183212,1,0,0:0:0:0:
156,125,183446,1,0,0:0:0:0:
256,63,183681,2,0,P|308:28|352:49,1,103.999989040375
398,200,184150,2,0,P|318:306|226:202,1,311.999967121126
307,30,185321,6,0,L|370:121,1,103.999989040375
203,138,185790,1,0,0:0:0:0:
297,160,186025,2,0,L|332:259,2,103.999989040375
203,235,186728,1,0,0:0:0:0:
242,356,186962,2,0,L|366:326,2,103.999989040375
213,65,187900,6,0,L|303:117,1,103.999989040375
153,225,188368,2,0,L|247:279,1,103.999989040375
409,247,188837,2,0,L|316:193,1,103.999989040375
168,106,189306,2,0,L|227:140,4,51.9999945201877
334,24,190009,5,0,0:0:0:0:
239,53,190243,1,0,0:0:0:0:
325,144,190478,1,0,0:0:0:0:
176,201,190712,1,0,0:0:0:0:
355,258,190946,1,0,0:0:0:0:
255,320,191181,2,0,P|203:355|159:334,1,103.999989040375
113,183,191650,2,0,P|193:77|285:181,1,311.999967121126
243,341,192821,6,0,L|180:250,1,103.999989040375
330,281,193290,1,0,0:0:0:0:
240,197,193525,2,0,L|205:98,2,103.999989040375
372,163,194228,1,0,0:0:0:0:
306,74,194462,2,0,L|182:104,2,103.999989040375
298,318,195400,6,0,L|208:266,1,103.999989040375
358,158,195868,2,0,L|264:104,1,103.999989040375
100,157,196337,2,0,L|193:211,1,103.999989040375
325,287,196806,2,0,L|266:253,2,51.9999945201877
297,187,197157,2,0,L|353:219,2,51.9999945201877
207,164,197509,5,0,0:0:0:0:
312,293,197743,1,0,0:0:0:0:
289,118,197978,1,0,0:0:0:0:
208,266,198212,1,0,0:0:0:0:
369,188,198446,1,0,0:0:0:0:
230,43,198681,2,0,P|281:35|329:63,1,103.999989040375
307,286,199150,2,0,B|270:191|202:212|227:281|227:281|155:318|226:387|294:325,1,311.999967121126
258,27,200321,6,0,L|359:76,1,103.999989040375
269,121,200790,1,0,0:0:0:0:
403,134,201025,2,0,L|473:212,1,103.999989040375
331,180,201493,1,0,0:0:0:0:
270,366,201728,2,0,L|352:280,1,103.999989040375
203,346,202196,1,0,0:0:0:0:
100,338,202431,2,0,L|193:257,1,103.999989040375
145,160,202900,6,0,P|175:108|221:84,1,103.999989040375
243,157,203368,2,0,P|292:120|343:104,1,103.999989040375
341,195,203837,2,0,P|352:256|386:285,1,103.999989040375
421,144,204306,2,0,L|459:78,4,51.9999945201877
183,205,205009,5,0,0:0:0:0:
316,175,205243,1,0,0:0:0:0:
204,305,205478,1,0,0:0:0:0:
300,106,205712,1,0,0:0:0:0:
335,293,205946,1,0,0:0:0:0:
131,295,206181,2,0,P|111:242|131:184,1,103.999989040375
452,144,206650,2,0,B|312:86|312:86|359:252,1,311.999967121126
197,149,207821,6,0,P|234:197|211:244,1,103.999989040375
134,218,208290,1,0,0:0:0:0:
300,188,208525,2,0,P|307:247|263:291,1,103.999989040375
174,301,208993,1,0,0:0:0:0:
286,363,209228,2,0,P|349:325|363:292,1,103.999989040375
252,280,209696,1,0,0:0:0:0:
428,330,209931,2,0,P|434:264|403:237,1,103.999989040375
121,160,210400,6,0,P|114:221|120:275,1,103.999989040375
253,139,210868,2,0,P|309:107|355:92,1,103.999989040375
430,214,211337,1,0,0:0:0:0:
331,300,211571,2,0,P|260:328|217:331,1,103.999989040375
279,159,212040,2,0,L|301:209,4,51.9999945201877
116,264,212978,5,0,0:0:0:0:
116,264,213446,1,0,0:0:0:0:
224,168,213915,5,0,0:0:0:0:
224,308,214384,2,0,L|324:308,1,95.9999913482669
360,188,214853,2,0,L|260:188,1,95.9999913482669
312,112,215321,1,0,0:0:0:0:
100,64,215790,1,0,0:0:0:0:
256,192,216259,12,0,218603,0:0:0:0:
256,192,218837,6,0,L|256:232,4,23.9999978370667
256,48,219540,1,0,0:0:0:0:
