osu file format v14

[General]
AudioFilename: audio.mp3
AudioLeadIn: 0
PreviewTime: 55076
Countdown: 0
SampleSet: Normal
StackLeniency: 0.7
Mode: 1
LetterboxInBreaks: 0
WidescreenStoryboard: 0

[Editor]
Bookmarks: 75821
DistanceSpacing: 0.9
BeatDivisor: 4
GridSize: 4
TimelineZoom: 2.2

[Metadata]
Title:GALAXY HidE and SeeK
TitleUnicode:GALAXY HidE and SeeK
Artist:AZALEA
ArtistUnicode:AZALEA
Creator:igorsprite
Version:Oni
Source:ラブライブ!サンシャイン!!
Tags:LoveLive! Sunshine!! anime tv size school idol project Suwa Nanaka 諏訪ななか Komiya Arisa 小宮有紗 Takatsuki Kanako 高槻かなこ Matsuura Kanan 松浦果南 Kurosawa Dia 黒澤ダイヤ Kunikida Hanamaru 国木田花丸 アゼリア Sub-unit 2nd second single
BeatmapID:1524545
BeatmapSetID:528472

[Difficulty]
HPDrainRate:6
CircleSize:5
OverallDifficulty:6
ApproachRate:5
SliderMultiplier:1.4
SliderTickRate:1

[Events]
//Background and Video events
0,0,"lopkyy.jpg",0,0
//Break Periods
//Storyboard Layer 0 (Background)
//Storyboard Layer 1 (Fail)
//Storyboard Layer 2 (Pass)
//Storyboard Layer 3 (Foreground)
//Storyboard Sound Samples

[TimingPoints]
502,425.531914893617,4,1,0,40,1,0
6459,-100,4,1,0,75,0,0
24757,-125,4,1,0,50,0,0
37948,-100,4,1,0,75,0,0
54970,-83.3333333333333,4,1,0,90,0,1
66672,-83.3333333333333,4,1,0,90,0,0
68587,-83.3333333333333,4,1,0,90,0,1
80289,-83.3333333333333,4,1,0,90,0,0
81353,-100,4,1,0,90,0,0
86033,-100,4,1,0,80,0,0

[HitObjects]
248,200,502,5,0,0:0:0:0:
248,200,714,1,0,0:0:0:0:
248,200,927,1,2,0:0:0:0:
264,236,1140,1,0,0:0:0:0:
264,236,1246,1,2,0:0:0:0:
248,200,1565,1,0,0:0:0:0:
248,200,1778,1,2,0:0:0:0:
188,256,1991,1,0,0:0:0:0:
188,256,2097,1,2,0:0:0:0:
216,160,2204,1,0,0:0:0:0:
248,200,2416,1,0,0:0:0:0:
248,200,2629,1,2,0:0:0:0:
248,200,2842,1,0,0:0:0:0:
248,200,2948,1,2,0:0:0:0:
248,200,3267,1,0,0:0:0:0:
248,200,3480,1,2,0:0:0:0:
220,208,3693,1,0,0:0:0:0:
220,208,3799,1,2,0:0:0:0:
316,212,3906,1,0,0:0:0:0:
264,176,4119,1,0,0:0:0:0:
264,176,4331,1,2,0:0:0:0:
236,212,4544,1,0,0:0:0:0:
224,216,4650,1,2,0:0:0:0:
224,208,4970,1,0,0:0:0:0:
224,208,5182,1,2,0:0:0:0:
236,212,5395,1,0,0:0:0:0:
236,212,5502,1,2,0:0:0:0:
316,212,5608,1,0,0:0:0:0:
236,212,5821,1,0,0:0:0:0:
236,212,6033,1,2,0:0:0:0:
236,212,6353,1,0,0:0:0:0:
236,212,6459,1,2,0:0:0:0:
236,212,6672,1,0,0:0:0:0:
236,212,6884,1,2,0:0:0:0:
256,160,7097,1,2,0:0:0:0:
256,160,7204,1,2,0:0:0:0:
196,280,7310,1,4,0:0:0:0:
256,200,7736,1,0,0:0:0:0:
252,192,7948,1,2,0:0:0:0:
252,192,8055,1,2,0:0:0:0:
252,192,8161,1,0,0:0:0:0:
256,200,8374,1,0,0:0:0:0:
256,200,8587,1,2,0:0:0:0:
256,196,8799,1,0,0:0:0:0:
256,196,9012,1,2,0:0:0:0:
256,200,9438,1,0,0:0:0:0:
256,196,9650,1,2,0:0:0:0:
256,196,9757,1,2,0:0:0:0:
256,196,9863,1,2,0:0:0:0:
248,188,10076,1,0,0:0:0:0:
248,188,10182,1,2,0:0:0:0:
248,188,10289,1,0,0:0:0:0:
248,188,10502,1,0,0:0:0:0:
256,196,10714,1,2,0:0:0:0:
256,196,11140,1,0,0:0:0:0:
256,196,11353,1,0,0:0:0:0:
256,196,11565,1,2,0:0:0:0:
244,188,11991,1,0,0:0:0:0:
244,188,12204,1,0,0:0:0:0:
244,188,12416,1,2,0:0:0:0:
244,188,12523,1,0,0:0:0:0:
244,188,12736,1,0,0:0:0:0:
244,188,12842,1,2,0:0:0:0:
280,188,13055,1,0,0:0:0:0:
280,188,13267,1,0,0:0:0:0:
280,188,13374,1,2,0:0:0:0:
272,188,13587,1,0,0:0:0:0:
280,188,13693,1,2,0:0:0:0:
244,204,13906,1,0,0:0:0:0:
288,184,14012,1,0,0:0:0:0:
244,188,14119,1,2,0:0:0:0:
272,168,14544,1,2,0:0:0:0:
272,160,14757,1,0,0:0:0:0:
272,160,14863,1,0,0:0:0:0:
272,160,14970,1,0,0:0:0:0:
272,160,15182,1,0,0:0:0:0:
280,188,15395,1,2,0:0:0:0:
272,168,15821,1,2,0:0:0:0:
276,168,16033,1,0,0:0:0:0:
276,168,16140,1,0,0:0:0:0:
276,168,16246,1,0,0:0:0:0:
272,168,16459,1,2,0:0:0:0:
272,168,16672,1,0,0:0:0:0:
272,168,16884,1,0,0:0:0:0:
268,172,17097,1,2,0:0:0:0:
260,192,17523,1,2,0:0:0:0:
256,192,17736,1,0,0:0:0:0:
256,192,17842,1,0,0:0:0:0:
260,212,17948,1,0,0:0:0:0:
260,212,18161,1,0,0:0:0:0:
244,192,18374,1,0,0:0:0:0:
244,192,18480,1,2,0:0:0:0:
256,116,18693,1,0,0:0:0:0:
256,116,18799,1,2,0:0:0:0:
260,192,19012,1,2,0:0:0:0:
196,148,19119,1,2,0:0:0:0:
264,200,19225,1,0,0:0:0:0:
264,200,19438,1,0,0:0:0:0:
256,192,19650,1,2,0:0:0:0:
264,200,19863,1,0,0:0:0:0:
268,184,20076,1,0,0:0:0:0:
268,184,20182,1,0,0:0:0:0:
268,184,20289,1,0,0:0:0:0:
268,184,20395,1,0,0:0:0:0:
268,180,20501,1,2,0:0:0:0:
268,184,20608,1,2,0:0:0:0:
268,184,20714,1,2,0:0:0:0:
268,184,20821,1,2,0:0:0:0:
268,180,20927,1,0,0:0:0:0:
224,208,22416,1,4,0:0:0:0:
256,208,23267,1,4,0:0:0:0:
256,208,23693,1,6,0:0:0:0:
256,208,24331,1,4,0:0:0:0:
272,192,24757,1,0,0:0:0:0:
272,192,24970,1,0,0:0:0:0:
272,192,25395,1,0,0:0:0:0:
272,192,25608,1,0,0:0:0:0:
272,192,25821,1,2,0:0:0:0:
316,180,26672,1,0,0:0:0:0:
260,208,27097,1,2,0:0:0:0:
132,176,27310,1,0,0:0:0:0:
260,208,27736,1,2,0:0:0:0:
260,208,28374,1,0,0:0:0:0:
260,208,28799,1,0,0:0:0:0:
260,208,29225,1,2,0:0:0:0:
260,208,30076,1,2,0:0:0:0:
260,208,30182,1,2,0:0:0:0:
240,200,30289,1,2,0:0:0:0:
260,208,30501,1,0,0:0:0:0:
260,208,30714,1,0,0:0:0:0:
256,176,30927,1,2,0:0:0:0:
256,176,31140,1,0,0:0:0:0:
256,176,32204,1,0,0:0:0:0:
256,176,32310,1,0,0:0:0:0:
256,176,32416,1,2,0:0:0:0:
256,176,32629,1,2,0:0:0:0:
256,176,32842,1,0,0:0:0:0:
256,176,33480,1,0,0:0:0:0:
256,176,33906,1,2,0:0:0:0:
256,176,34331,1,0,0:0:0:0:
256,176,34438,1,0,0:0:0:0:
256,176,34544,1,2,0:0:0:0:
256,176,34970,1,0,0:0:0:0:
256,184,35182,1,0,0:0:0:0:
256,184,35608,1,0,0:0:0:0:
256,184,35821,1,0,0:0:0:0:
256,184,36033,1,2,0:0:0:0:
256,184,36246,1,0,0:0:0:0:
256,184,36884,1,2,0:0:0:0:
140,168,37310,1,0,0:0:0:0:
140,168,37523,1,2,0:0:0:0:
256,196,37948,1,4,0:0:0:0:
236,224,38587,1,0,0:0:0:0:
236,224,39225,1,2,0:0:0:0:
236,224,39650,1,0,0:0:0:0:
236,224,40289,1,0,0:0:0:0:
236,224,40714,1,0,0:0:0:0:
236,224,40927,1,2,0:0:0:0:
236,224,41353,1,0,0:0:0:0:
236,224,41991,1,0,0:0:0:0:
236,224,42629,1,2,0:0:0:0:
236,224,43055,1,0,0:0:0:0:
264,208,43374,1,0,0:0:0:0:
236,224,43693,1,0,0:0:0:0:
236,224,44119,1,0,0:0:0:0:
236,224,44331,1,2,0:0:0:0:
236,224,44544,1,2,0:0:0:0:
236,224,44650,1,2,0:0:0:0:
236,224,44757,1,0,0:0:0:0:
236,224,45395,1,0,0:0:0:0:
236,224,46033,1,2,0:0:0:0:
236,224,46459,1,0,0:0:0:0:
236,224,47097,1,0,0:0:0:0:
236,224,47523,1,0,0:0:0:0:
236,224,47736,1,2,0:0:0:0:
236,224,48161,1,6,0:0:0:0:
236,224,48587,1,2,0:0:0:0:
236,224,48799,1,0,0:0:0:0:
236,224,49012,1,2,0:0:0:0:
236,224,49225,1,0,0:0:0:0:
236,224,49438,1,2,0:0:0:0:
236,224,49650,1,0,0:0:0:0:
236,224,49757,1,0,0:0:0:0:
236,224,49863,1,2,0:0:0:0:
236,224,50076,1,0,0:0:0:0:
236,224,50289,1,2,0:0:0:0:
160,120,50501,1,0,0:0:0:0:
264,184,50714,1,0,0:0:0:0:
264,184,50821,1,0,0:0:0:0:
264,184,50927,1,0,0:0:0:0:
264,184,51033,1,0,0:0:0:0:
264,184,51140,1,2,0:0:0:0:
264,196,51246,1,2,0:0:0:0:
264,196,51353,1,2,0:0:0:0:
264,196,51459,1,2,0:0:0:0:
264,196,51565,1,0,0:0:0:0:
236,208,53267,1,4,0:0:0:0:
256,132,53480,1,0,0:0:0:0:
256,132,53693,1,0,0:0:0:0:
256,132,53906,1,0,0:0:0:0:
284,196,54119,1,2,0:0:0:0:
284,196,54331,1,0,0:0:0:0:
252,184,54544,1,2,0:0:0:0:
248,176,54970,1,4,0:0:0:0:
252,204,55182,1,2,0:0:0:0:
252,204,55289,1,2,0:0:0:0:
252,204,55395,1,0,0:0:0:0:
252,204,55608,1,0,0:0:0:0:
248,212,55821,1,2,0:0:0:0:
252,204,56246,1,0,0:0:0:0:
252,204,56459,1,2,0:0:0:0:
252,204,56565,1,0,0:0:0:0:
252,208,56672,1,0,0:0:0:0:
252,204,56884,1,0,0:0:0:0:
252,204,57097,1,2,0:0:0:0:
252,204,57310,1,2,0:0:0:0:
252,204,57523,1,0,0:0:0:0:
252,208,57629,1,0,0:0:0:0:
252,204,57736,1,0,0:0:0:0:
252,204,57948,1,2,0:0:0:0:
252,204,58374,1,0,0:0:0:0:
252,208,58587,1,0,0:0:0:0:
252,204,58693,1,0,0:0:0:0:
252,204,58799,1,2,0:0:0:0:
168,136,59012,1,0,0:0:0:0:
168,136,59225,1,2,0:0:0:0:
244,228,59650,1,0,0:0:0:0:
240,224,59863,1,2,0:0:0:0:
240,224,60076,1,2,0:0:0:0:
240,224,60182,1,0,0:0:0:0:
244,228,60289,1,0,0:0:0:0:
252,232,60501,1,2,0:0:0:0:
252,232,60714,1,0,0:0:0:0:
252,232,60927,1,0,0:0:0:0:
252,232,61033,1,2,0:0:0:0:
252,232,61246,1,0,0:0:0:0:
252,232,61353,1,2,0:0:0:0:
275,170,61565,1,0,0:0:0:0:
275,170,61672,1,2,0:0:0:0:
275,170,61778,1,0,0:0:0:0:
252,224,62204,1,2,0:0:0:0:
260,188,62416,1,0,0:0:0:0:
260,188,62523,1,0,0:0:0:0:
260,188,62629,1,0,0:0:0:0:
260,188,62842,1,0,0:0:0:0:
260,188,63055,1,2,0:0:0:0:
260,188,63480,1,2,0:0:0:0:
260,188,63693,1,0,0:0:0:0:
260,188,63906,1,2,0:0:0:0:
260,188,64119,1,0,0:0:0:0:
260,188,64225,1,0,0:0:0:0:
260,188,64331,1,0,0:0:0:0:
260,188,64544,1,0,0:0:0:0:
260,188,64757,1,2,0:0:0:0:
260,188,65182,1,0,0:0:0:0:
260,188,65395,1,0,0:0:0:0:
260,188,65608,1,2,0:0:0:0:
260,188,65714,1,0,0:0:0:0:
260,188,65821,1,0,0:0:0:0:
256,196,66033,1,0,0:0:0:0:
252,208,66140,1,2,0:0:0:0:
252,208,66353,1,0,0:0:0:0:
252,208,66459,1,2,0:0:0:0:
256,208,66672,1,4,0:0:0:0:
340,248,67097,1,0,0:0:0:0:
340,248,67310,1,0,0:0:0:0:
344,240,67523,1,2,0:0:0:0:
344,240,67629,1,2,0:0:0:0:
344,240,67736,1,0,0:0:0:0:
248,184,67948,1,2,0:0:0:0:
256,180,68161,1,0,0:0:0:0:
256,180,68267,1,0,0:0:0:0:
256,180,68374,1,0,0:0:0:0:
256,180,68480,1,0,0:0:0:0:
256,176,68587,1,6,0:0:0:0:
288,192,68799,1,0,0:0:0:0:
288,192,69012,1,2,0:0:0:0:
288,192,69119,1,0,0:0:0:0:
288,192,69225,1,0,0:0:0:0:
288,192,69438,1,2,0:0:0:0:
260,180,69863,1,0,0:0:0:0:
260,180,70076,1,0,0:0:0:0:
280,176,70182,1,0,0:0:0:0:
260,180,70289,1,2,0:0:0:0:
280,176,70502,1,0,0:0:0:0:
260,180,70714,1,2,0:0:0:0:
260,180,70927,1,0,0:0:0:0:
260,180,71140,1,0,0:0:0:0:
260,180,71246,1,0,0:0:0:0:
260,180,71353,1,0,0:0:0:0:
288,192,71565,1,2,0:0:0:0:
264,188,71991,1,0,0:0:0:0:
264,188,72204,1,0,0:0:0:0:
264,188,72310,1,0,0:0:0:0:
268,192,72416,1,2,0:0:0:0:
264,188,72629,1,0,0:0:0:0:
256,184,72842,1,2,0:0:0:0:
260,192,73267,1,0,0:0:0:0:
264,188,73480,1,2,0:0:0:0:
264,188,73693,1,2,0:0:0:0:
256,200,73799,1,0,0:0:0:0:
256,200,73906,1,0,0:0:0:0:
260,192,74119,1,2,0:0:0:0:
260,192,74331,1,0,0:0:0:0:
256,184,74544,1,0,0:0:0:0:
256,184,74650,1,2,0:0:0:0:
256,184,74863,1,0,0:0:0:0:
256,184,74970,1,2,0:0:0:0:
256,184,75182,1,0,0:0:0:0:
256,184,75289,1,2,0:0:0:0:
240,148,75395,1,0,0:0:0:0:
252,224,75821,1,2,0:0:0:0:
260,188,76033,1,0,0:0:0:0:
260,188,76140,1,0,0:0:0:0:
260,188,76246,1,2,0:0:0:0:
260,188,76459,1,2,0:0:0:0:
260,188,76672,1,0,0:0:0:0:
260,188,77097,1,2,0:0:0:0:
260,188,77310,1,0,0:0:0:0:
260,188,77523,1,2,0:0:0:0:
260,188,77736,1,0,0:0:0:0:
260,188,77842,1,0,0:0:0:0:
260,188,77948,1,2,0:0:0:0:
260,188,78161,1,0,0:0:0:0:
260,188,78374,1,2,0:0:0:0:
376,140,78799,1,0,0:0:0:0:
296,160,79012,1,2,0:0:0:0:
276,164,79119,1,0,0:0:0:0:
300,164,79225,1,0,0:0:0:0:
276,164,79438,1,0,0:0:0:0:
284,168,79650,1,0,0:0:0:0:
280,168,79757,1,2,0:0:0:0:
256,172,79970,1,0,0:0:0:0:
272,176,80076,1,2,0:0:0:0:
268,160,80289,1,4,0:0:0:0:
236,188,81353,1,2,0:0:0:0:
192,200,81565,1,0,0:0:0:0:
264,160,81778,1,2,0:0:0:0:
260,180,81991,1,2,0:0:0:0:
260,180,82097,1,2,0:0:0:0:
260,188,82204,1,4,0:0:0:0:
256,200,82629,1,0,0:0:0:0:
252,192,82841,1,2,0:0:0:0:
252,192,82948,1,2,0:0:0:0:
252,192,83054,1,0,0:0:0:0:
256,200,83267,1,0,0:0:0:0:
256,200,83480,1,2,0:0:0:0:
256,196,83692,1,0,0:0:0:0:
256,196,83905,1,2,0:0:0:0:
256,200,84331,1,0,0:0:0:0:
256,196,84543,1,2,0:0:0:0:
256,196,84650,1,2,0:0:0:0:
256,196,84756,1,2,0:0:0:0:
248,188,84969,1,0,0:0:0:0:
248,188,85075,1,2,0:0:0:0:
248,188,85182,1,0,0:0:0:0:
248,188,85395,1,0,0:0:0:0:
256,196,85607,1,2,0:0:0:0:
256,196,86033,1,2,0:0:0:0:
256,196,86246,1,0,0:0:0:0:
256,208,86353,1,0,0:0:0:0:
304,256,86459,1,0,0:0:0:0:
256,208,86672,1,0,0:0:0:0:
256,172,86884,1,2,0:0:0:0:
248,176,87310,1,2,0:0:0:0:
248,176,87416,1,0,0:0:0:0:
248,172,87629,1,0,0:0:0:0:
248,172,87736,1,2,0:0:0:0:
264,172,87948,1,0,0:0:0:0:
264,172,88161,1,0,0:0:0:0:
264,172,88267,1,2,0:0:0:0:
264,172,88480,1,0,0:0:0:0:
260,176,88587,1,2,0:0:0:0:
276,172,88799,1,0,0:0:0:0:
276,172,88906,1,0,0:0:0:0:
276,172,89012,1,2,0:0:0:0:
304,252,89438,1,0,0:0:0:0:
288,172,89650,1,2,0:0:0:0:
288,172,89863,1,0,0:0:0:0:
280,184,90289,1,0,0:0:0:0:
260,216,90502,1,2,0:0:0:0:
260,216,90608,1,2,0:0:0:0:
260,216,90714,1,0,0:0:0:0:
260,188,90927,1,0,0:0:0:0:
256,216,91140,1,0,0:0:0:0:
256,216,91353,1,2,0:0:0:0:
260,168,91565,1,0,0:0:0:0:
260,168,91672,1,0,0:0:0:0:
260,168,91778,1,0,0:0:0:0:
260,188,91991,1,2,0:0:0:0:
260,172,92204,1,0,0:0:0:0:
260,188,92416,1,2,0:0:0:0:
260,168,92842,1,0,0:0:0:0:
260,172,93055,1,0,0:0:0:0:
260,168,93267,1,0,0:0:0:0:
260,168,93374,1,2,0:0:0:0:
260,168,93693,1,2,0:0:0:0:
260,172,93906,1,4,0:0:0:0:
260,168,94970,1,2,0:0:0:0:
260,168,95182,1,0,0:0:0:0:
264,184,95395,1,2,0:0:0:0:
264,208,95608,1,2,0:0:0:0:
264,208,95714,1,2,0:0:0:0:
264,208,95821,1,0,0:0:0:0:
