osu file format v14

[General]
AudioFilename: audio.mp3
AudioLeadIn: 0
PreviewTime: 55076
Countdown: 0
SampleSet: Normal
StackLeniency: 0.7
Mode: 1
LetterboxInBreaks: 0
WidescreenStoryboard: 1

[Editor]
Bookmarks: 12948,16672,19012,75821,84650,88480,91459
DistanceSpacing: 0.9
BeatDivisor: 4
GridSize: 4
TimelineZoom: 2.2

[Metadata]
Title:GALAXY HidE and SeeK
TitleUnicode:GALAXY HidE and SeeK
Artist:AZALEA
ArtistUnicode:AZALEA
Creator:igorsprite
Version:Futsuu
Source:ラブライブ!サンシャイン!!
Tags:LoveLive! Sunshine!! anime tv size school idol project Suwa Nanaka 諏訪ななか Komiya Arisa 小宮有紗 Takatsuki Kanako 高槻かなこ Matsuura Kanan 松浦果南 Kurosawa Dia 黒澤ダイヤ Kunikida Hanamaru 国木田花丸 アゼリア Sub-unit 2nd second single
BeatmapID:1755826
BeatmapSetID:528472

[Difficulty]
HPDrainRate:7
CircleSize:5
OverallDifficulty:4
ApproachRate:5
SliderMultiplier:1.4
SliderTickRate:1

[Events]
//Background and Video events
0,0,"lopkyy.jpg",0,0
//Break Periods
//Storyboard Layer 0 (Background)
//Storyboard Layer 1 (Fail)
//Storyboard Layer 2 (Pass)
//Storyboard Layer 3 (Foreground)
//Storyboard Sound Samples

[TimingPoints]
502,425.531914893617,4,1,0,40,1,0
6459,-100,4,1,0,75,0,0
24757,-100,4,1,0,50,0,0
37948,-100,4,1,0,75,0,0
54970,-100,4,1,0,90,0,1
66672,-100,4,1,0,90,0,0
68587,-100,4,1,0,90,0,1
80289,-100,4,1,0,90,0,0
85608,-100,4,1,0,80,0,0

[HitObjects]
248,200,502,5,0,0:0:0:0:
248,200,927,1,2,0:0:0:0:
248,200,1565,1,0,0:0:0:0:
248,200,1778,1,2,0:0:0:0:
216,160,2204,1,0,0:0:0:0:
248,200,2629,1,2,0:0:0:0:
248,200,3267,1,0,0:0:0:0:
248,200,3480,1,2,0:0:0:0:
316,212,3906,1,0,0:0:0:0:
264,176,4331,1,2,0:0:0:0:
224,208,4970,1,0,0:0:0:0:
224,208,5182,1,2,0:0:0:0:
236,212,5608,1,0,0:0:0:0:
236,212,6033,1,0,0:0:0:0:
236,212,6459,1,2,0:0:0:0:
236,212,6672,1,0,0:0:0:0:
236,212,6884,1,2,0:0:0:0:
240,176,7310,1,6,0:0:0:0:
256,200,7736,1,2,0:0:0:0:
256,200,8161,1,0,0:0:0:0:
256,200,8587,1,2,0:0:0:0:
256,196,9012,1,2,0:0:0:0:
256,200,9438,1,0,0:0:0:0:
256,196,9650,1,2,0:0:0:0:
248,188,10076,1,2,0:0:0:0:
248,188,10502,1,0,0:0:0:0:
256,196,10714,1,2,0:0:0:0:
256,196,11565,1,0,0:0:0:0:
280,180,12204,1,0,0:0:0:0:
244,188,12416,1,2,0:0:0:0:
244,188,12842,1,2,0:0:0:0:
280,188,13055,1,0,0:0:0:0:
280,188,13267,1,0,0:0:0:0:
280,188,13693,1,2,0:0:0:0:
228,100,14119,1,0,0:0:0:0:
292,120,14544,1,0,0:0:0:0:
272,168,14757,1,2,0:0:0:0:
272,160,14970,1,0,0:0:0:0:
192,268,15395,1,0,0:0:0:0:
272,168,15821,1,2,0:0:0:0:
276,168,16246,1,0,0:0:0:0:
272,168,16459,1,2,0:0:0:0:
268,172,17097,1,0,0:0:0:0:
260,192,17523,1,2,0:0:0:0:
256,192,17948,1,2,0:0:0:0:
260,212,18161,1,0,0:0:0:0:
256,116,18799,1,0,0:0:0:0:
212,208,19012,1,2,0:0:0:0:
164,124,19438,1,0,0:0:0:0:
256,192,19650,1,2,0:0:0:0:
264,168,20076,2,0,P|328:124|340:128,4,70
224,208,22416,1,4,0:0:0:0:
256,208,23267,1,4,0:0:0:0:
256,208,23693,1,6,0:0:0:0:
256,208,24331,1,4,0:0:0:0:
272,192,24757,1,0,0:0:0:0:
272,192,25395,1,0,0:0:0:0:
272,192,25821,1,2,0:0:0:0:
316,180,26672,1,0,0:0:0:0:
260,208,27097,1,2,0:0:0:0:
260,208,27736,1,0,0:0:0:0:
260,208,28374,1,0,0:0:0:0:
260,208,29225,1,2,0:0:0:0:
260,208,30076,1,2,0:0:0:0:
260,208,30501,1,0,0:0:0:0:
256,176,30927,1,2,0:0:0:0:
256,176,31140,1,0,0:0:0:0:
256,176,32204,1,0,0:0:0:0:
256,176,32629,1,2,0:0:0:0:
256,176,32842,1,0,0:0:0:0:
256,176,33480,1,0,0:0:0:0:
256,176,33906,1,2,0:0:0:0:
256,176,34331,1,0,0:0:0:0:
256,176,34544,1,2,0:0:0:0:
256,184,35182,1,0,0:0:0:0:
256,184,35608,1,0,0:0:0:0:
256,184,36033,1,2,0:0:0:0:
256,184,36246,1,0,0:0:0:0:
256,184,36884,1,2,0:0:0:0:
256,196,37948,1,4,0:0:0:0:
236,224,38587,1,0,0:0:0:0:
236,224,39225,1,2,0:0:0:0:
236,224,39650,1,0,0:0:0:0:
236,224,40289,1,0,0:0:0:0:
236,224,40714,1,0,0:0:0:0:
236,224,40927,1,2,0:0:0:0:
236,224,41353,1,0,0:0:0:0:
236,224,41991,1,0,0:0:0:0:
236,224,42629,1,2,0:0:0:0:
236,224,43055,1,0,0:0:0:0:
236,224,43693,1,0,0:0:0:0:
236,224,44119,1,0,0:0:0:0:
236,224,44331,1,2,0:0:0:0:
236,224,44757,1,2,0:0:0:0:
236,224,45395,1,0,0:0:0:0:
236,224,46033,1,2,0:0:0:0:
236,224,46459,1,0,0:0:0:0:
236,224,47097,1,0,0:0:0:0:
236,224,47523,1,0,0:0:0:0:
236,224,47736,1,2,0:0:0:0:
236,224,48161,1,6,0:0:0:0:
236,224,48587,1,2,0:0:0:0:
236,224,48799,1,0,0:0:0:0:
236,224,49012,1,2,0:0:0:0:
236,224,49438,1,2,0:0:0:0:
236,224,49863,1,2,0:0:0:0:
236,224,50076,1,0,0:0:0:0:
236,224,50289,1,2,0:0:0:0:
248,116,50714,2,0,L|316:140,4,70
236,208,53267,5,4,0:0:0:0:
152,136,53906,1,0,0:0:0:0:
284,196,54119,1,2,0:0:0:0:
252,184,54544,1,2,0:0:0:0:
248,176,54970,1,4,0:0:0:0:
252,204,55395,1,0,0:0:0:0:
248,212,55821,1,2,0:0:0:0:
252,204,56246,1,2,0:0:0:0:
252,204,56459,1,0,0:0:0:0:
252,204,56884,1,0,0:0:0:0:
252,204,57097,1,2,0:0:0:0:
252,204,57310,1,2,0:0:0:0:
252,204,57523,1,0,0:0:0:0:
252,204,57948,1,2,0:0:0:0:
252,232,58587,1,0,0:0:0:0:
252,204,58799,1,2,0:0:0:0:
252,232,59225,1,0,0:0:0:0:
240,224,59650,1,0,0:0:0:0:
236,200,59863,1,2,0:0:0:0:
224,184,60076,1,0,0:0:0:0:
236,200,60501,1,0,0:0:0:0:
240,208,60927,1,2,0:0:0:0:
240,208,61140,1,0,0:0:0:0:
240,208,61353,1,2,0:0:0:0:
244,208,61778,1,2,0:0:0:0:
260,188,62629,1,0,0:0:0:0:
260,188,63055,1,2,0:0:0:0:
260,188,63480,1,0,0:0:0:0:
256,104,63906,1,0,0:0:0:0:
216,120,64331,1,2,0:0:0:0:
260,188,64544,1,0,0:0:0:0:
260,188,64757,1,2,0:0:0:0:
224,156,65182,1,0,0:0:0:0:
256,196,65608,1,2,0:0:0:0:
296,216,66033,1,0,0:0:0:0:
260,188,66246,1,0,0:0:0:0:
252,208,66459,1,2,0:0:0:0:
256,208,66672,1,4,0:0:0:0:
248,212,67097,1,0,0:0:0:0:
240,184,67523,1,0,0:0:0:0:
200,168,67736,1,2,0:0:0:0:
256,176,68587,1,6,0:0:0:0:
232,128,69012,1,2,0:0:0:0:
288,192,69225,1,0,0:0:0:0:
288,192,69438,1,2,0:0:0:0:
260,180,69863,1,0,0:0:0:0:
260,180,70076,1,0,0:0:0:0:
280,176,70502,1,0,0:0:0:0:
260,180,70714,1,2,0:0:0:0:
344,140,70927,1,0,0:0:0:0:
260,180,71140,1,0,0:0:0:0:
288,192,71565,1,2,0:0:0:0:
264,188,72204,1,0,0:0:0:0:
268,192,72416,1,0,0:0:0:0:
256,184,72842,1,2,0:0:0:0:
256,64,73267,1,2,0:0:0:0:
252,144,73480,1,0,0:0:0:0:
264,188,73693,1,2,0:0:0:0:
260,192,74119,1,2,0:0:0:0:
256,184,74544,1,0,0:0:0:0:
256,184,74758,1,2,0:0:0:0:
296,184,74970,1,0,0:0:0:0:
240,148,75395,1,2,0:0:0:0:
260,188,76246,1,2,0:0:0:0:
268,208,76672,1,0,0:0:0:0:
260,188,77097,1,2,0:0:0:0:
256,104,77523,1,0,0:0:0:0:
216,120,77948,1,2,0:0:0:0:
260,188,78161,1,0,0:0:0:0:
260,188,78374,1,2,0:0:0:0:
148,192,78799,1,2,0:0:0:0:
264,288,79225,1,0,0:0:0:0:
312,172,79438,1,2,0:0:0:0:
272,176,79863,1,2,0:0:0:0:
256,172,80076,1,0,0:0:0:0:
268,160,80289,1,4,0:0:0:0:
236,188,81353,1,2,0:0:0:0:
192,200,81565,1,0,0:0:0:0:
264,160,81778,1,2,0:0:0:0:
240,176,82204,1,4,0:0:0:0:
256,200,82630,1,0,0:0:0:0:
256,200,83055,1,0,0:0:0:0:
256,200,83481,1,2,0:0:0:0:
256,196,83906,1,2,0:0:0:0:
256,200,84332,1,0,0:0:0:0:
256,196,84544,1,2,0:0:0:0:
248,188,84970,1,2,0:0:0:0:
248,188,85396,1,0,0:0:0:0:
256,196,85608,1,2,0:0:0:0:
308,244,86033,1,0,0:0:0:0:
308,244,86246,1,2,0:0:0:0:
308,244,86459,1,0,0:0:0:0:
280,180,87097,1,0,0:0:0:0:
244,188,87310,1,2,0:0:0:0:
244,188,87735,1,2,0:0:0:0:
256,192,87948,1,0,0:0:0:0:
280,188,88160,1,0,0:0:0:0:
280,188,88586,1,2,0:0:0:0:
244,188,89012,1,0,0:0:0:0:
232,104,89438,1,0,0:0:0:0:
232,124,89650,1,2,0:0:0:0:
232,124,89863,1,0,0:0:0:0:
280,184,90289,1,0,0:0:0:0:
212,196,90502,1,0,0:0:0:0:
272,168,90714,1,2,0:0:0:0:
272,168,91352,1,0,0:0:0:0:
268,172,91777,1,2,0:0:0:0:
272,168,91990,1,0,0:0:0:0:
260,192,92416,1,2,0:0:0:0:
204,168,92842,1,0,0:0:0:0:
260,172,93055,1,2,0:0:0:0:
260,168,93267,1,0,0:0:0:0:
260,168,93693,1,2,0:0:0:0:
260,172,93906,1,4,0:0:0:0:
260,168,94970,1,2,0:0:0:0:
260,168,95182,1,0,0:0:0:0:
264,184,95395,1,2,0:0:0:0:
264,208,95821,1,0,0:0:0:0:
