osu file format v14

[General]
AudioFilename: audio.mp3
AudioLeadIn: 0
PreviewTime: 54974
Countdown: 0
SampleSet: Soft
StackLeniency: 0.3
Mode: 0
LetterboxInBreaks: 0
WidescreenStoryboard: 1

[Editor]
Bookmarks: 7101,7314,7527,14123,20718,20931,21144,24123,24335,24548,31144,37740,37952,38165,44761,51357,51569,51782,54761,54974,55186,68591,81995,82208,82420,89016,95612,95825,96037
DistanceSpacing: 1
BeatDivisor: 4
GridSize: 8
TimelineZoom: 2.1

[Metadata]
Title:GALAXY HidE and SeeK
TitleUnicode:GALAXY HidE and SeeK
Artist:AZALEA
ArtistUnicode:AZALEA
Creator:Usernametwo
Version:Insane
Source:ラブライブ!サンシャイン!!
Tags:love live sunshine school idol festival aqours
BeatmapID:2081494
BeatmapSetID:862677

[Difficulty]
HPDrainRate:5
CircleSize:4
OverallDifficulty:7
ApproachRate:8
SliderMultiplier:1.4
SliderTickRate:1

[Events]
//Background and Video events
0,0,"AZALEA.full.2298039.jpg",0,0
//Break Periods
//Storyboard Layer 0 (Background)
//Storyboard Layer 1 (Fail)
//Storyboard Layer 2 (Pass)
//Storyboard Layer 3 (Foreground)
//Storyboard Sound Samples

[TimingPoints]
506,425.531914893617,4,2,0,80,1,0
7314,-80,4,2,0,80,0,0
8165,-100,4,2,0,80,0,0
10718,-80,4,2,0,80,0,0
11569,-100,4,2,0,80,0,0
14123,-80,4,2,0,80,0,0
14974,-100,4,2,0,80,0,0
16463,-133.333333333333,4,2,0,80,0,0
17101,-100,4,2,0,80,0,0
17527,-100,4,2,0,80,0,0
22420,-200,4,2,0,40,0,0
31569,-133.333333333333,4,2,0,80,0,0
37952,-133.333333333333,4,2,0,60,0,0
48165,-100,4,2,0,60,0,0
51569,-400,4,2,0,60,0,0
53271,-100,4,2,0,80,0,0
54548,-80,4,2,0,80,0,0
54974,-100,4,2,0,80,0,1
55825,-80,4,2,0,80,0,1
56463,-100,4,2,0,80,0,1
57952,-133.333333333333,4,2,0,80,0,1
58378,-100,4,2,0,80,0,1
59229,-80,4,2,0,80,0,1
60080,-100,4,2,0,80,0,1
61782,-80,4,2,0,80,0,1
62208,-100,4,2,0,80,0,1
64761,-133.333333333333,4,2,0,80,0,1
65186,-100,4,2,0,80,0,1
68165,-100,4,2,0,80,0,0
68591,-100,4,2,0,80,0,1
69442,-80,4,2,0,80,0,1
70080,-100,4,2,0,80,0,1
71569,-133.333333333333,4,2,0,80,0,1
72208,-100,4,2,0,80,0,1
72846,-80,4,2,0,80,0,1
74548,-100,4,2,0,80,0,1
75399,-80,4,2,0,80,0,1
75825,-100,4,2,0,80,0,1
80293,-200,4,2,0,80,0,1
81357,-100,4,2,0,80,0,1
81782,-100,4,2,0,80,0,0
82208,-80,4,2,0,80,0,1
82633,-80,4,2,0,80,0,0
83059,-100,4,2,0,80,0,0
85612,-80,4,2,0,80,0,0
86463,-100,4,2,0,80,0,0
89016,-80,4,2,0,80,0,0
89867,-100,4,2,0,80,0,0
91357,-133.333333333333,4,2,0,80,0,0
91995,-100,4,2,0,80,0,0
93910,-250,4,2,0,80,0,0
95612,-100,4,2,0,80,0,0
95825,-250,4,2,0,80,0,0

[Colours]
Combo1 : 255,255,128
Combo2 : 255,128,255
Combo3 : 255,128,192

[HitObjects]
33,131,6463,21,0,0:0:0:0:
159,191,6676,1,0,0:0:0:0:
236,74,6888,1,0,0:0:0:0:
329,113,7101,1,0,0:0:0:0:
329,113,7208,1,0,0:0:0:0:
329,113,7314,6,0,P|282:152|252:93,1,131.25
262,79,7740,1,0,0:0:0:0:
381,189,7952,1,0,0:0:0:0:
308,289,8165,2,0,P|310:324|330:352,1,70
174,261,8591,2,0,P|224:257|255:217,1,105
114,313,9016,6,0,P|55:306|3:303,1,105
27,286,9442,1,0,0:0:0:0:
192,352,9654,1,0,0:0:0:0:
192,352,9760,1,0,0:0:0:0:
192,352,9867,2,0,P|226:349|261:355,1,70
273,333,10186,2,0,P|253:305|241:271,1,70
352,327,10506,2,0,P|360:311|366:295,1,35
477,209,10718,6,0,P|414:222|419:157,1,131.25
429,149,11144,1,0,0:0:0:0:
313,229,11357,1,0,0:0:0:0:
371,94,11569,2,0,P|379:61|372:27,1,70
246,147,11995,2,0,P|279:155|313:148,1,70
193,83,12420,6,0,P|133:88|107:43,1,105
103,32,12846,2,0,P|77:53|42:54,1,70
153,177,13271,5,0,0:0:0:0:
149,201,13378,2,0,L|143:235,1,35
63,136,13591,1,0,0:0:0:0:
65,160,13698,2,0,L|68:194,1,35
0,233,13910,1,0,0:0:0:0:
0,233,14016,1,0,0:0:0:0:
0,233,14123,6,0,P|49:244|32:310,1,131.25
3,313,14548,1,0,0:0:0:0:
138,259,14761,1,0,0:0:0:0:
235,359,14974,2,0,P|268:365|301:353,1,70
441,257,15399,2,0,P|389:255|351:292,1,105
369,308,15825,6,0,L|351:186,1,105
365,182,16250,1,0,0:0:0:0:
283,108,16463,2,0,L|267:227,1,105.000004005432
223,321,17101,2,0,P|261:316|286:284,1,70
160,267,17527,5,0,0:0:0:0:
20,277,17740,1,0,0:0:0:0:
47,200,17952,1,0,0:0:0:0:
187,190,18165,1,0,0:0:0:0:
74,123,18378,5,0,0:0:0:0:
52,110,18484,2,0,P|41:96|34:80,1,35
133,69,18697,1,0,0:0:0:0:
136,44,18803,2,0,L|140:-3,1,35
212,98,19016,6,0,P|263:88|318:83,1,105
337,95,19442,1,0,0:0:0:0:
433,5,19654,2,0,P|422:43|415:79,1,70
475,128,19974,1,0,0:0:0:0:
456,146,20080,6,0,P|456:163|459:180,1,35
394,229,20293,2,0,P|405:241|420:251,1,35
454,325,20505,1,0,0:0:0:0:
421,338,20611,1,0,0:0:0:0:
386,335,20717,1,0,0:0:0:0:
356,317,20824,1,0,0:0:0:0:
337,288,20930,1,0,0:0:0:0:
163,207,22420,6,0,P|114:246|68:233,1,105
212,278,23271,2,0,P|214:295|223:309,1,35
394,241,23697,2,0,P|341:245|292:263,1,105
253,111,24761,5,0,0:0:0:0:
323,80,24974,2,0,P|341:50|346:16,1,70
365,62,25612,1,0,0:0:0:0:
401,129,25825,2,0,P|448:145|485:111,1,105
365,205,26676,2,0,P|331:213|301:196,1,70
283,90,27314,2,0,P|275:105|271:122,1,35
125,103,27740,6,0,P|159:101|191:115,1,70
222,188,28378,2,0,P|205:190|191:200,1,35
175,230,28803,1,0,0:0:0:0:
99,281,29229,2,0,P|165:267|214:313,1,140
130,265,30505,1,0,0:0:0:0:
113,271,30718,1,0,0:0:0:0:
98,281,30931,1,0,0:0:0:0:
214,313,31144,1,0,0:0:0:0:
56,207,31569,5,0,0:0:0:0:
32,133,31782,2,0,P|83:131|123:163,1,105.000004005432
101,106,32420,2,0,P|89:82|90:56,1,52.5000020027161
182,107,32846,2,0,P|232:94|285:89,1,105.000004005432
357,189,33484,2,0,P|313:163|307:113,1,105.000004005432
471,143,34123,2,0,P|445:137|419:143,1,52.5000020027161
297,245,34548,6,0,P|347:234|390:269,1,105.000004005432
418,357,35186,2,0,P|429:333|452:321,1,52.5000020027161
477,326,35612,1,0,0:0:0:0:
339,340,36037,5,0,0:0:0:0:
253,232,36463,1,0,0:0:0:0:
125,278,36888,1,0,0:0:0:0:
378,195,37740,5,0,0:0:0:0:
434,249,37953,2,0,P|381:249|329:255,1,105.000004005432
332,260,38591,1,0,0:0:0:0:
150,132,39229,6,0,P|133:111|126:86,1,52.5000020027161
76,167,39654,2,0,P|129:167|181:173,1,105.000004005432
178,178,40292,1,0,0:0:0:0:
378,195,40718,5,0,0:0:0:0:
356,119,40931,2,0,P|360:93|373:70,1,52.5000020027161
469,225,41357,2,0,P|417:216|364:215,1,105.000004005432
364,215,41995,1,0,0:0:0:0:
175,244,42633,6,0,P|194:262|205:286,1,52.5000020027161,0|0,3:0|0:0,0:0:0:0:
50,298,43059,2,0,P|89:301|128:310,2,78.7500030040742
53,301,44123,5,0,0:0:0:0:
124,185,44335,1,0,0:0:0:0:
32,94,44548,1,0,0:0:0:0:
32,94,44654,1,0,0:0:0:0:
32,94,44761,6,0,P|75:115|105:73,1,105.000004005432
175,123,45399,2,0,P|218:102|248:144,1,105.000004005432
313,80,46037,2,0,P|339:87|363:78,1,52.5000020027161
487,161,46463,6,0,P|444:182|414:140,1,105.000004005432
284,239,47101,2,0,P|327:259|357:220,1,105.000004005432
459,303,47739,2,0,P|434:310|410:302,1,52.5000020027161
258,328,48165,6,0,P|206:317|154:313,1,105
132,324,48591,1,0,0:0:0:0:
163,224,48803,1,0,0:0:0:0:
60,247,49016,1,0,0:0:0:0:
91,147,49229,1,0,0:0:0:0:
166,227,49442,1,0,0:0:0:0:
173,82,49654,5,0,0:0:0:0:
173,82,49761,1,0,0:0:0:0:
173,82,49867,1,0,0:0:0:0:
105,160,50080,1,0,0:0:0:0:
69,62,50293,1,0,0:0:0:0:
2,142,50505,1,0,0:0:0:0:
163,223,50718,6,0,P|179:228|197:228,3,35
104,284,51144,2,0,P|87:284|70:278,1,35
176,325,51357,1,0,0:0:0:0:
207,311,51463,1,0,0:0:0:0:
241,301,51569,2,0,P|293:296|345:299,1,105
411,42,53271,5,0,0:0:0:0:
429,199,53484,1,0,0:0:0:0:
309,92,53697,5,0,0:0:0:0:
415,182,53910,1,0,0:0:0:0:
254,191,54123,5,0,0:0:0:0:
334,167,54336,1,0,0:0:0:0:
252,297,54548,6,0,P|318:314|324:247,1,131.25
314,244,54974,5,0,0:0:0:0:
185,344,55186,2,0,P|150:346|123:326,1,70
102,248,55612,1,0,0:0:0:0:
185,165,55825,2,0,P|126:169|96:107,1,131.25
115,83,56250,1,0,0:0:0:0:
227,234,56463,6,0,P|294:221|311:171,1,105
295,168,56888,1,0,0:0:0:0:
329,300,57101,2,0,P|353:324|386:333,1,70
477,157,57527,1,0,0:0:0:0:
394,250,57740,1,0,0:0:0:0:
426,95,57952,2,0,P|422:60|395:12,1,78.7500030040742
299,36,58378,5,0,0:0:0:0:
375,15,58591,1,0,0:0:0:0:
266,141,58803,2,0,P|231:144|202:126,1,70
421,149,59229,2,0,P|394:96|339:124,1,131.25
346,151,59654,1,0,0:0:0:0:
210,94,59867,1,0,0:0:0:0:
109,209,60080,6,0,P|147:176|198:178,1,105,0|0,0:3|0:3,0:3:0:0:
101,110,60505,2,0,P|72:91|38:98,1,70
142,16,60931,5,0,0:0:0:0:
140,40,61037,2,0,L|133:91,1,35
83,134,61250,1,0,0:0:0:0:
85,158,61356,2,0,L|92:209,1,35
191,170,61569,1,0,0:0:0:0:
191,170,61676,1,0,0:0:0:0:
191,170,61782,6,0,P|126:166|60:167,1,131.25
234,236,62208,2,0,P|267:247|301:242,1,70
154,246,62633,1,0,0:0:0:0:
274,169,62846,1,0,0:0:0:0:
371,285,63059,2,0,P|406:283|435:265,1,70
312,340,63484,6,0,P|263:341|247:295,1,105
167,331,63910,2,0,P|125:321|94:322,1,70
24,347,64335,1,0,0:0:0:0:
130,242,64548,1,0,0:0:0:0:
12,151,64761,2,0,P|40:117|36:66,1,78.7500030040742
86,125,65186,5,0,0:0:0:0:
225,111,65399,1,0,0:0:0:0:
252,37,65612,1,0,0:0:0:0:
113,51,65825,1,0,0:0:0:0:
198,185,66037,5,0,0:0:0:0:
180,216,66144,2,0,P|166:226|149:229,1,35
324,241,66357,1,0,0:0:0:0:
290,250,66464,2,0,P|272:247|258:237,1,35
329,319,66676,6,0,P|383:343|431:305,1,105
423,295,67101,1,0,0:0:0:0:
255,355,67314,1,0,0:0:0:0:
327,244,67527,2,0,P|337:226|339:206,1,35
507,203,67740,5,0,0:0:0:0:
506,168,67846,1,0,0:0:0:0:
488,140,67952,1,0,0:0:0:0:
455,128,68059,1,0,0:0:0:0:
422,136,68165,2,0,P|404:152|398:164,3,35
426,55,68591,5,0,0:0:0:0:
322,149,68803,1,0,0:0:0:0:
199,78,69016,2,0,P|159:69|130:78,1,70
221,219,69442,2,0,P|151:219|148:159,1,131.25
166,152,69867,1,0,0:0:0:0:
121,295,70080,6,0,P|89:326|32:299,1,105
36,279,70506,1,0,0:0:0:0:
185,348,70718,2,0,P|216:330|250:323,1,70
324,344,71144,1,0,0:0:0:0:
232,245,71357,1,0,0:0:0:0:
387,292,71569,2,0,P|426:289|459:268,1,78.7500030040742
336,233,71995,5,0,0:0:0:0:
419,143,72208,2,0,P|423:108|415:74,1,70
354,24,72633,1,0,0:0:0:0:
506,208,72846,2,0,P|469:157|407:165,1,131.25
415,195,73271,1,0,0:0:0:0:
300,82,73484,1,0,0:0:0:0:
169,174,73697,5,0,0:0:0:0:
252,150,73910,1,0,0:0:0:0:
148,262,74123,1,0,0:0:0:0:
26,171,74335,1,0,0:0:0:0:
226,283,74548,5,0,0:0:0:0:
217,305,74654,2,0,P|206:319|193:329,1,35
303,263,74867,1,0,0:0:0:0:
296,239,74974,2,0,L|286:200,1,35
384,298,75186,1,0,0:0:0:0:
384,298,75293,1,0,0:0:0:0:
384,298,75399,6,0,P|445:303|471:248,1,131.25
326,352,75825,2,0,P|296:341|255:339,1,70
181,357,76250,1,0,0:0:0:0:
303,263,76463,1,0,0:0:0:0:
442,325,76676,2,0,P|413:307|400:275,1,70
512,203,77101,6,0,P|463:215|423:183,1,105
340,297,77527,2,0,P|374:299|402:279,1,70
270,343,77952,2,0,P|236:336|201:333,1,70
292,234,78378,2,0,P|282:190|284:117,1,105
299,108,78803,5,0,0:0:0:0:
160,128,79016,1,0,0:0:0:0:
119,60,79229,1,0,0:0:0:0:
258,40,79442,1,0,0:0:0:0:
127,201,79654,5,0,0:0:0:0:
115,226,79761,2,0,P|110:242|114:259,1,35
55,175,79974,1,0,0:0:0:0:
39,152,80081,2,0,P|26:139|9:135,1,35
193,245,80293,6,0,P|245:238|297:236,1,105
365,282,81144,1,0,0:0:0:0:
440,253,81357,5,0,0:0:0:0:
342,153,81569,1,0,0:0:0:0:
220,223,81782,1,0,0:0:0:0:
427,160,81995,1,0,0:0:0:0:
427,160,82101,1,0,0:0:0:0:
427,160,82208,6,0,P|489:159|488:103,1,131.25
459,93,82633,1,0,0:0:0:0:
368,227,82846,1,0,0:0:0:0:
227,146,83059,2,0,P|183:146|147:169,1,87.5
309,108,83484,2,0,P|273:70|275:19,1,105
230,149,83910,6,0,P|220:213|204:262,1,105
230,241,84335,1,0,0:0:0:0:
99,291,84548,1,0,0:0:0:0:
99,291,84654,1,0,0:0:0:0:
99,291,84761,2,0,P|66:278|32:272,1,70
24,248,85080,2,0,P|51:226|73:199,1,70
164,334,85399,2,0,P|175:347|190:355,1,35
103,206,85612,6,0,P|90:157|166:143,1,131.25
167,159,86037,1,0,0:0:0:0:
79,60,86250,1,0,0:0:0:0:
233,114,86463,2,0,P|267:108|294:87,1,70
393,183,86888,2,0,P|371:155|366:121,1,70
264,301,87314,6,0,P|325:308|353:262,1,105,0|0,0:0|0:0,0:3:0:0:
359,257,87740,2,0,P|384:280|418:279,1,70
286,222,88165,5,0,0:0:0:0:
282,197,88271,2,0,L|276:162,1,35
191,270,88484,1,0,0:3:0:0:
194,243,88590,2,0,L|200:208,1,35,0|0,0:3|0:3,0:3:0:0:
273,308,88803,1,0,0:0:0:0:
273,308,88910,1,0,0:0:0:0:
273,308,89016,6,0,P|200:296|132:295,1,131.25
120,315,89442,1,0,0:0:0:0:
233,220,89654,1,0,0:0:0:0:
355,299,89867,2,0,P|397:306|429:286,1,70
449,127,90293,2,0,P|406:119|374:139,1,70
382,223,90612,1,0,0:0:0:0:
364,206,90718,6,0,P|356:153|351:79,1,105
365,81,91144,1,0,0:0:0:0:
227,47,91357,2,0,P|246:96|271:141,1,105.000004005432
161,104,91995,2,0,P|127:93|93:95,1,70
44,209,92420,5,0,0:0:0:0:
58,347,92633,1,0,0:0:0:0:
133,317,92846,1,0,0:0:0:0:
119,179,93059,1,0,0:0:0:0:
212,321,93271,5,0,0:0:0:0:
242,339,93378,2,0,P|258:343|276:344,2,35
182,249,93697,2,0,L|188:214,1,35
111,290,93910,2,0,P|55:282|0:285,1,112
159,350,94974,5,0,0:0:0:0:
238,234,95186,1,0,0:0:0:0:
366,290,95399,1,0,0:0:0:0:
132,274,95612,2,0,P|106:265|80:247,1,35
251,111,95825,6,0,B|266:119|276:142|276:142|311:129|345:131|345:131|333:169|309:193|309:193|331:223|340:257|340:257|303:258|268:244|268:244|247:270|215:293|215:293|208:256|209:223|209:223|178:211|146:184|146:184|181:162|213:154|213:154|215:119|227:88,1,686
