osu file format v14

[General]
AudioFilename: audio.mp3
AudioLeadIn: 0
PreviewTime: 54974
Countdown: 0
SampleSet: Soft
StackLeniency: 0.3
Mode: 0
LetterboxInBreaks: 0
WidescreenStoryboard: 0

[Editor]
Bookmarks: 7101,7314,7527,14123,20718,20931,21144,24123,24335,24548,31144,37740,37952,38165,44761,51357,51569,51782,54761,54974,55186,68591,81995,82208,82420,89016,95612,95825,96037
DistanceSpacing: 1.4
BeatDivisor: 4
GridSize: 8
TimelineZoom: 2.1

[Metadata]
Title:GALAXY HidE and SeeK
TitleUnicode:GALAXY HidE and SeeK
Artist:AZALEA
ArtistUnicode:AZALEA
Creator:Usernametwo
Version:Expert
Source:ラブライブ!サンシャイン!!
Tags:love live sunshine school idol festival aqours
BeatmapID:1804531
BeatmapSetID:862677

[Difficulty]
HPDrainRate:5
CircleSize:4.3
OverallDifficulty:8
ApproachRate:8.8
SliderMultiplier:1.4
SliderTickRate:1

[Events]
//Background and Video events
0,0,"AZALEA.full.2298039.jpg",0,0
//Break Periods
//Storyboard Layer 0 (Background)
//Storyboard Layer 1 (Fail)
//Storyboard Layer 2 (Pass)
//Storyboard Layer 3 (Foreground)
//Storyboard Sound Samples

[TimingPoints]
506,425.531914893617,4,2,0,80,1,0
6888,-66.6666666666667,4,2,0,80,0,0
7740,-133.333333333333,4,2,0,80,0,0
8591,-100,4,2,0,80,0,0
9654,-133.333333333333,4,2,0,80,0,0
9867,-66.6666666666667,4,2,0,80,0,0
10506,-133.333333333333,4,2,0,80,0,0
10718,-66.6666666666667,4,2,0,80,0,0
11144,-133.333333333333,4,2,0,80,0,0
11569,-100,4,2,0,80,0,0
12846,-66.6666666666667,4,2,0,80,0,0
14548,-133.333333333333,4,2,0,80,0,0
15399,-100,4,2,0,80,0,0
16463,-133.333333333333,4,2,0,80,0,0
18378,-66.6666666666667,4,2,0,80,0,0
19016,-133.333333333333,4,2,0,80,0,0
19867,-66.6666666666667,4,2,0,80,0,0
22420,-200,4,2,0,40,0,0
23271,-133.333333333333,4,2,0,40,0,0
24974,-200,4,2,0,40,0,0
25825,-250,4,2,0,40,0,0
26676,-200,4,2,0,40,0,0
27740,-133.333333333333,4,2,0,40,0,0
28803,-200,4,2,0,40,0,0
29229,-250,4,2,0,40,0,0
30505,-133.333333333333,4,2,0,40,0,0
31782,-200,4,2,0,40,0,0
32846,-133.333333333333,4,2,0,40,0,0
33484,-200,4,2,0,40,0,0
34335,-100,4,2,0,40,0,0
34761,-133.333333333333,4,2,0,40,0,0
36250,-200,4,2,0,40,0,0
37740,-100,4,2,0,40,0,0
37952,-133.333333333333,4,2,0,60,0,0
39229,-100,4,2,0,60,0,0
39654,-133.333333333333,4,2,0,60,0,0
40931,-100,4,2,0,60,0,0
41357,-133.333333333333,4,2,0,60,0,0
42633,-100,4,2,0,60,0,0
43059,-133.333333333333,4,2,0,60,0,0
45399,-200,4,2,0,60,0,0
46037,-100,4,2,0,60,0,0
46463,-133.333333333333,4,2,0,60,0,0
47101,-200,4,2,0,60,0,0
47740,-100,4,2,0,60,0,0
48165,-133.333333333333,4,2,0,60,0,0
50718,-66.6666666666667,4,2,0,60,0,0
53271,-66.6666666666667,4,2,0,80,0,0
54123,-66.6666666666667,4,2,0,80,0,0
54548,-50,4,2,0,80,0,0
54974,-66.6666666666667,4,2,0,80,0,1
56250,-100,4,2,0,80,0,1
56888,-66.6666666666667,4,2,0,80,0,1
57952,-100,4,2,0,80,0,1
58378,-66.6666666666667,4,2,0,80,0,1
60080,-100,4,2,0,80,0,1
60505,-66.6666666666667,4,2,0,80,0,1
62208,-133.333333333333,4,2,0,80,0,1
62633,-100,4,2,0,80,0,1
63484,-66.6666666666667,4,2,0,80,0,1
63910,-133.333333333333,4,2,0,80,0,1
66144,-66.6666666666667,4,2,0,80,0,1
66676,-100,4,2,0,80,0,1
67527,-66.6666666666667,4,2,0,80,0,1
68165,-66.6666666666667,4,2,0,80,0,0
68591,-66.6666666666667,4,2,0,80,0,1
69867,-100,4,2,0,80,0,1
70506,-66.6666666666667,4,2,0,80,0,1
71569,-100,4,2,0,80,0,1
72208,-66.6666666666667,4,2,0,80,0,1
75825,-133.333333333333,4,2,0,80,0,1
76250,-100,4,2,0,80,0,1
77101,-66.6666666666667,4,2,0,80,0,1
77527,-133.333333333333,4,2,0,80,0,1
79761,-66.6666666666667,4,2,0,80,0,1
80293,-200,4,2,0,80,0,1
81357,-100,4,2,0,80,0,1
81782,-66.6666666666667,4,2,0,80,0,0
82208,-66.6666666666667,4,2,0,80,0,1
82633,-133.333333333333,4,2,0,80,0,0
83484,-100,4,2,0,80,0,0
84547,-133.333333333333,4,2,0,80,0,0
84760,-66.6666666666667,4,2,0,80,0,0
85399,-133.333333333333,4,2,0,80,0,0
85611,-66.6666666666667,4,2,0,80,0,0
86037,-133.333333333333,4,2,0,80,0,0
86462,-100,4,2,0,80,0,0
87740,-66.6666666666667,4,2,0,80,0,0
89441,-133.333333333333,4,2,0,80,0,0
89867,-100,4,2,0,80,0,0
91357,-133.333333333333,4,2,0,80,0,0
93271,-66.6666666666667,4,2,0,80,0,0
93909,-200,4,2,0,80,0,0
94974,-100,4,2,0,80,0,0
95399,-66.6666666666667,4,2,0,80,0,0
95825,-200,4,2,0,80,0,0
95878,-200,4,2,1,20,0,0

[Colours]
Combo1 : 255,255,128
Combo2 : 255,128,255
Combo3 : 255,128,192

[HitObjects]
60,49,6463,38,0,P|68:63|70:81,1,35,0|0,0:0|0:0,0:0:0:0:
37,225,6676,1,0,0:0:0:0:
76,90,6888,2,0,P|86:65|90:40,1,52.5000020027161,0|0,0:0|0:0,0:0:0:0:
135,259,7101,2,0,P|139:284|149:309,1,52.5000020027161,0|0,0:0|0:0,0:0:0:0:
214,147,7314,6,0,P|162:188|144:124,1,157.500006008148,0|0,0:0|0:0,0:0:0:0:
323,115,7740,2,0,P|299:103|273:102,1,52.5000020027161,0|0,0:0|0:0,0:0:0:0:
304,306,8165,1,0,0:0:0:0:
333,137,8378,1,0,0:0:0:0:
245,261,8591,2,0,P|287:233|356:249,1,105,0|0,0:0|0:0,0:0:0:0:
482,371,9016,6,0,P|445:367|417:349,1,70,0|0,0:0|0:0,0:0:0:0:
480,163,9442,1,0,0:0:0:0:
350,55,9654,2,0,L|354:80,1,26.2500010013581,0|0,0:0|0:0,0:0:0:0:
446,96,9867,2,0,P|410:131|406:183,1,105.000004005432,0|0,0:0|0:0,0:0:0:0:
384,197,10186,2,0,P|396:246|438:276,1,105.000004005432,0|0,0:0|0:0,0:0:0:0:
506,167,10506,2,0,L|480:163,1,26.2500010013581,0|0,0:0|0:0,0:0:0:0:
315,261,10718,6,0,P|262:301|245:236,1,157.500006008148,0|0,0:0|0:0,0:0:0:0:
178,151,11144,2,0,P|204:151|228:161,1,52.5000020027161,0|0,0:0|0:0,0:0:0:0:
204,356,11569,1,0,0:0:0:0:
113,230,11782,1,0,0:0:0:0:
246,158,11995,2,0,P|269:131|276:97,1,70,0|0,0:0|0:0,0:0:0:0:
64,287,12420,6,0,L|77:367,1,70,0|0,0:0|0:0,0:0:0:0:
238,147,12846,1,0,0:0:0:0:
142,299,13059,1,0,0:0:0:0:
79,118,13271,5,0,0:0:0:0:
79,118,13378,2,0,P|65:95|42:78,1,52.5000020027161,0|0,0:0|0:0,0:0:0:0:
100,217,13591,1,0,0:0:0:0:
128,202,13698,2,0,P|140:179|143:149,1,52.5000020027161,0|0,0:0|0:0,0:0:0:0:
120,27,13910,1,0,0:0:0:0:
47,6,14016,1,0,0:0:0:0:
129,45,14123,6,0,B|194:69|240:28|240:28|210:58|208:104,1,157.500006008148,0|0,0:0|0:0,0:0:0:0:
340,94,14548,2,0,L|274:86,1,52.5000020027161,0|0,0:0|0:0,0:0:0:0:
376,214,14974,1,0,0:0:0:0:
401,52,15186,1,0,0:0:0:0:
303,227,15399,2,0,P|328:271|377:285,1,105,0|0,0:0|0:0,0:0:0:0:
268,320,15825,6,0,P|247:347|242:382,1,70,0|0,0:0|0:0,0:0:0:0:
319,376,16250,1,0,0:0:0:0:
182,311,16463,2,0,L|115:318,1,52.5000020027161,0|0,0:0|0:0,0:0:0:0:
73,363,16888,1,0,0:0:0:0:
210,241,17101,2,0,B|188:213|196:185|196:185|207:185|208:203,1,78.7500030040742,0|0,0:0|0:0,0:0:0:0:
100,194,17527,5,0,0:0:0:0:
281,225,17740,1,0,0:0:0:0:
271,148,17952,1,0,0:0:0:0:
90,117,18165,1,0,0:0:0:0:
342,179,18378,5,0,0:0:0:0:
369,164,18484,2,0,P|383:142|388:116,1,52.5000020027161,0|0,0:0|0:0,0:0:0:0:
471,157,18697,1,0,0:0:0:0:
461,84,18803,2,0,L|451:26,1,52.5000020027161,0|0,0:0|0:0,0:0:0:0:
400,266,19016,2,0,P|404:278|412:288,1,26.2500010013581,0|0,0:0|0:0,0:0:0:0:
478,323,19229,5,0,0:0:0:0:
328,284,19442,1,0,0:0:0:0:
217,381,19654,1,0,0:0:0:0:
290,384,19867,6,0,P|288:358|276:335,1,52.5000020027161,0|0,0:0|0:0,0:0:0:0:
91,297,20080,1,0,0:0:0:0:
69,311,20186,1,0,0:0:0:0:
55,333,20293,1,0,0:0:0:0:
56,281,20399,1,0,0:0:0:0:
81,236,20505,1,0,0:0:0:0:
125,207,20612,1,0,0:0:0:0:
177,203,20718,1,0,0:0:0:0:
225,223,20824,1,0,0:0:0:0:
258,263,20931,1,0,0:0:0:0:
119,205,22420,6,0,P|92:152|107:100,1,105,0|0,0:0|0:0,0:0:0:0:
57,171,23271,2,0,P|36:186|22:209,1,52.5000020027161,0|0,0:0|0:0,0:0:0:0:
121,129,23697,2,0,P|171:136|216:110,1,105,0|0,0:0|0:0,0:0:0:0:
332,240,24335,6,0,P|358:244|384:238,1,52.5000020027161,0|0,0:0|0:0,0:0:0:0:
457,147,24761,1,0,0:0:0:0:
507,202,24974,2,0,P|477:186|443:192,1,70,0|0,0:0|0:0,0:0:0:0:
385,238,25612,1,0,0:0:0:0:
457,147,25825,2,0,P|464:103|454:57,1,84,0|0,0:0|0:0,0:0:0:0:
416,211,26676,2,0,P|381:213|353:194,1,70,0|0,0:0|0:0,0:0:0:0:
508,189,27314,2,0,P|495:176|479:170,1,35,0|0,0:0|0:0,0:0:0:0:
256,328,27740,6,0,P|307:330|346:297,1,105.000004005432,0|0,0:0|0:0,0:0:0:0:
200,373,28378,1,0,0:0:0:0:
283,261,28591,1,0,0:0:0:0:
227,133,28803,2,0,P|246:150|254:167,1,35,0|0,0:0|0:0,0:0:0:0:
280,82,29229,2,0,P|290:136|271:188,1,112,0|0,0:0|0:0,0:0:0:0:
267,110,30505,5,0,0:0:0:0:
370,92,30717,1,0,0:0:0:0:
437,172,30931,1,0,0:0:0:0:
308,48,31144,6,0,P|276:36|238:40,1,52.5000020027161,0|0,0:0|0:0,0:0:0:0:
112,188,31569,1,0,0:0:0:0:
163,244,31782,2,0,P|151:215|161:149,1,70,0|0,0:0|0:0,0:0:0:0:
306,210,32420,1,0,0:0:0:0:
206,314,32633,1,0,0:0:0:0:
63,303,32846,2,0,P|99:266|150:264,1,105.000004005432,0|0,0:0|0:0,0:0:0:0:
336,371,33484,2,0,P|303:365|275:345,1,70,0|0,0:0|0:0,0:0:0:0:
456,265,34123,1,0,0:0:0:0:
414,358,34335,2,0,P|408:341|410:323,2,35,0|0|0,0:0|0:0|0:0,0:0:0:0:
486,335,34761,5,0,0:0:0:0:
381,253,34974,1,0,0:0:0:0:
261,310,35186,1,0,0:0:0:0:
395,259,35612,5,0,0:0:0:0:
356,161,35824,1,0,0:0:0:0:
421,77,36038,1,0,0:0:0:0:
283,187,36251,2,0,P|263:159|261:123,1,70,0|0,0:0|0:0,0:0:0:0:
327,248,36889,2,0,P|322:197|348:151,1,105,0|0,0:0|0:0,0:0:0:0:
398,213,37741,1,0,0:0:0:0:
158,339,37952,6,0,P|201:309|254:310,1,105.000004005432,0|0,0:0|0:0,0:0:0:0:
314,353,38591,1,0,0:0:0:0:
472,207,39229,6,0,P|448:181|414:174,1,70,0|0,0:0|0:0,0:0:0:0:
273,276,39654,2,0,P|222:284|178:258,1,105.000004005432,0|0,0:0|0:0,0:0:0:0:
237,209,40293,1,0,0:0:0:0:
249,194,40718,5,0,0:0:0:0:
202,328,40931,2,0,P|177:352|143:357,1,70,0|0,0:0|0:0,0:0:0:0:
316,225,41357,2,0,P|367:222|412:249,1,105.000004005432,0|0,0:0|0:0,0:0:0:0:
442,319,41995,1,0,0:0:0:0:
375,150,42633,6,0,P|390:119|419:101,1,70,0|0,0:0|0:0,0:0:0:0:
325,207,43059,2,0,P|286:208|253:187,2,78.7500030040742,0|0|0,0:0|0:0|0:0,0:0:0:0:
316,225,44123,5,0,0:0:0:0:
222,99,44335,1,0,0:0:0:0:
70,143,44548,1,0,0:0:0:0:
70,143,44654,1,0,0:0:0:0:
70,143,44761,2,0,P|119:148|154:187,1,105.000004005432,0|0,0:0|0:0,0:0:0:0:
101,312,45399,2,0,P|131:294|150:265,1,70,0|0,0:0|0:0,0:0:0:0:
283,249,46037,2,0,P|253:232|219:231,1,70,0|0,0:0|0:0,0:0:0:0:
431,343,46463,6,0,P|463:301|468:250,1,105.000004005432,0|0,0:0|0:0,0:0:0:0:
378,140,47101,2,0,P|394:175|429:201,1,70,0|0,0:0|0:0,0:0:0:0:
472,65,47740,2,0,P|437:60|404:70,1,70,0|0,0:0|0:0,0:0:0:0:
174,220,48165,6,0,P|135:221|100:203,1,78.7500030040742,0|0,0:0|0:0,0:0:0:0:
89,179,48591,5,0,0:0:0:0:
176,339,48803,1,0,0:0:0:0:
103,305,49016,5,0,0:0:0:0:
155,131,49229,1,0,0:0:0:0:
243,294,49442,1,0,0:0:0:0:
442,173,49654,5,0,0:0:0:0:
442,173,49761,1,0,0:0:0:0:
442,173,49867,1,0,0:0:0:0:
260,148,50080,1,0,0:0:0:0:
458,247,50293,5,0,0:0:0:0:
276,222,50506,1,0,0:0:0:0:
398,92,50718,5,0,0:0:0:0:
393,66,50824,1,0,0:0:0:0:
389,40,50930,1,0,0:0:0:0:
439,50,51037,1,0,0:0:0:0:
467,91,51143,1,0,0:0:0:0:
461,142,51250,1,0,0:0:0:0:
421,174,51356,1,0,0:0:0:0:
370,169,51462,1,0,0:0:0:0:
336,131,51569,1,0,0:0:0:0:
340,76,53271,6,0,P|316:63|290:62,1,52.5000020027161,0|0,0:0|0:0,0:0:0:0:
147,175,53484,2,0,P|170:163|196:162,1,52.5000020027161,0|0,0:0|0:0,0:0:0:0:
190,238,53697,1,0,0:0:0:0:
10,130,53910,1,0,0:0:0:0:
72,84,54123,6,0,P|84:107|85:133,1,52.5000020027161,0|0,0:0|0:0,0:0:0:0:
35,298,54335,1,0,0:0:0:0:
90,142,54548,2,0,P|48:60|33:144,1,210,0|0,0:0|0:0,0:0:0:0:
177,257,54974,6,0,P|215:258|248:243,1,52.5000020027161,0|0,0:0|0:0,0:0:0:0:
281,202,55186,1,0,0:0:0:0:
142,324,55399,2,0,P|90:335|69:328,1,52.5000020027161,0|0,0:0|0:0,0:0:0:0:
200,184,55612,2,0,P|217:163|224:138,1,52.5000020027161,0|0,0:0|0:0,0:0:0:0:
338,255,55825,2,0,P|412:260|447:194,1,157.500006008148,0|0,0:0|0:0,0:0:0:0:
414,128,56250,2,0,P|414:145|419:162,1,35,0|0,0:0|0:0,0:0:0:0:
471,337,56463,6,0,P|420:342|382:303,1,105.000004005432,0|0,0:0|0:0,0:0:0:0:
389,282,56888,2,0,P|411:268|437:265,1,52.5000020027161,0|0,0:0|0:0,0:0:0:0:
285,359,57101,2,0,P|257:355|237:342,1,52.5000020027161,0|0,0:0|0:0,0:0:0:0:
201,273,57314,1,0,0:0:0:0:
23,348,57527,2,0,P|48:355|75:354,1,52.5000020027161,0|0,0:0|0:0,0:0:0:0:
150,220,57740,2,0,P|143:194|128:173,1,52.5000020027161,0|0,0:0|0:0,0:0:0:0:
290,281,57952,2,0,P|340:262|395:268,1,105,0|0,0:0|0:0,0:0:0:0:
453,312,58378,5,0,0:0:0:0:
314,189,58591,2,0,P|314:162|326:139,1,52.5000020027161,0|0,0:0|0:0,0:0:0:0:
393,103,58803,1,0,0:0:0:0:
237,170,59016,2,0,P|210:169|187:157,1,52.5000020027161,0|0,0:0|0:0,0:0:0:0:
329,64,59229,2,0,P|268:32|261:98,1,157.500006008148,0|0,0:0|0:0,0:0:0:0:
384,225,59654,2,0,P|408:233|434:230,1,52.5000020027161,0|0,0:0|0:0,0:0:0:0:
392,27,59867,2,0,P|366:22|342:32,1,52.5000020027161,0|0,0:0|0:0,0:0:0:0:
237,170,60080,6,0,P|183:143|129:148,1,105,0|0,0:0|0:0,0:0:0:0:
76,186,60505,1,0,0:0:0:0:
175,68,60718,1,0,0:0:0:0:
310,145,60931,5,0,0:0:0:0:
310,145,61037,2,0,P|336:147|360:137,1,52.5000020027161,0|0,0:0|0:0,0:0:0:0:
195,163,61250,1,0,0:0:0:0:
209,185,61357,2,0,P|230:199|256:203,1,52.5000020027161,0|0,0:0|0:0,0:0:0:0:
112,116,61569,1,0,0:0:0:0:
134,45,61676,1,0,0:0:0:0:
121,133,61782,6,0,B|120:189|93:238|93:238|120:194|154:198,1,157.500006008148,0|0,0:0|0:0,0:0:0:0:
97,61,62208,2,0,P|80:42|52:32,1,52.5000020027161,0|0,0:0|0:0,0:0:0:0:
35,105,62633,1,0,0:0:0:0:
195,163,62846,1,0,0:0:0:0:
307,35,63059,2,0,P|264:35|236:19,1,70,0|0,0:0|0:0,0:0:0:0:
357,92,63484,6,0,P|425:97|414:30,1,157.500006008148,0|0,0:0|0:0,0:0:0:0:
465,163,63910,2,0,P|486:177|512:179,1,52.5000020027161,0|0,0:0|0:0,0:0:0:0:
347,350,64335,1,0,0:0:0:0:
460,272,64548,1,0,0:0:0:0:
391,148,64761,2,0,B|382:114|395:94|395:94|408:103|407:123,1,78.7500030040742,0|0,0:0|0:0,0:0:0:0:
331,244,65186,5,0,0:0:0:0:
511,210,65399,1,0,0:0:0:0:
476,146,65612,1,0,0:0:0:0:
296,180,65825,1,0,0:0:0:0:
305,21,66037,5,0,0:0:0:0:
275,31,66144,2,0,P|257:51|249:76,1,52.5000020027161,0|0,0:0|0:0,0:0:0:0:
381,137,66357,1,0,0:0:0:0:
313,169,66463,2,0,P|288:163|267:149,1,52.5000020027161,0|0,0:0|0:0,0:0:0:0:
75,81,66676,6,0,P|127:86|176:102,1,105,0|0,0:0|0:0,0:0:0:0:
196,176,67101,1,0,0:0:0:0:
320,92,67314,1,0,0:0:0:0:
437,188,67527,2,0,P|432:213|417:235,1,52.5000020027161,0|0,0:0|0:0,0:0:0:0:
172,179,67740,5,0,0:0:0:0:
214,149,67846,1,0,0:0:0:0:
266,151,67952,1,0,0:0:0:0:
307,183,68059,1,0,0:0:0:0:
321,232,68165,2,0,L|318:264,7,26.2500010013581,0|0|0|0|0|0|0|0,0:0|0:0|0:0|0:0|0:0|0:0|0:0|0:0,0:0:0:0:
342,248,68591,5,0,0:0:0:0:
417,137,68803,1,0,0:0:0:0:
356,325,69016,2,0,P|331:333|304:334,1,52.5000020027161,0|0,0:0|0:0,0:0:0:0:
241,215,69229,2,0,P|246:189|260:165,1,52.5000020027161,0|0,0:0|0:0,0:0:0:0:
121,268,69442,2,0,P|47:273|12:207,1,157.500006008148,0|0,0:0|0:0,0:0:0:0:
42,142,69867,2,0,L|37:177,1,35,0|0,0:0|0:0,0:0:0:0:
136,345,70080,6,0,P|186:350|228:317,1,105,0|0,0:0|0:0,0:0:0:0:
73,384,70506,2,0,P|47:384|22:373,1,52.5000020027161,0|0,0:0|0:0,0:0:0:0:
186,276,70718,2,0,P|212:276|237:287,1,52.5000020027161,0|0,0:0|0:0,0:0:0:0:
354,375,70931,1,0,0:0:0:0:
353,217,71144,2,0,P|364:192|384:176,1,52.5000020027161,0|0,0:0|0:0,0:0:0:0:
285,346,71357,2,0,P|262:359|236:361,1,52.5000020027161,0|0,0:0|0:0,0:0:0:0:
113,275,71569,2,0,P|108:224|135:180,1,105,0|0,0:0|0:0,0:0:0:0:
177,315,71995,5,0,0:0:0:0:
277,222,72208,2,0,P|254:176|207:156,1,105,0|0,0:0|0:0,0:0:0:0:
271,294,72633,2,0,P|289:274|297:249,1,52.5000020027161,0|0,0:0|0:0,0:0:0:0:
148,109,72846,2,0,P|143:58|214:90,1,157.500006008148,0|0,0:0|0:0,0:0:0:0:
101,168,73271,2,0,P|77:176|51:178,1,52.5000020027161,0|0,0:0|0:0,0:0:0:0:
245,77,73484,2,0,P|270:81|291:96,1,52.5000020027161,0|0,0:0|0:0,0:0:0:0:
385,210,73697,5,0,0:0:0:0:
239,152,73910,1,0,0:0:0:0:
129,263,74123,2,0,P|156:260|181:252,1,52.5000020027161,0|0,0:0|0:0,0:0:0:0:
291,96,74335,2,0,P|270:81|245:77,1,52.5000020027161,0|0,0:0|0:0,0:0:0:0:
395,219,74548,5,0,0:0:0:0:
395,219,74654,2,0,P|420:222|445:213,1,52.5000020027161,0|0,0:0|0:0,0:0:0:0:
295,174,74867,1,0,0:0:0:0:
325,168,74974,2,0,P|346:155|362:133,1,52.5000020027161,0|0,0:0|0:0,0:0:0:0:
247,237,75186,1,0,0:0:0:0:
219,168,75293,1,0,0:0:0:0:
233,255,75399,6,0,P|174:287|163:221,1,157.500006008148,0|0,0:0|0:0,0:0:0:0:
107,333,75825,2,0,P|82:342|56:343,1,52.5000020027161,0|0,0:0|0:0,0:0:0:0:
342,284,76250,1,0,0:0:0:0:
177,207,76463,1,0,0:0:0:0:
56,343,76676,2,0,P|90:342|117:321,1,70,0|0,0:0|0:0,0:0:0:0:
327,265,77101,6,0,P|336:332|271:316,1,157.500006008148,0|0,0:0|0:0,0:0:0:0:
425,317,77527,2,0,P|452:318|476:308,1,52.5000020027161,0|0,0:0|0:0,0:0:0:0:
389,384,77952,1,0,0:0:0:0:
316,248,78165,1,0,0:0:0:0:
435,150,78378,2,0,B|467:138|489:147|489:147|485:166|463:162,1,78.7500030040742,0|0,0:0|0:0,0:0:0:0:
480,67,78803,5,0,0:0:0:0:
442,247,79016,1,0,0:0:0:0:
376,206,79229,1,0,0:0:0:0:
414,26,79442,1,0,0:0:0:0:
309,245,79654,5,0,0:0:0:0:
283,251,79761,2,0,P|259:243|237:224,1,52.5000020027161,0|0,0:0|0:0,0:0:0:0:
163,303,79974,1,0,0:0:0:0:
156,229,80080,2,0,L|151:176,1,52.5000020027161,0|0,0:0|0:0,0:0:0:0:
322,322,80293,6,0,P|377:325|432:334,1,105,0|0,0:0|0:0,0:0:0:0:
258,363,81144,1,0,0:0:0:0:
195,143,81357,6,0,P|192:161|196:178,1,35,0|0,0:0|0:0,0:0:0:0:
268,348,81569,1,0,0:0:0:0:
211,189,81782,2,0,P|218:163|238:141,1,52.5000020027161,0|0,0:0|0:0,0:0:0:0:
305,258,81995,2,0,P|278:264|249:258,1,52.5000020027161,0|0,0:0|0:0,0:0:0:0:
68,118,82208,6,0,P|124:155|140:89,1,157.500006008148,0|0,0:0|0:0,0:0:0:0:
49,217,82633,2,0,P|23:222|0:213,1,52.5000020027161,0|0,0:0|0:0,0:0:0:0:
40,144,83059,1,0,0:0:0:0:
147,264,83271,1,0,0:0:0:0:
301,187,83484,2,0,P|257:162|210:181,1,105,0|0,0:0|0:0,0:0:0:0:
115,354,83910,6,0,P|149:356|179:339,1,70,0|0,0:0|0:0,0:0:0:0:
55,304,84335,1,0,0:0:0:0:
180,174,84548,2,0,L|139:159,1,26.2500010013581,0|0,0:0|0:0,0:0:0:0:
1,254,84761,2,0,P|46:230|96:243,1,105.000004005432,0|0,0:0|0:0,0:0:0:0:
125,234,85080,2,0,P|159:271|160:322,1,105.000004005432,0|0,0:0|0:0,0:0:0:0:
219,200,85399,2,0,L|195:191,1,26.2500010013581,0|0,0:0|0:0,0:0:0:0:
319,342,85612,6,0,P|385:350|366:287,1,157.500006008148,0|0,0:0|0:0,0:0:0:0:
413,181,86037,2,0,P|413:207|421:231,1,52.5000020027161,0|0,0:0|0:0,0:0:0:0:
512,107,86463,1,0,0:0:0:0:
436,247,86676,1,0,0:0:0:0:
283,198,86888,2,0,P|260:173|251:140,1,70,0|0,0:0|0:0,0:0:0:0:
326,265,87314,6,0,L|312:346,1,70,0|0,0:0|0:0,0:0:0:0:
285,70,87740,1,0,0:0:0:0:
428,170,87952,1,0,0:0:0:0:
212,29,88165,5,0,0:0:0:0:
212,29,88271,2,0,P|210:55|199:78,1,52.5000020027161,0|0,0:0|0:0,0:0:0:0:
58,142,88484,1,0,0:0:0:0:
76,116,88591,2,0,P|99:104|125:101,1,52.5000020027161,0|0,0:0|0:0,0:0:0:0:
88,264,88803,1,0,0:0:0:0:
111,194,88910,1,0,0:0:0:0:
68,272,89016,6,0,P|7:300|5:234,1,157.500006008148,0|0,0:0|0:0,0:0:0:0:
117,340,89442,2,0,P|145:352|175:351,1,52.5000020027161,0|0,0:0|0:0,0:0:0:0:
334,304,89867,1,0,0:0:0:0:
159,279,90080,1,0,0:0:0:0:
294,364,90293,1,0,0:0:0:0:
446,315,90506,2,0,L|437:266,1,35,0|0,0:0|0:0,0:0:0:0:
374,244,90718,6,0,P|391:214|391:179,1,70,0|0,0:0|0:0,0:0:0:0:
511,261,91144,1,0,0:0:0:0:
465,90,91357,2,0,L|455:141,1,52.5000020027161,0|0,0:0|0:0,0:0:0:0:
499,247,91782,1,0,0:0:0:0:
319,197,91995,2,0,B|288:177|261:186|261:186|268:201|281:204,1,78.7500030040742,0|0,0:0|0:0,0:0:0:0:
300,269,92420,5,0,0:0:0:0:
283,81,92633,1,0,0:0:0:0:
212,115,92846,1,0,0:0:0:0:
229,303,93059,1,0,0:0:0:0:
166,264,93271,5,0,0:0:0:0:
189,241,93378,2,0,P|197:216|198:190,2,52.5000020027161,0|0|0,0:0|0:0|0:0,0:0:0:0:
121,321,93697,2,0,P|98:333|72:338,1,52.5000020027161,0|0,0:0|0:0,0:0:0:0:
302,311,93910,6,0,P|376:313|441:323,1,140,0|0,0:0|0:0,0:0:0:0:
394,188,94974,6,0,P|398:204|396:221,1,35,0|0,0:0|0:0,0:0:0:0:
357,352,95186,1,0,0:0:0:0:
406,229,95399,2,0,P|418:205|424:180,1,52.5000020027161,0|0,0:0|0:0,0:0:0:0:
211,344,95612,2,0,P|186:349|160:352,1,52.5000020027161,0|0,0:0|0:0,0:0:0:0:
305,101,95825,6,0,B|312:121|309:149|309:149|354:161|389:184|389:184|350:215|311:225|311:225|315:270|303:311|303:311|265:288|237:251|237:251|199:266|153:270|153:270|165:225|189:191|189:191|163:159|148:113|148:113|196:112|236:124|236:124|260:89|294:63,1,840,0|0,0:0|0:0,0:0:0:0:
