osu file format v14

[General]
AudioFilename: az.mp3
AudioLeadIn: 0
PreviewTime: 57084
Countdown: 0
SampleSet: Soft
StackLeniency: 0.7
Mode: 0
LetterboxInBreaks: 0
WidescreenStoryboard: 0

[Editor]
DistanceSpacing: 1.2
BeatDivisor: 4
GridSize: 4
TimelineZoom: 1.6

[Metadata]
Title:GALAXY HidE and SeeK
TitleUnicode:GALAXY HidE and SeeK
Artist:AZALEA
ArtistUnicode:AZALEA
Creator:Jennifer
Version:greenhue's Celestial
Source:ラブライブ!サンシャイン!!
Tags:jpop ALL STARS SIFAS School Idol Festival Aqours Kanan Matsuura 松浦果南 Nanaka Suwa 諏訪ななか Dia Kurosawa 黒澤ダイヤ Komiya Arisa 小宮有紗 Hanamaru Kunikida 国木田花丸 Takatsuki Kanako 高槻かなこ Love Live Sunshine!! anime video game short ver 2nd second single lantis j-pop pop japanese jennglebells greenhue スクールアイドルフェスティバル frostings
BeatmapID:2624969
BeatmapSetID:883713

[Difficulty]
HPDrainRate:6
CircleSize:4
OverallDifficulty:8.5
ApproachRate:8
SliderMultiplier:1.8
SliderTickRate:1

[Events]
//Background and Video events
0,0,"Dia.jpg",0,0
//Break Periods
//Storyboard Layer 0 (Background)
//Storyboard Layer 1 (Fail)
//Storyboard Layer 2 (Pass)
//Storyboard Layer 3 (Foreground)
//Storyboard Layer 4 (Overlay)
//Storyboard Sound Samples

[TimingPoints]
2616,425.531914893617,4,2,0,60,1,0
2616,-133.333333333333,4,2,0,60,0,0
9424,-83.3333333333333,4,2,0,70,0,0
23041,-125,4,2,0,50,0,0
40062,-100,4,2,0,65,0,0
53679,-111.111111111111,4,2,0,65,0,0
57084,-76.9230769230769,4,2,0,85,0,1
68786,-83.3333333333334,4,2,0,85,0,1
70701,-76.923076923077,4,2,0,85,0,1
82403,-142.857142857143,4,2,0,85,0,0
82616,-142.857142857143,4,2,0,70,0,0
84318,-83.3333333333334,4,2,0,70,0,0
96020,-142.857142857143,4,2,0,70,0,0

[Colours]
Combo1 : 242,24,57
Combo2 : 227,72,138
Combo3 : 245,139,190

[HitObjects]
0,68,2616,6,0,L|93:62,1,67.5000025749208,2|0,0:0|0:0,0:0:0:0:
100,89,2935,1,0,0:0:0:0:
100,89,3041,2,0,L|191:82,1,67.5000025749208,2|0,0:3|0:0,0:0:0:0:
252,82,3360,1,2,0:3:0:0:
252,82,3679,1,2,0:3:0:0:
139,180,3892,2,0,P|130:224|145:270,1,67.5000025749208,2|0,0:0|0:0,0:0:0:0:
194,317,4211,5,0,0:0:0:0:
194,317,4318,2,0,L|286:312,1,67.5000025749208,2|0,0:0|0:0,0:0:0:0:
289,332,4636,1,0,0:0:0:0:
289,332,4743,2,0,L|385:325,1,67.5000025749208,2|0,0:3|0:0,0:0:0:0:
435,357,5062,1,2,0:3:0:0:
435,357,5381,1,2,0:3:0:0:
314,232,5594,2,0,P|310:187|327:141,1,67.5000025749208,2|0,0:0|0:0,0:0:0:0:
363,73,5913,5,0,0:0:0:0:
363,73,6020,2,0,L|284:72,1,67.5000025749208,2|0,0:0|0:0,0:0:0:0:
267,56,6339,1,0,0:0:0:0:
267,56,6445,2,0,L|184:54,1,67.5000025749208,2|0,0:3|0:0,0:0:0:0:
132,89,6764,1,2,0:3:0:0:
256,192,6871,12,0,8360,0:0:0:0:
89,184,8573,5,8,0:0:0:0:
336,104,8786,1,0,1:0:0:0:
89,310,8998,1,12,1:0:0:0:
246,260,9211,1,2,0:0:0:0:
229,258,9318,1,2,0:0:0:0:
213,257,9424,6,0,L|137:246,1,53.9999983520508,6|0,1:2|0:0,0:0:0:0:
173,114,9637,2,0,L|180:167,1,53.9999983520508,2|0,0:2|0:0,0:0:0:0:
175,362,9850,1,10,0:0:0:0:
166,348,10062,2,0,B|260:338|229:395|327:384,1,161.999995056153,2|0,0:0|0:0,0:0:0:0:
348,376,10488,1,0,0:0:0:0:
486,271,10701,2,0,P|426:312|397:218,1,161.999995056153,10|0,0:2|0:0,0:0:0:0:
512,105,11126,2,0,P|493:175|421:159,1,161.999995056153,2|0,1:2|0:0,0:0:0:0:
371,72,11552,1,8,0:0:0:0:
371,72,11764,2,0,L|380:10,2,53.9999983520508,2|2|2,0:2|0:2|1:2,0:0:0:0:
465,25,12190,1,2,0:0:0:0:
465,25,12296,1,2,0:0:0:0:
289,51,12509,1,0,0:0:0:0:
289,51,12616,1,2,0:0:0:0:
379,253,12828,6,0,P|288:192|183:239,1,215.999993408203,0|8,1:0|0:0,0:0:0:0:
140,310,13467,1,0,0:0:0:0:
0,175,13679,2,0,P|34:222|101:234,1,107.999996704102,0|0,1:0|0:0,0:0:0:0:
192,89,14105,1,8,0:0:0:0:
192,89,14530,2,0,P|194:111|110:73,1,161.999995056153,6|2,1:2|0:0,0:0:0:0:
107,26,14956,1,8,0:0:0:0:
108,229,15169,1,2,0:0:0:0:
194,0,15381,1,2,1:2:0:0:
194,0,15488,1,8,0:0:0:0:
250,201,15701,1,0,1:0:0:0:
250,201,15808,1,10,0:2:0:0:
446,138,16020,1,0,1:0:0:0:
426,136,16126,1,0,1:0:0:0:
410,134,16233,6,0,L|274:122,1,107.999996704102,4|0,1:2|0:0,0:0:0:0:
512,234,16658,2,0,L|376:245,1,107.999996704102,8|2,0:0|0:0,0:0:0:0:
398,47,17084,1,0,1:0:0:0:
398,47,17296,1,2,0:0:0:0:
398,47,17403,1,2,0:0:0:0:
398,47,17509,1,8,0:0:0:0:
503,74,17722,1,0,0:0:0:0:
249,202,17935,6,0,P|297:220|326:275,1,107.999996704102,2|0,1:2|0:0,0:0:0:0:
302,124,18360,1,8,0:0:0:0:
426,290,18573,2,0,P|407:338|353:367,1,107.999996704102,2|0,0:0|1:0,0:0:0:0:
512,315,18998,1,0,0:0:0:0:
260,359,19211,2,0,L|131:345,1,107.999996704102,10|0,0:2|0:0,0:0:0:0:
390,181,19637,6,0,L|515:167,1,107.999996704102,6|0,1:2|0:0,0:0:0:0:
141,214,20062,2,0,L|266:200,1,107.999996704102,8|0,0:0|0:0,0:0:0:0:
387,16,20488,1,0,1:0:0:0:
386,36,20594,1,8,0:0:0:0:
403,138,20807,1,0,1:0:0:0:
405,120,20913,1,8,0:0:0:0:
286,36,21126,1,6,1:2:0:0:
470,61,21339,5,0,1:0:0:0:
470,61,21552,1,2,0:2:0:0:
171,76,21764,1,10,1:2:0:0:
236,286,21977,1,0,1:1:0:0:
237,266,22083,1,0,1:1:0:0:
239,250,22190,1,2,1:2:0:0:
241,233,22296,1,0,1:1:0:0:
243,215,22402,1,0,1:1:0:0:
246,196,22509,1,0,1:0:0:0:
248,178,22616,2,0,L|255:109,1,53.9999983520508,10|0,0:2|1:0,0:0:0:0:
176,22,22828,2,0,L|169:91,1,53.9999983520508,0|0,1:0|1:0,0:0:0:0:
321,291,23041,5,4,1:2:0:0:
321,291,24530,1,4,1:0:0:0:
321,291,25381,1,0,1:0:0:0:
168,218,25807,1,4,1:0:0:0:
175,384,26445,1,4,0:0:0:0:
175,384,26871,5,2,0:3:0:0:
175,384,27084,2,0,L|324:372,1,144,2|2,0:0|0:0,0:0:0:0:
346,301,27722,1,2,0:0:0:0:
318,372,27935,1,2,0:0:0:0:
318,372,28786,2,0,P|309:293|301:227,1,144,2|2,2:3|0:0,0:0:0:0:
230,217,29424,2,0,L|320:231,1,72,2|0,0:0|0:0,0:0:0:0:
481,97,29850,2,0,P|424:157|354:152,1,144,2|0,0:0|0:0,0:0:0:0:
305,86,30488,1,2,0:0:0:0:
403,1,30701,2,0,P|406:38|385:73,1,72,2|2,0:0|0:0,0:0:0:0:
132,0,31339,2,0,B|123:131|123:131|135:150|135:150|126:303,1,288,2|2,0:0|0:0,0:0:0:0:
127,283,32616,1,2,0:0:0:0:
38,322,32828,1,2,0:0:0:0:
56,230,33041,1,2,0:0:0:0:
116,380,33254,6,0,L|293:360,1,144,2|2,0:0|0:3,0:0:0:0:
341,274,33892,2,0,P|323:194|359:138,1,144,2|2,0:0|0:0,0:0:0:0:
437,125,34530,1,2,0:0:0:0:
418,214,34743,1,2,0:0:0:0:
227,80,34956,2,0,L|238:243,1,144,2|0,1:2|0:0,0:0:0:0:
180,292,35594,2,0,L|16:270,1,144,2|2,3:0|0:0,0:0:0:0:
15,193,36233,1,2,0:0:0:0:
138,27,36445,1,2,0:0:0:0:
138,27,36552,1,2,0:0:0:0:
138,27,36658,6,0,L|146:182,1,144,2|0,0:0|0:0,0:0:0:0:
236,223,37296,1,2,0:3:0:0:
177,362,37509,2,0,P|172:319|186:281,1,72,2|2,0:0|0:0,0:0:0:0:
236,223,37935,1,2,0:0:0:0:
324,339,38147,2,0,P|398:360|462:333,2,144,2|2|2,0:0|0:0|0:0,0:0:0:0:
324,339,40062,6,0,L|341:147,1,180,4|2,0:1|0:0,0:0:0:0:
354,58,40701,1,0,1:0:0:0:
512,137,40913,2,0,L|417:123,1,90
178,241,41339,2,0,P|235:223|257:192,1,90,10|0,0:2|0:0,0:0:0:0:
188,59,41764,2,0,L|178:165,1,90,0|0,1:0|0:0,0:0:0:0:
0,161,42190,1,2,0:0:0:0:
0,161,42403,2,0,L|219:147,1,180,0|0,1:0|1:0,0:0:0:0:
263,290,43041,1,8,0:0:0:0:
263,290,43254,1,2,0:0:0:0:
263,290,43467,6,0,P|256:232|249:171,1,90,2|0,1:2|0:0,0:0:0:0:
306,126,43892,2,0,P|299:68|292:7,1,90,2|0,0:0|1:0,0:0:0:0:
378,21,44318,2,0,P|385:79|392:140,1,90,0|2,0:0|0:0,0:0:0:0:
187,300,44743,2,0,P|181:255|176:210,1,90,8|0,0:0|0:0,0:0:0:0:
163,116,45169,2,0,P|90:138|29:115,2,135,2|0|0,1:2|1:0|1:0,0:0:0:0:
160,113,46233,1,0,1:0:0:0:
53,309,46445,1,8,0:0:0:0:
150,238,46658,1,8,0:0:0:0:
129,234,46764,1,0,1:0:0:0:
110,230,46871,6,0,L|7:211,1,90,6|0,1:2|0:0,0:0:0:0:
191,331,47296,2,0,P|231:303|279:300,1,90,2|0,0:0|1:0,0:0:0:0:
414,382,47722,2,0,P|362:302|372:213,1,180,2|10,0:0|2:0,0:0:0:0:
431,157,48360,1,0,0:0:0:0:
282,197,48573,2,0,P|221:167|208:115,1,90,2|0,1:2|0:0,0:0:0:0:
217,54,48998,1,0,0:0:0:0:
376,55,49211,2,0,P|348:89|305:101,1,90,0|0,1:0|0:0,0:0:0:0:
211,45,49637,1,0,1:0:0:0:
146,237,49850,1,10,0:2:0:0:
146,237,50275,6,0,B|114:217|114:217|128:341,1,135,6|0,0:0|0:0,0:0:0:0:
128,336,50701,2,0,L|26:319,1,90,8|0,0:0|1:0,0:0:0:0:
177,152,51126,1,8,0:0:0:0:
177,152,51339,1,0,1:0:0:0:
234,384,51552,1,8,0:0:0:0:
234,384,51764,2,0,L|243:313,1,45,0|0,1:0|1:0,0:0:0:0:
267,129,51977,5,8,1:2:0:0:
267,129,52190,1,0,1:0:0:0:
357,384,52403,1,8,0:0:0:0:
357,384,52616,1,0,1:0:0:0:
475,197,52828,1,10,0:0:0:0:
447,176,52935,1,0,1:0:0:0:
410,171,53041,2,2,P|384:170|350:185,1,45,2|0,1:2|1:2,1:2:0:0:
300,273,53254,1,10,1:2:0:0:
272,294,53361,1,0,1:0:0:0:
235,299,53467,2,0,P|209:300|175:285,1,45,2|0,1:2|1:0,0:0:0:0:
35,185,53679,6,0,B|25:141|48:109|48:109|68:125|68:125|86:108|86:108|64:42|94:1|94:1|132:45|105:108|105:108|125:123|125:123|146:106|146:106|175:140|164:200,1,485.999985168458,4|0,1:0|0:0,0:0:0:0:
155,206,55381,5,4,1:0:0:0:
7,33,55594,1,0,1:0:0:0:
165,221,55807,1,0,1:0:0:0:
194,30,56020,1,2,1:2:0:0:
16,253,56233,1,8,0:0:0:0:
314,102,56445,1,0,1:0:0:0:
40,346,56658,2,0,P|83:355|105:279,1,121.499996292114,10|0,0:2|0:0,0:0:0:0:
102,292,57084,6,0,P|137:340|203:319,1,116.999994644165,6|0,1:2|0:0,0:0:0:0:
310,277,57509,1,10,0:2:0:0:
179,218,57722,1,2,0:0:0:0:
283,359,57935,2,0,L|261:170,1,175.499991966248,0|0,1:0|0:0,0:0:0:0:
324,117,58360,1,10,0:0:0:0:
471,218,58573,2,0,L|332:206,1,116.999994644165,2|0,0:0|1:0,0:0:0:0:
306,30,58998,1,2,0:0:0:0:
116,98,59211,2,0,L|242:90,1,116.999994644165,10|2,0:0|0:0,0:0:0:0:
394,8,59637,1,2,1:2:0:0:
319,130,59850,1,2,0:0:0:0:
512,284,60062,1,10,0:2:0:0:
500,247,60169,1,2,0:2:0:0:
469,218,60275,1,2,0:2:0:0:
434,198,60381,1,2,0:2:0:0:
395,197,60488,5,2,1:2:0:0:
317,269,60701,1,2,0:0:0:0:
118,208,60913,2,0,P|101:137|126:85,1,116.999994644165,10|2,0:0|0:2,0:0:0:0:
210,378,61339,2,0,P|217:301|141:310,1,175.499991966248,2|0,1:2|0:0,0:0:0:0:
128,334,61764,1,10,0:0:0:0:
304,275,61977,1,2,0:0:0:0:
121,347,62190,1,2,1:2:0:0:
196,146,62403,1,2,0:0:0:0:
6,202,62616,2,0,P|67:220|126:203,1,116.999994644165,10|2,0:2|0:0,0:0:0:0:
224,51,63041,1,0,1:0:0:0:
224,51,63147,1,8,0:0:0:0:
71,124,63360,1,0,1:0:0:0:
71,124,63466,1,10,0:2:0:0:
223,295,63679,1,0,1:0:0:0:
221,270,63786,1,0,0:0:0:0:
220,245,63892,6,0,P|266:196|379:223,1,175.499991966248,4|0,1:0|0:0,0:0:0:0:
433,268,64318,2,0,L|419:389,1,116.999994644165,10|0,0:2|0:0,0:0:0:0:
512,114,64743,2,0,P|464:143|396:126,1,116.999994644165,2|0,1:2|0:0,0:0:0:0:
277,34,65169,2,0,P|229:5|161:22,1,116.999994644165,10|0,0:2|0:0,0:0:0:0:
2,179,65594,2,0,P|50:208|118:191,1,116.999994644165,2|0,1:2|0:0,0:0:0:0:
237,99,66020,2,0,P|285:70|353:87,1,116.999994644165,10|0,0:2|0:0,0:0:0:0:
512,243,66445,2,0,P|464:272|396:255,1,116.999994644165,2|0,1:2|0:0,0:0:0:0:
277,163,66871,2,0,P|229:134|161:151,1,116.999994644165,10|0,0:2|0:0,0:0:0:0:
7,311,67296,6,0,L|186:296,1,175.499991966248,2|0,1:2|0:0,0:0:0:0:
212,221,67722,1,8,0:0:0:0:
102,384,67935,1,0,0:0:0:0:
148,131,68147,1,0,1:0:0:0:
148,131,68254,1,8,0:0:0:0:
229,369,68467,1,0,1:0:0:0:
229,369,68573,1,8,0:0:0:0:
50,203,68786,6,0,L|218:221,1,161.999995056153,4|0,1:2|0:0,0:0:0:0:
281,179,69211,1,8,0:0:0:0:
153,299,69424,1,0,1:0:0:0:
411,342,69637,1,0,1:0:0:0:
359,338,69743,1,0,1:0:0:0:
315,366,69850,1,0,1:0:0:0:
354,327,69956,1,0,1:0:0:0:
368,271,70062,1,0,1:0:0:0:
352,216,70169,1,0,1:0:0:0:
307,181,70275,2,2,L|263:176,6,26.9999991760254
269,156,70701,6,0,L|420:136,1,116.999994644165,6|0,1:2|0:0,0:0:0:0:
461,179,71126,1,10,0:2:0:0:
309,65,71339,1,2,0:0:0:0:
264,281,71552,2,0,P|172:305|90:241,1,175.499991966248,0|0,1:0|0:0,0:0:0:0:
79,194,71977,1,10,0:0:0:0:
48,375,72190,2,0,P|110:359|132:298,1,116.999994644165,2|0,0:0|1:0,0:0:0:0:
161,122,72616,1,2,0:0:0:0:
53,293,72828,1,10,0:0:0:0:
190,212,73041,1,2,0:0:0:0:
65,77,73254,2,0,L|78:193,1,116.999994644165,2|2,1:2|0:0,0:0:0:0:
347,372,73679,1,10,0:2:0:0:
332,335,73786,1,2,0:2:0:0:
302,307,73892,1,2,0:2:0:0:
264,293,73998,1,2,0:2:0:0:
223,302,74105,5,2,1:2:0:0:
169,378,74318,1,2,0:0:0:0:
436,182,74530,2,0,P|393:219|335:220,1,116.999994644165,10|2,0:0|0:2,0:0:0:0:
177,56,74956,2,0,P|269:53|258:144,1,175.499991966248,2|0,1:2|0:0,0:0:0:0:
265,146,75381,1,10,0:0:0:0:
93,22,75594,1,2,0:0:0:0:
160,267,75807,2,0,L|170:150,1,116.999994644165,2|2,1:2|0:0,0:0:0:0:
72,297,76233,1,10,0:2:0:0:
245,233,76445,1,2,0:0:0:0:
59,117,76658,1,0,1:0:0:0:
59,117,76764,1,8,0:0:0:0:
209,347,76977,1,0,1:0:0:0:
209,347,77083,1,10,0:2:0:0:
22,194,77296,1,0,1:0:0:0:
39,202,77403,1,0,0:0:0:0:
55,206,77509,6,0,P|130:180|142:84,1,175.499991966248,4|0,1:0|0:0,0:0:0:0:
37,39,77935,2,0,P|15:92|73:111,1,116.999994644165,10|0,0:2|0:0,0:0:0:0:
0,269,78360,2,0,P|48:240|116:257,1,116.999994644165,2|0,1:2|0:0,0:0:0:0:
235,349,78786,2,0,P|283:378|351:361,1,116.999994644165,10|0,0:2|0:0,0:0:0:0:
510,204,79211,2,0,P|462:175|394:192,1,116.999994644165,2|0,1:2|0:0,0:0:0:0:
275,284,79637,2,0,P|227:313|159:296,1,116.999994644165,10|0,0:2|0:0,0:0:0:0:
0,140,80062,2,0,P|48:111|116:128,1,116.999994644165,2|0,1:2|0:0,0:0:0:0:
235,220,80488,2,0,P|283:249|351:232,1,116.999994644165,10|0,0:2|0:0,0:0:0:0:
225,44,80913,6,0,L|235:233,1,175.499991966248,2|0,1:2|0:0,0:0:0:0:
147,272,81339,1,8,0:0:0:0:
150,181,81552,1,0,0:0:0:0:
320,333,81764,1,0,1:0:0:0:
320,333,81871,1,8,0:0:0:0:
310,133,82084,1,0,1:0:0:0:
310,133,82191,1,8,0:0:0:0:
173,358,82403,2,0,B|55:374|115:297|-10:310,1,188.999994232178,4|0,1:0|1:0,0:0:0:0:
0,309,83254,1,2,0:0:0:0:
52,134,83467,1,8,1:0:0:0:
82,371,83679,1,0,1:0:0:0:
108,52,83892,1,8,1:0:0:0:
271,259,84105,1,10,0:0:0:0:
254,257,84212,1,2,0:0:0:0:
238,256,84318,6,0,L|159:247,1,53.9999983520508,6|0,1:2|0:0,0:0:0:0:
173,114,84531,2,0,L|180:167,1,53.9999983520508,2|0,0:2|0:0,0:0:0:0:
226,348,84744,1,10,0:0:0:0:
235,334,84956,2,0,B|141:324|172:381|74:370,1,161.999995056153,2|0,0:0|0:0,0:0:0:0:
53,362,85382,1,0,0:0:0:0:
0,211,85595,2,0,P|45:269|106:228,1,161.999995056153,10|0,0:2|0:0,0:0:0:0:
119,141,86020,2,0,L|109:11,1,107.999996704102,2|0,1:2|0:0,0:0:0:0:
207,243,86446,1,8,0:0:0:0:
207,243,86658,2,0,L|216:181,2,53.9999983520508,2|2|2,0:2|0:2|1:2,0:0:0:0:
303,164,87084,1,2,0:0:0:0:
303,164,87190,1,2,0:0:0:0:
106,228,87403,1,0,0:0:0:0:
106,228,87510,1,2,0:0:0:0:
253,384,87722,6,0,P|310:334|406:360,1,161.999995056153,0|0,1:0|0:0,0:0:0:0:
415,363,88147,1,8,0:0:0:0:
299,252,88361,1,0,0:0:0:0:
456,182,88573,2,0,P|472:128|450:74,1,107.999996704102,0|0,1:0|0:0,0:0:0:0:
332,10,88999,1,8,0:0:0:0:
339,24,89424,2,0,P|256:88|203:78,1,161.999995056153,6|2,1:2|0:0,0:0:0:0:
131,16,89850,1,8,0:0:0:0:
167,194,90063,1,2,0:0:0:0:
241,5,90275,1,2,1:2:0:0:
241,5,90382,1,8,0:0:0:0:
88,148,90595,1,0,1:0:0:0:
88,148,90702,1,10,0:2:0:0:
419,185,90914,1,0,1:0:0:0:
399,183,91020,1,0,1:0:0:0:
383,181,91127,6,0,L|247:169,1,107.999996704102,4|0,1:2|0:0,0:0:0:0:
467,373,91552,2,0,L|459:265,1,107.999996704102,8|2,0:0|0:0,0:0:0:0:
455,92,91978,1,0,1:0:0:0:
455,92,92190,1,2,0:0:0:0:
455,92,92297,1,2,0:0:0:0:
455,92,92403,1,8,0:0:0:0:
309,251,92616,1,0,0:0:0:0:
309,251,92722,1,0,0:0:0:0:
309,251,92829,2,0,P|357:269|386:324,1,107.999996704102,2|0,1:2|0:0,0:0:0:0:
360,167,93254,1,8,0:0:0:0:
321,382,93467,2,0,P|264:358|244:301,1,107.999996704102,2|0,0:0|1:0,0:0:0:0:
367,158,93892,1,0,0:0:0:0:
172,364,94105,2,0,L|37:348,1,107.999996704102,10|0,0:2|0:0,0:0:0:0:
224,83,94530,6,0,P|247:119|220:234,1,161.999995056153,6|0,1:2|0:0,0:0:0:0:
205,244,94956,2,0,L|82:228,1,107.999996704102,8|0,0:0|0:0,0:0:0:0:
329,47,95382,1,0,1:0:0:0:
329,47,95488,1,8,0:0:0:0:
465,91,95701,1,0,1:0:0:0:
465,91,95807,1,8,0:0:0:0:
166,156,96020,1,6,1:2:0:0:
166,156,97084,5,10,1:2:0:0:
219,0,97296,1,0,1:1:0:0:
250,305,97509,1,10,0:2:0:0:
302,153,97722,1,0,1:0:0:0:
302,153,97828,1,0,1:0:0:0:
302,153,97935,1,4,1:2:0:0:
