osu file format v14

[General]
AudioFilename: az.mp3
AudioLeadIn: 0
PreviewTime: 57084
Countdown: 0
SampleSet: Soft
StackLeniency: 0.3
Mode: 0
LetterboxInBreaks: 0
WidescreenStoryboard: 1

[Editor]
DistanceSpacing: 1
BeatDivisor: 4
GridSize: 32
TimelineZoom: 1.7

[Metadata]
Title:GALAXY HidE and SeeK
TitleUnicode:GALAXY HidE and SeeK
Artist:AZALEA
ArtistUnicode:AZALEA
Creator:Jennifer
Version:Normal
Source:ラブライブ!サンシャイン!!
Tags:jpop ALL STARS SIFAS School Idol Festival Aqours Kanan Matsuura 松浦果南 Nanaka Suwa 諏訪ななか Dia Kurosawa 黒澤ダイヤ Komiya Arisa 小宮有紗 Hanamaru Kunikida 国木田花丸 Takatsuki Kanako 高槻かなこ Love Live Sunshine!! anime video game short ver 2nd second single lantis j-pop pop japanese jennglebells greenhue スクールアイドルフェスティバル frostings
BeatmapID:1847262
BeatmapSetID:883713

[Difficulty]
HPDrainRate:3
CircleSize:3
OverallDifficulty:4
ApproachRate:5.5
SliderMultiplier:1.2
SliderTickRate:1

[Events]
//Background and Video events
0,0,"Kanan.jpg",0,0
//Break Periods
//Storyboard Layer 0 (Background)
//Storyboard Layer 1 (Fail)
//Storyboard Layer 2 (Pass)
//Storyboard Layer 3 (Foreground)
//Storyboard Layer 4 (Overlay)
//Storyboard Sound Samples

[TimingPoints]
2616,425.531914893617,4,2,0,60,1,0
2616,-125,4,2,0,60,0,0
9424,-111.111111111111,4,2,0,70,0,0
23041,-125,4,2,0,50,0,0
40062,-111.111111111111,4,2,0,65,0,0
57084,-100,4,2,0,85,0,1
82403,-100,4,2,0,70,0,0

[Colours]
Combo1 : 242,24,57
Combo2 : 227,72,138
Combo3 : 245,139,190

[HitObjects]
191,101,2616,6,0,L|324:112,2,96,2|2|0,0:0|0:3|0:0,0:0:0:0:
99,131,3892,1,2,0:0:0:0:
10,95,4318,2,0,P|8:152|44:208,2,96,2|2|0,0:0|0:3|0:0,0:0:0:0:
93,48,5594,1,2,0:0:0:0:
176,97,6020,6,0,L|288:108,1,96,2|2,0:0|0:3,0:0:0:0:
359,146,6871,2,0,P|356:227|314:244,1,96,0|2,0:0|0:0,0:0:0:0:
263,272,7722,2,0,P|218:258|170:258,1,96,2|2,0:0|0:3,0:0:0:0:
81,217,8573,2,0,L|87:169,1,48,8|0,0:0|1:0,0:0:0:0:
55,133,8998,1,12,1:0:0:0:
132,57,9424,6,0,P|182:48|236:71,1,107.999996704102,6|10,1:2|0:0,0:0:0:0:
251,120,10062,2,0,P|300:140|352:132,1,107.999996704102,2|0,0:0|0:0,0:0:0:0:
386,89,10701,1,10,0:2:0:0:
422,190,11126,2,0,L|411:300,1,107.999996704102,2|8,1:2|0:0,0:0:0:0:
364,325,11764,1,2,0:2:0:0:
317,297,11977,2,0,P|256:288|200:290,1,107.999996704102,2|0,1:2|1:0,0:0:0:0:
164,190,12828,6,0,P|114:210|62:202,1,107.999996704102,0|8,1:0|0:0,0:0:0:0:
53,94,13679,2,0,P|102:73|154:81,1,107.999996704102,0|8,1:0|0:0,0:0:0:0:
248,135,14530,2,0,P|300:143|349:122,1,107.999996704102,6|8,1:2|0:0,0:0:0:0:
393,221,15381,1,2,1:2:0:0:
481,158,15807,1,10,0:2:0:0:
512,264,16233,6,0,L|502:384,1,107.999996704102,4|8,1:2|0:0,0:0:0:0:
455,346,16871,2,0,P|420:325|334:328,1,107.999996704102,2|2,0:0|0:0,0:0:0:0:
306,347,17509,1,8,0:0:0:0:
231,268,17935,2,0,L|223:158,1,107.999996704102,2|8,1:2|0:0,0:0:0:0:
263,124,18573,2,0,P|308:138|374:134,1,107.999996704102,2|0,0:0|0:0,0:0:0:0:
395,88,19211,1,10,0:2:0:0:
480,153,19637,5,6,1:2:0:0:
425,245,20062,1,8,0:0:0:0:
320,216,20488,2,0,L|327:290,2,53.9999983520508,0|0|8,1:0|0:0|0:0,0:0:0:0:
277,180,21126,1,6,1:2:0:0:
277,180,21339,1,0,1:0:0:0:
224,274,21764,1,10,1:2:0:0:
130,227,22190,2,0,L|73:225,1,53.9999983520508,2|0,1:2|1:1,0:0:0:0:
85,171,22616,2,0,L|28:169,1,53.9999983520508,10|0,0:2|1:0,0:0:0:0:
0,134,23041,5,4,1:2:0:0:
199,357,24530,1,4,1:0:0:0:
248,171,25381,2,0,L|366:160,1,96,0|4,1:0|1:0,0:0:0:0:
483,187,26445,6,0,P|491:132|489:79,1,96,4|2,0:0|0:3,0:0:0:0:
455,58,27084,2,0,P|376:82|286:65,1,144,2|2,0:0|0:0,0:0:0:0:
276,49,27935,1,2,0:0:0:0:
108,142,28786,2,0,P|107:189|115:237,1,96,2|2,2:3|0:0,0:0:0:0:
145,274,29424,1,2,0:0:0:0:
238,296,29850,6,0,P|328:277|438:305,1,192,2|2,0:0|0:0,0:0:0:0:
491,170,31339,1,2,0:0:0:0:
326,70,32190,2,0,P|272:84|203:71,1,96,2|2,0:0|0:0,0:0:0:0:
196,48,32828,1,2,0:0:0:0:
112,95,33254,5,2,0:0:0:0:
259,284,34318,2,0,L|367:278,1,96,2|2,0:0|0:0,0:0:0:0:
402,273,34956,1,2,1:2:0:0:
481,153,35594,1,2,3:0:0:0:
415,82,36020,2,0,L|346:72,1,48,2|2,0:0|0:0,0:0:0:0:
302,145,36658,6,0,P|210:162|110:103,1,192,2|2,0:0|0:0,0:0:0:0:
29,131,37935,1,2,0:0:0:0:
15,225,38360,2,0,L|23:360,1,96,2|0,0:3|0:0,0:0:0:0:
63,343,38998,2,0,P|123:360|206:320,1,144,2|0,0:0|0:0,0:0:0:0:
297,292,40062,6,0,P|360:275|446:321,1,161.999995056153,4|0,0:1|1:0,0:0:0:0:
482,159,41339,1,10,0:2:0:0:
378,189,41764,2,0,P|315:206|229:160,1,161.999995056153,0|0,1:0|1:0,0:0:0:0:
170,75,42828,2,0,L|101:68,1,53.9999983520508,0|8,1:0|0:0,0:0:0:0:
48,153,43467,6,0,P|46:229|72:318,1,161.999995056153,2|0,1:2|1:0,0:0:0:0:
225,269,44743,1,8,0:0:0:0:
327,304,45169,2,0,L|321:392,2,80.9999975280763,2|0|0,1:2|1:0|1:0,0:0:0:0:
431,275,46233,2,0,L|438:192,1,53.9999983520508,0|8,1:0|0:0,0:0:0:0:
441,167,46658,1,8,0:0:0:0:
399,132,46871,6,0,P|325:148|237:118,1,161.999995056153,6|0,1:2|1:0,0:0:0:0:
134,15,48147,1,10,2:0:0:0:
58,92,48573,2,0,L|74:277,1,161.999995056153,2|0,1:2|1:0,0:0:0:0:
180,252,49637,2,0,L|173:325,1,53.9999983520508,0|10,1:0|0:2,0:0:0:0:
279,334,50275,6,0,L|465:319,1,161.999995056153,6|0,0:0|1:0,0:0:0:0:
479,307,51126,2,0,L|488:233,1,53.9999983520508,8|0,0:0|1:0,0:0:0:0:
435,232,51552,2,0,L|426:158,1,53.9999983520508,8|0,0:0|1:0,0:0:0:0:
386,144,51977,1,8,1:2:0:0:
291,195,52403,1,8,0:0:0:0:
202,257,52828,2,0,L|128:266,1,53.9999983520508,10|2,0:0|1:2,0:0:0:0:
127,313,53254,2,0,L|53:304,1,53.9999983520508,10|2,1:2|1:2,0:0:0:0:
38,347,53679,5,4,1:0:0:0:
377,80,55381,2,0,L|287:72,1,53.9999983520508,4|0,1:0|1:0,0:0:0:0:
291,119,55807,2,0,L|237:123,1,53.9999983520508,0|2,1:0|1:2,0:0:0:0:
198,161,56233,1,8,0:0:0:0:
128,79,56658,1,10,0:2:0:0:
23,138,57084,6,0,P|15:201|31:266,1,120,6|10,1:2|0:2,0:0:0:0:
80,293,57722,1,2,0:0:0:0:
80,293,57935,2,0,L|208:287,1,120,0|10,1:0|0:0,0:0:0:0:
242,329,58573,2,0,P|305:337|370:321,1,120,2|2,0:0|0:0,0:0:0:0:
412,354,59211,1,10,0:0:0:0:
412,354,59424,1,2,0:0:0:0:
450,308,59637,2,0,L|532:309,2,60,2|2|10,1:2|0:0|0:2,0:0:0:0:
454,186,60488,6,0,P|395:174|336:182,1,120,0|10,1:0|0:0,0:0:0:0:
295,225,61126,1,2,0:2:0:0:
295,225,61339,2,0,P|235:233|177:221,1,120,2|10,1:2|0:0,0:0:0:0:
144,170,61977,1,2,0:0:0:0:
86,188,62190,2,0,L|100:326,1,120,2|10,1:2|0:2,0:0:0:0:
216,324,63041,2,0,L|209:396,2,60,0|0|10,1:0|0:0|0:2,0:0:0:0:
299,237,63892,5,4,1:0:0:0:
369,334,64318,1,10,0:2:0:0:
451,247,64743,2,0,L|441:113,1,120,2|10,1:2|0:2,0:0:0:0:
335,64,65594,2,0,P|264:80|206:64,1,120,2|10,1:2|0:2,0:0:0:0:
119,137,66445,1,2,1:2:0:0:
11,82,66871,1,10,0:2:0:0:
1,201,67296,6,0,L|18:332,1,120,2|8,1:2|0:0,0:0:0:0:
133,346,68147,2,0,L|222:339,1,60,0|0,1:0|0:0,0:0:0:0:
237,300,68573,1,8,0:0:0:0:
237,300,68786,2,0,P|293:325|423:314,1,180,4|0,1:2|1:0,0:0:0:0:
470,304,69637,1,0,1:0:0:0:
470,304,69850,2,0,L|471:160,1,120,0|2,1:0|0:0,0:0:0:0:
429,71,70701,6,0,P|359:56|272:72,1,120,6|10,1:2|0:2,0:0:0:0:
259,89,71339,1,2,0:0:0:0:
204,114,71552,2,0,P|144:117|86:102,1,120,0|10,1:0|0:0,0:0:0:0:
35,70,72190,2,0,P|51:162|59:262,1,180,2|10,0:0|0:0,0:0:0:0:
23,297,73041,1,2,0:0:0:0:
76,324,73254,2,0,L|83:413,2,60,2|2|10,1:2|0:0|0:2,0:0:0:0:
186,286,74105,6,0,P|196:248|164:159,1,120,0|10,1:0|0:0,0:0:0:0:
143,120,74743,1,2,0:2:0:0:
143,120,74956,2,0,P|87:140|29:131,1,120,2|10,1:2|0:0,0:0:0:0:
77,21,75807,2,0,L|168:8,1,60,2|2,1:2|0:0,0:0:0:0:
189,41,76233,2,0,L|280:54,1,60,10|2,0:2|0:0,0:0:0:0:
278,101,76658,1,0,1:0:0:0:
382,41,77084,1,10,0:2:0:0:
463,129,77509,6,0,P|473:188|452:243,1,120,4|10,1:0|0:2,0:0:0:0:
380,339,78360,2,0,L|228:351,1,120,2|10,1:2|0:2,0:0:0:0:
174,260,79211,1,2,1:2:0:0:
229,153,79637,1,10,0:2:0:0:
146,65,80062,2,0,P|87:55|32:76,1,120,2|10,1:2|0:2,0:0:0:0:
89,181,80913,6,0,L|80:325,1,120,2|8,1:2|0:0,0:0:0:0:
182,365,81764,2,0,L|259:354,1,60,0|0,1:0|0:0,0:0:0:0:
288,318,82190,1,8,0:0:0:0:
288,318,82403,1,4,1:0:0:0:
505,110,83467,2,0,L|513:50,2,60,8|0|8,1:0|1:0|1:0,0:0:0:0:
485,169,84105,5,10,0:0:0:0:
485,169,84318,2,0,P|423:194|356:188,1,120,6|10,1:2|0:0,0:0:0:0:
318,162,84956,2,0,P|258:161|203:185,1,120,2|0,0:0|0:0,0:0:0:0:
171,235,85594,1,10,0:2:0:0:
57,197,86020,2,0,L|71:77,1,120,2|8,1:2|0:0,0:0:0:0:
127,57,86658,2,0,P|197:81|260:64,1,120,2|2,0:2|0:0,0:0:0:0:
289,38,87296,1,8,0:0:0:0:
330,150,87722,5,0,1:0:0:0:
432,87,88147,2,0,L|438:147,1,60,8|0,0:0|0:0,0:0:0:0:
491,175,88573,2,0,L|479:294,1,120,0|8,1:0|0:0,0:0:0:0:
363,335,89424,2,0,P|304:345|249:322,1,120,6|8,1:2|0:0,0:0:0:0:
166,235,90275,2,0,L|102:232,1,60,2|0,1:2|0:0,0:0:0:0:
98,172,90701,2,0,L|34:169,1,60,10|0,0:2|1:0,0:0:0:0:
0,212,91126,6,0,P|-7:280|13:364,1,120,4|8,1:2|0:0,0:0:0:0:
54,357,91764,2,0,L|204:365,1,120,2|2,0:0|0:0,0:0:0:0:
221,325,92403,1,8,0:0:0:0:
315,251,92828,2,0,P|337:183|310:114,1,120,2|8,1:2|0:0,0:0:0:0:
270,113,93467,2,0,P|202:135|133:108,1,120,2|0,0:0|0:0,0:0:0:0:
120,75,94105,1,10,0:2:0:0:
16,134,94530,6,0,L|29:268,1,120,6|8,1:2|0:0,0:0:0:0:
69,296,95169,1,0,0:0:0:0:
69,296,95381,1,0,1:0:0:0:
171,231,95807,1,8,0:0:0:0:
171,231,96020,2,0,P|244:176|340:187,1,180,6|0,1:2|0:0,0:0:0:0:
441,223,97084,2,0,L|445:163,1,60,10|0,1:2|1:1,0:0:0:0:
431,104,97509,1,10,0:2:0:0:
395,55,97722,6,0,P|359:65|331:68,1,60,0|4,1:0|1:2,0:0:0:0:
