osu file format v14

[General]
AudioFilename: audio.mp3
AudioLeadIn: 0
PreviewTime: 56977
Countdown: 0
SampleSet: Soft
StackLeniency: 0.4
Mode: 0
LetterboxInBreaks: 0
WidescreenStoryboard: 0

[Editor]
Bookmarks: 9424,26445,40062,82403,84318,97935
DistanceSpacing: 0.8
BeatDivisor: 4
GridSize: 8
TimelineZoom: 2.2

[Metadata]
Title:GALAXY HidE and SeeK
TitleUnicode:GALAXY HidE and SeeK
Artist:AZALEA
ArtistUnicode:AZALEA
Creator:Erisu
Version:Wonderful Memories
Source:ラブライブ!サンシャイン!!
Tags:Kanan Matsuura 松浦果南 Nanaka Suwa 諏訪ななか Dia Kurosawa 黒澤ダイヤ Komiya Arisa 小宮有紗 Hanamaru Kunikida 国木田花丸 Takatsuki Kanako 高槻かなこ Love Live! Sunshine!! anime video game short ver 2nd second single lantis ラブライブ!スクールアイドルフェスティバル School Idol Project Festival Aqours konoe kanata mbmasher jamimc2 mocaotic xidorn j-pop pop japanese
BeatmapID:2643282
BeatmapSetID:1260015

[Difficulty]
HPDrainRate:5.5
CircleSize:4.2
OverallDifficulty:7.5
ApproachRate:8
SliderMultiplier:1.8
SliderTickRate:1

[Events]
//Background and Video events
0,0,"buubuu.jpg",0,0
//Break Periods
//Storyboard Layer 0 (Background)
//Storyboard Layer 1 (Fail)
//Storyboard Layer 2 (Pass)
//Storyboard Layer 3 (Foreground)
//Storyboard Layer 4 (Overlay)
//Storyboard Sound Samples

[TimingPoints]
2616,425.531914893617,4,2,1,40,1,0
2616,-125,4,2,1,40,0,0
8573,-125,4,2,16,40,0,0
9211,-125,4,2,2,40,0,0
9318,-125,4,2,3,40,0,0
9424,-100,4,2,4,60,0,0
9850,-100,4,2,2,60,0,0
10062,-100,4,2,5,60,0,0
10275,-100,4,2,5,60,0,0
10701,-100,4,2,6,60,0,0
11126,-100,4,2,7,60,0,0
11551,-100,4,2,2,60,0,0
11764,-100,4,2,8,60,0,0
11871,-100,4,2,9,60,0,0
11977,-100,4,2,10,60,0,0
12296,-100,4,2,11,60,0,0
12403,-100,4,2,12,60,0,0
12615,-100,4,2,13,60,0,0
12828,-100,4,2,14,60,0,0
13254,-100,4,2,2,60,0,0
13467,-100,4,2,15,60,0,0
13679,-100,4,2,16,60,0,0
14105,-100,4,2,16,60,0,0
14530,-100,4,2,17,60,0,0
14850,-100,4,2,1,60,0,0
14956,-100,4,2,18,60,0,0
15168,-100,4,2,2,60,0,0
15381,-100,4,2,19,60,0,0
15488,-100,4,2,20,60,0,0
15807,-100,4,2,20,60,0,0
16020,-100,4,2,20,60,0,0
16233,-100,4,2,21,60,0,0
16658,-100,4,2,2,60,0,0
16871,-100,4,2,22,60,0,0
17084,-100,4,2,22,60,0,0
17509,-100,4,2,23,60,0,0
17935,-100,4,2,24,60,0,0
18360,-100,4,2,2,60,0,0
18573,-100,4,2,25,60,0,0
18786,-100,4,2,25,60,0,0
19211,-100,4,2,26,60,0,0
19637,-100,4,2,27,60,0,0
20062,-100,4,2,2,60,0,0
20275,-100,4,2,3,60,0,0
20488,-100,4,2,16,60,0,0
21126,-100,4,2,28,60,0,0
21339,-100,4,2,29,60,0,0
21552,-100,4,2,29,60,0,0
21764,-100,4,2,30,60,0,0
21977,-100,4,2,4,60,0,0
22190,-100,4,2,31,60,0,0
22616,-100,4,2,32,60,0,0
23041,-100,4,2,33,60,0,0
24530,-100,4,2,34,60,0,0
25381,-100,4,2,5,60,0,0
25807,-100,4,2,35,60,0,0
26445,-133.333333333333,4,2,36,50,0,0
26871,-133.333333333333,4,2,37,50,0,0
27084,-133.333333333333,4,2,38,50,0,0
27509,-133.333333333333,4,2,39,50,0,0
27722,-133.333333333333,4,2,40,50,0,0
27935,-133.333333333333,4,2,41,50,0,0
28786,-133.333333333333,4,2,42,50,0,0
29211,-133.333333333333,4,2,43,50,0,0
29424,-133.333333333333,4,2,44,50,0,0
29637,-133.333333333333,4,2,6,50,0,0
29743,-133.333333333333,4,2,6,50,0,0
29850,-133.333333333333,4,2,45,50,0,0
30275,-133.333333333333,4,2,7,50,0,0
30488,-133.333333333333,4,2,46,50,0,0
30701,-133.333333333333,4,2,47,50,0,0
30913,-133.333333333333,4,2,48,50,0,0
31339,-133.333333333333,4,2,49,50,0,0
32190,-133.333333333333,4,2,50,50,0,0
32296,-133.333333333333,4,2,51,50,0,0
32403,-133.333333333333,4,2,52,50,0,0
32616,-133.333333333333,4,2,53,50,0,0
32828,-133.333333333333,4,2,54,50,0,0
33041,-133.333333333333,4,2,55,50,0,0
33254,-133.333333333333,4,2,56,50,0,0
33679,-133.333333333333,4,2,57,50,0,0
33892,-133.333333333333,4,2,58,50,0,0
34318,-133.333333333333,4,2,59,50,0,0
34530,-133.333333333333,4,2,60,50,0,0
34743,-133.333333333333,4,2,61,60,0,0
34956,-133.333333333333,4,2,9,55,0,0
35381,-133.333333333333,4,2,7,50,0,0
35594,-133.333333333333,4,2,42,40,0,0
36020,-133.333333333333,4,2,62,40,0,0
36233,-133.333333333333,4,2,44,40,0,0
36445,-133.333333333333,4,2,10,40,0,0
36552,-133.333333333333,4,2,11,40,0,0
36658,-133.333333333333,4,2,63,45,0,0
36871,-133.333333333333,4,2,12,40,0,0
37083,-133.333333333333,4,2,13,40,0,0
37296,-133.333333333333,4,2,64,40,0,0
37509,-133.333333333333,4,2,47,40,0,0
37722,-133.333333333333,4,2,65,40,0,0
37934,-133.333333333333,4,2,14,40,0,0
38147,-133.333333333333,4,2,66,40,0,0
38360,-133.333333333333,4,2,15,45,0,0
38573,-133.333333333333,4,2,58,40,0,0
38998,-133.333333333333,4,2,67,45,0,0
39742,-133.333333333333,4,2,67,5,0,0
39850,-133.333333333333,4,2,68,40,0,0
39956,-133.333333333333,4,2,69,40,0,0
40062,-100,4,2,70,65,0,0
40488,-100,4,2,58,65,0,0
40701,-100,4,2,1,65,0,0
40913,-100,4,2,71,65,0,0
41339,-100,4,2,72,65,0,0
41764,-100,4,2,73,65,0,0
42189,-100,4,2,44,65,0,0
42403,-100,4,2,16,65,0,0
43041,-100,4,2,74,65,0,0
43254,-100,4,2,47,65,0,0
43467,-100,4,2,75,65,0,0
43892,-100,4,2,76,65,0,0
44318,-100,4,2,44,65,0,0
44743,-100,4,2,77,65,0,0
45169,-100,4,2,78,65,0,0
45594,-100,4,2,71,65,0,0
45807,-100,4,2,17,65,0,0
46445,-100,4,2,79,65,0,0
46871,-100,4,2,80,65,0,0
47296,-100,4,2,58,65,0,0
47509,-100,4,2,1,65,0,0
47722,-100,4,2,71,65,0,0
47934,-100,4,2,14,65,0,0
48147,-100,4,2,81,65,0,0
48573,-100,4,2,82,65,0,0
48998,-100,4,2,83,65,0,0
49211,-100,4,2,18,65,0,0
49637,-100,4,2,19,65,0,0
49850,-100,4,2,71,65,0,0
50062,-100,4,2,71,65,0,0
50275,-100,4,2,84,65,0,0
50701,-100,4,2,20,65,0,0
50913,-100,4,2,20,65,0,0
51126,-100,4,2,20,65,0,0
51764,-100,4,2,21,65,0,0
51977,-100,4,2,85,65,0,0
52190,-100,4,2,22,65,0,0
52403,-100,4,2,86,65,0,0
52616,-100,4,2,87,65,0,0
52828,-100,4,2,88,65,0,0
53041,-100,4,2,89,65,0,0
53254,-100,4,2,90,65,0,0
53467,-100,4,2,91,65,0,0
53679,-100,4,2,92,65,0,0
55381,-100,4,2,93,65,0,0
56020,-100,4,2,94,65,0,0
56233,-100,4,2,95,65,0,0
56445,-100,4,2,23,65,0,0
56658,-100,4,2,96,65,0,0
57084,-100,4,2,97,80,0,1
57296,-100,4,2,90,80,0,1
57509,-83.3333333333333,4,2,90,80,0,1
57721,-83.3333333333333,4,2,98,80,0,1
57935,-83.3333333333333,4,2,76,80,0,1
58360,-83.3333333333333,4,2,99,80,0,1
58573,-83.3333333333333,4,2,44,80,0,1
58786,-83.3333333333333,4,2,24,80,0,1
58998,-83.3333333333333,4,2,100,80,0,1
59424,-83.3333333333333,4,2,101,80,0,1
59637,-83.3333333333333,4,2,102,80,0,1
59850,-83.3333333333333,4,2,90,80,0,1
60062,-83.3333333333333,4,2,103,80,0,1
60488,-83.3333333333333,4,2,25,80,0,1
60701,-83.3333333333333,4,2,100,80,0,1
61125,-83.3333333333333,4,2,104,80,0,1
61339,-83.3333333333333,4,2,96,80,0,1
61764,-83.3333333333333,4,2,105,80,0,1
61977,-83.3333333333333,4,2,95,80,0,1
62190,-83.3333333333333,4,2,106,80,0,1
62403,-83.3333333333333,4,2,26,80,0,1
62616,-83.3333333333333,4,2,100,80,0,1
62828,-83.3333333333333,4,2,107,80,0,1
63041,-83.3333333333333,4,2,102,80,0,1
63254,-83.3333333333333,4,2,90,80,0,1
63360,-83.3333333333333,4,2,1,80,0,1
63467,-83.3333333333333,4,2,108,80,0,1
63679,-83.3333333333333,4,2,16,80,0,1
63892,-83.3333333333333,4,2,109,80,0,1
64318,-83.3333333333333,4,2,58,80,0,1
64530,-83.3333333333333,4,2,27,80,0,1
64743,-83.3333333333333,4,2,44,80,0,1
65169,-83.3333333333333,4,2,110,80,0,1
65594,-83.3333333333333,4,2,111,80,0,1
66020,-83.3333333333333,4,2,71,80,0,1
66232,-83.3333333333333,4,2,24,80,0,1
66445,-83.3333333333333,4,2,44,80,0,1
66871,-83.3333333333333,4,2,103,80,0,1
67296,-83.3333333333333,4,2,112,80,0,1
67722,-83.3333333333333,4,2,2,80,0,1
67935,-83.3333333333333,4,2,28,80,0,1
68147,-83.3333333333333,4,2,28,80,0,1
68254,-83.3333333333333,4,2,16,80,0,1
68786,-83.3333333333333,4,2,113,80,0,1
69424,-83.3333333333333,4,2,114,80,0,1
69850,-83.3333333333333,4,2,95,80,0,1
70062,-83.3333333333333,4,2,102,80,0,1
70275,-71.4285714285714,4,2,102,80,0,1
70487,-71.4285714285714,4,2,90,80,0,1
70701,-66.6666666666667,4,2,115,80,0,1
70913,-66.6666666666667,4,2,90,80,0,1
71339,-66.6666666666667,4,2,116,80,0,1
71552,-83.3333333333333,4,2,76,80,0,1
71977,-83.3333333333333,4,2,117,80,0,1
72190,-83.3333333333333,4,2,44,80,0,1
72403,-83.3333333333333,4,2,29,80,0,1
72615,-83.3333333333333,4,2,100,80,0,1
73041,-83.3333333333333,4,2,118,80,0,1
73254,-83.3333333333333,4,2,102,80,0,1
73467,-83.3333333333333,4,2,90,80,0,1
73679,-83.3333333333333,4,2,119,80,0,1
74105,-83.3333333333333,4,2,25,80,0,1
74318,-83.3333333333333,4,2,100,80,0,1
74530,-83.3333333333333,4,2,120,80,0,1
74742,-83.3333333333333,4,2,104,80,0,1
74956,-83.3333333333333,4,2,96,80,0,1
75381,-83.3333333333333,4,2,105,80,0,1
75594,-83.3333333333333,4,2,95,80,0,1
75807,-83.3333333333333,4,2,121,80,0,1
76020,-83.3333333333333,4,2,90,80,0,1
76233,-83.3333333333333,4,2,100,80,0,1
76445,-83.3333333333333,4,2,122,80,0,1
76658,-83.3333333333333,4,2,102,80,0,1
76871,-83.3333333333333,4,2,90,80,0,1
76977,-83.3333333333333,4,2,1,80,0,1
77084,-83.3333333333333,4,2,123,80,0,1
77296,-83.3333333333333,4,2,16,80,0,1
77509,-83.3333333333333,4,2,109,80,0,1
77935,-83.3333333333333,4,2,58,80,0,1
78147,-83.3333333333333,4,2,27,80,0,1
78360,-83.3333333333333,4,2,44,80,0,1
78786,-83.3333333333333,4,2,124,80,0,1
79211,-83.3333333333333,4,2,125,80,0,1
79637,-83.3333333333333,4,2,71,80,0,1
79849,-83.3333333333333,4,2,25,80,0,1
80062,-83.3333333333333,4,2,44,80,0,1
80488,-83.3333333333333,4,2,126,80,0,1
80913,-83.3333333333333,4,2,127,80,0,1
81339,-83.3333333333333,4,2,16,80,0,1
82403,-133.333333333333,4,2,128,80,0,0
83254,-133.333333333333,4,2,129,80,0,0
83467,-133.333333333333,4,2,95,80,0,0
83679,-133.333333333333,4,2,102,80,0,0
84105,-133.333333333333,4,2,130,80,0,0
84211,-133.333333333333,4,2,3,80,0,0
84318,-100,4,2,4,60,0,0
84743,-100,4,2,2,60,0,0
84955,-100,4,2,5,60,0,0
85169,-100,4,2,5,60,0,0
85594,-100,4,2,6,60,0,0
86020,-100,4,2,7,60,0,0
86445,-100,4,2,2,60,0,0
86658,-100,4,2,8,60,0,0
86764,-100,4,2,9,60,0,0
86871,-100,4,2,10,60,0,0
87190,-100,4,2,11,60,0,0
87296,-100,4,2,12,60,0,0
87508,-100,4,2,13,60,0,0
87722,-100,4,2,14,60,0,0
88147,-100,4,2,2,60,0,0
88360,-100,4,2,15,60,0,0
88573,-100,4,2,16,60,0,0
88998,-100,4,2,16,60,0,0
89424,-100,4,2,17,60,0,0
89743,-100,4,2,1,60,0,0
89850,-100,4,2,18,60,0,0
90062,-100,4,2,2,60,0,0
90275,-100,4,2,19,60,0,0
90381,-100,4,2,20,60,0,0
90701,-100,4,2,20,60,0,0
90913,-100,4,2,20,60,0,0
91126,-100,4,2,131,60,0,0
91552,-100,4,2,2,60,0,0
91764,-100,4,2,22,60,0,0
91977,-100,4,2,22,60,0,0
92403,-100,4,2,23,60,0,0
92615,-100,4,2,30,60,0,0
92828,-100,4,2,24,60,0,0
93254,-100,4,2,2,60,0,0
93467,-100,4,2,25,60,0,0
93679,-100,4,2,25,60,0,0
94105,-100,4,2,26,60,0,0
94530,-100,4,2,27,60,0,0
94956,-100,4,2,2,60,0,0
95169,-100,4,2,3,60,0,0
95381,-100,4,2,16,60,0,0
96020,-153.846153846154,4,2,132,60,0,0
97084,-153.846153846154,4,2,16,60,0,0
97722,-153.846153846154,4,2,2,60,0,0
97828,-153.846153846154,4,2,3,60,0,0
97935,-250,4,2,133,60,0,0
99637,-250,4,2,133,40,0,0
101339,-250,4,2,133,30,0,0
103041,-250,4,2,133,20,0,0

[Colours]
Combo1 : 50,205,147
Combo2 : 235,193,52
Combo3 : 219,13,242
Combo4 : 255,100,177
SliderBorder : 252,227,245
SliderTrackOverride : 23,9,34

[HitObjects]
256,192,6020,12,8,8147,0:1:0:0:
381,194,8360,5,2,0:1:0:0:
381,194,8467,1,8,0:1:0:0:
381,194,8573,1,8,0:1:0:0:
450,27,8786,1,0,1:0:0:0:
323,127,8998,1,8,0:1:0:0:
481,21,9211,1,2,0:1:0:0:
481,21,9318,1,2,0:1:0:0:
481,21,9424,6,0,L|475:122,1,90,6|0,1:1|0:0,0:0:0:0:
405,298,9850,2,0,L|399:197,1,90,8|2,0:1|0:1,0:0:0:0:
399,62,10275,1,0,1:0:0:0:
342,141,10488,1,0,0:0:0:0:
249,42,10701,2,0,P|189:17|117:63,1,135,10|0,0:1|0:0,0:0:0:0:
123,77,11126,6,0,B|128:148|128:148|111:190|111:190|115:265,1,180,2|8,1:1|0:1,0:0:0:0:
205,170,11764,1,2,0:1:0:0:
205,170,11871,1,2,0:1:0:0:
205,170,11977,1,2,1:1:0:0:
54,113,12296,1,2,0:1:0:0:
54,113,12403,2,0,P|98:110|150:107,1,90,10|2,0:1|0:1,0:0:0:0:
275,28,12828,6,0,L|267:122,1,90,2|0,1:1|0:0,0:0:0:0:
318,220,13254,1,8,0:1:0:0:
365,130,13467,1,2,0:1:0:0:
423,211,13679,2,0,L|515:204,1,90,0|0,1:0|0:0,0:0:0:0:
391,289,14105,2,0,L|301:282,1,90,10|0,0:1|0:0,0:0:0:0:
162,286,14530,6,0,P|147:332|160:377,1,90,2|0,1:1|0:0,0:0:0:0:
296,368,14956,2,0,P|311:326|302:282,1,90,10|2,0:1|0:2,0:0:0:0:
268,139,15381,1,2,1:1:0:0:
268,139,15488,1,8,0:1:0:0:
129,194,15701,1,0,1:0:0:0:
129,194,15807,1,10,0:1:0:0:
217,79,16020,1,0,1:0:0:0:
217,79,16126,1,8,0:1:0:0:
217,79,16233,6,0,P|258:63|317:72,1,90,6|0,1:1|0:0,0:0:0:0:
420,125,16658,1,8,0:1:0:0:
355,20,16871,1,2,0:1:0:0:
272,137,17084,2,0,L|264:226,1,90,0|0,1:0|0:0,0:0:0:0:
182,91,17509,2,0,L|174:-3,1,90,10|0,0:1|0:0,0:0:0:0:
350,101,17935,6,0,L|342:195,1,90,2|0,1:1|0:0,0:0:0:0:
450,103,18360,1,8,0:1:0:0:
504,232,18573,2,0,P|453:219|406:236,1,90,2|0,0:1|1:0,0:0:0:0:
315,272,18998,1,0,0:0:0:0:
454,383,19211,2,0,P|467:332|450:285,1,90,10|0,0:1|0:0,0:0:0:0:
283,346,19637,5,6,1:1:0:0:
457,297,19850,1,0,0:0:0:0:
287,211,20062,1,8,0:1:0:0:
356,384,20275,1,2,0:2:0:0:
405,205,20488,1,0,1:0:0:0:
405,205,20594,1,8,0:1:0:0:
248,283,20807,1,0,1:0:0:0:
248,283,20913,1,8,0:1:0:0:
244,108,21126,5,6,1:1:0:0:
244,108,21233,1,2,0:1:0:0:
244,108,21339,2,0,P|295:104|338:145,1,90,2|0,0:1|1:0,0:0:0:0:
178,177,21764,1,10,0:1:0:0:
155,71,21977,5,2,1:2:0:0:
155,71,22084,1,0,1:0:0:0:
155,71,22190,2,0,L|81:81,1,45,10|8,0:1|0:1,0:0:0:0:
9,165,22403,2,0,L|53:171,1,45,8|8,0:1|0:1,0:0:0:0:
182,250,22616,2,0,L|137:256,1,45,10|8,0:1|0:1,0:0:0:0:
10,348,22828,2,0,L|54:341,1,45,8|8,0:1|0:1,0:0:0:0:
169,356,23041,5,6,1:1:0:0:
17,257,24530,5,6,1:1:0:0:
321,123,25381,5,2,1:2:0:0:
371,374,25807,1,6,1:1:0:0:
361,240,26445,6,0,P|366:306|373:390,1,135.000005149842,6|2,1:1|0:1,0:0:0:0:
440,241,27084,2,0,P|400:169|323:169,1,135,2|2,0:1|0:1,0:0:0:0:
233,177,27722,1,2,0:1:0:0:
344,48,27935,6,0,B|372:108|350:153|330:137|311:187|336:246,1,202.500000000001,2|0,0:1|0:0,0:0:0:0:
467,211,28786,2,0,P|424:194|375:207,1,67.5000000000002,2|0,0:1|0:0,0:0:0:0:
488,309,29211,1,2,0:1:0:0:
385,371,29424,2,0,P|328:350|272:383,1,101.25,2|0,0:1|0:0,0:0:0:0:
267,375,29850,6,0,P|304:351|307:241,1,135,2|2,0:1|0:2,0:0:0:0:
295,180,30488,1,2,0:1:0:0:
215,229,30701,1,2,0:1:0:0:
182,142,30913,2,0,L|109:152,1,67.5000000000002,2|0,0:1|0:0,0:0:0:0:
16,260,31339,6,0,B|95:268|95:268|129:294|129:294|218:303,1,202.500000000001,2|0,0:1|0:0,0:0:0:0:
331,356,32190,1,2,0:1:0:0:
299,359,32296,1,2,0:1:0:0:
270,361,32403,5,2,0:1:0:0:
196,264,32616,1,2,0:1:0:0:
313,186,32828,1,2,0:1:0:0:
199,124,33041,1,2,0:1:0:0:
272,20,33254,6,0,P|210:44|140:33,1,135,2|2,0:1|0:1,0:0:0:0:
4,2,33892,2,0,P|10:67|17:154,1,135.000005149842,2|2,0:1|0:1,0:0:0:0:
46,243,34530,1,2,0:1:0:0:
100,140,34743,1,2,0:1:0:0:
149,240,34956,6,0,B|202:225|225:263|225:252|243:275|303:253,1,135,2|2,0:2|0:2,0:0:0:0:
420,198,35594,2,0,P|389:180|341:187,1,67.5000000000002,2|0,0:1|0:0,0:0:0:0:
258,189,36020,1,2,0:1:0:0:
324,315,36233,2,0,L|391:308,1,67.5000000000002,2|2,0:1|0:2,0:0:0:0:
434,301,36552,1,2,0:2:0:0:
434,301,36658,6,0,P|455:240|413:155,1,135,2|2,0:1|0:2,0:0:0:0:
352,113,37296,1,2,0:1:0:0:
425,56,37509,1,2,0:1:0:0:
334,14,37722,2,0,L|245:30,1,67.5000000000002,2|2,0:1|0:2,0:0:0:0:
174,57,38147,1,2,0:1:0:0:
236,132,38360,5,2,0:2:0:0:
110,189,38573,2,0,L|119:122,1,67.5000000000002,2|0,0:1|0:0,0:0:0:0:
196,211,38998,2,0,B|226:270|170:294|194:350|194:350|210:318|245:307|295:317,1,236.250000000001,2|0,0:1|0:0,0:0:0:0:
305,318,39850,5,2,0:1:0:0:
398,199,40062,2,0,P|342:186|295:208,1,90,6|0,1:1|0:0,0:0:0:0:
447,308,40488,1,2,0:1:0:0:
474,184,40701,1,0,1:0:0:0:
356,270,40913,2,0,L|362:359,1,90,2|0,0:1|0:0,0:0:0:0:
240,137,41339,2,0,L|232:242,1,90,10|0,0:1|0:0,0:0:0:0:
81,131,41764,6,0,P|141:99|244:142,1,180,2|2,1:1|0:1,0:0:0:0:
115,209,42403,1,2,1:2:0:0:
0,104,42616,2,0,L|11:11,1,90,0|0,0:0|1:0,0:0:0:0:
159,0,43041,1,10,0:1:0:0:
81,131,43254,1,2,0:1:0:0:
223,112,43467,6,0,B|263:73|318:97|304:108|341:142|407:104,1,180,2|2,1:1|0:1,0:0:0:0:
269,172,44105,1,0,1:0:0:0:
358,40,44318,2,0,P|426:24|506:78,1,135,2|0,0:1|0:0,0:0:0:0:
504,77,44743,2,0,L|496:200,1,90,10|0,0:1|0:0,0:0:0:0:
362,201,45169,6,0,P|310:202|273:240,1,90,2|0,1:1|0:0,0:0:0:0:
260,252,45488,1,0,1:0:0:0:
260,252,45594,1,2,0:1:0:0:
329,366,45807,2,0,P|348:318|337:271,1,90,2|0,1:2|0:0,0:0:0:0:
215,184,46233,1,0,1:0:0:0:
240,339,46445,1,10,0:1:0:0:
378,225,46658,1,8,0:1:0:0:
378,225,46764,1,8,0:1:0:0:
378,225,46871,6,0,P|329:203|271:218,1,90,6|0,1:1|0:0,0:0:0:0:
318,285,47296,1,2,0:1:0:0:
363,123,47509,1,0,1:0:0:0:
200,236,47722,2,0,L|213:146,1,90,2|2,0:1|0:2,0:0:0:0:
275,0,48147,2,0,L|288:89,1,90,10|0,0:1|0:0,0:0:0:0:
186,39,48573,6,0,P|111:38|44:92,1,135,2|0,1:1|0:0,0:0:0:0:
44,95,48998,1,2,0:1:0:0:
127,138,49211,2,0,P|178:131|221:154,1,90,2|0,1:2|0:0,0:0:0:0:
75,222,49637,1,2,1:2:0:0:
178,284,49850,2,0,L|166:375,1,90,10|0,0:1|0:0,0:0:0:0:
252,165,50275,6,0,L|271:309,1,135,6|0,1:1|0:0,0:0:0:0:
274,323,50701,5,8,0:1:0:0:
453,298,50913,1,2,1:2:0:0:
336,384,51126,5,8,0:1:0:0:
483,280,51339,1,0,1:0:0:0:
341,186,51552,5,8,0:1:0:0:
420,384,51764,1,2,1:2:0:0:
420,384,51871,1,0,1:0:0:0:
420,384,51977,5,10,0:1:0:0:
276,241,52190,1,2,1:2:0:0:
443,193,52403,5,10,0:1:0:0:
296,338,52616,1,2,1:1:0:0:
339,146,52828,1,10,0:1:0:0:
300,122,52935,1,8,0:1:0:0:
256,117,53041,1,2,1:1:0:0:
213,130,53147,1,0,1:0:0:0:
177,157,53254,6,0,L|182:201,1,45,10|8,0:1|0:1,0:0:0:0:
267,227,53467,2,0,L|261:271,1,45,2|0,1:1|1:0,0:0:0:0:
182,336,53679,5,6,1:1:0:0:
326,73,55381,5,14,0:1:0:0:
423,202,55594,1,14,0:1:0:0:
486,53,55807,1,14,0:1:0:0:
341,178,56020,5,14,0:1:0:0:
405,34,56233,1,10,0:1:0:0:
501,173,56445,1,2,1:2:0:0:
326,73,56658,6,0,P|260:50|183:100,1,135,10|0,0:1|0:0,0:0:0:0:
189,94,57084,5,6,1:1:0:0:
321,156,57296,1,2,0:1:0:0:
124,34,57509,2,0,L|103:164,1,108,10|2,0:1|0:1,0:0:0:0:
255,277,57935,2,0,L|234:147,1,108,2|0,1:1|0:0,0:0:0:0:
383,238,58360,1,10,0:1:0:0:
371,99,58573,1,2,0:1:0:0:
237,170,58786,6,0,L|130:187,1,108,2|2,1:2|0:1,0:0:0:0:
66,384,59211,1,10,0:1:0:0:
201,249,59424,1,2,0:1:0:0:
24,281,59637,1,2,1:1:0:0:
193,372,59850,1,2,0:1:0:0:
103,205,60062,2,0,L|90:39,1,162,10|0,0:1|0:0,0:0:0:0:
85,0,60488,5,2,1:2:0:0:
16,130,60701,1,2,0:1:0:0:
195,87,60913,2,0,L|299:61,1,108,10|2,0:1|0:1,0:0:0:0:
498,190,61339,2,0,L|394:164,1,108,2|0,1:1|0:0,0:0:0:0:
482,32,61764,5,10,0:1:0:0:
394,164,61977,1,2,0:1:0:0:
363,6,62190,1,2,1:1:0:0:
494,125,62403,1,2,0:2:0:0:
319,102,62616,6,0,L|210:117,1,108,10|2,0:1|0:1,0:0:0:0:
420,169,63041,1,2,1:1:0:0:
420,169,63147,1,8,0:1:0:0:
372,36,63360,1,0,1:0:0:0:
372,36,63467,1,10,0:1:0:0:
327,197,63679,1,0,1:0:0:0:
327,197,63786,1,8,0:1:0:0:
327,197,63892,6,0,L|334:307,1,108,6|0,1:1|0:0,0:0:0:0:
251,173,64318,6,0,P|192:165|136:190,1,108,10|2,0:1|0:2,0:0:0:0:
54,353,64743,2,0,P|90:305|96:244,1,108,2|0,1:1|0:0,0:0:0:0:
0,93,65169,2,0,P|22:148|72:184,1,108,10|0,0:1|0:0,0:0:0:0:
181,37,65594,2,0,L|60:27,1,108,2|0,1:1|0:0,0:0:0:0:
251,173,66020,2,0,L|358:164,1,108,10|2,0:1|0:2,0:0:0:0:
170,223,66445,6,0,P|156:166|179:116,1,108,2|0,1:1|0:0,0:0:0:0:
313,266,66871,2,0,P|327:323|304:373,1,108,10|0,0:1|0:0,0:0:0:0:
128,304,67296,2,0,L|235:313,1,108,6|0,1:1|0:0,0:0:0:0:
62,198,67722,1,8,0:1:0:0:
71,364,67935,1,2,0:2:0:0:
179,236,68147,1,0,1:0:0:0:
179,236,68254,1,8,0:1:0:0:
0,263,68467,1,0,1:0:0:0:
0,263,68573,1,8,0:1:0:0:
122,140,68786,6,0,B|180:106|235:141|225:154|266:186|345:146,1,216,6|0,1:1|1:0,0:0:0:0:
142,46,69424,1,8,0:1:0:0:
169,205,69637,1,10,0:1:0:0:
151,243,69743,1,8,0:1:0:0:
115,264,69850,1,10,0:1:0:0:
73,258,69956,1,8,0:1:0:0:
42,229,70062,1,10,0:1:0:0:
36,187,70169,1,8,0:1:0:0:
42,149,70275,6,0,L|48:114,6,31.5,10|8|8|8|10|8|8,0:1|0:1|0:1|0:1|0:1|0:1|0:1,0:0:0:0:
42,149,70701,6,0,B|79:134|108:160|102:170|131:191|188:178,1,135,6|2,1:1|0:1,0:0:0:0:
42,229,71126,1,10,0:1:0:0:
155,106,71339,1,2,0:1:0:0:
199,252,71552,2,0,L|320:270,1,108,2|0,1:1|0:0,0:0:0:0:
444,325,71977,1,10,0:1:0:0:
293,356,72190,1,2,0:1:0:0:
396,228,72403,6,0,L|383:110,1,108,2|2,1:2|0:1,0:0:0:0:
246,22,72828,1,10,0:1:0:0:
315,163,73041,1,2,0:1:0:0:
366,26,73254,1,2,1:1:0:0:
213,122,73467,1,2,0:1:0:0:
337,246,73679,2,0,P|398:195|390:120,1,162,10|0,0:1|0:0,0:0:0:0:
365,102,74105,5,2,1:2:0:0:
252,208,74318,1,2,0:1:0:0:
452,274,74530,2,0,L|443:392,1,108,10|2,0:1|0:1,0:0:0:0:
285,384,74956,2,0,L|276:266,1,108,2|0,1:1|0:0,0:0:0:0:
217,98,75381,5,10,0:1:0:0:
161,255,75594,1,2,0:1:0:0:
296,175,75807,1,2,1:1:0:0:
126,155,76020,1,2,0:1:0:0:
253,260,76233,6,0,L|384:254,1,108,10|2,0:1|0:1,0:0:0:0:
226,347,76658,1,2,1:1:0:0:
226,347,76764,1,8,0:1:0:0:
212,181,76977,1,0,1:0:0:0:
212,181,77084,1,10,0:1:0:0:
85,302,77296,1,0,1:0:0:0:
85,302,77403,1,8,0:1:0:0:
85,302,77509,6,0,P|113:207|76:131,1,162,6|0,1:1|0:0,0:0:0:0:
57,140,77935,2,0,P|28:185|28:238,1,108,10|2,0:1|0:2,0:0:0:0:
198,119,78360,2,0,P|213:70|194:10,1,108,2|0,1:1|0:0,0:0:0:0:
26,54,78786,2,0,L|144:67,1,108,10|0,0:1|0:0,0:0:0:0:
270,197,79211,2,0,L|152:210,1,108,2|0,1:1|0:0,0:0:0:0:
344,50,79637,6,0,P|350:105|357:166,1,108,10|2,0:1|0:2,0:0:0:0:
483,354,80062,2,0,P|489:299|496:238,1,108,2|0,1:1|0:0,0:0:0:0:
321,247,80488,2,0,P|326:300|332:354,1,108,10|0,0:1|0:0,0:0:0:0:
507,170,80913,2,0,B|439:175|439:175|399:165|399:165|324:171,1,162,6|0,1:1|0:0,0:0:0:0:
314,159,81339,2,0,P|260:106|263:43,1,108,8|0,0:1|0:0,0:0:0:0:
438,94,81764,1,0,1:0:0:0:
438,94,81871,1,8,0:1:0:0:
386,249,82084,1,0,1:0:0:0:
386,249,82190,1,8,0:1:0:0:
283,136,82403,6,0,B|223:159|176:129|191:120|146:91|88:115,1,202.500000000001,6|0,1:1|0:0,0:0:0:0:
14,212,83254,5,2,0:1:0:0:
63,343,83467,1,10,0:1:0:0:
95,195,83679,5,2,1:1:0:0:
24,363,83892,1,10,0:1:0:0:
148,268,84105,5,2,0:1:0:0:
148,268,84211,1,2,0:1:0:0:
148,268,84318,2,0,P|178:256|238:265,1,90,6|0,1:1|0:0,0:0:0:0:
416,320,84743,2,0,P|385:331|326:323,1,90,8|2,0:1|0:1,0:0:0:0:
394,172,85169,1,0,1:0:0:0:
457,251,85381,1,0,0:0:0:0:
306,200,85594,2,0,P|276:120|320:60,1,135,10|0,0:1|0:0,0:0:0:0:
309,46,86020,6,0,P|234:96|139:71,1,180,2|8,1:1|0:1,0:0:0:0:
51,72,86658,1,2,0:1:0:0:
51,72,86764,1,2,0:1:0:0:
51,72,86871,2,0,B|46:117|46:117|61:182,1,90,2|0,1:1|0:0,0:0:0:0:
152,224,87190,1,2,0:1:0:0:
152,224,87296,2,0,B|157:179|157:179|142:114,1,90,10|2,0:1|0:1,0:0:0:0:
60,272,87722,6,0,B|49:315|49:315|54:360,1,90,2|0,1:1|0:0,0:0:0:0:
207,288,88147,1,8,0:1:0:0:
101,198,88360,1,2,0:1:0:0:
161,375,88573,2,0,L|255:362,1,90,0|0,1:0|0:0,0:0:0:0:
375,273,88998,2,0,L|285:260,1,90,10|0,0:1|0:0,0:0:0:0:
445,331,89424,6,0,P|458:284|448:223,1,90,2|0,1:1|0:0,0:0:0:0:
344,104,89850,2,0,P|331:151|341:212,1,90,10|2,0:1|0:2,0:0:0:0:
442,78,90275,1,2,1:1:0:0:
442,78,90381,1,8,0:1:0:0:
302,11,90594,1,0,1:0:0:0:
302,11,90701,1,10,0:1:0:0:
234,141,90913,1,0,1:0:0:0:
234,141,91020,1,8,0:1:0:0:
234,141,91126,6,0,L|231:250,1,90,6|0,1:1|0:0,0:0:0:0:
179,367,91552,1,8,0:1:0:0:
106,267,91764,1,2,0:1:0:0:
256,347,91977,2,0,L|350:344,1,90,0|0,1:0|0:0,0:0:0:0:
195,269,92403,2,0,L|101:266,1,90,10|2,0:1|0:2,0:0:0:0:
27,282,92722,1,2,0:2:0:0:
27,282,92828,6,0,P|9:227|16:169,1,90,2|0,1:1|0:0,0:0:0:0:
55,77,93254,1,8,0:1:0:0:
126,155,93467,2,0,P|166:131|237:142,1,90,2|0,0:1|1:0,0:0:0:0:
190,234,93892,1,0,0:0:0:0:
293,163,94105,2,0,L|302:63,1,90,10|0,0:1|0:0,0:0:0:0:
333,15,94530,5,6,1:1:0:0:
404,144,94743,1,0,0:0:0:0:
443,9,94956,1,8,0:1:0:0:
299,109,95169,1,2,0:2:0:0:
485,148,95381,1,0,1:0:0:0:
485,148,95488,1,8,0:1:0:0:
332,233,95701,1,0,1:0:0:0:
332,233,95807,1,8,0:1:0:0:
352,23,96020,6,0,B|418:73|406:128|391:125|380:188|436:229,1,234,6|0,1:1|0:0,0:0:0:0:
512,289,97084,5,8,0:1:0:0:
331,260,97296,1,0,1:0:0:0:
472,159,97509,1,8,0:1:0:0:
283,156,97722,1,2,0:1:0:0:
283,156,97828,1,2,0:1:0:0:
283,156,97935,6,0,B|341:80|449:118|467:201|420:308|297:263|275:374|275:374|250:265|133:322|74:220|84:134|205:78|259:165,1,864,6|0,1:1|0:0,0:0:0:0:
