osu file format v14

[General]
AudioFilename: audio.mp3
AudioLeadIn: 0
PreviewTime: 56977
Countdown: 0
SampleSet: Soft
StackLeniency: 0.4
Mode: 0
LetterboxInBreaks: 0
WidescreenStoryboard: 1

[Editor]
Bookmarks: 9424,26445,40062,82403,84318,97935
DistanceSpacing: 1
BeatDivisor: 2
GridSize: 4
TimelineZoom: 2.2

[Metadata]
Title:GALAXY HidE and SeeK
TitleUnicode:GALAXY HidE and SeeK
Artist:AZALEA
ArtistUnicode:AZALEA
Creator:Erisu
Version:Mocaotic's Normal
Source:ラブライブ!サンシャイン!!
Tags:Kanan Matsuura 松浦果南 Nanaka Suwa 諏訪ななか Dia Kurosawa 黒澤ダイヤ Komiya Arisa 小宮有紗 Hanamaru Kunikida 国木田花丸 Takatsuki Kanako 高槻かなこ Love Live! Sunshine!! anime video game short ver 2nd second single lantis ラブライブ!スクールアイドルフェスティバル School Idol Project Festival Aqours konoe kanata mbmasher jamimc2 mocaotic xidorn j-pop pop japanese
BeatmapID:2621916
BeatmapSetID:1260015

[Difficulty]
HPDrainRate:4
CircleSize:3.4
OverallDifficulty:4
ApproachRate:5
SliderMultiplier:1
SliderTickRate:1

[Events]
//Background and Video events
0,0,"buubuu.jpg",0,0
//Break Periods
//Storyboard Layer 0 (Background)
//Storyboard Layer 1 (Fail)
//Storyboard Layer 2 (Pass)
//Storyboard Layer 3 (Foreground)
//Storyboard Layer 4 (Overlay)
//Storyboard Sound Samples

[TimingPoints]
2616,425.531914893617,4,2,200,40,1,0
8573,-100,4,2,201,40,0,0
9424,-100,4,2,201,60,0,0
24530,-100,4,2,200,60,0,0
26445,-100,4,2,201,50,0,0
27084,-105.263157894737,4,2,201,50,0,0
40062,-100,4,2,201,65,0,0
46871,-100,4,2,202,65,0,0
50275,-100,4,2,201,65,0,0
55381,-100,4,2,202,65,0,0
57084,-95.2380952380952,4,2,201,80,0,1
84318,-100,4,2,201,60,0,0
99637,-100,4,2,201,40,0,0
101339,-100,4,2,201,30,0,0
103041,-100,4,2,201,20,0,0
104743,-100,4,2,201,5,0,0

[Colours]
Combo1 : 50,205,147
Combo2 : 235,193,52
Combo3 : 219,13,242
Combo4 : 255,100,177
SliderBorder : 252,227,245
SliderTrackOverride : 23,9,34

[HitObjects]
256,192,2616,12,8,8573,0:1:0:0:
16,62,9424,6,0,P|65:47|131:76,1,100,6|8,1:1|0:1,0:0:0:0:
147,93,10062,2,0,P|196:108|262:79,1,100,2|0,0:1|0:0,0:0:0:0:
283,67,10701,1,10,0:1:0:0:
352,139,11126,2,0,L|349:267,1,100,2|8,1:1|0:1,0:0:0:0:
348,289,11764,1,2,0:1:0:0:
370,333,11977,2,0,B|397:321|397:321|449:321,2,75,2|2|2,1:1|0:1|0:1,0:0:0:0:
335,369,12828,6,0,L|219:360,1,100,2|8,1:1|0:1,0:0:0:0:
185,358,13467,1,2,0:1:0:0:
93,316,13892,1,2,0:1:0:0:
93,316,14105,2,0,L|88:256,1,50,8|0,0:1|0:0,0:0:0:0:
84,216,14530,1,2,1:1:0:0:
154,144,14956,1,10,0:1:0:0:
244,188,15381,2,0,L|239:248,1,50,2|0,1:1|0:0,0:0:0:0:
217,282,15807,2,0,L|222:342,1,50,10|0,0:1|1:0,0:0:0:0:
256,367,16233,6,0,P|320:377|360:355,1,100,6|8,1:1|0:1,0:0:0:0:
384,326,16871,2,0,L|393:217,1,100,2|0,0:1|0:0,0:0:0:0:
397,176,17509,1,8,0:1:0:0:
491,136,17935,2,0,L|481:32,1,100,2|8,1:1|0:1,0:0:0:0:
443,3,18573,2,0,P|389:19|360:68,1,100,2|0,0:1|0:0,0:0:0:0:
353,101,19211,1,10,0:1:0:0:
285,175,19637,6,0,B|248:153|248:153|174:160,1,100,6|8,1:1|0:1,0:0:0:0:
144,140,20275,2,0,L|147:69,2,50,2|0|0,0:1|1:0|0:0,0:0:0:0:
101,166,20913,1,8,0:1:0:0:
53,150,21126,2,0,P|35:100|58:45,1,100,6|0,1:1|1:0,0:0:0:0:
82,20,21764,1,10,0:1:0:0:
176,54,22190,2,0,L|242:48,1,50,10|8,0:1|0:1,0:0:0:0:
273,65,22616,2,0,L|311:119,1,50,10|8,0:1|0:1,0:0:0:0:
336,142,23041,5,6,1:1:0:0:
256,192,23254,12,4,24530,1:1:0:0:
215,264,25381,5,0,1:0:0:0:
135,202,25807,2,0,P|87:215|50:258,1,100,4|0,1:1|0:0,0:0:0:0:
33,296,26445,5,4,1:1:0:0:
80,384,26871,1,2,0:1:0:0:
80,384,27084,2,0,L|203:372,1,94.9999999999998,2|2,0:1|0:1,0:0:0:0:
217,355,27722,2,0,L|283:360,1,47.4999999999999,2|2,0:1|0:1,0:0:0:0:
453,376,28786,2,0,P|483:335|470:257,1,94.9999999999998,2|2,0:1|0:1,0:0:0:0:
464,249,29424,1,2,0:1:0:0:
381,201,29850,6,0,L|256:212,1,94.9999999999998,2|0,0:1|0:0,0:0:0:0:
247,234,30488,1,2,0:1:0:0:
247,234,30701,2,0,L|174:232,1,47.4999999999999,2|2,0:1|0:1,0:0:0:0:
109,201,31339,2,0,P|96:153|121:99,1,94.9999974632264,2|0,0:1|0:0,0:0:0:0:
167,35,32190,2,0,L|231:38,2,47.4999999999999,2|2|2,0:1|0:1|0:1,0:0:0:0:
129,8,32828,1,2,0:1:0:0:
43,49,33254,5,2,0:1:0:0:
95,135,33679,1,2,0:1:0:0:
95,135,33892,2,0,L|207:124,1,94.9999999999998,2|2,0:1|0:1,0:0:0:0:
229,100,34530,2,0,L|286:104,1,47.4999999999999,2|2,0:1|0:1,0:0:0:0:
322,116,34956,1,2,0:1:0:0:
453,170,35594,2,0,P|465:229|441:283,1,94.9999999999998,2|2,0:1|0:1,0:0:0:0:
423,296,36233,1,2,0:1:0:0:
329,280,36658,6,0,L|321:168,1,94.9999999999998,2|0,0:1|0:0,0:0:0:0:
300,149,37296,1,2,0:1:0:0:
300,149,37509,2,0,L|304:81,1,47.4999999999999,2|2,0:1|0:1,0:0:0:0:
362,27,38147,1,2,0:1:0:0:
446,71,38573,1,2,0:1:0:0:
412,159,38998,2,0,L|421:334,1,142.49999619484,2|2,0:1|0:1,0:0:0:0:
338,359,40062,6,0,B|291:359|291:387|229:384,1,100,6|2,1:1|0:1,0:0:0:0:
195,365,40701,2,0,P|181:309|209:249,1,100,0|0,1:0|0:0,0:0:0:0:
226,232,41339,1,10,0:1:0:0:
195,136,41764,2,0,L|88:131,1,100,2|2,1:1|0:1,0:0:0:0:
44,131,42403,1,0,1:0:0:0:
5,225,42828,1,0,1:0:0:0:
5,225,43041,2,0,L|12:309,1,50,8|2,0:1|0:1,0:0:0:0:
31,320,43467,6,0,P|80:334|129:319,1,100,2|2,1:1|0:1,0:0:0:0:
158,282,44105,2,0,L|166:182,1,100,0|0,1:0|0:0,0:0:0:0:
174,132,44743,1,10,0:1:0:0:
120,47,45169,2,0,B|96:37|96:37|30:41,2,75,2|0|0,1:1|1:0|1:0,0:0:0:0:
215,10,46233,1,0,1:0:0:0:
215,10,46445,2,0,L|310:17,1,50,8|8,0:1|0:1,0:0:0:0:
306,42,46871,6,0,B|339:15|339:15|424:10,1,100,6|2,1:1|0:1,0:0:0:0:
442,31,47509,2,0,P|456:92|434:144,1,100,0|0,1:0|0:0,0:0:0:0:
417,167,48147,1,10,0:1:0:0:
338,229,48573,2,0,L|210:221,1,100,2|2,1:1|0:1,0:0:0:0:
188,220,49211,1,0,1:0:0:0:
166,320,49637,1,0,1:0:0:0:
166,320,49850,2,0,L|246:310,1,50,10|0,0:1|0:0,0:0:0:0:
264,302,50275,6,0,B|306:305|306:305|322:316|322:316|368:320,1,100,6|8,1:1|0:1,0:0:0:0:
408,347,50913,1,0,1:0:0:0:
408,347,51126,1,8,0:1:0:0:
494,296,51552,2,0,L|490:227,1,50,8|0,0:1|1:0,0:0:0:0:
467,201,51977,2,0,L|471:132,1,50,8|0,0:1|1:0,0:0:0:0:
490,105,52403,1,8,0:1:0:0:
440,18,52828,2,0,P|409:15|374:25,1,50,8|2,0:1|1:1,0:0:0:0:
346,43,53254,2,0,P|315:46|280:36,1,50,10|2,0:1|1:1,0:0:0:0:
251,21,53679,5,4,1:1:0:0:
251,21,55381,2,0,P|224:14|185:12,2,50,12|12|12,0:1|0:1|0:1,0:0:0:0:
294,56,56020,1,14,0:1:0:0:
294,56,56233,2,0,L|300:135,1,50,10|0,0:1|1:0,0:0:0:0:
300,155,56658,1,10,0:1:0:0:
222,226,57084,6,0,B|175:222|175:222|164:215|164:215|83:207,1,105,4|10,1:1|0:1,0:0:0:0:
67,205,57722,1,2,0:1:0:0:
28,240,57935,2,0,P|24:277|33:313,1,52.5,2|0,1:1|0:0,0:0:0:0:
49,339,58360,1,10,0:1:0:0:
98,355,58573,2,0,L|218:340,1,105,2|2,0:1|0:1,0:0:0:0:
254,335,59211,1,10,0:1:0:0:
350,376,59637,2,0,L|416:368,1,52.5,2|2,1:1|0:1,0:0:0:0:
454,365,60062,1,10,0:1:0:0:
501,273,60488,5,0,1:0:0:0:
501,273,60701,2,0,L|504:197,2,52.5,2|10|2,0:1|0:1|0:1,0:0:0:0:
468,314,61339,2,0,P|402:299|337:318,1,105,2|10,1:1|0:1,0:0:0:0:
319,329,61977,1,2,0:1:0:0:
278,295,62190,2,0,L|272:158,1,105,2|10,1:1|0:1,0:0:0:0:
172,159,63041,2,0,L|169:215,1,52.5,2|2,1:1|0:1,0:0:0:0:
158,263,63467,2,0,L|108:288,1,52.5,10|0,0:1|1:0,0:0:0:0:
62,306,63892,5,4,1:1:0:0:
3,218,64318,2,0,L|0:100,1,105,10|2,0:1|1:1,0:0:0:0:
35,14,65169,2,0,P|67:9|105:21,1,52.5,10|0,0:1|0:0,0:0:0:0:
128,46,65594,2,0,P|189:56|245:37,1,105,2|10,1:1|0:1,0:0:0:0:
276,20,66233,1,2,0:1:0:0:
324,38,66445,2,0,L|328:175,1,105,2|10,1:1|0:1,0:0:0:0:
254,218,67296,6,0,P|297:225|354:280,1,105,6|8,1:1|0:1,0:0:0:0:
379,301,67935,1,2,0:1:0:0:
406,345,68147,2,0,L|469:335,2,52.5,0|0|8,1:0|0:0|0:1,0:0:0:0:
365,380,68786,2,0,L|241:370,1,105,4|0,1:1|1:0,0:0:0:0:
208,363,69424,1,8,0:1:0:0:
195,258,69850,2,0,P|192:225|202:190,1,52.5,10|10,0:1|0:1,0:0:0:0:
219,159,70275,2,0,P|222:133|219:107,1,52.5,10|10,0:1|0:1,0:0:0:0:
203,56,70701,6,0,B|171:72|171:72|71:64,1,105,4|10,1:1|0:1,0:0:0:0:
53,60,71339,1,2,0:1:0:0:
53,60,71552,1,2,1:1:0:0:
3,154,71977,1,10,0:1:0:0:
3,154,72190,2,0,P|-1:222|31:269,1,105,2|2,0:1|0:1,0:0:0:0:
67,262,72828,2,0,L|154:251,1,52.5,10|2,0:1|0:1,0:0:0:0:
166,231,73254,2,0,L|253:242,1,52.5,2|2,1:1|0:1,0:0:0:0:
269,247,73679,1,10,0:1:0:0:
368,215,74105,5,0,1:0:0:0:
368,215,74318,2,0,P|373:279|346:322,1,105,2|2,0:1|0:1,0:0:0:0:
317,349,74956,2,0,L|185:343,1,105,2|10,1:1|0:1,0:0:0:0:
159,342,75594,1,2,0:1:0:0:
125,301,75807,2,0,P|119:236|146:193,1,105,2|10,1:1|0:1,0:0:0:0:
241,200,76658,2,0,L|332:195,1,52.5,2|2,1:1|0:1,0:0:0:0:
346,193,77084,2,0,L|387:111,1,52.5,10|0,0:1|1:0,0:0:0:0:
393,99,77509,5,4,1:1:0:0:
346,4,77935,2,0,P|288:-6|225:17,1,104.999996795654,10|2,0:1|1:1,0:0:0:0:
201,101,78786,2,0,L|206:181,1,52.5,10|0,0:1|0:0,0:0:0:0:
241,190,79211,2,0,L|235:327,1,105,2|10,1:1|0:1,0:0:0:0:
231,347,79850,1,2,0:1:0:0:
182,371,80062,2,0,P|121:381|72:345,1,105,2|10,1:1|0:1,0:0:0:0:
28,272,80913,6,0,L|23:167,1,105,6|8,1:1|0:1,0:0:0:0:
42,66,81764,2,0,L|114:60,2,52.4999983978272,0|0|8,1:0|0:0|0:1,0:0:0:0:
10,24,82403,1,4,1:1:0:0:
10,24,83467,2,0,B|36:18|36:18|73:27,1,52.5,10|2,0:1|1:1,0:0:0:0:
108,47,83892,2,0,B|134:53|134:53|171:44,1,52.5,10|2,0:1|0:1,0:0:0:0:
204,25,84318,6,0,L|197:160,1,100,6|8,1:1|0:1,0:0:0:0:
172,167,84956,2,0,L|179:302,1,100,2|0,0:1|0:0,0:0:0:0:
181,316,85594,1,10,0:1:0:0:
263,373,86020,2,0,B|316:363|310:391|367:380,1,100,2|8,1:1|0:1,0:0:0:0:
410,370,86658,1,2,0:1:0:0:
442,331,86871,2,0,B|501:333|501:333|517:350,2,75,2|2|2,1:1|0:1|0:1,0:0:0:0:
408,293,87722,6,0,P|395:236|418:181,1,100,2|8,1:1|0:1,0:0:0:0:
442,161,88360,1,2,0:1:0:0:
512,90,88786,1,2,0:1:0:0:
512,90,88998,2,0,L|508:26,1,50,8|0,0:1|0:0,0:0:0:0:
478,0,89424,1,2,1:1:0:0:
388,45,89850,1,10,0:1:0:0:
297,2,90275,2,0,L|213:-2,1,50,2|0,1:1|0:0,0:0:0:0:
204,26,90701,2,0,L|200:110,1,50,10|0,0:1|1:0,0:0:0:0:
179,120,91126,6,0,L|186:241,1,100,6|8,1:1|0:1,0:0:0:0:
187,269,91764,1,2,0:1:0:0:
121,344,92190,1,2,0:1:0:0:
121,344,92403,2,0,L|52:341,1,50,8|2,0:1|0:1,0:0:0:0:
25,322,92828,2,0,P|15:271|33:224,1,100,2|8,1:1|0:1,0:0:0:0:
69,195,93467,2,0,P|79:144|61:97,1,100,2|0,0:1|0:0,0:0:0:0:
32,60,94105,1,10,0:1:0:0:
118,9,94530,6,0,B|154:27|154:27|239:31,1,100,6|8,1:1|0:1,0:0:0:0:
248,65,95169,2,0,L|327:53,2,50,2|0|0,0:1|1:0|0:0,0:0:0:0:
218,105,95807,1,8,0:1:0:0:
218,105,96020,1,4,1:1:0:0:
323,331,97084,2,0,L|388:320,1,50,8|0,0:1|1:0,0:0:0:0:
416,299,97509,2,0,L|481:310,1,50,8|2,0:1|0:1,0:0:0:0:
509,331,97935,5,6,1:1:0:0:
256,192,98147,12,0,103041,0:0:0:0:
