osu file format v14

[General]
AudioFilename: audio1.mp3
AudioLeadIn: 0
PreviewTime: 54970
Countdown: 0
SampleSet: Normal
StackLeniency: 0.7
Mode: 1
LetterboxInBreaks: 0
WidescreenStoryboard: 1

[Editor]
Bookmarks: 7342,20959,24363,37980,48193,55002,55214,55427,55640,55853,56278,56491,56916,57129,57342,57555,57768,57980,58619,58831,59044,59257,59682,59895,60108,60321,60533,60746,60959,61172,61385,62236,62661,63087,63512,63938,64363,64789,65214,67555,67768,67980,68193,68406,68619,68831,69044,69257,69470,69895,70108,70534,70746,70959,71172,71385,71597,72236,72448,72661,72874,73299,73512,73725,73938,74151,74363,74576,74789,75002,75853,76278,76704,77129,77555,77980,78406,78831,81172,81385,81597,81810,82023,82236,95853
DistanceSpacing: 0.9
BeatDivisor: 2
GridSize: 32
TimelineZoom: 0.6999997

[Metadata]
Title:GALAXY HidE and SeeK
TitleUnicode:GALAXY HidE and SeeK
Artist:AZALEA
ArtistUnicode:AZALEA
Creator:Chocola_2287
Version:JuDa's Kantan
Source:ラブライブ!サンシャイン!!
Tags:LoveLive! Sunshine!! anime tv size school idol project Suwa Nanaka 諏訪ななか Komiya Arisa 小宮有紗 Takatsuki Kanako 高槻かなこ Matsuura Kanan 松浦果南 Kurosawa Dia 黒澤ダイヤ Kunikida Hanamaru 国木田花丸 アゼリア Sub-unit JUDYDANNY 2nd second single
BeatmapID:1378654
BeatmapSetID:650276

[Difficulty]
HPDrainRate:7
CircleSize:2
OverallDifficulty:3
ApproachRate:9.3
SliderMultiplier:1.4
SliderTickRate:1

[Events]
//Background and Video events
0,0,"646379.jpg",0,0
//Break Periods
//Storyboard Layer 0 (Background)
//Storyboard Layer 1 (Fail)
//Storyboard Layer 2 (Pass)
//Storyboard Layer 3 (Foreground)
//Storyboard Sound Samples

[TimingPoints]
502,425.531914893617,4,1,0,50,1,0
3906,-100,4,1,0,60,0,0
6033,-100,4,1,0,80,0,0
20927,-100,4,1,0,70,0,0
22416,-100,4,1,0,70,0,0
24331,-100,4,1,0,60,0,0
37948,-100,4,1,0,70,0,0
48161,-100,4,1,0,75,0,0
54970,-100,4,1,0,80,0,1
82204,-100,4,1,0,80,0,0
95821,-100,4,1,0,70,0,0

[HitObjects]
256,192,3906,12,0,6033,0:0:0:0:
128,64,6459,5,8,0:0:0:0:
128,64,6884,1,8,0:0:0:0:
258,193,7310,5,4,0:0:0:0:
256,192,8161,1,0,0:0:0:0:
256,206,9012,1,8,0:0:0:0:
192,64,9863,1,8,0:0:0:0:
192,96,10289,1,8,0:0:0:0:
256,206,10714,1,0,0:0:0:0:
160,160,12416,1,8,0:0:0:0:
224,128,12842,1,8,0:0:0:0:
224,128,13267,1,8,0:0:0:0:
256,206,14119,1,4,0:0:0:0:
224,160,14970,1,8,0:0:0:0:
224,128,15821,1,0,0:0:0:0:
192,128,16672,1,8,0:0:0:0:
192,128,17097,1,8,0:0:0:0:
224,128,17523,1,0,0:0:0:0:
224,128,19012,1,8,0:0:0:0:
224,128,20076,1,0,0:0:0:0:
224,128,20501,1,8,0:0:0:0:
256,206,20927,1,4,0:0:0:0:
224,128,22416,1,0,0:0:0:0:
224,128,23267,1,0,0:0:0:0:
256,206,23693,1,8,0:0:0:0:
256,206,24331,1,4,0:0:0:0:
256,192,27736,1,0,0:0:0:0:
256,192,31140,1,0,0:0:0:0:
256,192,32842,1,0,0:0:0:0:
256,192,34544,1,0,0:0:0:0:
256,192,36246,1,0,0:0:0:0:
256,192,36884,1,8,0:0:0:0:
256,192,37948,1,4,0:0:0:0:
256,192,38587,1,0,0:0:0:0:
256,192,39650,1,0,0:0:0:0:
256,192,40289,1,0,0:0:0:0:
256,192,41353,1,8,0:0:0:0:
256,192,41991,1,8,0:0:0:0:
256,192,43055,1,8,0:0:0:0:
256,192,43693,1,8,0:0:0:0:
256,192,44757,1,4,0:0:0:0:
256,192,45395,1,0,0:0:0:0:
256,192,46459,1,0,0:0:0:0:
256,192,47097,1,0,0:0:0:0:
256,192,48161,1,8,0:0:0:0:
192,64,49012,1,8,0:0:0:0:
192,64,49863,1,8,0:0:0:0:
224,128,50714,1,8,0:0:0:0:
224,128,51140,1,8,0:0:0:0:
192,64,51565,1,4,0:0:0:0:
224,128,53267,1,0,0:0:0:0:
160,128,53693,1,0,0:0:0:0:
224,128,54119,1,8,0:0:0:0:
192,96,54544,1,8,0:0:0:0:
224,128,54970,5,4,0:0:0:0:
192,96,55821,1,8,0:0:0:0:
192,64,56246,1,8,0:0:0:0:
224,128,56672,1,0,0:0:0:0:
192,96,57523,1,0,0:0:0:0:
224,128,57948,1,8,0:0:0:0:
224,128,58374,1,0,0:0:0:0:
224,128,59225,1,8,0:0:0:0:
192,96,60076,1,0,0:0:0:0:
192,64,60501,1,0,0:0:0:0:
224,128,60927,1,8,0:0:0:0:
224,128,61353,1,8,0:0:0:0:
192,96,61778,1,0,0:0:0:0:
192,96,62629,1,8,0:0:0:0:
192,96,63480,1,0,0:0:0:0:
160,64,63906,1,8,0:0:0:0:
160,64,64331,1,0,0:0:0:0:
192,96,65182,1,8,0:0:0:0:
192,96,66672,1,4,0:0:0:0:
192,96,67736,1,8,0:0:0:0:
192,96,68161,1,0,0:0:0:0:
192,96,68587,1,4,0:0:0:0:
192,96,69438,1,0,0:0:0:0:
160,64,69863,1,8,0:0:0:0:
192,96,70289,1,0,0:0:0:0:
192,96,71140,1,8,0:0:0:0:
192,96,71565,1,8,0:0:0:0:
192,96,71991,1,0,0:0:0:0:
192,96,72842,1,8,0:0:0:0:
192,96,73693,1,0,0:0:0:0:
192,96,74119,1,8,0:0:0:0:
192,64,74544,1,0,0:0:0:0:
192,64,74970,1,8,0:0:0:0:
192,64,75395,1,0,0:0:0:0:
192,64,76246,1,8,0:0:0:0:
192,64,77097,1,0,0:0:0:0:
192,64,77948,1,8,0:0:0:0:
192,64,78374,1,0,0:0:0:0:
192,64,78799,1,8,0:0:0:0:
192,64,80289,1,4,0:0:0:0:
192,64,81353,1,8,0:0:0:0:
192,64,81778,1,8,0:0:0:0:
192,64,82204,1,4,0:0:0:0:
160,64,83055,1,0,0:0:0:0:
160,64,83906,1,8,0:0:0:0:
160,64,84757,1,8,0:0:0:0:
160,32,85182,1,8,0:0:0:0:
192,64,85608,1,0,0:0:0:0:
192,64,87310,1,8,0:0:0:0:
160,64,87736,1,8,0:0:0:0:
160,64,88161,1,8,0:0:0:0:
160,64,89012,1,4,0:0:0:0:
192,64,89863,1,8,0:0:0:0:
192,64,90714,1,0,0:0:0:0:
160,64,91565,1,8,0:0:0:0:
192,64,91991,1,8,0:0:0:0:
192,64,92416,1,0,0:0:0:0:
160,64,93906,1,4,0:0:0:0:
160,64,94970,1,8,0:0:0:0:
160,64,95395,1,8,0:0:0:0:
160,64,95821,1,4,0:0:0:0:
