osu file format v14

[General]
AudioFilename: audio1.mp3
AudioLeadIn: 0
PreviewTime: 54970
Countdown: 0
SampleSet: Normal
StackLeniency: 0.7
Mode: 1
LetterboxInBreaks: 0
WidescreenStoryboard: 1

[Editor]
DistanceSpacing: 0.9
BeatDivisor: 4
GridSize: 16
TimelineZoom: 0.9999999

[Metadata]
Title:GALAXY HidE and SeeK
TitleUnicode:GALAXY HidE and SeeK
Artist:AZALEA
ArtistUnicode:AZALEA
Creator:Chocola_2287
Version:Muzukashii
Source:ラブライブ!サンシャイン!!
Tags:LoveLive! Sunshine!! anime tv size school idol project Suwa Nanaka 諏訪ななか Komiya Arisa 小宮有紗 Takatsuki Kanako 高槻かなこ Matsuura Kanan 松浦果南 Kurosawa Dia 黒澤ダイヤ Kunikida Hanamaru 国木田花丸 アゼリア Sub-unit JUDYDANNY 2nd second single
BeatmapID:1378014
BeatmapSetID:650276

[Difficulty]
HPDrainRate:5
CircleSize:7
OverallDifficulty:5
ApproachRate:9.5
SliderMultiplier:1.4
SliderTickRate:1

[Events]
//Background and Video events
0,0,"646379.jpg",0,0
//Break Periods
//Storyboard Layer 0 (Background)
//Storyboard Layer 1 (Fail)
//Storyboard Layer 2 (Pass)
//Storyboard Layer 3 (Foreground)
//Storyboard Sound Samples

[TimingPoints]
502,425.531914893617,4,1,0,50,1,0
502,-90.9090909090909,4,1,0,50,0,0
3906,-90.9090909090909,4,1,0,60,0,0
5608,-90.9090909090909,4,1,0,70,0,0
6459,-62.5,4,1,0,35,0,0
7097,-90.9090909090909,4,1,0,80,0,0
20927,-76.9230769230769,4,1,0,55,0,0
22416,-117.647058823529,4,1,0,55,0,0
22629,-125,4,1,0,55,0,0
23267,-133.333333333333,4,1,0,55,0,0
23693,-153.846153846154,4,1,0,55,0,0
24331,-200,4,1,0,35,0,0
37948,-133.333333333333,4,1,0,50,0,0
44757,-117.647058823529,4,1,0,65,0,0
48161,-100,4,1,0,65,0,0
51565,-50,4,1,0,65,0,0
53267,-92.5925925925926,4,1,0,65,0,0
54970,-90.9090909090909,4,1,0,80,0,1
82204,-90.9090909090909,4,1,0,80,0,0
95821,-90.9090909090909,4,1,0,70,0,0

[HitObjects]
176,160,502,5,0,0:0:0:0:
176,160,927,1,8,0:0:0:0:
176,160,1246,1,0,0:0:0:0:
176,160,1565,1,0,0:0:0:0:
176,160,1778,1,8,0:0:0:0:
176,160,2204,1,0,0:0:0:0:
176,160,2629,1,8,0:0:0:0:
176,160,2948,1,0,0:0:0:0:
176,160,3267,1,8,0:0:0:0:
176,160,3480,1,8,0:0:0:0:
176,160,3906,1,0,0:0:0:0:
176,160,4331,1,8,0:0:0:0:
176,160,4650,1,0,0:0:0:0:
176,160,4970,1,0,0:0:0:0:
176,160,5182,1,8,0:0:0:0:
176,160,5608,1,0,0:0:0:0:
176,160,6033,1,8,0:0:0:0:
128,320,6459,2,0,P|112:224|208:144,1,224
208,224,7310,5,4,0:0:0:0:
208,224,7736,1,8,0:0:0:0:
208,224,7948,1,0,0:0:0:0:
208,224,8374,1,0,0:0:0:0:
208,224,8587,1,8,0:0:0:0:
208,224,9012,1,0,0:0:0:0:
208,224,9438,1,8,0:0:0:0:
208,224,9650,1,0,0:0:0:0:
208,224,9863,1,0,0:0:0:0:
208,224,10182,1,8,0:0:0:0:
208,224,10502,1,8,0:0:0:0:
208,224,10714,1,0,0:0:0:0:
208,224,11140,1,8,0:0:0:0:
208,224,11353,1,0,0:0:0:0:
208,224,11778,1,0,0:0:0:0:
208,224,11991,1,8,0:0:0:0:
224,176,12416,1,0,0:0:0:0:
224,176,12842,1,8,0:0:0:0:
224,176,13267,1,0,0:0:0:0:
224,176,13374,1,0,0:0:0:0:
224,176,13480,1,0,0:0:0:0:
224,176,13693,1,8,0:0:0:0:
208,224,14119,1,0,0:0:0:0:
208,218,14544,1,8,0:0:0:0:
208,224,14757,1,0,0:0:0:0:
256,176,15182,1,0,0:0:0:0:
256,176,15395,1,8,0:0:0:0:
256,176,15821,1,0,0:0:0:0:
256,176,16246,1,8,0:0:0:0:
256,176,16459,1,0,0:0:0:0:
256,176,16884,1,8,0:0:0:0:
256,176,17097,1,8,0:0:0:0:
256,176,17523,1,0,0:0:0:0:
256,176,17948,1,8,0:0:0:0:
256,176,18161,1,0,0:0:0:0:
256,176,18587,1,0,0:0:0:0:
256,176,18799,1,8,0:0:0:0:
256,176,19225,1,0,0:0:0:0:
256,176,19438,1,0,0:0:0:0:
176,160,19650,1,8,0:0:0:0:
256,176,19863,1,8,0:0:0:0:
256,176,20076,1,0,0:0:0:0:
256,176,20182,1,0,0:0:0:0:
256,176,20289,1,0,0:0:0:0:
256,176,20502,1,8,0:0:0:0:
256,192,20927,12,0,22204,0:0:0:0:
176,176,22416,5,4,0:0:0:0:
176,176,23267,1,4,0:0:0:0:
176,176,23693,1,12,0:0:0:0:
192,96,24331,1,0,0:0:0:0:
192,144,26033,1,0,0:0:0:0:
224,128,26884,1,8,0:0:0:0:
224,128,27736,1,0,0:0:0:0:
224,128,29438,1,8,0:0:0:0:
224,128,31140,1,0,0:0:0:0:
224,128,32842,1,0,0:0:0:0:
224,128,33693,1,8,0:0:0:0:
224,128,34544,1,0,0:0:0:0:
224,128,36246,1,8,0:0:0:0:
256,192,36884,12,0,37523,0:0:0:0:
224,128,37948,5,0,0:0:0:0:
208,176,38587,1,0,0:0:0:0:
192,112,39012,1,0,0:0:0:0:
208,144,39225,1,8,0:0:0:0:
208,176,39650,1,0,0:0:0:0:
208,176,40289,1,0,0:0:0:0:
208,176,40714,1,8,0:0:0:0:
208,144,40927,1,8,0:0:0:0:
208,176,41353,1,0,0:0:0:0:
208,176,41991,1,0,0:0:0:0:
192,112,42416,1,0,0:0:0:0:
208,144,42629,1,8,0:0:0:0:
208,176,43055,1,0,0:0:0:0:
128,176,43374,1,0,0:0:0:0:
208,176,43693,1,0,0:0:0:0:
208,176,44119,1,8,0:0:0:0:
208,144,44331,1,8,0:0:0:0:
208,176,44757,1,4,0:0:0:0:
208,128,45395,1,0,0:0:0:0:
208,128,45821,1,0,0:0:0:0:
208,128,46033,1,8,0:0:0:0:
208,128,46459,1,0,0:0:0:0:
208,128,47097,1,0,0:0:0:0:
208,128,47523,1,8,0:0:0:0:
208,128,47736,1,8,0:0:0:0:
208,128,48161,1,0,0:0:0:0:
208,128,48587,1,8,0:0:0:0:
208,128,48906,1,0,0:0:0:0:
208,128,49012,1,0,0:0:0:0:
208,128,49225,1,0,0:0:0:0:
208,128,49438,1,8,0:0:0:0:
208,128,49863,1,0,0:0:0:0:
208,128,50289,1,8,0:0:0:0:
208,128,50608,1,0,0:0:0:0:
208,128,50714,1,0,0:0:0:0:
208,128,50927,1,0,0:0:0:0:
208,128,51140,1,8,0:0:0:0:
256,192,51565,12,0,52842,0:0:0:0:
176,208,53267,5,4,0:0:0:0:
176,208,53480,1,4,0:0:0:0:
176,208,53693,1,4,0:0:0:0:
176,208,54119,1,12,0:0:0:0:
176,208,54544,1,12,0:0:0:0:
176,208,54970,1,4,0:0:0:0:
208,208,55289,1,0,0:0:0:0:
208,208,55395,1,0,0:0:0:0:
208,208,55821,1,0,0:0:0:0:
208,208,56033,1,0,0:0:0:0:
176,192,56246,1,8,0:0:0:0:
176,192,56459,1,0,0:0:0:0:
208,208,56884,1,0,0:0:0:0:
208,208,57097,1,8,0:0:0:0:
208,208,57523,1,0,0:0:0:0:
208,208,57629,1,0,0:0:0:0:
208,208,57736,1,0,0:0:0:0:
208,208,57948,1,8,0:0:0:0:
208,208,58374,1,0,0:0:0:0:
208,208,58693,1,0,0:0:0:0:
208,208,58799,1,0,0:0:0:0:
208,208,59225,1,0,0:0:0:0:
208,208,59438,1,0,0:0:0:0:
208,208,59650,1,8,0:0:0:0:
208,208,60076,1,0,0:0:0:0:
176,192,60501,1,8,0:0:0:0:
176,192,60714,1,8,0:0:0:0:
176,192,60927,1,0,0:0:0:0:
176,192,61033,1,0,0:0:0:0:
176,192,61140,1,0,0:0:0:0:
176,192,61353,1,8,0:0:0:0:
176,192,61778,1,0,0:0:0:0:
176,192,61991,1,0,0:0:0:0:
176,192,62204,1,8,0:0:0:0:
224,192,62629,1,0,0:0:0:0:
224,192,62736,1,0,0:0:0:0:
224,192,62842,1,0,0:0:0:0:
224,192,63055,1,8,0:0:0:0:
224,192,63480,1,0,0:0:0:0:
224,192,63693,1,0,0:0:0:0:
224,192,63906,1,8,0:0:0:0:
224,192,64331,1,0,0:0:0:0:
224,192,64438,1,0,0:0:0:0:
224,192,64544,1,0,0:0:0:0:
224,192,64757,1,8,0:0:0:0:
176,192,65182,1,0,0:0:0:0:
176,192,65502,1,0,0:0:0:0:
176,192,65608,1,0,0:0:0:0:
256,192,66033,1,0,0:0:0:0:
256,192,66353,1,0,0:0:0:0:
256,192,66459,1,0,0:0:0:0:
176,176,66672,1,4,0:0:0:0:
160,192,67523,1,0,0:0:0:0:
224,96,67736,1,8,0:0:0:0:
224,96,67948,1,8,0:0:0:0:
176,64,68161,1,0,0:0:0:0:
160,160,68374,1,8,0:0:0:0:
176,208,68587,1,4,0:0:0:0:
208,208,68906,1,0,0:0:0:0:
208,208,69012,1,0,0:0:0:0:
208,208,69438,1,0,0:0:0:0:
208,208,69650,1,0,0:0:0:0:
176,192,69863,1,8,0:0:0:0:
208,208,70076,1,0,0:0:0:0:
176,192,70502,1,0,0:0:0:0:
208,208,70714,1,8,0:0:0:0:
208,208,71140,1,0,0:0:0:0:
208,208,71246,1,0,0:0:0:0:
208,208,71353,1,0,0:0:0:0:
208,208,71565,1,8,0:0:0:0:
208,208,71991,1,0,0:0:0:0:
208,208,72310,1,0,0:0:0:0:
208,208,72416,1,0,0:0:0:0:
208,208,72842,1,0,0:0:0:0:
208,208,73055,1,0,0:0:0:0:
208,208,73267,1,8,0:0:0:0:
208,208,73693,1,0,0:0:0:0:
176,192,74118,1,8,0:0:0:0:
176,192,74331,1,8,0:0:0:0:
176,192,74544,1,0,0:0:0:0:
176,192,74650,1,0,0:0:0:0:
176,192,74757,1,0,0:0:0:0:
176,192,74970,1,8,0:0:0:0:
176,192,75395,1,0,0:0:0:0:
176,192,75608,1,0,0:0:0:0:
176,192,75821,1,8,0:0:0:0:
224,192,76246,1,0,0:0:0:0:
224,192,76353,1,0,0:0:0:0:
224,192,76459,1,0,0:0:0:0:
224,192,76672,1,8,0:0:0:0:
224,192,77097,1,0,0:0:0:0:
224,192,77310,1,0,0:0:0:0:
224,192,77523,1,8,0:0:0:0:
224,192,77948,1,0,0:0:0:0:
224,192,78055,1,0,0:0:0:0:
224,192,78161,1,0,0:0:0:0:
224,192,78374,1,8,0:0:0:0:
256,192,78799,1,0,0:0:0:0:
256,192,79119,1,0,0:0:0:0:
256,192,79225,1,0,0:0:0:0:
256,192,79650,1,0,0:0:0:0:
256,192,79970,1,0,0:0:0:0:
256,192,80076,1,0,0:0:0:0:
256,192,80289,12,0,81140,0:0:0:0:
128,176,81353,5,12,0:0:0:0:
128,176,81778,1,12,0:0:0:0:
208,224,82204,5,4,0:0:0:0:
208,224,82630,1,8,0:0:0:0:
208,224,82842,1,0,0:0:0:0:
208,224,83268,1,0,0:0:0:0:
208,224,83481,1,8,0:0:0:0:
208,224,83906,1,0,0:0:0:0:
208,224,84332,1,8,0:0:0:0:
208,224,84544,1,0,0:0:0:0:
208,224,84757,1,0,0:0:0:0:
208,224,85076,1,8,0:0:0:0:
208,224,85395,1,8,0:0:0:0:
208,224,85608,1,0,0:0:0:0:
208,224,86034,1,8,0:0:0:0:
208,224,86247,1,0,0:0:0:0:
208,224,86672,1,0,0:0:0:0:
208,224,86885,1,8,0:0:0:0:
224,176,87310,1,0,0:0:0:0:
224,176,87736,1,8,0:0:0:0:
224,176,88161,1,0,0:0:0:0:
224,176,88268,1,0,0:0:0:0:
224,176,88374,1,0,0:0:0:0:
224,176,88587,1,8,0:0:0:0:
208,224,89013,1,0,0:0:0:0:
208,218,89438,1,8,0:0:0:0:
208,224,89651,1,0,0:0:0:0:
256,176,90076,1,0,0:0:0:0:
256,176,90289,1,8,0:0:0:0:
256,176,90715,1,0,0:0:0:0:
256,176,91140,1,8,0:0:0:0:
256,176,91353,1,0,0:0:0:0:
256,176,91778,1,8,0:0:0:0:
256,176,91991,1,8,0:0:0:0:
256,176,92417,1,0,0:0:0:0:
256,176,92842,1,8,0:0:0:0:
256,176,93055,1,0,0:0:0:0:
256,176,93481,1,0,0:0:0:0:
256,176,93693,1,8,0:0:0:0:
256,192,93906,12,0,94757,0:0:0:0:
208,160,94970,5,8,0:0:0:0:
208,160,95076,1,8,0:0:0:0:
208,160,95182,1,8,0:0:0:0:
208,160,95395,1,0,0:0:0:0:
208,160,95502,1,0,0:0:0:0:
208,160,95608,1,0,0:0:0:0:
208,160,95821,1,4,0:0:0:0:
