osu file format v14

[General]
AudioFilename: audio.mp3
AudioLeadIn: 1820
PreviewTime: 44591
Countdown: 0
SampleSet: None
StackLeniency: 0.7
Mode: 0
LetterboxInBreaks: 0
WidescreenStoryboard: 1

[Editor]
DistanceSpacing: 1.2
BeatDivisor: 2
GridSize: 4
TimelineZoom: 2.6

[Metadata]
Title:Honey Honey Honey(TV size)
TitleUnicode:蜜蜜蜜(TV size)
Artist:AYUMIKURIKAMAKI
ArtistUnicode:あゆみくりかまき
Creator:Pata-Mon
Version:ZZH's Hard
Source:パンチライン
Tags:Lily Bread Misure ZZHBOY anime ending ED Punch Line ハニーハニーハニー
BeatmapID:994290
BeatmapSetID:403924

[Difficulty]
HPDrainRate:5
CircleSize:4
OverallDifficulty:6
ApproachRate:7
SliderMultiplier:1.4
SliderTickRate:1

[Events]
//Background and Video events
0,0,"BG.jpg",0,0
Video,-425,"video.flv"
//Break Periods
//Storyboard Layer 0 (Background)
//Storyboard Layer 1 (Fail)
//Storyboard Layer 2 (Pass)
//Storyboard Layer 3 (Foreground)
//Storyboard Sound Samples

[TimingPoints]
180,392.158131781932,4,3,0,60,1,0
8023,-100,4,3,0,35,0,0
18807,-100,4,3,0,60,0,0
44101,-100,4,3,0,70,0,0
45670,-100,4,3,0,80,0,1
83317,-100,4,3,0,60,0,0

[Colours]
Combo1 : 255,128,0
Combo2 : 255,0,0
Combo3 : 255,128,0
Combo4 : 255,215,0

[HitObjects]
150,127,1748,6,0,P|206:175|290:171,1,140,4|0,0:1|0:0,0:0:0:0:
279,95,2336,2,0,P|335:47|419:51,1,140,4|0,0:1|0:0,0:0:0:0:
472,85,2925,1,4,0:1:0:0:
488,252,3317,6,0,P|444:273|404:277,1,70,0|0,1:0|0:0,0:0:0:0:
386,257,3611,1,0,1:0:0:0:
386,257,3709,2,0,P|325:254|289:261,1,70,0|4,1:0|0:0,0:0:0:0:
244,299,4101,2,0,L|261:343,3,35,4|0|8|8,0:0|0:0|0:0|0:0,0:0:0:0:
229,363,4493,2,0,P|151:373|146:371,1,70,8|4,0:0|0:0,0:0:0:0:
80,355,4885,6,0,P|49:287|41:199,1,140,4|0,0:1|0:0,0:0:0:0:
54,139,5474,2,0,P|122:155|191:158,1,140,4|0,0:1|0:0,0:0:0:0:
274,158,6062,2,0,P|309:154|343:144,1,70,4|0,0:1|0:0,0:0:0:0:
336,60,6454,6,0,L|311:35,4,35,0|0|0|0|0,1:0|1:0|1:0|1:0|1:0,0:0:0:0:
412,96,7042,2,0,L|437:121,4,35,4|4|4|4|4,0:0|0:0|0:0|0:0|0:0,0:0:0:0:
342,144,7631,2,0,P|305:149|274:158,1,70,0|0,0:0|0:0,0:0:0:0:
203,204,8023,6,0,P|134:208|79:166,1,140,4|0,0:0|0:0,0:0:0:0:
57,86,8611,1,0,0:0:0:0:
135,55,8807,2,0,L|222:49,1,70,0|0,0:0|0:0,0:0:0:0:
287,33,9199,1,0,0:0:0:0:
346,92,9395,1,0,0:0:0:0:
424,61,9591,6,0,P|460:102|453:197,1,140,0|0,0:0|0:0,0:0:0:0:
377,199,10180,2,0,P|371:267|413:322,1,140,0|0,0:0|0:0,0:0:0:0:
337,358,10768,2,0,P|294:365|263:363,1,70,0|0,0:0|0:0,0:0:0:0:
184,356,11160,6,0,P|171:308|189:214,1,140,8|0,0:0|0:0,0:0:0:0:
102,228,11748,1,0,0:0:0:0:
31,183,11944,2,0,P|8:141|6:113,1,70,0|0,0:0|0:0,0:0:0:0:
64,59,12336,2,0,L|147:64,1,70,0|0,0:0|0:0,0:0:0:0:
201,114,12729,6,0,P|264:112|320:63,1,140,0|0,0:0|0:0,0:0:0:0:
401,45,13317,2,0,P|481:57|521:103,1,140,0|0,0:0|0:0,0:0:0:0:
458,156,13905,1,0,0:0:0:0:
495,230,14101,1,0,0:0:0:0:
429,282,14297,6,0,P|372:284|309:230,1,140,4|0,0:0|0:0,0:0:0:0:
236,272,14885,2,0,P|186:225|117:223,1,140,0|0,0:0|0:0,0:0:0:0:
87,302,15474,1,0,0:0:0:0:
11,264,15670,1,0,0:0:0:0:
40,185,15866,6,0,L|44:102,1,70,0|0,0:0|0:0,0:0:0:0:
104,57,16258,2,0,P|188:46|258:66,1,140,0|0,0:0|0:0,0:0:0:0:
299,118,16846,1,0,0:0:0:0:
322,37,17042,2,0,L|397:44,1,70,0|0,0:0|0:0,0:0:0:0:
452,101,17434,6,0,P|469:179|437:243,1,140,8|0,0:0|0:0,0:0:0:0:
418,311,18023,2,0,P|358:288|272:303,1,140,0|0,0:0|0:0,0:0:0:0:
215,345,18611,1,0,0:0:0:0:
132,327,18807,1,0,0:0:0:0:
132,327,18905,1,0,0:0:0:0:
132,327,19003,6,0,P|113:297|106:263,1,70,4|8,0:0|0:0,0:0:0:0:
119,180,19395,1,8,0:0:0:0:
192,139,19591,1,4,0:0:0:0:
192,139,19689,1,4,0:0:0:0:
192,139,19787,2,0,P|221:157|254:168,1,70,0|0,1:0|1:0,0:0:0:0:
424,221,20376,1,0,1:0:0:0:
424,221,20474,1,0,1:0:0:0:
424,221,20572,6,0,P|450:180|450:144,1,70,4|4,0:0|0:0,0:0:0:0:
455,75,20964,2,0,P|371:81|289:73,1,140,0|4,1:0|0:0,0:0:0:0:
241,37,21552,1,4,0:0:0:0:
157,25,21748,2,0,P|122:30|90:44,1,70,0|0,1:0|0:0,0:0:0:0:
53,119,22140,5,4,0:0:0:0:
74,200,22336,1,4,0:0:0:0:
124,268,22533,2,0,P|184:308|274:303,1,140,0|4,1:0|0:0,0:0:0:0:
294,239,23121,1,4,0:0:0:0:
294,239,23317,2,0,P|347:247|387:268,1,70,0|0,1:0|0:0,0:0:0:0:
407,323,23709,5,4,0:0:0:0:
477,277,23905,1,4,0:0:0:0:
432,205,24101,2,0,P|422:156|432:128,1,70,0|0,1:0|0:0,0:0:0:0:
495,88,24493,1,4,0:0:0:0:
442,22,24689,1,4,0:0:0:0:
374,72,24885,2,0,P|327:81|284:72,1,70,0|0,1:0|0:0,0:0:0:0:
227,46,25278,5,4,0:0:0:0:
145,65,25474,1,4,0:0:0:0:
99,135,25670,2,0,P|104:192|120:217,1,70,0|0,1:0|0:0,0:0:0:0:
193,195,26062,1,4,0:0:0:0:
273,218,26258,1,4,0:0:0:0:
326,282,26454,2,0,P|279:315|250:315,1,70,0|0,1:0|0:0,0:0:0:0:
195,357,26846,5,4,0:0:0:0:
111,352,27042,1,4,0:0:0:0:
32,321,27238,2,0,P|34:262|53:230,1,70,0|0,1:0|0:0,0:0:0:0:
105,202,27631,1,4,0:0:0:0:
175,246,27827,2,0,P|227:252|273:242,2,70,4|0|0,0:0|1:0|0:0,0:0:0:0:
105,202,28415,5,4,0:0:0:0:
82,121,28611,1,4,0:0:0:0:
101,39,28807,2,0,P|173:20|252:28,1,140,0|4,1:0|0:0,0:0:0:0:
292,87,29395,1,4,0:0:0:0:
372,111,29591,2,0,P|411:77|422:39,1,70,0|0,1:0|0:0,0:0:0:0:
500,80,29984,5,4,0:0:0:0:
504,163,30180,1,4,0:0:0:0:
431,204,30376,2,0,L|358:227,1,70,0|0,1:0|0:0,0:0:0:0:
358,308,30768,1,4,0:0:0:0:
287,262,30964,1,4,0:0:0:0:
287,178,31160,2,0,P|328:142|366:136,1,70,0|0,1:0|0:0,0:0:0:0:
399,76,31552,5,4,0:0:0:0:
326,33,31748,1,4,0:0:0:0:
243,49,31944,2,0,P|203:77|186:107,1,70,0|0,1:0|0:0,0:0:0:0:
190,136,32238,1,0,1:0:0:0:
190,136,32336,1,4,0:0:0:0:
183,220,32533,1,0,1:0:0:0:
183,220,32631,1,0,1:0:0:0:
183,220,32729,2,0,L|175:276,3,35,4|0|4|4,0:0|1:0|0:0|0:0,0:0:0:0:
154,289,33121,6,0,P|86:271|16:266,1,140,4|0,0:0|0:0,0:0:0:0:
2,184,33709,1,4,0:0:0:0:
2,184,33905,2,0,P|-7:121|1:39,1,140,4|8,0:0|0:0,0:0:0:0:
74,83,34493,1,0,0:0:0:0:
155,104,34689,6,0,P|213:109|318:76,1,140,4|0,0:0|0:0,0:0:0:0:
333,16,35278,2,0,P|391:11|496:44,1,140,4|4,0:0|0:0,0:0:0:0:
478,113,35866,1,8,0:0:0:0:
431,183,36062,1,8,0:0:0:0:
436,266,36258,6,0,P|395:302|305:313,1,140,4|0,0:0|0:0,0:0:0:0:
230,332,36846,1,4,0:0:0:0:
146,326,37042,2,0,P|133:275|155:169,1,140,4|8,0:0|0:0,0:0:0:0:
221,153,37631,1,0,0:0:0:0:
277,215,37827,6,0,P|338:213|377:198,1,70,4|0,0:0|0:0,0:0:0:0:
418,253,38219,1,0,0:0:0:0:
483,200,38415,1,4,0:0:0:0:
447,124,38611,2,0,P|393:124|360:142,1,70,8|0,0:0|1:0,0:0:0:0:
306,86,39003,2,0,L|311:41,2,35,0|0|4,1:0|1:0|0:0,0:0:0:0:
232,126,39395,6,0,P|189:119|147:85,1,70,4|0,0:1|1:0,0:0:0:0:
143,70,39689,1,0,1:0:0:0:
143,70,39787,1,4,0:0:0:0:
64,102,39984,1,8,0:0:0:0:
45,183,40180,1,4,0:0:0:0:
73,262,40376,1,0,1:0:0:0:
73,262,40474,1,0,1:0:0:0:
73,262,40572,2,0,P|116:278|144:278,1,70,4|0,0:0|0:0,0:0:0:0:
203,332,40964,6,0,P|249:313|284:308,1,70,4|0,0:1|1:0,0:0:0:0:
307,325,41258,1,0,1:0:0:0:
307,325,41356,2,0,P|349:328|389:317,1,70,0|4,1:0|0:0,0:0:0:0:
439,267,41748,2,0,L|436:227,3,35,4|0|0|0,0:0|1:0|1:0|1:0,0:0:0:0:
402,206,42140,2,0,P|393:165|405:123,1,70,0|8,1:0|0:0,0:0:0:0:
423,104,42435,1,8,0:0:0:0:
423,104,42533,5,4,0:1:0:0:
154,131,43317,1,4,0:1:0:0:
196,227,44101,6,0,P|238:244|285:244,2,93.3333333333333,0|4|0,1:1|0:0|1:0,0:0:0:0:
102,162,44886,2,0,P|60:145|13:145,2,93.3333333333333,0|0|0,1:0|1:0|1:0,0:0:0:0:
39,255,45670,6,0,P|79:312|168:320,1,140,4|0,0:1|1:0,0:0:0:0:
216,282,46258,1,0,0:0:0:0:
216,282,46454,2,0,L|293:284,1,70,4|0,0:0|0:0,0:0:0:0:
350,337,46846,1,0,1:0:0:0:
422,294,47042,1,0,0:0:0:0:
358,240,47238,6,0,P|354:176|388:101,1,140,4|0,0:0|1:0,0:0:0:0:
447,52,47827,1,0,0:0:0:0:
447,52,48023,2,0,P|419:30|385:23,1,70,4|0,0:0|0:0,0:0:0:0:
313,66,48415,2,0,P|275:91|239:93,1,70,0|0,1:0|0:0,0:0:0:0:
201,27,48807,6,0,P|154:34|64:74,1,140,4|0,0:0|1:0,0:0:0:0:
21,139,49395,1,0,0:0:0:0:
21,139,49591,2,0,P|9:183|20:228,1,70,4|0,0:0|0:0,0:0:0:0:
96,217,49984,2,0,P|107:261|97:306,1,70,0|0,1:0|0:0,0:0:0:0:
170,337,50376,6,0,P|227:353|338:339,1,140,4|0,0:0|1:0,0:0:0:0:
378,305,50964,1,0,0:0:0:0:
304,264,51160,2,0,P|291:197|317:110,1,140,4|0,0:0|1:0,0:0:0:0:
456,52,51944,6,0,P|469:119|443:206,1,140,4|0,0:1|1:0,0:0:0:0:
392,247,52533,1,0,0:0:0:0:
309,260,52729,2,0,P|245:253|226:252,1,70,4|0,0:0|0:0,0:0:0:0:
199,326,53121,1,0,1:0:0:0:
115,328,53317,1,0,0:0:0:0:
41,287,53513,6,0,P|21:221|24:138,1,140,4|0,0:0|1:0,0:0:0:0:
89,100,54101,1,0,0:0:0:0:
89,100,54297,2,0,P|154:119|252:107,1,140,4|0,0:0|1:0,0:0:0:0:
393,109,55082,6,0,P|433:145|475:207,1,105,4|0,0:1|2:0,0:0:0:0:
458,227,55474,2,0,L|447:321,1,70,0|0,1:0|0:0,0:0:0:0:
366,290,55866,2,0,L|371:342,3,35,4|0|0|0,0:0|0:0|1:0|0:0,0:0:0:0:
339,354,56258,2,0,P|273:358|243:350,1,70,4|0,0:0|0:0,0:0:0:0:
185,355,56650,6,0,P|149:319|150:212,1,140,4|4,0:1|0:0,0:0:0:0:
197,172,57239,1,0,1:0:0:0:
113,160,57435,2,0,P|73:186|58:227,1,70,4|0,0:0|1:0,0:0:0:0:
14,135,57827,2,0,L|15:63,1,70,4|0,0:0|1:0,0:0:0:0:
89,26,58219,6,0,P|129:83|218:91,1,140,4|0,0:1|1:0,0:0:0:0:
272,127,58807,1,0,0:0:0:0:
272,127,59003,2,0,L|349:125,1,70,4|0,0:0|0:0,0:0:0:0:
350,47,59395,1,0,1:0:0:0:
418,94,59591,1,0,0:0:0:0:
341,125,59787,6,0,P|337:189|371:264,1,140,4|0,0:0|1:0,0:0:0:0:
430,311,60376,1,0,0:0:0:0:
430,311,60572,2,0,P|392:336|356:338,1,70,4|0,0:0|0:0,0:0:0:0:
294,299,60964,2,0,P|258:285|219:280,1,70,0|0,1:0|0:0,0:0:0:0:
194,357,61356,6,0,P|147:350|57:310,1,140,4|0,0:0|1:0,0:0:0:0:
21,245,61944,1,0,0:0:0:0:
21,245,62140,2,0,P|9:200|20:156,1,70,4|0,0:0|0:0,0:0:0:0:
95,167,62533,2,0,P|106:122|96:78,1,70,0|0,1:0|0:0,0:0:0:0:
170,47,62925,6,0,P|227:31|338:45,1,140,4|0,0:0|1:0,0:0:0:0:
378,79,63513,1,0,0:0:0:0:
336,152,63709,2,0,P|322:201|324:236,1,70,4|0,0:0|0:0,0:0:0:0:
337,302,64101,1,0,1:0:0:0:
415,347,64297,1,0,1:0:0:0:
415,347,64395,1,0,1:0:0:0:
415,347,64493,6,0,P|428:280|402:193,1,140,4|0,0:1|1:0,0:0:0:0:
392,129,65082,1,0,0:0:0:0:
309,124,65278,2,0,P|245:131|226:132,1,70,4|0,0:0|0:0,0:0:0:0:
199,58,65670,1,0,1:0:0:0:
115,56,65866,1,0,0:0:0:0:
41,97,66062,6,0,P|21:163|24:246,1,140,4|0,0:0|1:0,0:0:0:0:
89,284,66650,1,0,0:0:0:0:
89,284,66846,2,0,P|154:265|252:277,1,140,4|0,0:0|1:0,0:0:0:0:
308,251,67435,1,0,0:0:0:0:
388,273,67631,6,0,P|428:237|470:175,1,105,4|0,0:1|2:0,0:0:0:0:
457,154,68023,2,0,L|446:60,1,70,0|0,1:0|0:0,0:0:0:0:
366,94,68415,2,0,L|371:42,3,35,4|0|0|0,0:0|0:0|1:0|0:0,0:0:0:0:
339,30,68807,2,0,P|273:26|243:34,1,70,4|0,0:0|0:0,0:0:0:0:
185,29,69199,6,0,P|149:65|149:125,2,93.3333333333333,0|4|0,1:1|0:0|1:0,0:0:0:0:
259,113,69984,2,0,L|270:214,2,93.3333333333333,0|0|0,1:0|1:0|1:0,0:0:0:0:
349,178,70768,6,0,P|348:233|277:289,1,140,4|0,0:1|1:0,0:0:0:0:
224,341,71356,1,0,0:0:0:0:
140,342,71552,2,0,P|107:294|104:253,1,70,4|0,0:0|0:0,0:0:0:0:
33,239,71944,2,0,P|66:191|69:150,1,70,0|0,1:0|0:0,0:0:0:0:
23,108,72337,6,0,P|56:61|156:47,1,140,4|0,0:0|1:0,0:0:0:0:
210,72,72925,1,0,0:0:0:0:
285,108,73121,2,0,P|331:94|359:80,2,70,4|0|0,0:0|0:0|1:0,0:0:0:0:
265,189,73709,1,0,0:0:0:0:
336,232,73905,6,0,P|414:219|489:170,1,140,4|0,0:0|1:0,0:0:0:0:
487,271,74493,1,0,0:0:0:0:
457,350,74690,2,0,P|398:343|365:326,1,70,4|0,0:0|0:0,0:0:0:0:
308,363,75082,1,0,1:0:0:0:
233,324,75278,1,0,0:0:0:0:
151,345,75474,6,0,P|88:327|37:247,1,140,4|0,0:0|1:0,0:0:0:0:
92,203,76062,1,0,0:0:0:0:
170,173,76258,2,0,L|273:178,2,70,4|0|0,0:0|0:0|1:0,0:0:0:0:
100,125,76846,1,4,1:3:0:0:
100,125,76944,1,4,1:3:0:0:
100,125,77042,6,0,P|88:66|149:20,1,140,4|0,0:1|1:0,0:0:0:0:
224,46,77631,1,0,0:0:0:0:
297,86,77827,2,0,P|353:89|388:76,1,70,4|0,0:0|0:0,0:0:0:0:
446,110,78219,2,0,P|448:162|435:195,1,70,0|0,1:0|0:0,0:0:0:0:
454,261,78611,6,0,P|406:256|334:345,1,140,4|0,0:0|1:0,0:0:0:0:
262,346,79199,1,0,0:0:0:0:
179,330,79395,2,0,P|160:287|161:249,1,70,4|0,0:0|0:0,0:0:0:0:
223,210,79788,1,0,1:0:0:0:
223,210,79984,1,0,0:0:0:0:
293,164,80180,6,0,P|237:127|171:143,1,140,4|0,0:1|1:0,0:0:0:0:
103,193,80768,1,0,0:0:0:0:
31,150,80964,2,0,P|17:89|31:61,1,70,4|0,0:0|1:0,0:0:0:0:
83,31,81356,1,4,0:0:0:0:
83,31,81748,6,0,L|209:12,2,93.3333333333333,0|4|0,1:1|0:0|1:0,0:0:0:0:
24,127,82533,2,0,P|28:183|53:225,2,93.3333333333333,0|0|0,1:0|1:0|1:0,0:0:0:0:
256,192,83317,12,0,84886,0:0:0:0:
176,101,85278,5,0,1:0:0:0:
337,56,85670,2,0,P|367:107|373:141,1,70,8|4,0:0|0:0,0:0:0:0:
301,165,86062,2,0,P|271:216|265:250,1,70,4|4,0:0|0:0,0:0:0:0:
313,296,86454,5,4,0:1:0:0:
