osu file format v14

[General]
AudioFilename: audio.mp3
AudioLeadIn: 1820
PreviewTime: 44591
Countdown: 0
SampleSet: None
StackLeniency: 0.7
Mode: 0
LetterboxInBreaks: 0
WidescreenStoryboard: 1

[Editor]
DistanceSpacing: 1
BeatDivisor: 4
GridSize: 4
TimelineZoom: 2.5

[Metadata]
Title:Honey Honey Honey(TV size)
TitleUnicode:蜜蜜蜜(TV size)
Artist:AYUMIKURIKAMAKI
ArtistUnicode:あゆみくりかまき
Creator:Pata-Mon
Version:Misure's Normal
Source:パンチライン
Tags:Lily Bread Misure ZZHBOY anime ending ED Punch Line ハニーハニーハニー
BeatmapID:993534
BeatmapSetID:403924

[Difficulty]
HPDrainRate:3
CircleSize:3.2
OverallDifficulty:4
ApproachRate:5
SliderMultiplier:1.2
SliderTickRate:1

[Events]
//Background and Video events
0,0,"BG.jpg",0,0
Video,-425,"video.flv"
//Break Periods
//Storyboard Layer 0 (Background)
//Storyboard Layer 1 (Fail)
//Storyboard Layer 2 (Pass)
//Storyboard Layer 3 (Foreground)
//Storyboard Sound Samples

[TimingPoints]
180,392.158131781932,4,3,1,60,1,0
1748,-100,4,3,0,60,0,0
8023,-100,4,3,0,35,0,0
18807,-100,4,3,0,60,0,0
44101,-100,4,3,0,70,0,0
45670,-100,4,3,0,80,0,1
70507,-100,4,3,0,80,0,0
70768,-100,4,3,0,80,0,1
83317,-100,4,3,0,60,0,0

[Colours]
Combo1 : 255,128,0
Combo2 : 255,0,0
Combo3 : 255,128,0
Combo4 : 255,215,0

[HitObjects]
116,196,180,6,0,L|132:314,1,120,0|0,0:0|0:0,0:0:0:0:
252,315,964,2,0,L|268:196,1,120,0|0,0:0|0:0,0:0:0:0:
178,115,1748,6,0,P|101:152|28:106,2,180,4|4|4,0:1|0:1|0:1,0:0:0:0:
255,22,3317,2,0,P|284:14|320:21,1,60,0|0,1:0|0:0,0:0:0:0:
346,69,3709,2,0,L|362:198,1,120,0|4,1:0|0:0,0:0:0:0:
271,268,4493,1,8,0:0:0:0:
352,360,4885,6,0,B|472:384|472:384|510:341,2,180,4|4|4,0:1|0:1|0:1,0:0:0:0:
244,307,6454,2,0,P|233:338|234:382,2,60,0|0|0,1:0|1:0|1:0,0:0:0:0:
222,191,7238,2,0,P|198:183|161:185,1,60,4|4,0:0|0:0,0:0:0:0:
120,226,7631,1,0,0:0:0:0:
80,340,8023,6,0,L|56:101,1,240,4|0,0:0|0:0,0:0:0:0:
144,20,9199,1,0,0:0:0:0:
256,68,9591,2,0,P|265:126|236:176,1,120,0|0,0:0|0:0,0:0:0:0:
200,224,10180,2,0,L|316:197,1,120,0|0,0:0|0:0,0:0:0:0:
356,242,10768,2,0,P|358:271|347:299,1,60,0|0,0:0|0:0,0:0:0:0:
312,348,11160,6,0,P|369:337|420:363,1,120,8|0,0:0|0:0,0:0:0:0:
500,276,11944,2,0,L|510:156,1,120,0|0,0:0|0:0,0:0:0:0:
484,40,12729,2,0,P|426:27|373:55,1,120
376,112,13317,2,0,L|256:96,1,120,0|0,0:0|0:0,0:0:0:0:
196,88,13905,1,0,0:0:0:0:
92,28,14297,6,0,B|72:64|72:64|88:141,1,120,4|0,0:0|0:0,0:0:0:0:
138,175,14885,2,0,L|19:190,1,120
0,247,15474,2,0,P|0:276|11:304,1,60
52,348,15866,2,0,P|103:320|161:331,1,120
272,380,16650,1,0,0:0:0:0:
340,280,17042,1,0,0:0:0:0:
240,212,17434,6,0,B|202:228|202:228|127:204,1,120,8|0,0:0|0:0,0:0:0:0:
72,228,18023,2,0,L|87:109,1,120,0|0,0:0|0:0,0:0:0:0:
168,24,18807,6,0,P|191:42|220:48,1,60,0|4,0:0|0:0,0:0:0:0:
280,56,19199,2,0,P|300:34|327:22,2,60,8|8|4,0:0|0:0|0:0,0:0:0:0:
244,104,19787,2,0,L|248:163,1,60,0|0,1:0|1:0,0:0:0:0:
357,214,20376,1,0,1:0:0:0:
398,171,20572,6,0,P|456:159|510:183,1,120,4|0,0:0|1:0,0:0:0:0:
502,303,21356,2,0,P|444:315|390:291,1,120,4|0,0:0|1:0,0:0:0:0:
292,220,22140,2,0,L|284:339,2,120,4|0|4,0:0|1:0|0:0,0:0:0:0:
252,176,23121,1,4,0:0:0:0:
194,193,23317,2,0,P|165:193|137:182,1,60,0|0,1:0|0:0,0:0:0:0:
92,144,23709,6,0,L|84:263,1,120,4|0,0:0|1:0,0:0:0:0:
156,359,24493,2,0,P|130:373|101:382,2,60,4|4|0,0:0|0:0|1:0,0:0:0:0:
252,284,25278,2,0,P|309:270|365:290,1,120,4|0,0:0|1:0,0:0:0:0:
400,340,25866,1,0,0:0:0:0:
400,340,26062,2,0,L|421:222,1,120,4|0,0:0|1:0,0:0:0:0:
388,108,26846,6,0,P|331:122|275:102,1,120,4|0,0:0|1:0,0:0:0:0:
228,62,27435,1,0,0:0:0:0:
228,62,27631,2,0,P|242:119|222:175,1,120,4|0,0:0|1:0,0:0:0:0:
193,228,28219,1,0,0:0:0:0:
193,228,28415,2,0,L|73:236,1,120,4|0,0:0|1:0,0:0:0:0:
68,116,29199,2,0,P|25:126|1:140,2,60,4|4|0,0:0|0:0|1:0,0:0:0:0:
180,72,29984,6,0,P|237:86|293:66,1,120,4|0,0:0|1:0,0:0:0:0:
348,36,30573,1,0,0:0:0:0:
348,36,30769,2,0,L|355:155,1,120,4|0,0:0|1:0,0:0:0:0:
360,216,31357,1,0,0:0:0:0:
360,216,31553,2,0,P|443:198|502:261,2,180,4|0|4,0:0|1:0|0:0,0:0:0:0:
332,332,33121,6,0,L|212:343,1,120,4|0,0:0|0:0,0:0:0:0:
160,316,33709,1,4,0:0:0:0:
160,316,33905,2,0,L|40:327,1,120,4|8,0:0|0:0,0:0:0:0:
36,208,34689,2,0,P|93:193|147:215,1,120,4|0,0:0|0:0,0:0:0:0:
204,200,35278,2,0,L|230:82,1,120,4|4,0:0|0:0,0:0:0:0:
244,24,35866,1,8,0:0:0:0:
356,68,36258,6,0,L|382:186,1,120,4|0,0:0|0:0,0:0:0:0:
364,244,36846,1,4,0:0:0:0:
364,244,37042,2,0,P|305:239|256:273,1,120,4|8,0:0|0:0,0:0:0:0:
163,196,37827,2,0,P|156:137|180:82,1,120,4|0,0:0|0:0,0:0:0:0:
223,42,38415,1,4,0:0:0:0:
283,38,38611,2,0,L|343:38,2,60,8|0|0,0:0|1:0|1:0,0:0:0:0:
319,152,39395,6,0,P|282:158|234:144,2,60,4|0|4,0:1|1:0|0:0,0:0:0:0:
371,124,39984,2,0,L|364:243,1,120,8|0,0:0|1:0,0:0:0:0:
360,304,40572,1,4,0:0:0:0:
479,288,40964,2,0,L|486:169,1,120,4|0,0:1|1:0,0:0:0:0:
488,108,41552,1,4,0:0:0:0:
488,48,41748,2,0,P|458:43|429:52,1,60,4|0,0:0|1:0,0:0:0:0:
384,88,42140,2,0,P|356:98|326:94,1,60,0|8,1:0|0:0,0:0:0:0:
280,56,42533,5,4,0:1:0:0:
52,128,43317,2,0,P|33:183|55:238,1,120,4|0,0:1|1:0,0:0:0:0:
168,276,44101,2,0,L|153:354,2,80,0|4|0,1:1|0:0|1:0,0:0:0:0:
248,276,44886,2,0,L|262:354,2,80,0|0|0,1:0|1:0|1:0,0:0:0:0:
276,199,45670,6,0,P|337:186|411:187,1,120,4|0,0:1|1:0,0:0:0:0:
448,215,46258,1,0,0:0:0:0:
488,171,46454,2,0,P|508:115|491:59,1,120,4|0,0:0|1:0,0:0:0:0:
371,51,47238,2,0,P|312:44|254:28,1,120,4|0,0:0|1:0,0:0:0:0:
136,48,48023,2,0,P|136:77|125:105,1,60,4|0,0:0|0:0,0:0:0:0:
80,144,48415,2,0,P|79:173|90:201,1,60,0|0,1:0|0:0,0:0:0:0:
140,236,48807,6,0,P|201:223|259:221,1,120,4|0,0:0|1:0,0:0:0:0:
304,260,49395,1,0,0:0:0:0:
360,236,49591,2,0,L|375:117,1,120,4|0,0:0|1:0,0:0:0:0:
496,124,50376,2,0,L|511:243,1,120,4|0,0:0|1:0,0:0:0:0:
488,360,51160,2,0,P|461:370|431:367,1,60,4|0,0:0|0:0,0:0:0:0:
385,329,51552,1,0,1:0:0:0:
268,348,51944,6,0,L|148:359,1,120,4|0,0:1|1:0,0:0:0:0:
108,316,52533,1,0,0:0:0:0:
124,258,52729,2,0,P|173:225|230:238,1,120,4|0,0:0|1:0,0:0:0:0:
348,208,53513,2,0,L|364:89,1,120,4|0,0:0|1:0,0:0:0:0:
264,20,54297,2,0,P|208:42|149:38,1,120,4|0,0:0|1:0,0:0:0:0:
44,92,55082,6,0,L|60:210,1,120,4|0,0:1|1:0,0:0:0:0:
68,272,55670,1,0,0:0:0:0:
76,332,55866,2,0,P|48:342|18:338,2,60,4|0|4,0:0|1:0|0:0,0:0:0:0:
184,279,56650,2,0,P|243:280|302:291,1,120,4|4,0:1|0:0,0:0:0:0:
340,340,57239,1,0,1:0:0:0:
451,292,57631,2,0,L|456:352,2,60,0|4|0,1:0|0:0|1:0,0:0:0:0:
416,244,58219,6,0,L|422:124,1,120,4|0,0:1|1:0,0:0:0:0:
444,68,58807,1,0,0:0:0:0:
411,16,59003,2,0,P|355:35|297:26,1,120,4|0,0:0|1:0,0:0:0:0:
184,68,59788,2,0,P|174:126|194:182,1,120,4|0,0:0|1:0,0:0:0:0:
312,172,60572,2,0,P|341:168|371:181,1,60,4|0,0:0|0:0,0:0:0:0:
396,232,60964,2,0,P|391:261|397:290,1,60,0|0,1:0|0:0,0:0:0:0:
380,348,61356,6,0,P|324:367|268:350,1,120,4|0,0:0|1:0,0:0:0:0:
224,308,61944,1,0,0:0:0:0:
164,312,62140,2,0,L|45:332,1,120,4|0,0:0|1:0,0:0:0:0:
28,216,62925,2,0,L|146:195,1,120,4|0,0:0|1:0,0:0:0:0:
196,84,63709,2,0,P|225:83|252:95,1,60,4|0,0:0|0:0,0:0:0:0:
296,136,64101,2,0,P|325:136|352:124,1,60,0|0,1:0|1:0,0:0:0:0:
404,92,64493,6,0,L|414:211,1,120,4|0,0:1|1:0,0:0:0:0:
420,272,65082,1,0,0:0:0:0:
424,332,65278,2,0,P|368:356|308:340,1,120,4|0,0:0|1:0,0:0:0:0:
224,264,66062,2,0,L|193:379,1,120,4|0,0:0|1:0,0:0:0:0:
76,348,66846,2,0,P|58:291|71:233,1,120,4|0,0:0|1:0,0:0:0:0:
148,140,67631,6,0,P|200:166|258:156,1,120,4|0,0:1|1:0,0:0:0:0:
308,124,68219,1,0,0:0:0:0:
360,152,68415,2,0,L|360:212,1,60,4|0,0:0|1:0,0:0:0:0:
360,272,68807,1,4,0:0:0:0:
280,360,69199,2,0,L|200:372,2,80,0|4|0,1:1|0:0|1:0,0:0:0:0:
280,279,69984,2,0,L|200:266,2,80,0|0|0,1:0|1:0|1:0,0:0:0:0:
360,272,70768,6,0,L|478:251,1,120,4|0,0:1|1:0,0:0:0:0:
488,192,71356,1,0,0:0:0:0:
484,132,71552,2,0,L|366:111,1,120,4|0,0:0|1:0,0:0:0:0:
252,152,72337,2,0,P|227:97|231:38,1,120,4|0,0:0|1:0,0:0:0:0:
112,20,73121,2,0,P|84:31|55:28,1,60,4|0,0:0|0:0,0:0:0:0:
10,69,73513,2,0,P|4:98|12:126,1,60,0|0,1:0|0:0,0:0:0:0:
66,149,73905,6,0,L|48:267,1,120,4|0,0:0|1:0,0:0:0:0:
68,324,74493,1,0,0:0:0:0:
128,336,74690,2,0,P|184:319|241:336,1,120,4|0,0:0|1:0,0:0:0:0:
360,356,75474,2,0,L|478:336,1,120,4|0,0:0|1:0,0:0:0:0:
457,218,76258,2,0,P|423:217|394:229,1,60,4|0,0:0|0:0,0:0:0:0:
340,216,76650,2,0,P|332:187|337:157,1,60,0|4,1:0|1:3,0:0:0:0:
352,100,77043,6,0,P|294:109|242:81,1,120,4|0,0:1|1:0,0:0:0:0:
143,15,77827,2,0,P|114:25|84:24,2,60,4|0|0,0:0|0:0|1:0,0:0:0:0:
144,136,78611,2,0,P|128:193|138:252,1,120,4|0,0:0|1:0,0:0:0:0:
160,308,79199,1,0,0:0:0:0:
136,364,79395,2,0,L|76:370,2,60,4|0|0,0:0|0:0|1:0,0:0:0:0:
252,336,80180,6,0,L|371:327,1,120,4|0,0:1|1:0,0:0:0:0:
432,320,80768,1,0,0:0:0:0:
468,272,80964,2,0,P|484:215|464:159,1,120,4|4,0:0|0:0,0:0:0:0:
356,104,81748,2,0,L|276:113,2,80,0|4|0,1:1|0:0|1:0,0:0:0:0:
396,36,82533,2,0,L|475:45,2,80,0|0|0,1:0|1:0|1:0,0:0:0:0:
256,192,83317,12,0,84886,0:0:0:0:
311,107,85670,6,0,P|318:137|314:166,1,60,8|4,0:0|0:0,0:0:0:0:
284,216,86062,2,0,L|164:204,1,120,4|4,0:0|0:1,0:0:0:0:
