osu file format v14

[General]
AudioFilename: audio.mp3
AudioLeadIn: 1820
PreviewTime: 44591
Countdown: 0
SampleSet: None
StackLeniency: 0.7
Mode: 0
LetterboxInBreaks: 0
WidescreenStoryboard: 1

[Editor]
DistanceSpacing: 1
BeatDivisor: 4
GridSize: 4
TimelineZoom: 3.1

[Metadata]
Title:Honey Honey Honey(TV size)
TitleUnicode:蜜蜜蜜(TV size)
Artist:AYUMIKURIKAMAKI
ArtistUnicode:あゆみくりかまき
Creator:Pata-Mon
Version:Lily Bread's Easy
Source:パンチライン
Tags:Lily Bread Misure ZZHBOY anime ending ED Punch Line ハニーハニーハニー
BeatmapID:878313
BeatmapSetID:403924

[Difficulty]
HPDrainRate:1
CircleSize:3
OverallDifficulty:2
ApproachRate:3
SliderMultiplier:0.9
SliderTickRate:1

[Events]
//Background and Video events
0,0,"BG.jpg",0,0
Video,-425,"video.flv"
//Break Periods
//Storyboard Layer 0 (Background)
//Storyboard Layer 1 (Fail)
//Storyboard Layer 2 (Pass)
//Storyboard Layer 3 (Foreground)
//Storyboard Sound Samples

[TimingPoints]
180,392.158131781932,4,3,0,60,1,0
8023,-100,4,3,0,35,0,0
18807,-100,4,3,0,60,0,0
44101,-100,4,3,0,70,0,0
45670,-100,4,3,0,80,0,1
83317,-100,4,3,0,60,0,0

[Colours]
Combo1 : 255,128,0
Combo2 : 255,0,0
Combo3 : 255,128,0
Combo4 : 255,215,0

[HitObjects]
108,120,1748,6,0,P|88:192|120:268,2,135,4|4|4,0:1|0:1|0:1,0:0:0:0:
164,48,3317,2,0,P|200:28|280:36,1,90,0|0,1:0|1:0,0:0:0:0:
332,56,4101,2,0,P|361:85|375:164,1,90,4|8,0:0|0:0,0:0:0:0:
372,220,4885,6,0,P|353:283|303:328,2,135,4|4|4,0:1|0:1|0:1,0:0:0:0:
256,192,6454,12,4,8023,0:0:0:0:
176,204,9591,6,0,P|124:252|32:276,2,135,0|0|0,0:0|0:0|0:0,0:0:0:0:
256,160,11160,6,0,L|256:64,2,90,8|0|0,0:0|0:0|0:0,0:0:0:0:
256,248,12336,1,0,0:0:0:0:
336,204,12729,2,0,P|388:252|480:276,2,135,0|0|0,0:0|0:0|0:0,0:0:0:0:
248,204,14297,6,0,P|196:252|104:276,1,135,4|0,0:0|0:0,0:0:0:0:
48,256,15278,1,0,0:0:0:0:
12,176,15670,2,0,P|68:88|200:72,1,225,0|0,0:0|0:0,0:0:0:0:
268,84,17042,1,0,0:0:0:0:
355,65,17434,6,0,L|344:200,1,135,8|0,0:0|0:0,0:0:0:0:
312,284,18415,2,0,P|268:291|224:284,1,90,0|0,0:0|0:0,0:0:0:0:
192,200,19199,2,0,L|180:65,1,135,8|0,0:0|1:0,0:0:0:0:
52,192,20572,6,0,L|52:296,1,90,4|0,0:0|1:0,0:0:0:0:
132,324,21356,2,0,P|176:308|224:272,1,90,4|0,0:0|1:0,0:0:0:0:
300,283,22140,2,0,P|337:308|380:324,1,90,4|0,0:0|1:0,0:0:0:0:
460,282,22925,2,0,L|460:192,1,90,4|0,0:0|1:0,0:0:0:0:
504,112,23709,6,0,P|452:100|400:120,1,90,4|0,0:0|1:0,0:0:0:0:
356,176,24493,2,0,P|319:149|300:109,1,90,4|0,0:0|1:0,0:0:0:0:
211,109,25278,2,0,P|192:149|156:176,1,90,4|0,0:0|1:0,0:0:0:0:
94,109,26062,2,0,P|50:99|8:112,1,90,4|0,0:0|1:0,0:0:0:0:
52,188,26846,6,0,P|52:248|108:328,1,135,4|0,0:0|0:0,0:0:0:0:
164,264,27827,1,4,0:0:0:0:
236,316,28219,2,0,P|270:258|272:191,1,135,0|0,0:0|1:0,0:0:0:0:
296,104,29199,2,0,P|340:92|392:112,1,90,4|0,0:0|1:0,0:0:0:0:
440,172,29984,6,0,L|444:316,1,135,4|0,0:0|0:0,0:0:0:0:
356,320,30964,2,0,L|352:184,2,135,4|4|0,0:0|0:0|0:0,0:0:0:0:
220,312,32729,1,4,0:0:0:0:
252,228,33121,6,0,P|184:228|136:276,1,135,4|4,0:0|0:0,0:0:0:0:
60,224,34101,2,0,P|82:151|45:94,2,135,0|4|4,0:0|0:0|0:0,0:0:0:0:
224,72,36258,6,0,P|277:33|342:45,1,135,4|4,0:0|0:0,0:0:0:0:
424,80,37238,2,0,P|481:112|498:175,2,135,0|4|4,0:0|0:0|0:0,0:0:0:0:
388,304,39395,6,0,P|328:328|256:324,1,135,4|8,0:1|0:0,0:0:0:0:
212,248,40376,2,0,L|212:100,2,135,0|4|4,1:0|0:1|0:0,0:0:0:0:
164,324,41944,2,0,P|97:327|34:303,1,135,0|4,1:0|0:1,0:0:0:0:
36,168,43121,6,0,P|64:108|128:80,1,135,0|0,0:0|1:0,0:0:0:0:
204,40,44101,1,0,1:1:0:0:
356,140,44886,2,0,L|356:256,1,90,0|0,1:0|0:0,0:0:0:0:
380,316,45670,6,0,P|424:328|472:312,1,90,4|0,0:1|1:0,0:0:0:0:
496,232,46454,2,0,L|496:142,1,90,4|0,0:0|1:0,0:0:0:0:
444,68,47238,2,0,P|396:52|348:52,1,90,4|0,0:0|1:0,0:0:0:0:
300,124,48023,2,0,P|252:128|192:120,1,90,4|0,0:0|1:0,0:0:0:0:
155,50,48807,6,0,P|110:53|68:68,1,90,4|0,0:0|1:0,0:0:0:0:
16,142,49591,2,0,L|16:232,1,90,4|0,0:0|1:0,0:0:0:0:
68,304,50376,2,0,P|110:319|155:322,2,90,4|0|4,0:0|1:0|0:0,0:0:0:0:
104,220,51552,1,0,1:0:0:0:
188,192,51944,6,0,L|284:192,1,90,4|0,0:1|1:0,0:0:0:0:
340,256,52729,2,0,P|388:260|464:248,1,90,4|0,0:0|1:0,0:0:0:0:
492,192,53513,1,4,0:0:0:0:
429,127,53905,2,0,P|384:123|340:128,1,90,0|4,1:0|0:0,0:0:0:0:
256,92,54689,1,0,1:0:0:0:
176,48,55082,6,0,P|104:40|32:52,2,135,4|0|4,0:1|0:0|0:0,0:0:0:0:
180,136,56650,2,0,P|108:144|36:132,2,135,4|0|4,0:1|1:0|0:0,0:0:0:0:
256,188,58219,6,0,L|256:288,1,90,4|0,0:1|1:0,0:0:0:0:
168,276,59003,2,0,P|128:248|80:232,1,90,4|0,0:0|1:0,0:0:0:0:
44,312,59788,2,0,P|84:340|132:356,1,90,4|0,0:0|1:0,0:0:0:0:
212,352,60572,2,0,L|302:352,1,90,4|0,0:0|1:0,0:0:0:0:
389,354,61356,6,0,P|431:338|468:312,1,90,4|0,0:0|1:0,0:0:0:0:
422,233,62140,2,0,P|380:249|344:276,1,90,4|0,0:0|1:0,0:0:0:0:
260,240,62925,2,0,P|210:240|160:228,2,90,4|0|4,0:0|1:0|0:0,0:0:0:0:
328,180,64101,1,0,1:0:0:0:
388,112,64493,6,0,P|437:111|488:124,2,90,4|0|4,0:1|1:0|0:0,0:0:0:0:
300,92,65670,1,0,1:0:0:0:
211,107,66062,2,0,P|167:106|123:115,1,90,4|0,0:0|1:0,0:0:0:0:
64,184,66846,2,0,L|64:300,1,90,4|0,0:0|1:0,0:0:0:0:
124,340,67631,6,0,P|167:349|212:347,1,90,4|0,0:1|1:0,0:0:0:0:
288,300,68415,2,0,P|380:300|464:336,2,180,4|0|0,0:0|1:1|1:0,0:0:0:0:
452,224,70768,6,0,L|452:120,1,90,4|0,0:1|1:0,0:0:0:0:
432,48,71552,2,0,P|384:72|368:112,1,90,4|0,0:0|1:0,0:0:0:0:
300,164,72337,2,0,L|200:164,1,90,4|0,0:0|1:0,0:0:0:0:
142,103,73121,2,0,P|120:64|80:48,1,90,4|0,0:0|1:0,0:0:0:0:
60,134,73905,6,0,L|60:224,1,90,4|0,0:0|1:0,0:0:0:0:
80,312,74690,2,0,P|128:328|184:320,1,90,4|0,0:0|1:0,0:0:0:0:
212,248,75474,2,0,P|256:241|303:247,1,90,4|0,0:0|1:0,0:0:0:0:
345,325,76258,2,0,P|389:327|432:312,1,90,4|0,0:0|1:0,0:0:0:0:
472,232,77043,6,0,P|484:172|472:92,2,135,4|0|0,0:1|0:0|1:0,0:0:0:0:
384,232,78611,2,0,P|368:184|384:120,1,90,4|0,0:0|1:0,0:0:0:0:
400,60,79395,2,0,P|355:56|313:71,1,90,4|0,0:0|1:0,0:0:0:0:
280,156,80180,6,0,P|238:171|193:167,1,90,4|0,0:1|1:0,0:0:0:0:
148,92,80964,2,0,P|103:88|61:103,1,90,4|4,0:0|0:0,0:0:0:0:
32,188,81748,2,0,B|36:236|28:280|28:280|61:316|88:368,2,180,0|0|4,1:1|1:0|0:0,0:0:0:0:
120,204,83709,6,0,P|156:240|204:248,1,90,0|4,1:0|0:0,0:0:0:0:
256,184,84494,1,0,1:0:0:0:
319,248,84886,2,0,P|361:236|392:204,1,90,4|0,0:0|1:0,0:0:0:0:
480,188,85670,2,0,B|475:236|484:280|484:280|450:316|424:368,1,180,8|4,0:0|0:1,0:0:0:0:
