osu file format v14

[General]
AudioFilename: audio.mp3
AudioLeadIn: 1500
PreviewTime: 36632
Countdown: 0
SampleSet: Soft
StackLeniency: 0.7
Mode: 0
LetterboxInBreaks: 0
WidescreenStoryboard: 0

[Editor]
DistanceSpacing: 1
BeatDivisor: 4
GridSize: 4
TimelineZoom: 4.999999

[Metadata]
Title:Koi to Joudo no Yaezakura
TitleUnicode:恋と浄土の八重桜
Artist:AWT48
ArtistUnicode:AWT48
Creator:tutuhaha
Version:Normal
Source:刀剣乱舞-花丸-
Tags:Garden Touken Ranbu 刀剣乱舞 ending tv size
BeatmapID:1132623
BeatmapSetID:533324

[Difficulty]
HPDrainRate:3
CircleSize:3
OverallDifficulty:3
ApproachRate:5
SliderMultiplier:1.2
SliderTickRate:1

[Events]
//Background and Video events
Video,0,"171.flv"
0,0,"b.jpg",0,0
//Break Periods
//Storyboard Layer 0 (Background)
//Storyboard Layer 1 (Fail)
//Storyboard Layer 2 (Pass)
//Storyboard Layer 3 (Foreground)
//Storyboard Sound Samples

[TimingPoints]
428,370.37037037037,4,2,3,60,1,0
2002,-100,4,2,2,60,0,0
11169,-100,4,2,3,60,0,0
11261,-100,4,2,2,60,0,0
11909,-100,4,2,3,60,0,0
12002,-100,4,2,2,60,0,0
13761,-100,4,2,1,35,0,0
24317,-100,4,2,1,60,0,0
25613,-100,4,2,1,60,0,0
25705,-100,4,2,2,60,0,0
36909,-100,4,1,1,50,0,0
37465,-100,4,2,1,60,0,0
37557,-100,4,2,2,70,0,0
39687,-100,4,2,1,70,0,0
39779,-100,4,2,2,70,0,0
42650,-100,4,2,1,70,0,0
42742,-100,4,2,2,70,0,0
43390,-100,4,2,1,60,0,0
49316,-100,4,2,1,70,0,1
58576,-100,4,1,1,50,0,1
61169,-100,4,2,1,70,0,1
71539,-100,4,2,1,50,0,0
74502,-100,4,2,1,40,0,0
75984,-100,4,2,1,50,0,0
77465,-100,4,2,3,60,0,0
77558,-100,4,2,2,60,0,0
86724,-100,4,2,3,60,0,0
86817,-100,4,2,2,60,0,0
87465,-100,4,2,3,60,0,0
87558,-100,4,2,2,60,0,0
88021,-100,4,1,1,40,0,0
88947,-100,4,2,2,60,0,0

[Colours]
Combo1 : 255,192,0
Combo2 : 131,174,28
Combo3 : 18,124,255
Combo4 : 242,24,57

[HitObjects]
452,336,1539,5,2,0:0:0:0:
464,216,1909,2,0,P|412:220|356:264,1,120,12|2,0:1|1:0,0:0:0:0:
244,288,2650,2,0,L|252:356,2,60,0|6|6,0:0|0:0|1:0,0:0:0:0:
132,248,3390,2,0,P|76:268|4:252,1,120,4|0,0:0|0:0,0:0:0:0:
16,200,3946,1,10,0:0:0:0:
28,140,4131,2,0,L|20:72,2,60,2|10|10,0:0|1:0|1:0,0:0:0:0:
136,84,4872,6,0,P|192:64|264:80,1,120,4|2,0:0|1:0,0:0:0:0:
368,52,5613,2,0,P|404:40|424:24,2,60,0|6|6,0:0|0:0|1:0,0:0:0:0:
420,156,6353,2,0,L|428:276,1,120,4|8,0:0|0:0,0:0:0:0:
432,336,6909,1,10,0:0:0:0:
372,348,7094,2,0,P|336:364|308:368,2,60,0|10|10,0:0|1:0|1:0,0:0:0:0:
308,244,7835,6,0,P|252:208|192:200,1,120,4|2,0:0|1:0,0:0:0:0:
152,236,8390,2,0,P|124:268|52:292,1,120,0|6,1:0|0:0,0:0:0:0:
4,256,8946,1,4,1:0:0:0:
32,140,9316,2,0,P|24:100|52:28,1,120,4|0,0:0|0:0,0:0:0:0:
108,48,9872,2,0,L|244:48,1,120,6|6,1:0|1:0,0:0:0:0:
284,64,10427,6,0,L|284:128,2,60,4|2|4,1:0|0:0|0:0,0:0:0:0:
400,32,11168,1,4,0:1:0:0:
412,152,11539,2,0,P|480:188|512:244,1,120,0|4,0:0|0:1,0:0:0:0:
472,272,12094,2,0,P|424:296|344:284,1,120,2|4,0:0|0:0,0:0:0:0:
300,308,12650,6,0,P|312:344|312:372,2,60,14|8|10,0:0|0:0|0:0,0:0:0:0:
192,360,13390,1,10,1:0:0:0:
76,332,13761,6,0,P|43:298|34:225,1,120,4|0,0:0|3:0,0:0:0:0:
152,236,14502,2,0,P|148:177|109:132,1,120,0|0,3:0|3:0,0:0:0:0:
220,88,15242,1,0,3:0:0:0:
332,48,15613,1,0,3:0:0:0:
448,24,15983,2,0,L|456:148,1,120,0|0,3:0|3:0,0:0:0:0:
416,256,16724,6,0,P|464:280|504:332,2,120,0|0|0,3:0|3:0|3:0,0:0:0:0:
308,308,17835,1,0,3:0:0:0:
196,356,18205,2,0,L|64:364,1,120,0|0,3:0|3:0,0:0:0:0:
36,252,18946,2,0,L|155:244,1,120,0|0,3:0|3:0,0:0:0:0:
264,196,19687,6,0,P|296:152|308:84,1,120,0|0,3:0|3:0,0:0:0:0:
200,40,20427,2,0,P|168:84|156:152,1,120,0|0,3:0|3:0,0:0:0:0:
64,224,21168,2,0,P|56:192|-8:120,2,120,0|0|0,3:0|3:0|3:0,0:0:0:0:
132,324,22279,1,0,3:0:0:0:
180,216,22650,6,0,L|328:228,1,120,0|0,3:0|3:0,0:0:0:0:
272,340,23390,2,0,L|420:352,1,120,0|0,3:0|3:0,0:0:0:0:
504,308,24131,6,0,P|512:276|512:244,1,60,0|2,3:0|0:0,0:0:0:0:
456,232,24502,2,0,P|408:208|368:148,1,120
356,96,25057,1,2,0:0:0:0:
356,36,25242,1,0,0:0:0:0:
236,28,25613,5,4,0:0:0:0:
116,24,25983,1,0,1:0:0:0:
84,136,26353,2,0,P|92:188|76:260,1,120,0|0,0:0|1:0,0:0:0:0:
44,304,26909,1,0,0:0:0:0:
104,308,27094,2,0,P|172:328|216:360,1,120,0|0,0:0|1:0,0:0:0:0:
332,336,27835,2,0,P|352:352|388:360,2,60,0|0|0,0:0|0:0|1:0,0:0:0:0:
256,244,28576,5,0,0:0:0:0:
344,160,28946,1,0,1:0:0:0:
228,132,29316,2,0,P|204:96|192:20,1,120,0|0,0:0|1:0,0:0:0:0:
252,24,29872,1,0,0:0:0:0:
312,24,30057,2,0,L|444:24,1,120,0|0,0:0|1:0,0:0:0:0:
456,144,30798,2,0,P|484:160|504:188,2,60,0|0|0,0:0|0:0|1:0,0:0:0:0:
340,120,31539,5,0,0:0:0:0:
376,236,31909,1,0,1:0:0:0:
336,348,32279,1,0,0:0:0:0:
256,256,32650,1,0,1:0:0:0:
144,216,33020,2,0,P|76:232|32:272,2,120,0|0|0,0:0|1:0|0:0,0:0:0:0:
256,256,34131,1,0,1:0:0:0:
300,148,34502,6,0,P|304:100|276:36,1,120,0|0,0:0|1:0,0:0:0:0:
156,24,35242,2,0,P|152:72|180:136,1,120,0|0,0:0|1:0,0:0:0:0:
300,148,35983,2,0,L|368:144,1,60,0|0,1:0|0:0,0:0:0:0:
420,144,36353,2,0,P|428:184|448:208,1,60,0|0,1:0|0:0,0:0:0:0:
484,240,36724,2,0,L|492:308,2,60,0|0|0,1:0|0:0|0:0,0:0:0:0:
464,120,37465,5,4,0:0:0:0:
424,8,37835,1,2,1:0:0:0:
336,88,38205,2,0,L|212:88,1,120,0|2,0:0|1:0,0:0:0:0:
144,184,38946,2,0,P|100:200|24:204,1,120,0|2,0:0|1:0,0:0:0:0:
12,148,39502,1,0,0:0:0:0:
20,88,39687,2,0,P|64:72|140:68,1,120,2|2,0:0|1:0,0:0:0:0:
252,40,40427,5,0,0:0:0:0:
292,152,40798,1,2,1:0:0:0:
376,68,41168,2,0,L|500:68,1,120,0|2,0:0|1:0,0:0:0:0:
436,172,41909,2,0,P|400:208|384:280,1,120,0|2,0:0|1:0,0:0:0:0:
376,332,42465,1,0,0:0:0:0:
320,352,42650,2,0,P|284:348|248:352,2,60,2|2|0,0:0|1:0|1:0,0:0:0:0:
440,368,43390,5,4,0:1:0:0:
496,260,43761,1,2,0:3:0:0:
376,256,44131,2,0,P|317:253|257:221,1,120,4|2,0:3|0:3,0:0:0:0:
164,160,44872,2,0,P|108:172|44:216,2,120,2|2|2,0:3|0:3|0:3,0:0:0:0:
276,120,45983,1,0,1:0:0:0:
360,32,46353,6,0,L|480:24,1,120,4|0,1:1|1:0,0:0:0:0:
480,84,46909,2,0,P|496:132|476:204,1,120,0|0,1:0|1:0,0:0:0:0:
440,244,47465,1,0,1:0:0:0:
388,276,47650,2,0,P|324:288|276:336,1,120,4|0,1:0|1:0,0:0:0:0:
244,368,48205,2,0,L|120:364,1,120,0|2,1:0|0:0,0:0:0:0:
8,336,48946,1,0,0:0:0:0:
64,228,49316,6,0,L|48:100,1,120,4|2,0:0|1:0,0:0:0:0:
36,48,49872,1,0,0:0:0:0:
92,32,50057,2,0,P|128:20|220:36,1,120,0|2,0:0|1:0,0:0:0:0:
228,148,50798,2,0,L|368:164,1,120,0|2,0:0|1:0,0:0:0:0:
468,176,51539,1,0,0:0:0:0:
420,64,51909,1,2,1:0:0:0:
347,161,52279,6,0,P|326:206|330:282,1,120,0|2,0:0|1:0,0:0:0:0:
360,328,52835,1,0,0:0:0:0:
416,344,53020,2,0,P|456:344|484:348,2,60,0|0|2,0:0|0:0|1:0,0:0:0:0:
300,384,53761,1,0,0:0:0:0:
196,324,54131,1,2,1:0:0:0:
80,356,54502,2,0,P|40:356|12:352,2,60,0|2|2,0:0|0:0|1:0,0:0:0:0:
92,236,55242,6,0,P|68:192|52:120,1,120,4|2,0:1|1:0,0:0:0:0:
156,68,55983,2,0,P|204:68|284:24,1,120,0|2,0:0|1:0,0:0:0:0:
328,52,56539,2,0,P|376:32|444:28,1,120,0|0,1:0|1:0,0:0:0:0:
480,140,57279,2,0,L|472:264,1,120,0|0,1:0|1:0,0:0:0:0:
468,320,57835,1,0,0:0:0:0:
348,308,58205,6,0,P|300:348|236:368,2,120,4|0|0,0:1|0:0|0:0,0:0:0:0:
300,196,59316,1,0,0:0:0:0:
244,88,59687,2,0,P|244:36|236:12,1,60,0|2,0:0|0:0,0:0:0:0:
184,36,60057,2,0,P|140:40|108:32,1,60,0|2,0:0|0:0,0:0:0:0:
68,56,60427,2,0,P|28:56|4:60,2,60,0|2|2,0:0|0:0|0:0,0:0:0:0:
112,168,61168,5,4,0:0:0:0:
136,284,61539,1,2,1:0:0:0:
228,208,61909,2,0,P|280:208|356:232,1,120,0|2,0:0|1:0,0:0:0:0:
464,244,62650,2,0,L|444:372,2,120,0|2|0,0:0|1:0|0:0,0:0:0:0:
476,124,63761,1,2,1:0:0:0:
440,8,64131,6,0,P|396:32|360:100,1,120,0|2,0:0|1:0,0:0:0:0:
248,128,64872,2,0,P|192:124|136:84,1,120,0|2,0:0|1:0,0:0:0:0:
36,28,65613,1,0,0:0:0:0:
32,148,65983,1,2,1:0:0:0:
28,268,66353,2,0,P|16:300|0:324,2,60,0|2|2,0:0|0:0|1:0,0:0:0:0:
120,192,67094,6,0,P|164:172|248:180,1,120,4|2,0:1|1:0,0:0:0:0:
232,236,67650,2,0,P|276:256|360:248,1,120
408,252,68205,1,2,1:0:0:0:
376,204,68390,2,0,P|364:144|384:64,1,120
408,36,68946,1,2,1:0:0:0:
504,108,69316,2,0,P|513:166|501:225,1,120,0|2,0:0|1:0,0:0:0:0:
448,332,70057,5,0,0:0:0:0:
352,260,70427,1,6,1:0:0:0:
264,340,70798,2,0,B|192:348,1,60
148,324,71168,2,0,P|148:292|136:256,1,60,2|0,1:0|0:0,0:0:0:0:
84,240,71539,6,0,L|72:120,2,120,0|2|2,0:0|0:0|0:0,0:0:0:0:
188,300,72650,1,2,0:0:0:0:
248,196,73020,2,0,P|256:156|280:128,2,60,2|2|2,0:0|0:0|0:0,0:0:0:0:
368,212,73761,2,0,P|389:267|387:327,1,120,2|2,0:0|0:0,0:0:0:0:
256,192,74502,12,0,76724,0:0:0:0:
472,196,77465,6,0,P|440:164|368:132,1,120,12|2,0:1|1:0,0:0:0:0:
300,36,78205,2,0,L|220:36,2,60,0|6|6,0:0|0:0|1:0,0:0:0:0:
244,144,78946,2,0,L|124:144,1,120,4|0,0:0|0:0,0:0:0:0:
64,148,79502,1,10,0:0:0:0:
36,200,79687,2,0,P|20:236|16:260,2,60,0|10|10,0:0|1:0|1:0,0:0:0:0:
136,268,80427,6,0,P|164:300|240:344,1,120,4|2,0:0|1:0,0:0:0:0:
348,316,81168,2,0,P|380:304|412:304,2,60,0|6|6,0:0|0:0|1:0,0:0:0:0:
264,232,81909,2,0,P|228:188|204:116,1,120,4|8,0:0|0:0,0:0:0:0:
168,84,82465,1,10,0:0:0:0:
128,40,82650,2,0,P|100:28|68:24,2,60,0|10|10,0:0|1:0|1:0,0:0:0:0:
248,44,83390,6,0,P|300:48|360:20,1,120,4|2,0:0|1:0,0:0:0:0:
412,52,83946,2,0,P|408:104|440:176,1,120,0|6,1:0|0:0,0:0:0:0:
460,220,84502,1,6,1:0:0:0:
468,340,84872,2,0,P|404:312|336:316,1,120,4|0,0:0|0:0,0:0:0:0:
296,324,85427,2,0,P|244:352|164:356,1,120,6|2,1:0|1:0,0:0:0:0:
124,352,85983,1,2,1:0:0:0:
104,236,86353,6,0,P|84:192|20:144,1,120,4|4,0:0|0:1,0:0:0:0:
48,92,86909,1,2,1:0:0:0:
104,76,87094,2,0,L|232:48,1,120,0|4,0:0|0:1,0:0:0:0:
280,36,87650,1,2,0:0:0:0:
368,120,88020,6,0,L|360:188,2,60,0|0|0,0:1|1:1|1:1,0:0:0:0:
400,68,88576,1,0,0:0:0:0:
492,148,88946,1,8,0:0:0:0:
