osu file format v14

[General]
AudioFilename: audio.mp3
AudioLeadIn: 0
PreviewTime: -1
Countdown: 1
SampleSet: None
StackLeniency: 0.7
Mode: 3
LetterboxInBreaks: 0
SpecialStyle: 0
WidescreenStoryboard: 0

[Editor]
DistanceSpacing: 0.8
BeatDivisor: 12
GridSize: 8
TimelineZoom: 1

[Metadata]
Title:Sail
TitleUnicode:Sail
Artist:AWOLNATION
ArtistUnicode:AWOLNATION
Creator:-Fareoh-
Version:gravity
Source:
Tags:
BeatmapID:1282331
BeatmapSetID:607064

[Difficulty]
HPDrainRate:7
CircleSize:4
OverallDifficulty:6
ApproachRate:5
SliderMultiplier:1.4
SliderTickRate:1

[Events]
//Background and Video events
//Break Periods
//Storyboard Layer 0 (Background)
//Storyboard Layer 1 (Fail)
//Storyboard Layer 2 (Pass)
//Storyboard Layer 3 (Foreground)
//Storyboard Sound Samples

[TimingPoints]
82.6481248634492,400,4,2,0,100,1,0
25296,-133.333333333333,4,2,0,100,0,0
25549,-2000,4,2,0,100,0,0
25682,-50,4,2,0,100,0,0
25815,-100,4,2,0,100,0,0
48482,-86.9565217391304,4,2,0,100,0,0
50882,-83.3333333333333,4,2,0,100,0,0
51149,-133.333333333333,4,2,0,100,0,0
51282,-100,4,2,0,100,0,0
77815,-2000,4,2,0,100,0,0
77882,-50,4,2,0,100,0,0
77915,-100,4,2,0,100,0,0
78015,-2000,4,2,0,100,0,0
78149,-50,4,2,0,100,0,0
78182,-100,4,2,0,100,0,0
78282,-2000,4,2,0,100,0,0
78382,-50,4,2,0,100,0,0
78415,-100,4,2,0,100,0,0
78782,-2000,4,2,0,100,0,0
78915,-50,4,2,0,100,0,0
78982,-100,4,2,0,100,0,0
79449,-2000,4,2,0,100,0,0
79515,-50,4,2,0,100,0,0
79549,-100,4,2,0,100,0,0
79615,-2000,4,2,0,100,0,0
79649,-50,4,2,0,100,0,0
79682,-100,4,2,0,100,0,0
79715,-2000,4,2,0,100,0,0
79749,-50,4,2,0,100,0,0
79782,-100,4,2,0,100,0,0
79815,-2000,4,2,0,100,0,0
79849,-50,4,2,0,100,0,0
79882,-100,4,2,0,100,0,0
80515,-2000,4,2,0,100,0,0
80615,-50,4,2,0,100,0,0
80682,-100,4,2,0,100,0,0
80915,-2000,4,2,0,100,0,0
81049,-50,4,2,0,100,0,0
81115,-100,4,2,0,100,0,0
81515,-2000,4,2,0,100,0,0
81649,-50,4,2,0,100,0,0
81715,-100,4,2,0,100,0,0
82115,-2000,4,2,0,100,0,0
82249,-50,4,2,0,100,0,0
82315,-100,4,2,0,100,0,0
82515,-2000,4,2,0,100,0,0
82649,-50,4,2,0,100,0,0
82682,-100,4,2,0,100,0,0
83015,-2000,4,2,0,100,0,0
83149,-50,4,2,0,100,0,0
83215,-100,4,2,0,100,0,0

[HitObjects]
64,192,82,5,0,0:0:0:0:
448,192,82,1,0,0:0:0:0:
448,192,482,1,0,0:0:0:0:
448,192,882,1,0,0:0:0:0:
448,192,1282,1,0,0:0:0:0:
448,192,1682,1,0,0:0:0:0:
448,192,2082,1,0,0:0:0:0:
448,192,2482,1,0,0:0:0:0:
448,192,2882,1,0,0:0:0:0:
448,192,3282,1,0,0:0:0:0:
64,192,3282,1,0,0:0:0:0:
448,192,3682,1,0,0:0:0:0:
448,192,4082,1,0,0:0:0:0:
448,192,4482,1,0,0:0:0:0:
448,192,4882,1,0,0:0:0:0:
448,192,5282,1,0,0:0:0:0:
448,192,5682,1,0,0:0:0:0:
448,192,6082,1,0,0:0:0:0:
320,192,6482,1,0,0:0:0:0:
192,192,6482,1,0,0:0:0:0:
192,192,6882,1,0,0:0:0:0:
192,192,7282,1,0,0:0:0:0:
192,192,7682,1,0,0:0:0:0:
192,192,8082,1,0,0:0:0:0:
192,192,8482,1,0,0:0:0:0:
192,192,8882,1,0,0:0:0:0:
192,192,9282,1,0,0:0:0:0:
192,192,9682,1,0,0:0:0:0:
320,192,9682,1,0,0:0:0:0:
320,192,10082,1,0,0:0:0:0:
320,192,10482,1,0,0:0:0:0:
320,192,10882,1,0,0:0:0:0:
64,192,11282,1,0,0:0:0:0:
64,192,11682,1,0,0:0:0:0:
64,192,12082,1,0,0:0:0:0:
64,192,12482,1,0,0:0:0:0:
64,192,12882,1,0,0:0:0:0:
448,192,12882,1,0,0:0:0:0:
448,192,13282,1,0,0:0:0:0:
448,192,13682,1,0,0:0:0:0:
448,192,13815,1,0,0:0:0:0:
448,192,13949,1,0,0:0:0:0:
320,192,14082,1,0,0:0:0:0:
320,192,14215,1,0,0:0:0:0:
320,192,14349,1,0,0:0:0:0:
192,192,14482,1,0,0:0:0:0:
64,192,14882,1,0,0:0:0:0:
192,192,15282,1,0,0:0:0:0:
320,192,15549,1,0,0:0:0:0:
448,192,15682,1,0,0:0:0:0:
64,192,16082,1,0,0:0:0:0:
448,192,16082,1,0,0:0:0:0:
64,192,16482,128,0,16615:0:0:0:0:
448,192,16482,128,0,16615:0:0:0:0:
448,192,16882,1,0,0:0:0:0:
448,192,17015,1,0,0:0:0:0:
448,192,17149,1,0,0:0:0:0:
320,192,17282,1,0,0:0:0:0:
320,192,17415,1,0,0:0:0:0:
320,192,17549,1,0,0:0:0:0:
192,192,17682,1,0,0:0:0:0:
64,192,18082,1,0,0:0:0:0:
192,192,18482,1,0,0:0:0:0:
320,192,18749,1,0,0:0:0:0:
448,192,18882,1,0,0:0:0:0:
64,192,19282,1,0,0:0:0:0:
320,192,19282,1,0,0:0:0:0:
64,192,19682,128,0,19815:0:0:0:0:
448,192,19682,128,0,19815:0:0:0:0:
192,192,20082,1,0,0:0:0:0:
192,192,20215,1,0,0:0:0:0:
192,192,20349,1,0,0:0:0:0:
448,192,20482,1,0,0:0:0:0:
448,192,20615,1,0,0:0:0:0:
448,192,20749,1,0,0:0:0:0:
320,192,20882,1,0,0:0:0:0:
448,192,21282,1,0,0:0:0:0:
320,192,21682,1,0,0:0:0:0:
448,192,21949,1,0,0:0:0:0:
192,192,22082,1,0,0:0:0:0:
448,192,22482,1,0,0:0:0:0:
64,192,22482,1,0,0:0:0:0:
64,192,22882,128,0,23015:0:0:0:0:
448,192,22882,128,0,23015:0:0:0:0:
64,192,23282,1,0,0:0:0:0:
320,192,23282,1,0,0:0:0:0:
64,192,23415,1,0,0:0:0:0:
192,192,23415,1,0,0:0:0:0:
64,192,23549,1,0,0:0:0:0:
320,192,23549,1,0,0:0:0:0:
64,192,23682,1,0,0:0:0:0:
192,192,23682,1,0,0:0:0:0:
64,192,23815,1,0,0:0:0:0:
320,192,23815,1,0,0:0:0:0:
64,192,23949,1,0,0:0:0:0:
192,192,23949,1,0,0:0:0:0:
448,192,24082,1,0,0:0:0:0:
320,192,24082,1,0,0:0:0:0:
320,192,24482,1,0,0:0:0:0:
64,192,24482,128,0,24615:0:0:0:0:
192,192,24882,1,0,0:0:0:0:
64,192,24882,1,0,0:0:0:0:
320,192,24882,1,0,0:0:0:0:
192,192,25015,1,0,0:0:0:0:
448,192,25015,1,0,0:0:0:0:
192,192,25149,1,0,0:0:0:0:
320,192,25149,1,0,0:0:0:0:
64,192,25682,1,0,0:0:0:0:
448,192,25682,1,0,0:0:0:0:
192,192,25682,1,0,0:0:0:0:
320,192,25682,1,0,0:0:0:0:
64,192,26082,128,0,26215:0:0:0:0:
448,192,26082,128,0,26215:0:0:0:0:
448,192,26482,1,0,0:0:0:0:
64,192,26482,1,0,0:0:0:0:
448,192,26615,1,0,0:0:0:0:
192,192,26615,1,0,0:0:0:0:
448,192,26749,1,0,0:0:0:0:
320,192,26749,1,0,0:0:0:0:
320,192,26882,1,0,0:0:0:0:
192,192,26882,1,0,0:0:0:0:
320,192,27015,1,0,0:0:0:0:
448,192,27015,1,0,0:0:0:0:
320,192,27149,1,0,0:0:0:0:
64,192,27149,1,0,0:0:0:0:
192,192,27282,1,0,0:0:0:0:
448,192,27282,1,0,0:0:0:0:
64,192,27682,1,0,0:0:0:0:
320,192,27682,1,0,0:0:0:0:
192,192,28082,1,0,0:0:0:0:
320,192,28082,1,0,0:0:0:0:
320,192,28349,1,0,0:0:0:0:
192,192,28349,1,0,0:0:0:0:
448,192,28482,1,0,0:0:0:0:
320,192,28482,1,0,0:0:0:0:
192,192,28749,1,0,0:0:0:0:
64,192,28882,1,0,0:0:0:0:
320,192,28882,1,0,0:0:0:0:
448,192,28882,1,0,0:0:0:0:
64,192,29282,128,0,29415:0:0:0:0:
448,192,29282,128,0,29415:0:0:0:0:
192,192,29682,1,0,0:0:0:0:
320,192,29682,1,0,0:0:0:0:
192,192,29815,1,0,0:0:0:0:
448,192,29815,1,0,0:0:0:0:
192,192,29949,1,0,0:0:0:0:
320,192,29949,1,0,0:0:0:0:
448,192,30082,1,0,0:0:0:0:
64,192,30082,1,0,0:0:0:0:
448,192,30215,1,0,0:0:0:0:
320,192,30215,1,0,0:0:0:0:
448,192,30349,1,0,0:0:0:0:
64,192,30349,1,0,0:0:0:0:
320,192,30482,1,0,0:0:0:0:
192,192,30482,1,0,0:0:0:0:
448,192,30882,1,0,0:0:0:0:
320,192,30882,1,0,0:0:0:0:
320,192,31282,1,0,0:0:0:0:
192,192,31282,1,0,0:0:0:0:
448,192,31549,1,0,0:0:0:0:
320,192,31549,1,0,0:0:0:0:
192,192,31682,1,0,0:0:0:0:
64,192,31682,1,0,0:0:0:0:
320,192,31949,1,0,0:0:0:0:
192,192,31949,1,0,0:0:0:0:
448,192,32082,1,0,0:0:0:0:
64,192,32082,1,0,0:0:0:0:
64,192,32482,128,0,32615:0:0:0:0:
448,192,32482,128,0,32615:0:0:0:0:
64,192,32882,1,0,0:0:0:0:
320,192,32882,1,0,0:0:0:0:
64,192,33015,1,0,0:0:0:0:
192,192,33015,1,0,0:0:0:0:
448,192,33015,1,0,0:0:0:0:
64,192,33149,1,0,0:0:0:0:
320,192,33149,1,0,0:0:0:0:
64,192,33282,1,0,0:0:0:0:
192,192,33282,1,0,0:0:0:0:
448,192,33282,1,0,0:0:0:0:
64,192,33415,1,0,0:0:0:0:
320,192,33415,1,0,0:0:0:0:
64,192,33549,1,0,0:0:0:0:
192,192,33549,1,0,0:0:0:0:
448,192,33682,1,0,0:0:0:0:
320,192,33682,1,0,0:0:0:0:
320,192,34082,1,0,0:0:0:0:
192,192,34082,1,0,0:0:0:0:
192,192,34482,1,0,0:0:0:0:
64,192,34482,1,0,0:0:0:0:
320,192,34482,1,0,0:0:0:0:
192,192,34615,1,0,0:0:0:0:
448,192,34615,1,0,0:0:0:0:
192,192,34749,1,0,0:0:0:0:
320,192,34749,1,0,0:0:0:0:
64,192,35282,1,0,0:0:0:0:
448,192,35282,1,0,0:0:0:0:
64,192,35682,128,0,35815:0:0:0:0:
448,192,35682,128,0,35815:0:0:0:0:
320,192,36082,1,0,0:0:0:0:
448,192,36082,1,0,0:0:0:0:
448,192,36215,1,0,0:0:0:0:
448,192,36349,1,0,0:0:0:0:
192,192,36349,1,0,0:0:0:0:
448,192,36482,1,0,0:0:0:0:
320,192,36482,1,0,0:0:0:0:
320,192,36615,1,0,0:0:0:0:
320,192,36749,1,0,0:0:0:0:
192,192,36882,1,0,0:0:0:0:
192,192,37282,1,0,0:0:0:0:
448,192,37282,1,0,0:0:0:0:
192,192,37682,1,0,0:0:0:0:
320,192,37682,1,0,0:0:0:0:
320,192,37815,1,0,0:0:0:0:
448,192,37815,1,0,0:0:0:0:
320,192,37949,1,0,0:0:0:0:
64,192,37949,1,0,0:0:0:0:
192,192,38082,1,0,0:0:0:0:
320,192,38082,1,0,0:0:0:0:
448,192,38215,1,0,0:0:0:0:
192,192,38349,1,0,0:0:0:0:
192,192,38482,1,0,0:0:0:0:
64,192,38482,1,0,0:0:0:0:
64,192,38882,128,0,39015:0:0:0:0:
448,192,38882,128,0,39015:0:0:0:0:
192,192,39282,1,0,0:0:0:0:
320,192,39282,1,0,0:0:0:0:
192,192,39415,1,0,0:0:0:0:
448,192,39415,1,0,0:0:0:0:
192,192,39549,1,0,0:0:0:0:
320,192,39549,1,0,0:0:0:0:
448,192,39682,1,0,0:0:0:0:
64,192,39682,1,0,0:0:0:0:
448,192,39815,1,0,0:0:0:0:
320,192,39815,1,0,0:0:0:0:
448,192,39949,1,0,0:0:0:0:
64,192,39949,1,0,0:0:0:0:
320,192,40082,1,0,0:0:0:0:
192,192,40082,1,0,0:0:0:0:
448,192,40482,1,0,0:0:0:0:
320,192,40482,1,0,0:0:0:0:
320,192,40882,1,0,0:0:0:0:
192,192,40882,1,0,0:0:0:0:
448,192,41149,1,0,0:0:0:0:
320,192,41149,1,0,0:0:0:0:
192,192,41282,1,0,0:0:0:0:
64,192,41282,1,0,0:0:0:0:
320,192,41549,1,0,0:0:0:0:
192,192,41549,1,0,0:0:0:0:
448,192,41682,1,0,0:0:0:0:
64,192,41682,1,0,0:0:0:0:
64,192,42082,128,0,42215:0:0:0:0:
448,192,42082,128,0,42215:0:0:0:0:
64,192,42482,1,0,0:0:0:0:
320,192,42482,1,0,0:0:0:0:
64,192,42615,1,0,0:0:0:0:
192,192,42615,1,0,0:0:0:0:
448,192,42615,1,0,0:0:0:0:
64,192,42749,1,0,0:0:0:0:
320,192,42749,1,0,0:0:0:0:
64,192,42882,1,0,0:0:0:0:
192,192,42882,1,0,0:0:0:0:
448,192,42882,1,0,0:0:0:0:
64,192,43015,1,0,0:0:0:0:
320,192,43015,1,0,0:0:0:0:
64,192,43149,1,0,0:0:0:0:
192,192,43149,1,0,0:0:0:0:
448,192,43282,1,0,0:0:0:0:
320,192,43282,1,0,0:0:0:0:
320,192,43682,1,0,0:0:0:0:
192,192,43682,1,0,0:0:0:0:
192,192,44082,1,0,0:0:0:0:
64,192,44082,1,0,0:0:0:0:
320,192,44082,1,0,0:0:0:0:
192,192,44215,1,0,0:0:0:0:
448,192,44215,1,0,0:0:0:0:
192,192,44349,1,0,0:0:0:0:
320,192,44349,1,0,0:0:0:0:
192,192,44682,1,0,0:0:0:0:
320,192,44682,1,0,0:0:0:0:
64,192,44882,1,0,0:0:0:0:
448,192,44882,1,0,0:0:0:0:
64,192,45282,128,0,45415:0:0:0:0:
448,192,45282,128,0,45415:0:0:0:0:
192,192,45282,1,0,0:0:0:0:
320,192,45682,1,0,0:0:0:0:
448,192,45682,1,0,0:0:0:0:
192,192,45682,1,0,0:0:0:0:
448,192,45815,1,0,0:0:0:0:
448,192,45949,1,0,0:0:0:0:
192,192,45949,1,0,0:0:0:0:
64,192,45949,1,0,0:0:0:0:
448,192,46082,1,0,0:0:0:0:
320,192,46082,1,0,0:0:0:0:
320,192,46215,1,0,0:0:0:0:
192,192,46215,1,0,0:0:0:0:
320,192,46349,1,0,0:0:0:0:
448,192,46349,1,0,0:0:0:0:
192,192,46482,1,0,0:0:0:0:
448,192,46482,1,0,0:0:0:0:
192,192,46882,1,0,0:0:0:0:
448,192,46882,1,0,0:0:0:0:
320,192,46882,1,0,0:0:0:0:
192,192,47282,1,0,0:0:0:0:
320,192,47282,1,0,0:0:0:0:
64,192,47282,1,0,0:0:0:0:
320,192,47415,1,0,0:0:0:0:
448,192,47415,1,0,0:0:0:0:
320,192,47549,1,0,0:0:0:0:
64,192,47549,1,0,0:0:0:0:
192,192,47682,1,0,0:0:0:0:
320,192,47682,1,0,0:0:0:0:
320,192,47815,1,0,0:0:0:0:
448,192,47815,1,0,0:0:0:0:
320,192,47949,1,0,0:0:0:0:
192,192,47949,1,0,0:0:0:0:
192,192,48082,1,0,0:0:0:0:
64,192,48082,1,0,0:0:0:0:
448,192,48082,1,0,0:0:0:0:
64,192,48482,128,0,48749:0:0:0:0:
448,192,48482,128,0,48615:0:0:0:0:
192,192,48482,1,0,0:0:0:0:
448,192,48882,1,0,0:0:0:0:
320,192,48882,1,0,0:0:0:0:
320,192,49015,1,0,0:0:0:0:
192,192,49015,1,0,0:0:0:0:
192,192,49149,1,0,0:0:0:0:
64,192,49149,1,0,0:0:0:0:
448,192,49149,1,0,0:0:0:0:
64,192,49282,1,0,0:0:0:0:
448,192,49282,1,0,0:0:0:0:
448,192,49415,1,0,0:0:0:0:
192,192,49415,1,0,0:0:0:0:
448,192,49549,1,0,0:0:0:0:
320,192,49549,1,0,0:0:0:0:
64,192,49549,1,0,0:0:0:0:
320,192,49682,1,0,0:0:0:0:
448,192,49682,1,0,0:0:0:0:
192,192,49682,1,0,0:0:0:0:
320,192,50082,1,0,0:0:0:0:
320,192,50482,1,0,0:0:0:0:
192,192,50482,1,0,0:0:0:0:
192,192,50615,1,0,0:0:0:0:
320,192,50615,1,0,0:0:0:0:
64,192,50615,1,0,0:0:0:0:
192,192,50749,1,0,0:0:0:0:
448,192,50749,1,0,0:0:0:0:
320,192,50882,1,0,0:0:0:0:
192,192,50882,1,0,0:0:0:0:
64,192,51282,1,0,0:0:0:0:
448,192,51282,1,0,0:0:0:0:
192,192,51349,1,0,0:0:0:0:
320,192,51415,1,0,0:0:0:0:
64,192,51482,1,0,0:0:0:0:
448,192,51482,1,0,0:0:0:0:
320,192,51549,1,0,0:0:0:0:
192,192,51615,1,0,0:0:0:0:
64,192,51682,1,0,0:0:0:0:
192,192,51749,1,0,0:0:0:0:
320,192,51815,1,0,0:0:0:0:
448,192,51882,1,0,0:0:0:0:
64,192,51982,1,0,0:0:0:0:
448,192,51982,1,0,0:0:0:0:
320,192,51982,1,0,0:0:0:0:
192,192,51982,128,0,52282:0:0:0:0:
448,192,52082,1,0,0:0:0:0:
64,192,52215,1,0,0:0:0:0:
320,192,52282,1,0,0:0:0:0:
448,192,52482,1,0,0:0:0:0:
320,192,52682,1,0,0:0:0:0:
192,192,52882,1,0,0:0:0:0:
320,192,53282,1,0,0:0:0:0:
192,192,53282,1,0,0:0:0:0:
448,192,53482,1,0,0:0:0:0:
320,192,53482,1,0,0:0:0:0:
448,192,53682,1,0,0:0:0:0:
320,192,53882,1,0,0:0:0:0:
192,192,54082,1,0,0:0:0:0:
64,192,54382,1,0,0:0:0:0:
320,192,54382,1,0,0:0:0:0:
192,192,54415,1,0,0:0:0:0:
320,192,54482,1,0,0:0:0:0:
448,192,54549,1,0,0:0:0:0:
320,192,54615,1,0,0:0:0:0:
192,192,54682,1,0,0:0:0:0:
64,192,54749,1,0,0:0:0:0:
448,192,54749,1,0,0:0:0:0:
320,192,54815,1,0,0:0:0:0:
192,192,54882,1,0,0:0:0:0:
64,192,54949,1,0,0:0:0:0:
192,192,55015,1,0,0:0:0:0:
320,192,55082,1,0,0:0:0:0:
448,192,55149,1,0,0:0:0:0:
320,192,55215,1,0,0:0:0:0:
192,192,55282,1,0,0:0:0:0:
64,192,55282,1,0,0:0:0:0:
320,192,55415,1,0,0:0:0:0:
448,192,55682,1,0,0:0:0:0:
320,192,55882,1,0,0:0:0:0:
192,192,56015,1,0,0:0:0:0:
64,192,56415,1,0,0:0:0:0:
192,192,56882,1,0,0:0:0:0:
64,192,56882,1,0,0:0:0:0:
448,192,56882,1,0,0:0:0:0:
320,192,56882,128,0,57282:0:0:0:0:
192,192,57082,1,0,0:0:0:0:
64,192,57282,1,0,0:0:0:0:
448,192,57282,1,0,0:0:0:0:
192,192,57549,1,0,0:0:0:0:
64,192,57682,1,0,0:0:0:0:
448,192,57682,1,0,0:0:0:0:
192,192,57749,1,0,0:0:0:0:
320,192,57815,1,0,0:0:0:0:
64,192,57815,1,0,0:0:0:0:
448,192,57882,1,0,0:0:0:0:
192,192,57882,1,0,0:0:0:0:
320,192,57949,1,0,0:0:0:0:
64,192,57949,1,0,0:0:0:0:
448,192,58015,1,0,0:0:0:0:
192,192,58015,1,0,0:0:0:0:
320,192,58082,1,0,0:0:0:0:
448,192,58149,1,0,0:0:0:0:
320,192,58215,1,0,0:0:0:0:
192,192,58282,1,0,0:0:0:0:
64,192,58349,1,0,0:0:0:0:
192,192,58415,1,0,0:0:0:0:
320,192,58482,1,0,0:0:0:0:
448,192,58482,1,0,0:0:0:0:
64,192,58482,1,0,0:0:0:0:
192,192,58682,1,0,0:0:0:0:
320,192,58882,1,0,0:0:0:0:
448,192,59082,1,0,0:0:0:0:
320,192,59215,1,0,0:0:0:0:
192,192,59615,1,0,0:0:0:0:
64,192,59882,1,0,0:0:0:0:
64,192,60082,1,0,0:0:0:0:
448,192,60082,1,0,0:0:0:0:
320,192,60282,1,0,0:0:0:0:
64,192,60415,1,0,0:0:0:0:
192,192,60415,1,0,0:0:0:0:
320,192,60815,1,0,0:0:0:0:
448,192,60815,1,0,0:0:0:0:
192,192,60882,1,0,0:0:0:0:
64,192,60949,1,0,0:0:0:0:
448,192,60949,1,0,0:0:0:0:
192,192,61015,1,0,0:0:0:0:
320,192,61082,1,0,0:0:0:0:
448,192,61149,1,0,0:0:0:0:
64,192,61149,1,0,0:0:0:0:
320,192,61215,1,0,0:0:0:0:
192,192,61282,1,0,0:0:0:0:
448,192,61282,1,0,0:0:0:0:
64,192,61349,1,0,0:0:0:0:
320,192,61349,1,0,0:0:0:0:
192,192,61415,1,0,0:0:0:0:
64,192,61482,1,0,0:0:0:0:
448,192,61482,1,0,0:0:0:0:
192,192,61549,1,0,0:0:0:0:
320,192,61615,1,0,0:0:0:0:
448,192,61682,1,0,0:0:0:0:
64,192,61682,1,0,0:0:0:0:
192,192,61682,128,0,61882:0:0:0:0:
64,192,61882,1,0,0:0:0:0:
320,192,61949,1,0,0:0:0:0:
448,192,62082,1,0,0:0:0:0:
192,192,62082,1,0,0:0:0:0:
320,192,62282,1,0,0:0:0:0:
64,192,62482,1,0,0:0:0:0:
192,192,62549,1,0,0:0:0:0:
320,192,62615,1,0,0:0:0:0:
448,192,62682,1,0,0:0:0:0:
320,192,62749,1,0,0:0:0:0:
192,192,62815,1,0,0:0:0:0:
448,192,62815,1,0,0:0:0:0:
64,192,62882,1,0,0:0:0:0:
320,192,62882,1,0,0:0:0:0:
192,192,62949,1,0,0:0:0:0:
64,192,63015,1,0,0:0:0:0:
192,192,63082,1,0,0:0:0:0:
320,192,63149,1,0,0:0:0:0:
448,192,63215,1,0,0:0:0:0:
320,192,63282,1,0,0:0:0:0:
64,192,63282,1,0,0:0:0:0:
192,192,63349,1,0,0:0:0:0:
320,192,63415,1,0,0:0:0:0:
64,192,63415,1,0,0:0:0:0:
448,192,63482,1,0,0:0:0:0:
320,192,63549,1,0,0:0:0:0:
64,192,63549,1,0,0:0:0:0:
192,192,63615,1,0,0:0:0:0:
64,192,63682,1,0,0:0:0:0:
320,192,63682,1,0,0:0:0:0:
448,192,63749,1,0,0:0:0:0:
320,192,63815,1,0,0:0:0:0:
192,192,63882,1,0,0:0:0:0:
64,192,63949,1,0,0:0:0:0:
192,192,64015,1,0,0:0:0:0:
320,192,64082,1,0,0:0:0:0:
64,192,64082,1,0,0:0:0:0:
448,192,64149,1,0,0:0:0:0:
192,192,64149,1,0,0:0:0:0:
320,192,64215,1,0,0:0:0:0:
64,192,64215,1,0,0:0:0:0:
448,192,64282,1,0,0:0:0:0:
192,192,64282,1,0,0:0:0:0:
320,192,64349,1,0,0:0:0:0:
448,192,64415,1,0,0:0:0:0:
320,192,64482,1,0,0:0:0:0:
192,192,64549,1,0,0:0:0:0:
448,192,64549,1,0,0:0:0:0:
64,192,64615,1,0,0:0:0:0:
320,192,64615,1,0,0:0:0:0:
192,192,64682,1,0,0:0:0:0:
64,192,64749,1,0,0:0:0:0:
192,192,64815,1,0,0:0:0:0:
320,192,64882,1,0,0:0:0:0:
448,192,64882,1,0,0:0:0:0:
64,192,64882,1,0,0:0:0:0:
192,192,65082,1,0,0:0:0:0:
320,192,65282,1,0,0:0:0:0:
448,192,65482,1,0,0:0:0:0:
320,192,65615,1,0,0:0:0:0:
192,192,66082,1,0,0:0:0:0:
64,192,66282,1,0,0:0:0:0:
192,192,66482,1,0,0:0:0:0:
448,192,66482,1,0,0:0:0:0:
320,192,66682,1,0,0:0:0:0:
192,192,66882,1,0,0:0:0:0:
64,192,66882,1,0,0:0:0:0:
448,192,66882,1,0,0:0:0:0:
320,192,67082,1,0,0:0:0:0:
64,192,67282,1,0,0:0:0:0:
320,192,67282,1,0,0:0:0:0:
192,192,67282,1,0,0:0:0:0:
448,192,67349,1,0,0:0:0:0:
320,192,67415,1,0,0:0:0:0:
192,192,67482,1,0,0:0:0:0:
64,192,67549,1,0,0:0:0:0:
64,192,67682,1,0,0:0:0:0:
192,192,67749,1,0,0:0:0:0:
320,192,67815,1,0,0:0:0:0:
448,192,67882,1,0,0:0:0:0:
320,192,67949,1,0,0:0:0:0:
192,192,68015,1,0,0:0:0:0:
64,192,68082,1,0,0:0:0:0:
448,192,68082,1,0,0:0:0:0:
192,192,68282,1,0,0:0:0:0:
320,192,68482,1,0,0:0:0:0:
448,192,68682,1,0,0:0:0:0:
320,192,68882,1,0,0:0:0:0:
448,192,69282,1,0,0:0:0:0:
64,192,69282,1,0,0:0:0:0:
320,192,69682,1,0,0:0:0:0:
192,192,69882,1,0,0:0:0:0:
448,192,70015,1,0,0:0:0:0:
320,192,70015,1,0,0:0:0:0:
64,192,70082,1,0,0:0:0:0:
192,192,70282,1,0,0:0:0:0:
320,192,70482,1,0,0:0:0:0:
448,192,70482,1,0,0:0:0:0:
192,192,70549,1,0,0:0:0:0:
64,192,70615,1,0,0:0:0:0:
192,192,70682,1,0,0:0:0:0:
320,192,70749,1,0,0:0:0:0:
448,192,70815,1,0,0:0:0:0:
320,192,70882,1,0,0:0:0:0:
192,192,70949,1,0,0:0:0:0:
448,192,70949,1,0,0:0:0:0:
64,192,71015,1,0,0:0:0:0:
320,192,71015,1,0,0:0:0:0:
192,192,71082,1,0,0:0:0:0:
64,192,71149,1,0,0:0:0:0:
192,192,71215,1,0,0:0:0:0:
320,192,71282,1,0,0:0:0:0:
448,192,71282,1,0,0:0:0:0:
192,192,71415,1,0,0:0:0:0:
64,192,71682,1,0,0:0:0:0:
192,192,71882,1,0,0:0:0:0:
320,192,72082,1,0,0:0:0:0:
448,192,72082,1,0,0:0:0:0:
64,192,72149,1,0,0:0:0:0:
192,192,72182,1,0,0:0:0:0:
320,192,72215,1,0,0:0:0:0:
64,192,72215,1,0,0:0:0:0:
448,192,72249,1,0,0:0:0:0:
192,192,72249,1,0,0:0:0:0:
320,192,72282,1,0,0:0:0:0:
64,192,72282,1,0,0:0:0:0:
448,192,72315,1,0,0:0:0:0:
192,192,72315,1,0,0:0:0:0:
320,192,72349,1,0,0:0:0:0:
448,192,72382,1,0,0:0:0:0:
64,192,72415,1,0,0:0:0:0:
448,192,72449,1,0,0:0:0:0:
320,192,72482,1,0,0:0:0:0:
192,192,72482,1,0,0:0:0:0:
448,192,72549,1,0,0:0:0:0:
320,192,72582,1,0,0:0:0:0:
192,192,72615,1,0,0:0:0:0:
64,192,72649,1,0,0:0:0:0:
192,192,72682,1,0,0:0:0:0:
320,192,72715,1,0,0:0:0:0:
448,192,72749,1,0,0:0:0:0:
320,192,72782,1,0,0:0:0:0:
192,192,72815,1,0,0:0:0:0:
64,192,72849,1,0,0:0:0:0:
448,192,72849,1,0,0:0:0:0:
320,192,72849,1,0,0:0:0:0:
192,192,72882,1,0,0:0:0:0:
320,192,72915,1,0,0:0:0:0:
64,192,72915,1,0,0:0:0:0:
448,192,72949,1,0,0:0:0:0:
192,192,72949,1,0,0:0:0:0:
320,192,72982,1,0,0:0:0:0:
64,192,72982,1,0,0:0:0:0:
192,192,73015,1,0,0:0:0:0:
448,192,73015,1,0,0:0:0:0:
320,192,73049,1,0,0:0:0:0:
448,192,73082,1,0,0:0:0:0:
320,192,73115,1,0,0:0:0:0:
192,192,73149,1,0,0:0:0:0:
64,192,73182,1,0,0:0:0:0:
192,192,73215,1,0,0:0:0:0:
320,192,73249,1,0,0:0:0:0:
448,192,73282,1,0,0:0:0:0:
320,192,73315,1,0,0:0:0:0:
192,192,73349,1,0,0:0:0:0:
64,192,73382,1,0,0:0:0:0:
192,192,73415,1,0,0:0:0:0:
320,192,73449,1,0,0:0:0:0:
448,192,73482,1,0,0:0:0:0:
320,192,73515,1,0,0:0:0:0:
64,192,73515,1,0,0:0:0:0:
192,192,73549,1,0,0:0:0:0:
448,192,73582,1,0,0:0:0:0:
64,192,73582,1,0,0:0:0:0:
192,192,73649,1,0,0:0:0:0:
320,192,73682,1,0,0:0:0:0:
448,192,73715,1,0,0:0:0:0:
64,192,73715,1,0,0:0:0:0:
192,192,73749,1,0,0:0:0:0:
320,192,73782,1,0,0:0:0:0:
448,192,73815,1,0,0:0:0:0:
64,192,73815,1,0,0:0:0:0:
192,192,73849,1,0,0:0:0:0:
320,192,73882,1,0,0:0:0:0:
64,192,73915,1,0,0:0:0:0:
448,192,73915,1,0,0:0:0:0:
192,192,73949,1,0,0:0:0:0:
320,192,73982,1,0,0:0:0:0:
448,192,74015,1,0,0:0:0:0:
64,192,74082,1,0,0:0:0:0:
320,192,74082,1,0,0:0:0:0:
192,192,74082,1,0,0:0:0:0:
448,192,74149,1,0,0:0:0:0:
320,192,74182,1,0,0:0:0:0:
192,192,74215,1,0,0:0:0:0:
64,192,74249,1,0,0:0:0:0:
192,192,74282,1,0,0:0:0:0:
320,192,74315,1,0,0:0:0:0:
448,192,74382,1,0,0:0:0:0:
320,192,74415,1,0,0:0:0:0:
64,192,74449,1,0,0:0:0:0:
192,192,74449,1,0,0:0:0:0:
448,192,74449,1,0,0:0:0:0:
320,192,75315,1,0,0:0:0:0:
448,192,75315,1,0,0:0:0:0:
64,192,75382,1,0,0:0:0:0:
192,192,75415,1,0,0:0:0:0:
320,192,75449,1,0,0:0:0:0:
64,192,75449,1,0,0:0:0:0:
448,192,75482,1,0,0:0:0:0:
192,192,75482,1,0,0:0:0:0:
320,192,75515,1,0,0:0:0:0:
64,192,75515,1,0,0:0:0:0:
448,192,75549,1,0,0:0:0:0:
192,192,75549,1,0,0:0:0:0:
320,192,75582,1,0,0:0:0:0:
448,192,75615,1,0,0:0:0:0:
448,192,75682,1,0,0:0:0:0:
320,192,75682,1,0,0:0:0:0:
192,192,75715,1,0,0:0:0:0:
64,192,75749,1,0,0:0:0:0:
448,192,75782,1,0,0:0:0:0:
320,192,75815,1,0,0:0:0:0:
192,192,75849,1,0,0:0:0:0:
64,192,75882,1,0,0:0:0:0:
192,192,75915,1,0,0:0:0:0:
320,192,75949,1,0,0:0:0:0:
64,192,75949,1,0,0:0:0:0:
448,192,75982,1,0,0:0:0:0:
192,192,75982,1,0,0:0:0:0:
320,192,76015,1,0,0:0:0:0:
64,192,76015,1,0,0:0:0:0:
448,192,76049,1,0,0:0:0:0:
192,192,76049,1,0,0:0:0:0:
320,192,76082,1,0,0:0:0:0:
448,192,76115,1,0,0:0:0:0:
320,192,76182,1,0,0:0:0:0:
192,192,76215,1,0,0:0:0:0:
64,192,76249,1,0,0:0:0:0:
192,192,76282,1,0,0:0:0:0:
320,192,76315,1,0,0:0:0:0:
448,192,76349,1,0,0:0:0:0:
320,192,76382,1,0,0:0:0:0:
448,192,76415,1,0,0:0:0:0:
192,192,76415,1,0,0:0:0:0:
64,192,76449,1,0,0:0:0:0:
320,192,76449,1,0,0:0:0:0:
192,192,76482,1,0,0:0:0:0:
448,192,76482,1,0,0:0:0:0:
64,192,76515,1,0,0:0:0:0:
320,192,76515,1,0,0:0:0:0:
192,192,76549,1,0,0:0:0:0:
448,192,76549,1,0,0:0:0:0:
64,192,76582,1,0,0:0:0:0:
320,192,76582,1,0,0:0:0:0:
192,192,76615,1,0,0:0:0:0:
320,192,76615,1,0,0:0:0:0:
448,192,76615,1,0,0:0:0:0:
64,192,76649,1,0,0:0:0:0:
192,192,76682,1,0,0:0:0:0:
64,192,76715,1,0,0:0:0:0:
192,192,76882,128,0,83282:0:0:0:0:
64,192,76882,1,0,0:0:0:0:
448,192,76882,1,0,0:0:0:0:
320,192,76882,1,0,0:0:0:0:
320,192,77282,1,0,0:0:0:0:
320,192,77782,128,0,77882:0:0:0:0:
320,192,77982,128,0,78149:0:0:0:0:
320,192,78249,128,0,78382:0:0:0:0:
320,192,78749,128,0,78949:0:0:0:0:
320,192,79415,128,0,79515:0:0:0:0:
320,192,79615,1,0,0:0:0:0:
320,192,79715,1,0,0:0:0:0:
320,192,79815,1,0,0:0:0:0:
64,192,79982,1,0,0:0:0:0:
320,192,79982,1,0,0:0:0:0:
448,192,80082,1,0,0:0:0:0:
64,192,80082,1,0,0:0:0:0:
320,192,80482,128,0,80649:0:0:0:0:
320,192,80882,128,0,81082:0:0:0:0:
320,192,81482,128,0,81682:0:0:0:0:
64,192,82082,1,0,0:0:0:0:
448,192,82082,1,0,0:0:0:0:
320,192,82082,128,0,82282:0:0:0:0:
64,192,82482,1,0,0:0:0:0:
320,192,82482,1,0,0:0:0:0:
448,192,82482,128,0,82682:0:0:0:0:
64,192,82682,1,0,0:0:0:0:
320,192,82682,1,0,0:0:0:0:
320,192,82982,128,0,83182:0:0:0:0:
64,192,83282,1,0,0:0:0:0:
320,192,83282,1,0,0:0:0:0:
448,192,83282,128,0,86482:0:0:0:0:
192,192,83682,128,0,83882:0:0:0:0:
320,192,84182,128,0,84382:0:0:0:0:
320,192,84482,1,0,0:0:0:0:
320,192,84649,1,0,0:0:0:0:
64,192,84882,1,0,0:0:0:0:
320,192,84882,1,0,0:0:0:0:
192,192,85282,128,0,85515:0:0:0:0:
320,192,85682,128,0,85882:0:0:0:0:
320,192,85982,1,0,0:0:0:0:
320,192,86082,1,0,0:0:0:0:
320,192,86182,1,0,0:0:0:0:
192,192,86349,1,0,0:0:0:0:
320,192,86482,128,0,88082:0:0:0:0:
64,192,86482,1,0,0:0:0:0:
192,192,86882,128,0,87082:0:0:0:0:
448,192,87282,1,0,0:0:0:0:
64,192,87282,1,0,0:0:0:0:
192,192,87482,128,0,87649:0:0:0:0:
192,192,87782,128,0,87982:0:0:0:0:
64,192,88082,1,0,0:0:0:0:
192,192,88115,1,0,0:0:0:0:
320,192,88149,1,0,0:0:0:0:
448,192,88182,1,0,0:0:0:0:
320,192,88215,1,0,0:0:0:0:
192,192,88249,1,0,0:0:0:0:
64,192,88282,1,0,0:0:0:0:
192,192,88315,1,0,0:0:0:0:
320,192,88349,1,0,0:0:0:0:
448,192,88382,1,0,0:0:0:0:
320,192,88415,1,0,0:0:0:0:
192,192,88449,1,0,0:0:0:0:
64,192,88482,1,0,0:0:0:0:
192,192,88515,1,0,0:0:0:0:
320,192,88549,1,0,0:0:0:0:
448,192,88582,1,0,0:0:0:0:
64,192,88582,1,0,0:0:0:0:
192,192,88615,1,0,0:0:0:0:
320,192,88649,1,0,0:0:0:0:
448,192,88682,1,0,0:0:0:0:
64,192,88682,1,0,0:0:0:0:
192,192,88715,1,0,0:0:0:0:
320,192,88749,1,0,0:0:0:0:
448,192,88782,1,0,0:0:0:0:
320,192,88849,1,0,0:0:0:0:
192,192,88882,1,0,0:0:0:0:
64,192,88915,1,0,0:0:0:0:
192,192,88982,1,0,0:0:0:0:
320,192,89015,1,0,0:0:0:0:
64,192,89015,1,0,0:0:0:0:
448,192,89049,1,0,0:0:0:0:
192,192,89082,1,0,0:0:0:0:
320,192,89115,1,0,0:0:0:0:
64,192,89115,1,0,0:0:0:0:
448,192,89149,1,0,0:0:0:0:
192,192,89182,1,0,0:0:0:0:
320,192,89215,1,0,0:0:0:0:
448,192,89249,1,0,0:0:0:0:
320,192,89315,1,0,0:0:0:0:
192,192,89349,1,0,0:0:0:0:
64,192,89382,1,0,0:0:0:0:
192,192,89415,1,0,0:0:0:0:
320,192,89449,1,0,0:0:0:0:
64,192,89482,1,0,0:0:0:0:
448,192,89482,1,0,0:0:0:0:
192,192,89515,1,0,0:0:0:0:
320,192,89549,1,0,0:0:0:0:
448,192,89582,1,0,0:0:0:0:
