osu file format v14

[General]
AudioFilename: audio.mp3
AudioLeadIn: 0
PreviewTime: 75449
Countdown: 0
SampleSet: Drum
StackLeniency: 0.4
Mode: 0
LetterboxInBreaks: 0
WidescreenStoryboard: 1

[Editor]
Bookmarks: 12577,25151,37726,50300,62875,75449,88024,97455,100598,113173,125747
DistanceSpacing: 0.9
BeatDivisor: 4
GridSize: 4
TimelineZoom: 1.3

[Metadata]
Title:twitterloser
TitleUnicode:twitterloser
Artist:AViT
ArtistUnicode:AViT
Creator:Mimari
Version:normal
Source:
Tags:english hyperpop hyper pop electronic rap ancelysia ancel
BeatmapID:2824655
BeatmapSetID:1365377

[Difficulty]
HPDrainRate:3
CircleSize:3.4
OverallDifficulty:4
ApproachRate:5.5
SliderMultiplier:1.1
SliderTickRate:1

[Events]
//Background and Video events
0,0,"n ature.jpg",0,0
//Break Periods
2,63074,74324
//Storyboard Layer 0 (Background)
//Storyboard Layer 1 (Fail)
//Storyboard Layer 2 (Pass)
//Storyboard Layer 3 (Foreground)
//Storyboard Layer 4 (Overlay)
//Storyboard Sound Samples

[TimingPoints]
3,392.953042111468,4,3,1,75,1,0
12577,-100,4,3,0,75,0,0
37726,-90.9090909090909,4,2,1,90,0,0
59731,-90.9090909090909,4,2,1,90,0,0
75449,-100,4,3,0,75,0,0
76334,-100,4,3,0,75,0,0
97455,-111.111111111111,4,3,0,85,0,0
100598,-90.9090909090908,4,2,1,90,0,0
110029,-90.9090909090908,4,2,1,100,0,0
111012,-90.9090909090908,4,2,1,90,0,0
124962,-111.111111111111,4,2,1,90,0,0
125747,-111.111111111111,4,2,1,55,0,0

[Colours]
Combo1 : 235,150,150
Combo2 : 157,218,156
Combo3 : 226,207,180

[HitObjects]
436,311,12577,6,0,L|455:179,1,110,2|0,0:2|0:0,0:0:0:0:
462,159,13166,1,0,0:0:0:0:
462,159,13363,1,0,0:0:0:0:
417,70,13756,2,0,P|384:66|344:85,1,55,2|2,0:2|0:2,0:0:0:0:
325,103,14149,1,0,0:0:0:0:
247,163,14542,2,0,P|220:167|193:161,1,55,2|0,0:2|0:0,0:0:0:0:
144,151,14935,2,0,P|135:95|125:25,1,110,2|2,0:2|0:2,0:0:0:0:
95,11,15524,1,2,0:2:0:0:
95,11,15721,5,2,0:2:0:0:
27,83,16114,2,0,L|37:158,1,55
43,186,16507,2,0,L|58:284,2,82.5
77,150,17292,2,0,P|137:128|188:154,1,110,2|2,0:2|0:2,0:0:0:0:
249,212,18078,2,0,L|233:288,1,55,2|2,0:2|0:2,0:0:0:0:
227,314,18471,1,2,0:2:0:0:
325,302,18864,6,0,L|351:174,1,110,2|0,3:2|3:0,0:0:0:0:
328,147,19454,1,0,3:0:0:0:
328,147,19650,1,0,3:0:0:0:
340,48,20043,2,0,P|367:34|406:39,1,55,2|2,3:2|3:2,0:0:0:0:
439,42,20436,1,0,3:0:0:0:
492,124,20829,2,0,L|475:242,1,110,2|2,3:2|3:2,0:0:0:0:
469,285,21418,1,2,3:2:0:0:
469,285,21615,1,2,3:2:0:0:
390,345,22008,6,0,B|334:301|334:301|272:318|272:318|266:322|266:322|176:348,1,220,2|0,3:2|0:0,0:0:0:0:
107,291,23187,2,0,P|99:264|114:221,1,55,2|2,3:2|3:2,0:0:0:0:
138,202,23580,2,0,P|152:151|131:86,1,110,0|2,3:0|3:2,0:0:0:0:
51,47,24366,2,0,P|37:72|39:109,1,55,0|2,3:0|3:2,0:0:0:0:
62,140,24759,1,2,3:2:0:0:
138,202,25151,6,0,B|190:190|190:190|203:193|203:193|266:177,1,110,4|0,3:2|3:0,0:0:0:0:
342,165,25937,2,0,L|362:42,1,110,2|2,3:2|3:2,0:0:0:0:
326,27,26527,1,2,3:2:0:0:
326,27,26723,2,0,L|220:52,2,82.5,0|0|0,3:0|3:0|3:0,0:0:0:0:
359,56,27509,1,2,3:2:0:0:
451,91,27902,1,2,3:2:0:0:
484,184,28295,6,0,L|459:301,1,110,2|0,3:2|0:0,0:0:0:0:
379,347,29081,2,0,L|368:280,1,55,2|2,3:2|3:2,0:0:0:0:
361,243,29474,1,2,3:2:0:0:
296,167,29867,2,0,L|314:61,2,82.5,0|0|0,3:0|3:0|3:0,0:0:0:0:
259,200,30653,2,0,L|193:216,1,55,2|2,3:0|3:0,0:0:0:0:
157,223,31046,1,2,3:2:0:0:
68,178,31439,6,0,P|50:124|88:62,2,110,2|0|2,3:0|0:0|3:0,0:0:0:0:
157,223,32618,2,0,L|221:235,1,55,2|2,3:0|0:0,0:0:0:0:
260,239,33011,1,0,3:0:0:0:
260,239,33207,2,0,L|247:113,2,110,0|0|2,3:0|0:0|0:2,0:0:0:0:
195,314,34386,6,0,B|263:358|319:311|319:311|389:259|460:312,1,275,2|2,0:0|0:2,0:0:0:0:
500,219,35761,2,0,L|492:146,1,55,2|2,0:2|0:2,0:0:0:0:
487,115,36154,1,0,0:0:0:0:
166,46,37726,6,0,L|185:187,1,121.000003692627,4|2,1:0|1:3,0:0:0:0:
194,223,38315,1,2,1:3:0:0:
204,276,38512,1,8,1:2:0:0:
123,349,38905,1,2,0:0:0:0:
40,277,39298,6,0,L|21:147,1,121.000003692627,4|2,1:3|3:0,0:0:0:0:
10,103,39887,1,2,3:0:0:0:
10,103,40084,2,0,L|1:28,1,60.5000018463135,8|2,1:2|0:0,0:0:0:0:
43,6,40477,1,2,0:0:0:0:
142,49,40870,6,0,L|269:27,1,121.000003692627,4|2,1:0|1:3,0:0:0:0:
315,19,41459,1,2,1:3:0:0:
315,19,41656,2,0,L|391:6,2,60.5000018463135,8|2|2,1:2|0:0|0:0,0:0:0:0:
261,113,42441,6,0,P|237:171|248:249,1,121.000003692627,4|2,1:0|3:0,0:0:0:0:
259,279,43031,1,2,3:0:0:0:
295,318,43227,1,8,1:2:0:0:
399,349,43620,1,0,1:0:0:0:
488,287,44013,6,0,L|472:151,1,121.000003692627,4|2,1:0|3:1,0:0:0:0:
465,112,44603,1,2,3:1:0:0:
459,57,44799,1,8,1:2:0:0:
357,16,45192,1,2,0:0:0:0:
277,90,45585,6,0,P|211:68|146:56,1,121.000003692627,4|2,1:3|3:0,0:0:0:0:
108,75,46174,1,2,3:0:0:0:
108,75,46371,2,0,P|95:100|85:150,1,60.5000018463135,8|2,1:2|0:0,0:0:0:0:
102,183,46764,1,2,0:0:0:0:
192,243,47157,6,0,P|214:306|216:380,2,121.000003692627,6|2|8,1:0|1:0|1:2,0:0:0:0:
102,183,48336,2,0,P|91:155|88:122,1,60.5000018463135,2|2,0:0|0:0,0:0:0:0:
115,77,48729,6,0,B|192:66|192:66|225:79|225:79|309:66,1,181.500005538941,4|2,1:0|3:2,0:0:0:0:
345,57,49515,1,8,1:2:0:0:
444,101,49908,2,0,L|434:175,1,60.5000018463135,0|0,1:0|0:0,0:0:0:0:
425,214,50300,6,0,L|444:355,1,121.000003692627,4|2,1:0|1:3,0:0:0:0:
400,369,50889,1,2,1:3:0:0:
346,360,51086,1,8,1:2:0:0:
282,271,51479,2,0,L|273:197,1,60.5000018463135,2|2,0:0|0:0,0:0:0:0:
268,156,51872,6,0,B|266:140|266:140|152:117,1,121.000003692627,4|2,1:0|3:0,0:0:0:0:
109,109,52461,1,2,3:0:0:0:
109,109,52658,2,0,L|34:97,1,60.5000018463135,8|2,1:2|0:0,0:0:0:0:
7,134,53051,1,2,0:0:0:0:
81,213,53444,6,0,L|56:349,1,121.000003692627,4|2,1:0|1:2,0:0:0:0:
102,365,54033,1,2,1:3:0:0:
102,365,54230,2,0,L|174:346,1,60.5000018463135,8|2,1:2|0:0,0:0:0:0:
214,360,54623,1,2,0:0:0:0:
307,304,55016,6,0,P|331:246|317:162,1,121.000003692627,4|2,1:0|3:0,0:0:0:0:
300,141,55605,1,2,3:0:0:0:
268,96,55801,1,8,1:2:0:0:
354,30,56194,1,0,1:0:0:0:
457,62,56588,6,0,L|437:199,1,121.000003692627,4|0,1:0|0:0,0:0:0:0:
426,234,57177,1,2,1:3:0:0:
413,286,57373,1,8,1:2:0:0:
320,344,57767,2,0,L|247:324,1,60.5000018463135,2|2,0:0|0:0,0:0:0:0:
208,313,58160,6,0,B|139:312|165:357|72:343,1,121.000003692627,4|2,1:0|3:0,0:0:0:0:
40,341,58748,1,2,3:0:0:0:
40,341,58945,2,0,P|33:314|39:274,1,60.5000018463135,8|2,1:2|0:0,0:0:0:0:
61,233,59338,1,2,0:0:0:0:
123,143,59731,6,0,P|123:72|81:27,2,121.000003692627,6|2|8,1:0|1:0|1:2,0:0:0:0:
189,229,60910,2,0,L|254:244,1,60.5000018463135,2|2,0:0|0:0,0:0:0:0:
292,273,61303,6,0,P|348:259|350:138,1,181.500005538941,4|2,1:0|3:2,0:0:0:0:
318,117,62089,1,8,1:2:0:0:
380,27,62482,2,0,B|405:47|405:47|495:29,1,121.000003692627,4|2,1:0|2:0,1:0:0:0:
388,132,75449,6,0,L|271:113,1,110,2|0,0:2|0:2,0:0:0:0:
229,107,76039,1,0,0:2:0:0:
229,107,76235,1,0,0:0:0:0:
136,143,76628,2,0,L|146:209,1,55,0|2,0:0|0:2,0:0:0:0:
153,246,77021,2,0,L|172:366,2,110,0|2|2,0:0|0:2|0:2,0:0:0:0:
60,211,78200,2,0,L|50:139,1,55,0|2,0:0|0:2,0:0:0:0:
40,108,78593,6,0,P|55:58|108:29,1,110,2|0,0:2|0:0,0:0:0:0:
156,34,79183,1,0,0:0:0:0:
156,34,79379,1,0,0:0:0:0:
237,90,79772,2,0,L|315:73,1,55,0|2,0:0|0:2,0:0:0:0:
339,70,80165,1,0,2:0:0:0:
339,70,81737,6,0,L|319:197,1,110,2|0,0:2|0:0,0:0:0:0:
316,231,82326,1,0,0:0:0:0:
316,231,82523,1,0,0:0:0:0:
387,299,82916,1,0,0:0:0:0:
469,243,83309,2,0,L|486:134,2,110,0|2|2,0:0|0:2|0:2,0:0:0:0:
387,299,84487,2,0,L|398:364,1,55,0|2,0:0|0:2,0:0:0:0:
349,371,84880,6,0,P|300:368|232:325,1,110,2|0,0:2|0:0,0:0:0:0:
213,310,85470,1,0,0:0:0:0:
213,310,85666,1,0,0:0:0:0:
254,220,86059,1,0,0:0:0:0:
194,140,86452,2,0,P|174:87|180:14,2,110,0|2|2,0:0|0:2|0:2,0:0:0:0:
293,134,87631,2,0,L|354:121,1,55,0|2,0:0|0:2,0:0:0:0:
395,112,88024,6,0,B|419:109|419:109|396:206,1,110,4|0,0:2|0:0,0:0:0:0:
389,244,88613,1,0,0:0:0:0:
389,244,88810,1,2,0:2:0:0:
313,308,89203,2,0,L|250:290,1,55,2|0,0:2|0:0,0:0:0:0:
212,277,89596,2,0,P|147:279|100:325,1,110,0|2,0:0|0:2,0:0:0:0:
80,342,90185,1,0,0:0:0:0:
80,342,90382,1,2,0:2:0:0:
25,259,90775,1,0,0:0:0:0:
73,172,91168,6,0,P|91:121|73:68,1,110,2|0,0:2|0:0,0:0:0:0:
53,30,91757,1,0,0:0:0:0:
53,30,91954,1,2,0:2:0:0:
149,7,92346,2,0,L|210:20,1,55,2|2,0:2|0:2,0:0:0:0:
251,25,92739,2,0,P|263:86|268:149,1,110,0|2,0:0|0:2,0:0:0:0:
247,181,93329,1,0,0:0:0:0:
247,181,93525,1,2,0:0:0:0:
212,273,93918,1,2,0:2:0:0:
273,350,94311,6,0,L|387:330,1,110,2|0,0:2|0:0,0:0:0:0:
429,319,94901,1,0,0:0:0:0:
429,319,95097,1,2,0:2:0:0:
483,235,95490,1,2,0:2:0:0:
416,161,95883,2,0,L|287:187,1,110,0|2,0:0|0:2,0:0:0:0:
263,197,96472,1,0,0:0:0:0:
263,197,96669,1,2,0:2:0:0:
166,219,97062,1,2,0:2:0:0:
83,173,97455,6,2,B|34:92|103:24|103:24|177:8|222:54|222:54|260:93|322:75,1,395.999987915039,0|0,3:0|3:0,0:1:0:0:
316,76,100598,6,0,L|301:158,1,60.5000018463135,0|0,1:0|1:0,0:0:0:0:
296,189,100991,1,2,1:3:0:0:
327,233,101188,1,4,1:3:0:0:
379,245,101384,1,8,1:2:0:0:
458,170,101777,1,2,0:0:0:0:
430,64,102170,6,0,B|404:51|404:51|300:80,1,121.000003692627,4|4,1:3|1:3,0:0:0:0:
264,95,102759,1,2,3:0:0:0:
264,95,102956,2,0,L|189:76,1,60.5000018463135,8|2,1:2|0:0,0:0:0:0:
152,67,103349,1,2,0:0:0:0:
46,41,103742,6,0,L|68:168,1,121.000003692627,4|2,1:0|1:2,0:0:0:0:
76,214,104331,1,2,1:3:0:0:
76,214,104528,2,0,L|89:290,1,60.5000018463135,8|2,1:2|0:0,0:0:0:0:
97,327,104921,1,2,1:2:0:0:
198,365,105314,6,0,P|252:360|302:299,1,121.000003692627,4|2,1:0|3:0,0:0:0:0:
310,261,105903,1,2,3:0:0:0:
299,207,106099,1,8,1:2:0:0:
253,108,106492,1,4,1:3:0:0:
265,54,106689,1,4,1:3:0:0:
310,23,106886,6,0,P|363:26|414:72,1,121.000003692627,4|2,1:0|3:1,0:0:0:0:
432,119,107475,1,2,3:1:0:0:
416,171,107671,1,8,1:2:0:0:
469,265,108064,1,2,0:0:0:0:
390,340,108457,6,0,P|324:362|259:374,1,121.000003692627,4|2,1:3|3:0,0:0:0:0:
221,355,109046,1,2,3:0:0:0:
221,355,109243,2,0,P|208:330|198:280,1,60.5000018463135,8|2,1:2|0:0,0:0:0:0:
215,247,109636,1,2,0:0:0:0:
272,154,110029,6,0,P|277:93|297:37,2,121.000003692627,4|4|0,1:3|1:3|1:0,0:0:0:0:
215,247,111208,2,0,P|178:262|115:208,1,121.000003692627,2|0,0:0|3:0,0:0:0:0:
117,219,113173,6,0,L|102:137,1,60.5000018463135,0|2,1:0|3:0,0:0:0:0:
97,106,113566,1,2,3:0:0:0:
128,62,113763,1,6,1:3:0:0:
180,50,113959,1,8,1:2:0:0:
180,50,115138,6,0,B|242:33|239:83|309:61,1,121.000003692627,4|4,1:0|0:0,0:0:0:0:
463,46,116317,2,0,B|401:25|401:25|443:219,1,242.000007385254,4|8,1:0|1:2,0:0:0:0:
379,289,117495,1,0,1:0:0:0:
286,231,117888,6,0,P|231:222|175:257,1,121.000003692627,4|2,1:0|3:0,0:0:0:0:
142,296,118478,1,2,3:0:0:0:
105,336,118674,1,8,1:2:0:0:
33,254,119067,1,0,1:0:0:0:
19,200,119264,1,0,1:0:0:0:
38,149,119460,6,0,L|176:128,1,121.000003692627,4|2,1:0|3:0,0:0:0:0:
211,122,120050,1,6,1:3:0:0:
264,115,120246,1,8,1:2:0:0:
264,115,121425,6,0,L|242:246,1,121.000003692627,4|4,1:0|0:0,0:0:0:0:
25,235,122604,2,0,L|47:366,2,121.000003692627,2|2|8,1:0|1:0|1:2,0:0:0:0:
70,135,123783,5,4,1:3:0:0:
167,86,124176,5,4,1:3:0:0:
270,120,124569,5,4,1:3:0:0:
300,222,124962,6,0,B|286:300|286:300|273:343|217:357|187:323,1,197.99999395752,4|2,3:1|0:0,0:0:0:0:
