osu file format v14

[General]
AudioFilename: audio.mp3
AudioLeadIn: 0
PreviewTime: 75449
Countdown: 0
SampleSet: Drum
StackLeniency: 0.4
Mode: 0
LetterboxInBreaks: 0
WidescreenStoryboard: 0

[Editor]
Bookmarks: 12577,25151,37726,50300,62875,75449,88024,100598,113173,125747
DistanceSpacing: 0.7
BeatDivisor: 8
GridSize: 4
TimelineZoom: 1.8

[Metadata]
Title:twitterloser
TitleUnicode:twitterloser
Artist:AViT
ArtistUnicode:AViT
Creator:Mimari
Version:bye
Source:
Tags:english hyperpop hyper pop electronic rap ancelysia ancel
BeatmapID:2824352
BeatmapSetID:1365377

[Difficulty]
HPDrainRate:5
CircleSize:4
OverallDifficulty:8
ApproachRate:9
SliderMultiplier:1.8
SliderTickRate:1

[Events]
//Background and Video events
0,0,"n ature.jpg",0,0
//Break Periods
2,63074,74849
//Storyboard Layer 0 (Background)
//Storyboard Layer 1 (Fail)
//Storyboard Layer 2 (Pass)
//Storyboard Layer 3 (Foreground)
//Storyboard Layer 4 (Overlay)
//Storyboard Sound Samples

[TimingPoints]
3,392.953042111468,4,3,1,75,1,0
12577,-111.111111111111,4,3,0,75,0,0
12872,-111.111111111111,4,3,0,5,0,0
12970,-111.111111111111,4,3,0,75,0,0
16507,-100,4,3,0,75,0,0
18471,-105.263157894737,4,3,0,75,0,0
19159,-111.111111111111,4,3,0,5,0,0
19257,-105.263157894737,4,3,0,75,0,0
23874,-111.111111111111,4,3,0,5,0,0
23973,-105.263157894737,4,3,0,75,0,0
25446,-111.111111111111,4,3,0,5,0,0
25544,-105.263157894737,4,3,0,75,0,0
33207,-95.2380952380954,4,3,0,75,0,0
33502,-111.111111111111,4,3,0,5,0,0
33600,-95.2380952380954,4,3,0,75,0,0
37726,-62.5,4,2,1,90,0,1
38070,-58.8235294117647,4,2,1,5,0,1
38119,-58.8235294117647,4,2,1,90,0,0
38217,-58.8235294117647,4,2,1,5,0,0
38315,-58.8235294117647,4,2,1,90,0,0
38414,-58.8235294117647,4,2,1,5,0,0
38512,-58.8235294117647,4,2,1,90,0,0
38561,-58.8235294117647,4,2,1,5,0,0
38708,-58.8235294117647,4,2,1,90,0,0
39445,-58.8235294117647,4,2,1,5,0,0
39494,-58.8235294117647,4,2,1,90,0,0
39593,-58.8235294117647,4,2,1,5,0,0
39691,-58.8235294117647,4,2,1,90,0,0
39789,-58.8235294117647,4,2,1,5,0,0
39887,-58.8235294117647,4,2,1,90,0,0
39985,-58.8235294117647,4,2,1,5,0,0
40084,-58.8235294117647,4,2,1,90,0,0
40133,-58.8235294117647,4,2,1,5,0,0
40280,-58.8235294117647,4,2,1,90,0,0
40870,-66.6666666666667,4,2,1,90,0,0
41213,-58.8235294117647,4,2,1,5,0,0
41263,-58.8235294117647,4,2,1,90,0,0
41361,-58.8235294117647,4,2,1,5,0,0
41459,-58.8235294117647,4,2,1,90,0,0
41557,-58.8235294117647,4,2,1,5,0,0
41656,-58.8235294117647,4,2,1,90,0,0
41705,-58.8235294117647,4,2,1,5,0,0
41852,-58.8235294117647,4,2,1,90,0,0
42589,-58.8235294117647,4,2,1,5,0,0
42638,-58.8235294117647,4,2,1,90,0,0
42736,-58.8235294117647,4,2,1,5,0,0
42834,-58.8235294117647,4,2,1,90,0,0
42933,-58.8235294117647,4,2,1,5,0,0
43031,-58.8235294117647,4,2,1,90,0,0
43129,-58.8235294117647,4,2,1,5,0,0
43227,-58.8235294117647,4,2,1,90,0,0
43276,-58.8235294117647,4,2,1,5,0,0
43424,-58.8235294117647,4,2,1,90,0,0
43915,-58.8235294117647,4,2,1,5,0,0
44013,-58.8235294117647,4,2,1,90,0,1
44357,-58.8235294117647,4,2,1,5,0,1
44406,-58.8235294117647,4,2,1,90,0,0
44504,-58.8235294117647,4,2,1,5,0,0
44603,-58.8235294117647,4,2,1,90,0,0
44701,-58.8235294117647,4,2,1,5,0,0
44799,-58.8235294117647,4,2,1,90,0,0
44848,-58.8235294117647,4,2,1,5,0,0
44996,-58.8235294117647,4,2,1,90,0,0
45732,-58.8235294117647,4,2,1,5,0,0
45782,-58.8235294117647,4,2,1,90,0,0
45880,-58.8235294117647,4,2,1,5,0,0
45978,-58.8235294117647,4,2,1,90,0,0
46076,-58.8235294117647,4,2,1,5,0,0
46174,-58.8235294117647,4,2,1,90,0,0
46273,-58.8235294117647,4,2,1,5,0,0
46371,-58.8235294117647,4,2,1,90,0,0
46420,-58.8235294117647,4,2,1,5,0,0
46567,-58.8235294117647,4,2,1,90,0,0
47157,-52.6315789473684,4,2,1,90,0,0
47452,-58.8235294117647,4,2,1,5,0,0
47550,-52.6315789473684,4,2,1,90,0,0
47845,-58.8235294117647,4,2,1,5,0,0
47943,-58.8235294117647,4,2,1,90,0,0
47992,-58.8235294117647,4,2,1,5,0,0
48139,-58.8235294117647,4,2,1,90,0,0
48827,-58.8235294117647,4,2,1,5,0,0
48925,-58.8235294117647,4,2,1,90,0,0
49269,-58.8235294117647,4,2,1,5,0,0
49318,-58.8235294117647,4,2,1,90,0,0
50202,-58.8235294117647,4,2,1,5,0,0
50300,-58.8235294117647,4,2,1,90,0,1
50644,-58.8235294117647,4,2,1,5,0,1
50693,-58.8235294117647,4,2,1,90,0,0
50792,-58.8235294117647,4,2,1,5,0,0
50890,-58.8235294117647,4,2,1,90,0,0
50988,-58.8235294117647,4,2,1,5,0,0
51086,-58.8235294117647,4,2,1,90,0,0
51136,-58.8235294117647,4,2,1,5,0,0
51283,-58.8235294117647,4,2,1,90,0,0
52020,-58.8235294117647,4,2,1,5,0,0
52069,-58.8235294117647,4,2,1,90,0,0
52167,-58.8235294117647,4,2,1,5,0,0
52265,-58.8235294117647,4,2,1,90,0,0
52363,-58.8235294117647,4,2,1,5,0,0
52462,-58.8235294117647,4,2,1,90,0,0
52560,-58.8235294117647,4,2,1,5,0,0
52658,-58.8235294117647,4,2,1,90,0,0
52707,-58.8235294117647,4,2,1,5,0,0
52855,-58.8235294117647,4,2,1,90,0,0
53051,-58.8235294117647,4,2,1,90,0,0
53149,-58.8235294117647,4,2,1,5,0,0
53248,-58.8235294117647,4,2,1,90,0,0
53346,-58.8235294117647,4,2,1,5,0,0
53444,-62.5,4,2,1,90,0,0
53739,-58.8235294117647,4,2,1,5,0,0
53837,-58.8235294117647,4,2,1,90,0,0
53935,-58.8235294117647,4,2,1,5,0,0
54034,-58.8235294117647,4,2,1,90,0,0
54132,-58.8235294117647,4,2,1,5,0,0
54230,-58.8235294117647,4,2,1,90,0,0
54279,-58.8235294117647,4,2,1,5,0,0
54426,-58.8235294117647,4,2,1,90,0,0
55163,-58.8235294117647,4,2,1,5,0,0
55212,-58.8235294117647,4,2,1,90,0,0
55311,-58.8235294117647,4,2,1,5,0,0
55409,-58.8235294117647,4,2,1,90,0,0
55507,-58.8235294117647,4,2,1,5,0,0
55605,-58.8235294117647,4,2,1,90,0,0
55704,-58.8235294117647,4,2,1,5,0,0
55802,-58.8235294117647,4,2,1,90,0,0
55851,-58.8235294117647,4,2,1,5,0,0
55998,-58.8235294117647,4,2,1,90,0,0
56489,-58.8235294117647,4,2,1,5,0,0
56588,-58.8235294117647,4,2,1,90,0,1
57079,-58.8235294117647,4,2,1,5,0,1
57177,-58.8235294117647,4,2,1,90,0,0
57275,-58.8235294117647,4,2,1,5,0,0
57374,-58.8235294117647,4,2,1,90,0,0
57423,-58.8235294117647,4,2,1,5,0,0
57570,-58.8235294117647,4,2,1,90,0,0
58307,-58.8235294117647,4,2,1,5,0,0
58356,-58.8235294117647,4,2,1,90,0,0
58454,-58.8235294117647,4,2,1,5,0,0
58553,-58.8235294117647,4,2,1,90,0,0
58651,-58.8235294117647,4,2,1,5,0,0
58749,-58.8235294117647,4,2,1,90,0,0
58847,-58.8235294117647,4,2,1,5,0,0
58945,-58.8235294117647,4,2,1,90,0,0
58995,-58.8235294117647,4,2,1,5,0,0
59142,-58.8235294117647,4,2,1,90,0,0
59338,-58.8235294117647,4,2,1,90,0,0
59437,-58.8235294117647,4,2,1,5,0,0
59535,-58.8235294117647,4,2,1,90,0,0
59633,-58.8235294117647,4,2,1,5,0,0
59731,-52.6315789473684,4,2,1,90,0,0
60026,-58.8235294117647,4,2,1,5,0,0
60124,-52.6315789473684,4,2,1,90,0,0
60419,-58.8235294117647,4,2,1,5,0,0
60517,-58.8235294117647,4,2,1,90,0,0
61401,-58.8235294117647,4,2,1,5,0,0
61500,-58.8235294117647,4,2,1,90,0,0
61843,-58.8235294117647,4,2,1,5,0,0
61893,-58.8235294117647,4,2,1,90,0,0
62482,-62.5,4,2,1,90,0,0
62875,-62.5,4,2,1,90,0,0
75449,-62.5,4,3,0,75,0,0
76334,-100,4,3,0,75,0,0
76530,-83.3333333333333,4,3,0,75,0,0
77905,-100,4,3,0,75,0,0
78102,-83.3333333333333,4,3,0,75,0,0
79477,-100,4,3,0,75,0,0
79674,-76.9230769230769,4,3,0,75,0,0
82621,-100,4,3,0,75,0,0
82817,-83.3333333333333,4,3,0,75,0,0
84193,-100,4,3,0,75,0,0
84389,-83.3333333333333,4,3,0,75,0,0
85765,-100,4,3,0,75,0,0
85961,-83.3333333333333,4,3,0,75,0,0
87336,-100,4,3,0,75,0,0
87532,-71.4285714285714,4,3,0,75,0,0
87828,-83.3333333333333,4,3,0,75,0,0
88024,-100,4,3,0,75,0,0
97455,-111.111111111111,4,3,0,85,0,0
100598,-58.8235294117647,4,2,1,90,0,1
100697,-58.8235294117647,4,2,1,5,0,1
100795,-55.5555555555556,4,2,1,90,0,1
100893,-58.8235294117647,4,2,1,5,0,1
100991,-52.6315789473684,4,2,1,90,0,0
101090,-58.8235294117647,4,2,1,5,0,0
101188,-50,4,2,1,90,0,0
101286,-58.8235294117647,4,2,1,5,0,0
101384,-50,4,2,1,90,0,0
101434,-50,4,2,1,5,0,0
101581,-50,4,2,1,90,0,0
102318,-50,4,2,1,5,0,0
102367,-50,4,2,1,90,0,0
102465,-58.8235294117647,4,2,1,5,0,0
102563,-50,4,2,1,90,0,0
102711,-50,4,2,1,5,0,0
102760,-50,4,2,1,90,0,0
102858,-58.8235294117647,4,2,1,5,0,0
102956,-50,4,2,1,90,0,0
103005,-50,4,2,1,5,0,0
103153,-50,4,2,1,90,0,0
103742,-55.5555555555556,4,2,1,90,0,0
104086,-55.5555555555556,4,2,1,5,0,0
104135,-52.6315789473684,4,2,1,90,0,0
104233,-58.8235294117647,4,2,1,5,0,0
104332,-52.6315789473684,4,2,1,90,0,0
104430,-58.8235294117647,4,2,1,5,0,0
104528,-52.6315789473684,4,2,1,90,0,0
104577,-52.6315789473684,4,2,1,5,0,0
104724,-52.6315789473684,4,2,1,90,0,0
105461,-52.6315789473684,4,2,1,5,0,0
105510,-52.6315789473684,4,2,1,90,0,0
105609,-58.8235294117647,4,2,1,5,0,0
105707,-52.6315789473684,4,2,1,90,0,0
105805,-58.8235294117647,4,2,1,5,0,0
105903,-52.6315789473684,4,2,1,90,0,0
106002,-58.8235294117647,4,2,1,5,0,0
106100,-52.6315789473684,4,2,1,90,0,0
106149,-52.6315789473684,4,2,1,5,0,0
106296,-52.6315789473684,4,2,1,90,0,0
106591,-58.8235294117647,4,2,1,5,0,0
106689,-52.6315789473684,4,2,1,90,0,0
106787,-58.8235294117647,4,2,1,5,0,1
106886,-50,4,2,1,90,0,1
107230,-50,4,2,1,5,0,1
107279,-50,4,2,1,90,0,0
107377,-50,4,2,1,5,0,0
107475,-50,4,2,1,90,0,0
107573,-50,4,2,1,5,0,0
107672,-50,4,2,1,90,0,0
107721,-50,4,2,1,5,0,0
107868,-50,4,2,1,90,0,0
108605,-50,4,2,1,5,0,0
108654,-50,4,2,1,90,0,0
108752,-50,4,2,1,5,0,0
108850,-50,4,2,1,90,0,0
108949,-50,4,2,1,5,0,0
109047,-50,4,2,1,90,0,0
109145,-50,4,2,1,5,0,0
109243,-50,4,2,1,90,0,0
109293,-50,4,2,1,5,0,0
109440,-50,4,2,1,90,0,0
110029,-47.6190476190476,4,2,1,100,0,0
110324,-50,4,2,1,5,0,0
110422,-47.6190476190476,4,2,1,100,0,0
110717,-50,4,2,1,5,0,0
110815,-50,4,2,1,100,0,0
110864,-50,4,2,1,5,0,0
111012,-50,4,2,1,90,0,0
113173,-58.8235294117647,4,2,1,90,0,1
113271,-58.8235294117647,4,2,1,5,0,1
113369,-55.5555555555556,4,2,1,90,0,1
113468,-55.5555555555556,4,2,1,5,0,1
113566,-52.6315789473684,4,2,1,90,0,0
113664,-50,4,2,1,5,0,0
113762,-50,4,2,1,90,0,0
113861,-50,4,2,1,5,0,0
113959,-50,4,2,1,90,0,0
114008,-50,4,2,1,5,0,0
114941,-50,4,2,1,90,0,0
115432,-50,4,2,1,5,0,0
115482,-50,4,2,1,90,0,0
115531,-50,4,2,1,90,0,0
115727,-76.9230769230769,4,2,1,90,0,0
116218,-50,4,2,1,5,0,0
116317,-50,4,2,1,90,0,0
117545,-50,4,2,1,5,0,0
117692,-50,4,2,1,90,0,0
118036,-50,4,2,1,5,0,0
118085,-50,4,2,1,90,0,0
118183,-50,4,2,1,5,0,0
118281,-50,4,2,1,90,0,0
118380,-50,4,2,1,5,0,0
118478,-50,4,2,1,90,0,0
119460,-58.8235294117647,4,2,1,90,0,1
119558,-58.8235294117647,4,2,1,5,0,1
119657,-55.5555555555556,4,2,1,90,0,1
119755,-55.5555555555556,4,2,1,5,0,1
119853,-52.6315789473684,4,2,1,90,0,0
119951,-50,4,2,1,5,0,0
120050,-50,4,2,1,90,0,0
120148,-50,4,2,1,5,0,0
120246,-50,4,2,1,90,0,0
120292,-50,4,2,1,5,0,0
121229,-50,4,2,1,90,0,0
121769,-50,4,2,1,5,0,0
121818,-71.4285714285714,4,2,1,90,0,0
122506,-50,4,2,1,5,0,0
122604,-47.6190476190476,4,2,1,90,0,0
122899,-50,4,2,1,5,0,0
122997,-47.6190476190476,4,2,1,90,0,0
123292,-50,4,2,1,5,0,0
123390,-47.6190476190476,4,2,1,90,0,0
123439,-50,4,2,1,5,0,0
123783,-43.4782608695652,4,2,1,90,0,0
123881,-50,4,2,1,5,0,0
124176,-43.4782608695652,4,2,1,90,0,0
124274,-50,4,2,1,5,0,0
124569,-43.4782608695652,4,2,1,90,0,0
124667,-50,4,2,1,5,0,0
124962,-133.333333333333,4,2,1,90,0,0
125747,-133.333333333333,4,2,1,55,0,0

[Colours]
Combo1 : 235,150,150
Combo2 : 157,218,156
Combo3 : 226,207,180

[HitObjects]
349,25,12577,6,0,P|336:92|326:158,1,121.499996292114,2|0,0:2|0:0,0:0:0:0:
332,154,12970,5,0,0:0:0:0:
336,163,13166,1,0,0:0:0:0:
410,214,13363,6,0,P|415:256|419:296,1,80.9999975280763
350,384,13756,5,2,0:2:0:0:
271,351,13952,1,2,0:2:0:0:
250,268,14149,1,0,0:0:0:0:
250,268,14542,6,0,P|254:227|258:187,1,80.9999975280763,2|0,0:2|0:0,0:0:0:0:
199,125,14935,1,2,0:2:0:0:
119,158,15131,1,2,0:2:0:0:
97,240,15328,5,2,0:2:0:0:
112,148,15524,1,2,0:2:0:0:
46,97,15721,1,2,0:2:0:0:
46,97,16114,5,0,0:0:0:0:
46,97,16212,2,0,L|37:159,1,40.4999987640381
164,283,16507,6,0,P|159:331|137:376,1,90
189,299,16801,2,0,P|152:330|104:347,1,90
105,319,17096,1,0,0:0:0:0:
236,372,17292,6,0,P|279:359|333:343,1,90,2|0,0:2|0:0,0:0:0:0:
448,384,17685,1,2,0:2:0:0:
401,311,17881,1,2,0:2:0:0:
432,230,18078,5,2,0:2:0:0:
390,315,18274,1,2,0:2:0:0:
304,329,18471,2,0,P|258:315|216:304,1,85.4999977169037,2|2,0:2|0:0,0:0:0:0:
157,214,18864,6,0,P|144:147|132:72,1,128.249996575356,2|0,3:2|0:0,0:0:0:0:
143,66,19257,5,0,3:0:0:0:
215,28,19454,1,0,3:0:0:0:
292,62,19650,1,0,3:0:0:0:
309,143,19847,5,0,3:0:0:0:
284,63,20043,1,2,3:2:0:0:
349,0,20240,1,2,3:2:0:0:
465,97,20436,5,0,3:0:0:0:
375,83,20633,5,0,3:0:0:0:
379,98,20731,1,0,3:0:0:0:
383,112,20829,1,2,3:2:0:0:
363,201,21025,1,0,3:0:0:0:
425,268,21222,5,2,3:2:0:0:
354,193,21419,1,2,3:2:0:0:
265,218,21615,1,2,3:2:0:0:
240,318,21812,1,2,3:2:0:0:
320,376,22008,6,0,B|363:397|400:363|400:363|439:330|510:363,2,170.999995433807,2|0|0,3:2|0:0|0:0,0:0:0:0:
320,376,23187,5,2,3:2:0:0:
351,301,23383,1,2,3:2:0:0:
311,224,23580,2,0,P|240:233|171:244,1,128.249996575356,0|0,3:0|0:0,0:0:0:0:
167,244,23973,5,2,3:2:0:0:
131,170,24169,1,0,3:0:0:0:
179,100,24366,1,0,3:0:0:0:
263,96,24562,5,2,3:2:0:0:
182,112,24759,1,2,3:2:0:0:
110,61,24955,1,2,3:2:0:0:
299,0,25151,6,0,P|357:28|391:91,1,128.249996575356,4|0,3:2|0:0,0:0:0:0:
391,101,25544,5,0,3:0:0:0:
385,120,25741,1,0,3:0:0:0:
512,179,25937,5,2,3:2:0:0:
503,163,26036,1,2,3:2:0:0:
496,149,26134,2,0,P|476:137|449:131,1,42.7499988584519,2|0,3:2|0:0,3:0:0:0:
346,234,26330,5,2,3:2:0:0:
436,207,26527,1,2,3:2:0:0:
245,171,26723,5,0,3:0:0:0:
385,356,27018,5,0,3:0:0:0:
385,120,27313,5,0,3:0:0:0:
268,313,27509,5,2,3:2:0:0:
251,307,27607,1,2,3:2:0:0:
233,303,27706,2,0,P|204:311|169:323,1,42.7499988584519,2|0,3:2|0:0,0:0:0:0:
287,238,27902,5,2,3:2:0:0:
362,221,28099,1,2,3:2:0:0:
163,153,28295,5,2,3:2:0:0:
235,384,28541,5,0,3:0:0:0:
417,323,28786,5,0,3:0:0:0:
287,238,29081,5,2,3:2:0:0:
275,246,29179,1,2,3:2:0:0:
268,257,29278,2,0,P|262:282|263:313,1,42.7499988584519,2|0,3:2|0:0,0:0:0:0:
362,221,29474,5,2,3:2:0:0:
306,156,29670,1,2,3:2:0:0:
139,299,29867,5,0,3:0:0:0:
359,383,30162,5,0,3:0:0:0:
306,156,30456,5,0,3:0:0:0:
153,135,30653,5,2,3:0:0:0:
157,154,30751,1,2,3:0:0:0:
161,172,30849,2,0,L|171:228,1,42.7499988584519,2|2,3:0|3:0,0:0:0:0:
244,99,31046,5,2,3:2:0:0:
260,24,31242,1,2,3:2:0:0:
111,66,31439,6,0,L|-12:42,1,113.999996955872,2|2,3:0|3:0,0:0:0:0:
174,23,31930,5,2,3:0:0:0:
181,21,32028,1,2,3:0:0:0:
85,197,32225,5,2,3:0:0:0:
54,206,32323,1,2,3:2:0:0:
19,218,32421,2,0,L|7:292,1,42.7499988584519,2|2,3:0|0:0,0:0:0:0:
59,339,32618,2,0,P|100:329|168:316,1,85.4999977169037,2|2,3:0|0:0,0:0:0:0:
295,298,33011,5,0,3:0:0:0:
232,230,33207,2,0,B|204:268|204:268|233:370,1,141.749995674133,0|0,3:0|0:0,0:0:0:0:
247,376,33600,1,0,0:0:0:0:
375,329,33796,5,2,0:2:0:0:
378,310,33895,1,2,0:2:0:0:
381,284,33993,2,0,L|388:210,1,47.2499985580445,2|2,0:2|0:0,0:0:0:0:
294,63,34189,2,0,P|303:117|332:175,1,94.499997116089,2|2,0:2|0:0,0:0:0:0:
416,158,34582,6,0,B|364:136|329:177|329:177|294:222|222:189,1,188.999994232178,2|0,0:2|0:0,0:0:0:0:
145,157,35172,1,0,0:0:0:0:
259,43,35368,1,2,0:2:0:0:
274,56,35467,1,2,0:2:0:0:
281,74,35565,2,0,P|275:108|265:143,1,47.2499985580445,2|0,0:2|0:0,0:0:0:0:
171,285,35761,5,2,0:2:0:0:
125,36,35958,1,2,0:2:0:0:
189,89,36154,5,0,0:0:0:0:
189,89,37726,6,0,B|287:70|287:70|310:83|332:98|332:98|455:75,1,252,4|0,1:0|0:0,0:0:0:0:
441,75,38119,6,0,P|447:39|456:-10,1,76.5000014591217,2|0,1:3|0:0,0:0:0:0:
262,153,38315,2,0,P|268:190|275:228,1,76.5000014591217,2|0,1:3|0:0,0:0:0:0:
305,381,38512,6,0,P|300:370|306:381,1,38.2500007295609,8|0,1:2|0:0,0:0:0:0:
334,301,38708,5,2,0:0:0:0:
290,298,38807,1,2,0:0:0:0:
248,314,38905,1,2,0:0:0:0:
388,368,39101,1,2,0:0:0:0:
481,222,39298,6,0,L|500:84,1,114.750002188683,4|0,1:3|0:0,0:0:0:0:
499,89,39494,6,0,P|452:90|424:132,1,76.5000014591217,2|0,3:0|0:0,0:0:0:0:
325,11,39691,2,0,P|298:50|317:97,1,76.5000014591217,2|0,3:0|0:0,0:0:0:0:
176,89,39887,2,0,P|189:133|238:149,1,76.5000014591217,2|0,3:0|0:0,0:0:0:0:
320,190,40084,6,0,L|328:131,1,38.2500007295609,8|0,1:2|0:0,0:0:0:0:
220,26,40280,5,2,0:0:0:0:
171,13,40378,1,2,0:0:0:0:
128,30,40477,1,2,0:0:0:0:
184,254,40673,1,2,0:0:0:0:
278,90,40870,6,0,B|333:57|381:102|381:102|437:152|497:113,1,236.250009012223,4|0,1:0|1:2,0:0:0:0:
499,103,41263,6,0,P|509:62|513:-3,1,76.5000014591217,2|0,1:3|0:0,0:0:0:0:
325,152,41459,2,0,P|331:213|346:259,1,76.5000014591217,2|0,1:3|0:0,0:0:0:0:
512,314,41656,6,0,P|506:285|486:272,1,38.2500007295609,8|0,1:2|0:0,0:0:0:0:
493,205,41852,5,2,0:0:0:0:
448,219,41950,1,2,0:0:0:0:
423,261,42049,1,2,0:0:0:0:
463,384,42245,1,2,0:0:0:0:
499,103,42441,6,0,P|490:57|440:-15,1,114.750002188683,4|0,1:0|0:0,0:0:0:0:
425,2,42638,6,0,P|386:28|385:78,1,76.5000014591217,2|0,3:0|0:0,0:0:0:0:
255,27,42834,2,0,P|253:74|295:103,1,76.5000014591217,2|0,3:0|0:0,0:0:0:0:
186,174,43031,2,0,P|220:203|270:190,1,76.5000014591217,2|0,3:0|0:0,0:0:0:0:
342,166,43227,6,0,P|337:155|343:166,1,38.2500007295609,8|0,1:2|0:0,0:0:0:0:
175,92,43424,5,2,0:0:0:0:
130,111,43522,1,2,0:0:0:0:
105,156,43620,2,0,B|82:216|144:257|144:257|198:294|173:354,1,229.500004377365,0|0,1:0|0:0,0:0:0:0:
33,223,44013,6,0,B|111:198|152:266|152:266|197:340|289:311,1,267.750005106926,4|0,1:0|0:0,0:0:0:0:
283,302,44406,6,0,P|291:264|293:226,1,76.5000014591217,2|0,3:1|0:0,0:0:0:0:
78,298,44603,2,0,P|81:341|92:383,1,76.5000014591217,2|0,3:1|0:0,0:0:0:0:
195,176,44799,6,0,P|192:156|167:133,1,38.2500007295609,8|0,1:2|0:0,0:0:0:0:
144,71,44996,5,2,0:0:0:0:
107,105,45094,1,2,0:0:0:0:
105,156,45192,1,2,0:0:0:0:
195,363,45389,1,2,0:0:0:0:
279,159,45585,6,0,B|399:191,1,114.750002188683,4|0,1:3|0:0,0:0:0:0:
411,201,45782,6,0,P|430:237|427:295,1,76.5000014591217,2|0,3:0|0:0,0:0:0:0:
441,104,45978,2,0,P|481:109|527:144,1,76.5000014591217,2|0,3:0|0:0,0:0:0:0:
363,45,46174,2,0,P|390:14|445:-2,1,76.5000014591217,2|0,3:0|0:0,0:0:0:0:
251,67,46371,6,0,P|240:44|234:10,1,38.2500007295609,8|0,1:2|0:0,0:0:0:0:
411,201,46567,5,2,0:0:0:0:
405,244,46665,1,2,0:0:0:0:
388,288,46764,1,2,0:0:0:0:
287,382,46960,1,2,0:0:0:0:
258,196,47157,6,0,B|235:164|252:134|295:98|348:134|364:202|331:258|276:277,1,256.499993150711,6|0,1:0|0:0,0:0:0:0:
258,196,47550,6,0,B|252:157|219:148|163:151|150:214|185:274|248:291|301:267,1,256.499993150711,2|0,1:0|0:0,0:0:0:0:
210,79,47943,6,0,L|188:10,1,38.2500007295609,8|0,1:2|0:0,0:0:0:0:
78,43,48139,5,2,0:0:0:0:
98,91,48238,1,2,0:0:0:0:
136,114,48336,1,2,0:0:0:0:
301,66,48532,1,2,0:0:0:0:
79,178,48729,6,0,P|129:198|166:223,1,76.5000014591217,4|0,1:0|0:0,0:0:0:0:
337,167,48925,2,0,P|214:200|82:286,1,267.750005106926,2|0,3:2|0:0,0:0:0:0:
95,301,49318,1,2,3:2:0:0:
306,384,49515,5,8,1:2:0:0:
324,355,49613,1,2,0:0:0:0:
328,314,49711,2,0,P|331:277|297:244,1,76.5000014591217,2|2,0:0|0:0,0:0:0:0:
217,308,49908,6,0,P|317:328|467:379,1,229.500004377365,0|0,1:0|0:0,0:0:0:0:
480,298,50300,6,0,B|507:277|540:218|498:152|498:152|499:219|461:257,1,267.750005106926,4|0,1:0|0:0,0:0:0:0:
450,256,50693,6,0,P|409:253|376:206,1,76.5000014591217,2|0,1:3|0:0,0:0:0:0:
268,201,50890,2,0,P|246:165|266:111,1,76.5000014591217,2|0,1:3|0:0,0:0:0:0:
401,15,51086,6,0,L|386:75,1,38.2500007295609,8|0,1:2|0:0,0:0:0:0:
367,135,51283,5,2,0:0:0:0:
327,108,51381,1,2,0:0:0:0:
307,61,51479,1,2,0:0:0:0:
316,13,51578,5,2,0:0:0:0:
339,57,51676,1,2,0:0:0:0:
319,104,51774,1,2,0:0:0:0:
279,131,51872,6,0,P|216:115|146:101,1,114.750002188683,4|0,1:0|0:0,0:0:0:0:
140,95,52069,6,0,P|115:134|135:181,1,76.5000014591217,2|0,3:0|0:0,0:0:0:0:
10,207,52266,2,0,P|28:250|77:260,1,76.5000014591217,2|0,3:0|0:0,0:0:0:0:
20,369,52462,2,0,P|63:382|104:349,1,76.5000014591217,2|0,3:0|0:0,0:0:0:0:
222,288,52658,6,0,P|217:277|223:288,1,38.2500007295609,8|0,1:2|0:0,0:0:0:0:
251,208,52854,5,2,0:0:0:0:
207,205,52953,1,2,0:0:0:0:
165,221,53051,2,0,P|140:257|139:315,1,76.5000014591217,2|2,0:0|0:0,0:0:0:0:
342,212,53248,2,0,P|334:174|311:144,1,76.5000014591217,2|2,0:0|0:0,0:0:0:0:
242,54,53444,6,0,B|237:38|249:27|249:27|190:10|154:63|154:63|111:125|38:89,1,252,4|0,1:0|0:0,0:0:0:0:
39,81,53837,6,0,P|29:45|27:3,1,76.5000014591217,2|0,1:2|0:0,0:0:0:0:
217,129,54034,2,0,P|211:190|196:233,1,76.5000014591217,2|0,1:3|0:0,0:0:0:0:
59,354,54230,6,0,P|53:340|46:314,1,38.2500007295609,8|0,1:2|0:0,0:0:0:0:
11,244,54427,5,2,0:0:0:0:
58,234,54525,1,2,0:0:0:0:
105,253,54623,1,2,0:0:0:0:
133,294,54722,5,2,0:0:0:0:
85,279,54820,1,2,0:0:0:0:
66,231,54918,1,2,0:0:0:0:
76,184,55016,6,0,P|86:132|127:69,1,114.750002188683,4|0,1:0|0:0,0:0:0:0:
131,69,55212,6,0,P|176:79|194:127,1,76.5000014591217,2|0,3:0|0:0,0:0:0:0:
314,50,55409,2,0,P|330:93|302:134,1,76.5000014591217,2|0,3:0|0:0,0:0:0:0:
411,195,55605,2,0,P|389:234|336:238,1,76.5000014591217,2|0,3:0|0:0,0:0:0:0:
251,215,55802,6,0,L|240:154,1,38.2500007295609,8|0,1:2|0:0,0:0:0:0:
293,292,55998,5,2,0:0:0:0:
248,308,56097,1,2,0:0:0:0:
203,291,56195,2,0,P|120:272|60:389,1,229.500004377365,0|0,1:0|0:0,0:0:0:0:
134,351,56588,6,0,B|167:246|76:191|76:191|-21:127|15:7,1,382.500007295609,4|0,1:0|0:0,0:0:0:0:
138,52,57177,6,0,P|136:91|119:129,1,76.5000014591217,2|0,1:3|0:0,0:0:0:0:
38,279,57374,2,0,P|40:304|66:332,1,38.2500007295609,8|0,1:2|0:0,0:0:0:0:
94,378,57571,5,2,0:0:0:0:
134,351,57669,1,2,0:0:0:0:
154,304,57767,1,2,0:0:0:0:
145,256,57866,5,2,0:0:0:0:
122,300,57964,1,2,0:0:0:0:
142,347,58062,1,2,0:0:0:0:
188,371,58160,6,0,P|252:362|322:348,1,114.750002188683,4|0,1:0|0:0,0:0:0:0:
330,352,58357,6,0,P|338:306|302:270,1,76.5000014591217,2|0,3:0|0:0,0:0:0:0:
426,204,58554,2,0,P|393:170|344:179,1,76.5000014591217,2|0,3:0|0:0,0:0:0:0:
364,42,58750,2,0,P|319:46|293:92,1,76.5000014591217,2|0,3:0|0:0,0:0:0:0:
203,189,58945,6,0,P|198:178|204:189,1,38.2500007295609,8|0,1:2|0:0,0:0:0:0:
233,104,59142,5,2,0:0:0:0:
183,97,59240,1,2,0:0:0:0:
138,119,59338,2,0,L|115:194,1,76.5000014591217,2|0,0:0|0:0,0:0:0:0:
345,97,59535,2,0,L|328:22,1,76.5000014591217,2|0,0:0|0:0,0:0:0:0:
203,189,59731,6,0,B|216:273|216:273|227:352|316:327|298:264|298:264|282:212,1,256.499993150711,6|0,1:0|0:0,0:0:0:0:
383,189,60124,6,0,B|370:273|370:273|358:352|269:327|288:264|288:264|304:212,1,256.499993150711,2|0,1:0|0:0,0:0:0:0:
437,118,60517,6,0,P|459:152|462:190,1,76.5000014591217,8|0,1:2|0:0,0:0:0:0:
492,264,60714,5,2,0:0:0:0:
444,263,60812,1,2,0:0:0:0:
401,234,60910,1,2,0:0:0:0:
383,189,61009,5,2,0:0:0:0:
426,213,61107,1,2,0:0:0:0:
435,264,61205,1,2,0:0:0:0:
416,308,61303,6,0,P|400:345|360:381,1,76.5000014591217,4|0,1:0|0:0,0:0:0:0:
219,308,61500,2,0,P|184:231|163:43,1,267.750005106926,2|0,3:2|0:0,0:0:0:0:
177,34,61893,1,2,3:2:0:0:
314,168,62089,5,8,1:2:0:0:
264,154,62187,1,2,0:0:0:0:
243,119,62286,2,0,P|254:67|278:18,1,76.5000014591217,2|2,0:0|0:0,0:0:0:0:
512,153,62482,6,0,B|434:128|393:196|393:196|347:284|256:238,1,288,4|2,1:0|2:0,1:0:0:0:
75,62,75449,5,2,0:2:0:0:
136,115,75646,1,0,0:2:0:0:
215,99,75842,1,0,0:2:0:0:
242,24,76039,1,0,0:2:0:0:
59,144,76235,5,0,0:0:0:0:
55,153,76334,2,0,P|43:197|48:221,1,45
23,266,76530,2,0,B|51:280|74:264|74:264|104:249|139:267,1,107.999996704102
196,306,76825,1,2,0:2:0:0:
117,342,77021,5,0,0:0:0:0:
126,261,77218,1,0,0:0:0:0:
199,227,77414,1,2,0:2:0:0:
270,263,77611,1,0,0:0:0:0:
213,360,77807,5,2,0:2:0:0:
206,349,77906,2,0,P|196:299|199:281,1,45,0|2,0:0|0:2,0:0:0:0:
199,227,78102,2,0,P|208:176|245:113,1,107.999996704102
311,89,78397,1,2,0:2:0:0:
398,75,78593,5,2,0:2:0:0:
371,151,78790,1,0,0:0:0:0:
296,175,78986,1,0,0:0:0:0:
233,126,79183,1,0,0:0:0:0:
456,136,79379,5,0,0:0:0:0:
461,146,79477,2,0,P|471:168|475:203,1,45
484,295,79674,2,0,P|435:275|371:257,1,116.999994644165
298,292,79968,1,2,0:2:0:0:
362,384,80165,5,0,2:0:0:0:
433,42,81540,5,0,2:0:0:0:
346,93,81737,5,2,0:2:0:0:
285,40,81934,1,0,0:0:0:0:
206,56,82130,1,0,0:0:0:0:
178,131,82327,1,0,0:0:0:0:
249,177,82523,5,0,0:0:0:0:
253,168,82622,2,0,P|265:124|260:100,1,45
206,56,82817,2,0,P|148:58|95:105,1,107.999996704102
71,158,83112,1,2,0:2:0:0:
15,224,83309,5,0,0:0:0:0:
76,171,83506,1,0,0:0:0:0:
155,187,83702,1,2,0:2:0:0:
182,263,83899,1,0,0:0:0:0:
56,368,84094,5,2,0:2:0:0:
52,359,84193,2,0,P|40:315|45:291,1,45,0|2,0:0|2:0,0:0:0:0:
79,246,84389,2,0,B|108:235|129:254|129:254|157:272|194:259,1,107.999996704102
257,236,84684,1,2,0:2:0:0:
274,156,84880,5,2,0:2:0:0:
198,184,85077,1,0,0:0:0:0:
182,263,85273,1,0,0:0:0:0:
235,324,85470,1,0,0:0:0:0:
344,207,85666,5,0,0:0:0:0:
354,197,85765,2,0,P|363:176|352:125,1,45
443,146,85961,2,0,P|429:96|371:50,1,107.999996704102
320,30,86256,1,2,0:2:0:0:
258,133,86452,5,0,0:0:0:0:
198,184,86649,1,0,0:0:0:0:
119,168,86845,1,2,0:2:0:0:
93,94,87042,1,0,0:0:0:0:
208,1,87238,5,2,0:2:0:0:
220,10,87336,2,0,P|231:32|231:69,1,45
173,112,87533,2,0,P|150:194|140:269,1,125.999996154785,2|0,0:2|0:0,0:0:0:0:
141,310,87828,2,0,P|168:308|200:277,1,53.9999983520508,2|0,0:2|0:0,0:0:0:0:
291,206,88024,6,0,B|337:182|372:222|372:222|410:266|491:225,1,180,4|0,0:2|0:0,0:0:0:0:
430,167,88613,5,0,0:0:0:0:
320,275,88810,1,2,0:2:0:0:
322,283,88908,1,2,0:2:0:0:
323,291,89006,2,0,L|332:344,1,45,2|0,0:2|0:0,0:0:0:0:
430,167,89203,2,0,P|438:121|449:53,1,90,2|0,0:2|0:0,0:0:0:0:
454,239,89596,6,0,B|410:266|372:222|372:222|337:182|291:206,1,180,0|2,0:0|0:2,0:0:0:0:
185,270,90185,1,0,0:0:0:0:
313,352,90382,1,2,0:2:0:0:
315,344,90480,1,2,0:2:0:0:
315,335,90578,2,0,L|322:290,1,45,2|2,0:2|0:2,0:0:0:0:
212,195,90775,5,0,0:0:0:0:
195,121,90971,1,0,0:0:0:0:
321,26,91168,6,0,L|292:217,1,180,2|0,0:2|0:0,0:0:0:0:
387,118,91757,1,0,0:0:0:0:
240,39,91954,1,2,0:2:0:0:
232,41,92052,1,2,0:2:0:0:
223,41,92150,2,0,L|178:48,1,45,2|0,0:2|0:0,0:0:0:0:
387,118,92346,2,0,P|435:131|493:148,1,90,2|2,0:2|0:2,0:0:0:0:
250,254,92739,5,0,0:0:0:0:
235,173,92936,1,0,0:0:0:0:
315,159,93132,1,2,0:2:0:0:
329,238,93329,1,0,0:0:0:0:
245,342,93525,5,2,0:0:0:0:
237,340,93623,1,2,0:0:0:0:
228,340,93721,2,0,L|183:332,1,45,2|2,0:0|0:0,0:0:0:0:
77,220,93918,5,2,0:2:0:0:
0,237,94115,1,2,0:2:0:0:
114,357,94311,6,0,B|94:314|131:274|131:274|172:239|143:176,1,180,2|0,0:2|0:0,0:0:0:0:
77,220,94901,1,0,0:0:0:0:
185,330,95097,5,2,0:2:0:0:
192,328,95195,1,2,0:2:0:0:
203,327,95293,2,0,L|247:319,1,45,2|2,0:2|0:2,0:0:0:0:
149,192,95490,5,2,0:2:0:0:
114,357,95687,1,2,0:2:0:0:
226,214,95883,6,0,B|246:171|208:131|208:131|168:96|197:33,1,180,0|2,0:0|0:2,0:0:0:0:
266,80,96472,1,0,0:0:0:0:
149,192,96669,5,2,0:2:0:0:
141,190,96767,1,2,0:2:0:0:
132,190,96865,2,0,L|87:182,1,45,2|2,0:2|0:2,0:0:0:0:
190,49,97062,5,2,0:2:0:0:
226,214,97258,1,2,0:2:0:0:
416,19,97455,6,0,B|491:34|491:34|524:41|545:73|539:106|539:106|534:139|503:162|470:158|470:158|442:146|411:153|390:174|390:174|369:195|363:227|375:254|375:254|387:281|415:298|445:297|445:297|475:296|501:276|510:248|510:248|496:262|476:264,1,647.99998022461,0|0,3:0|3:0,0:0:0:0:
482,264,100598,6,0,P|443:274|396:317,1,76.5000014591217,0|0,1:0|0:0,0:0:0:0:
282,262,100795,2,0,P|257:295|253:366,1,80.9999975280763,0|0,1:0|0:0,0:0:0:0:
484,132,100991,6,0,P|472:73|442:47,1,85.4999977169037,2|0,1:3|0:0,0:0:0:0:
281,59,101188,2,0,P|236:28|182:26,1,90,4|0,1:3|0:0,0:0:0:0:
53,191,101384,6,0,P|37:193|52:195,1,45,8|0,1:2|0:0,0:0:0:0:
131,244,101581,5,2,0:0:0:0:
148,194,101679,1,2,0:0:0:0:
130,144,101777,1,2,0:0:0:0:
48,315,101974,1,2,0:0:0:0:
239,374,102170,6,0,P|303:359|401:337,1,135,4|0,1:3|0:0,0:0:0:0:
395,338,102367,2,0,P|425:302|405:241,1,90,2|0,3:0|0:0,0:0:0:0:
234,83,102563,6,0,P|249:147|271:245,1,135,4|0,1:3|0:0,0:0:0:0:
270,239,102760,2,0,P|306:269|367:249,1,90,2|0,3:0|0:0,0:0:0:0:
512,104,102956,6,0,L|451:86,1,45,8|0,1:2|0:0,0:0:0:0:
392,65,103153,5,2,0:0:0:0:
392,114,103251,1,2,0:0:0:0:
421,155,103349,1,2,0:0:0:0:
490,0,103546,1,2,0:0:0:0:
271,11,103742,6,0,B|196:-18|151:59|151:59|109:135|23:102,1,283.499991348267,4|0,1:0|0:0,0:0:0:0:
16,89,104135,2,0,P|12:50|53:4,1,85.4999977169037,2|0,1:2|0:0,0:0:0:0:
234,83,104332,2,0,P|258:117|253:167,1,85.4999977169037,2|0,1:3|0:0,0:0:0:0:
83,323,104528,6,0,P|78:295|68:245,1,42.7499988584519,8|0,1:2|0:0,0:0:0:0:
63,196,104724,5,2,0:0:0:0:
111,201,104822,1,2,0:0:0:0:
148,235,104920,1,2,1:2:0:0:
0,340,105117,1,2,0:0:0:0:
16,89,105314,6,0,L|160:68,1,128.249996575356,4|0,1:0|0:0,0:0:0:0:
166,66,105510,6,0,P|205:92|206:146,1,85.4999977169037,2|0,3:0|0:0,0:0:0:0:
381,48,105707,2,0,P|383:95|338:128,1,85.4999977169037,2|0,3:0|0:0,0:0:0:0:
498,218,105903,2,0,P|464:247|411:234,1,85.4999977169037,2|0,3:0|0:0,0:0:0:0:
272,285,106100,6,0,P|266:274|273:285,1,42.7499988584519,8|0,1:2|0:0,0:0:0:0:
298,195,106296,5,2,0:0:0:0:
339,224,106395,1,2,0:0:0:0:
357,271,106493,2,0,P|352:316|328:369,1,85.4999977169037,4|0,1:3|0:0,0:0:0:0:
140,171,106689,2,0,P|124:131|120:88,1,85.4999977169037,4|0,1:3|0:0,0:0:0:0:
315,61,106886,6,0,B|353:33|389:53|433:105|389:169|307:188|240:149|217:82,1,315,4|0,1:0|0:0,0:0:0:0:
214,79,107279,2,0,P|219:33|252:-7,1,90,2|0,3:1|0:0,0:0:0:0:
463,101,107475,2,0,P|459:146|427:190,1,90,2|0,3:1|0:0,0:0:0:0:
191,298,107672,6,0,L|131:316,1,45,8|0,1:2|0:0,0:0:0:0:
257,241,107868,5,2,0:0:0:0:
281,286,107967,1,2,0:0:0:0:
269,337,108065,1,2,0:0:0:0:
49,384,108261,1,2,0:0:0:0:
238,159,108458,6,0,B|312:142|292:210|376:188,1,135,4|0,1:3|0:0,0:0:0:0:
388,187,108654,6,0,P|413:126|399:90,1,90,2|0,3:0|0:0,0:0:0:0:
283,78,108850,2,0,P|247:22|209:13,1,90,2|0,3:0|0:0,0:0:0:0:
158,147,109047,2,0,P|92:144|63:169,1,90,2|0,3:0|0:0,0:0:0:0:
246,283,109243,6,0,P|255:259|247:216,1,45,8|0,1:2|0:0,0:0:0:0:
122,220,109440,5,2,0:0:0:0:
112,261,109538,1,2,0:0:0:0:
116,306,109637,1,2,0:0:0:0:
358,360,109833,1,2,0:0:0:0:
153,76,110029,6,0,B|208:30|157:-28|83:-21|53:49|83:126|151:159|195:150,1,283.499991348267,4|0,1:3|0:0,0:0:0:0:
299,76,110422,6,0,B|362:107|395:38|359:-26|282:-26|224:32|221:108|247:145,1,283.499991348267,4|0,1:3|0:0,0:0:0:0:
225,189,110815,6,0,L|235:253,1,45,0|0,1:0|0:0,0:0:0:0:
343,361,111012,5,2,0:0:0:0:
325,316,111111,1,2,0:0:0:0:
280,289,111209,1,2,0:0:0:0:
93,339,111405,1,2,0:0:0:0:
170,383,111601,5,0,3:0:0:0:
344,32,113173,6,0,P|351:73|363:124,1,76.5000014591217,0|0,1:0|0:0,0:0:0:0:
339,215,113369,2,0,P|353:253|395:307,1,80.9999975280763,2|0,3:0|0:0,0:0:0:0:
160,25,113566,6,0,P|153:66|129:133,1,85.4999977169037,2|0,3:0|0:0,0:0:0:0:
149,212,113762,2,0,P|135:249|104:294,1,90,6|0,1:3|0:0,0:0:0:0:
254,370,113959,6,0,P|256:386|258:371,1,45,8|0,1:2|0:0,0:0:0:0:
256,12,114941,5,0,0:0:0:0:
256,149,115138,2,0,B|256:246|256:246|259:322|157:321|163:248|163:248|165:210,1,270,4|0,1:0|0:0,0:0:0:0:
163,158,115531,5,4,0:0:0:0:
163,123,115629,1,2,0:0:0:0:
163,94,115727,2,0,B|228:46|289:130|289:130|346:208|435:151,1,292.499986610413,2|0,0:0|0:0,0:0:0:0:
431,51,116317,6,0,P|394:59|360:107,1,90,4|0,1:0|0:0,0:0:0:0:
336,253,116513,2,0,L|345:297,2,45,2|2|0,3:0|3:0|0:0,0:0:0:0:
413,162,116710,5,0,1:0:0:0:
163,94,116906,1,2,1:3:0:0:
315,10,117103,1,8,1:2:0:0:
315,10,117495,6,0,P|311:32|305:65,1,45,0|0,1:0|0:0,0:0:0:0:
283,157,117692,1,2,0:0:0:0:
141,356,117888,6,0,L|120:222,1,135,4|0,1:0|0:0,0:0:0:0:
118,202,118085,2,0,P|169:199|202:238,1,90,2|0,3:0|0:0,0:0:0:0:
277,241,118281,2,0,P|308:281|295:330,1,90,2|0,3:0|0:0,0:0:0:0:
237,379,118478,1,2,3:0:0:0:
30,181,118674,5,8,1:2:0:0:
30,181,119067,5,0,1:0:0:0:
4,102,119264,1,0,1:0:0:0:
204,182,119460,6,0,P|201:221|171:265,1,76.5000014591217,4|0,1:0|0:0,0:0:0:0:
112,352,119657,2,0,P|79:375|25:372,1,80.9999975280763,2|0,0:3|0:0,0:0:0:0:
291,99,119853,6,0,P|330:101|368:146,1,85.4999977169037,2|0,3:0|0:0,0:0:0:0:
483,165,120050,2,0,P|506:199|491:265,1,90,6|0,1:3|0:0,0:0:0:0:
317,358,120246,6,0,P|301:353|318:355,1,45,8|0,1:2|0:0,0:0:0:0:
95,76,121228,5,0,0:0:0:0:
177,56,121425,2,0,B|227:44|227:44|232:45|232:45|277:34|277:34|250:135|250:135|250:141|250:141|221:248,1,315,4|0,1:0|0:0,0:0:0:0:
215,257,121818,6,0,B|254:310|226:360|153:421|64:360|37:245|92:152|194:127,1,440.999986541748,4|0,0:0|0:0,0:0:0:0:
276,35,122604,6,0,B|355:22|387:103|387:103|422:185|526:154,1,283.499991348267,2|0,1:0|0:0,0:0:0:0:
498,35,122997,6,0,B|418:22|386:103|386:103|351:185|247:154,1,283.499991348267,2|0,1:0|0:0,0:0:0:0:
182,97,123390,6,0,P|170:72|175:33,1,47.2499985580445,8|0,1:2|0:0,0:0:0:0:
450,321,123783,6,0,B|442:361|411:379|411:379|424:355|422:327,1,103.500001974106,4|2,1:3|0:0,0:0:0:0:
91,294,124176,6,0,B|60:267|60:231|60:231|74:254|99:266,1,103.500001974106,4|2,1:3|0:0,0:0:0:0:
276,35,124569,6,0,B|314:21|345:39|345:39|318:40|295:56,1,103.500001974106,4|2,1:3|0:0,0:0:0:0:
260,232,124962,6,0,B|204:201|240:106|345:162|303:236|303:236|272:296,1,270.000010299683,4|2,3:1|0:0,0:0:0:0:
