osu file format v14

[General]
AudioFilename: audio.mp3
AudioLeadIn: 0
PreviewTime: 210195
Countdown: 0
SampleSet: Soft
StackLeniency: 0.7
Mode: 3
LetterboxInBreaks: 0
SpecialStyle: 0
WidescreenStoryboard: 1

[Editor]
Bookmarks: 6559,31286,54559,66195,89468,101104,112740,137468,160741,172377,184013,195650,207286,233468,256741,280013
DistanceSpacing: 2.2
BeatDivisor: 8
GridSize: 4
TimelineZoom: 2.199998

[Metadata]
Title:DYE/Re:flection+
TitleUnicode:DYE/Re:flection+
Artist:AVTechNO!xTreow feat. Megurine Luka
ArtistUnicode:AVTechNO!×Treow feat. 巡音ルカ
Creator:paradoxus_
Version:Dualism
Source:
Tags:Intelligent Dance Music idm glitch breakcore drum and bass electronic electrocutica vocaloid DYE SYNTHESIS -extended- ダイ・シンセシス エクステンデッド remix instrumental english technical hybrid
BeatmapID:4024246
BeatmapSetID:1945122

[Difficulty]
HPDrainRate:8.5
CircleSize:7
OverallDifficulty:7
ApproachRate:5
SliderMultiplier:1.4
SliderTickRate:1

[Events]
//Background and Video events
0,0,"bg.jpg",0,0
//Break Periods
//Storyboard Layer 0 (Background)
//Storyboard Layer 1 (Fail)
//Storyboard Layer 2 (Pass)
//Storyboard Layer 3 (Foreground)
//Storyboard Layer 4 (Overlay)
//Storyboard Sound Samples

[TimingPoints]
6560,363.636363636364,4,2,1,40,1,0

[HitObjects]
182,192,6560,5,0,0:0:0:0:
402,192,6650,1,0,0:0:0:0:
182,192,6741,1,0,0:0:0:0:
36,192,6832,1,0,0:0:0:0:
182,192,6923,1,0,0:0:0:0:
329,192,7014,1,0,0:0:0:0:
402,192,7105,1,0,0:0:0:0:
329,192,7196,1,0,0:0:0:0:
182,192,7287,1,0,0:0:0:0:
36,192,7378,1,0,0:0:0:0:
182,192,7469,1,0,0:0:0:0:
329,192,7560,1,0,0:0:0:0:
475,192,7650,1,0,0:0:0:0:
329,192,7741,1,0,0:0:0:0:
402,192,7832,1,0,0:0:0:0:
256,192,7923,1,0,0:0:0:0:
109,192,8014,1,0,0:0:0:0:
36,192,8014,1,0,0:0:0:0:
475,192,8060,1,0,0:0:0:0:
329,192,8060,1,0,0:0:0:0:
256,192,8105,1,0,0:0:0:0:
182,192,8150,1,0,0:0:0:0:
402,192,8196,1,0,0:0:0:0:
36,192,8287,1,0,0:0:0:0:
182,192,8287,1,0,0:0:0:0:
256,192,8287,1,0,0:0:0:0:
329,192,8332,1,0,0:0:0:0:
402,192,8378,1,0,0:0:0:0:
475,192,8423,1,0,0:0:0:0:
109,192,8469,1,0,0:0:0:0:
182,192,8514,1,0,0:0:0:0:
256,192,8560,1,0,0:0:0:0:
329,192,8560,1,0,0:0:0:0:
402,192,8560,1,0,0:0:0:0:
36,192,8605,1,0,0:0:0:0:
109,192,8741,1,0,0:0:0:0:
256,192,8741,1,0,0:0:0:0:
402,192,8772,1,0,0:0:0:0:
475,192,8772,1,0,0:0:0:0:
256,192,8832,1,0,0:0:0:0:
109,192,8923,1,0,0:0:0:0:
329,192,9014,1,0,0:0:0:0:
182,192,9105,1,0,0:0:0:0:
402,192,9105,1,0,0:0:0:0:
36,192,9196,1,0,0:0:0:0:
109,192,9287,1,0,0:0:0:0:
329,192,9287,1,0,0:0:0:0:
36,192,9378,1,0,0:0:0:0:
182,192,9469,1,0,0:0:0:0:
402,192,9560,1,0,0:0:0:0:
182,192,9650,1,0,0:0:0:0:
36,192,9741,1,0,0:0:0:0:
182,192,9832,1,0,0:0:0:0:
329,192,9923,1,0,0:0:0:0:
402,192,10014,1,0,0:0:0:0:
329,192,10075,1,0,0:0:0:0:
182,192,10196,1,0,0:0:0:0:
475,192,10196,1,0,0:0:0:0:
256,192,10196,1,0,0:0:0:0:
36,192,10196,128,0,10378:0:0:0:0:
402,192,10256,1,0,0:0:0:0:
182,192,10317,128,0,10469:0:0:0:0:
402,192,10378,128,0,10514:0:0:0:0:
256,192,10469,128,0,10560:0:0:0:0:
36,192,10469,1,0,0:0:0:0:
329,192,10560,1,0,0:0:0:0:
109,192,10605,1,0,0:0:0:0:
182,192,10650,1,0,0:0:0:0:
256,192,10696,1,0,0:0:0:0:
109,192,10741,1,0,0:0:0:0:
475,192,10741,1,0,0:0:0:0:
329,192,10741,1,0,0:0:0:0:
182,192,10802,1,0,0:0:0:0:
256,192,10863,1,0,0:0:0:0:
109,192,10923,1,0,0:0:0:0:
36,192,10923,1,0,0:0:0:0:
475,192,10969,1,0,0:0:0:0:
329,192,10969,1,0,0:0:0:0:
256,192,11014,1,0,0:0:0:0:
182,192,11060,1,0,0:0:0:0:
402,192,11105,1,0,0:0:0:0:
36,192,11196,1,0,0:0:0:0:
182,192,11196,1,0,0:0:0:0:
256,192,11196,1,0,0:0:0:0:
329,192,11241,1,0,0:0:0:0:
402,192,11287,1,0,0:0:0:0:
475,192,11332,1,0,0:0:0:0:
109,192,11378,1,0,0:0:0:0:
182,192,11423,1,0,0:0:0:0:
329,192,11469,1,0,0:0:0:0:
256,192,11469,1,0,0:0:0:0:
402,192,11469,1,0,0:0:0:0:
36,192,11514,1,0,0:0:0:0:
109,192,11650,1,0,0:0:0:0:
256,192,11650,1,0,0:0:0:0:
402,192,11681,1,0,0:0:0:0:
475,192,11681,1,0,0:0:0:0:
256,192,11741,1,0,0:0:0:0:
109,192,11832,1,0,0:0:0:0:
329,192,11923,1,0,0:0:0:0:
36,192,12014,1,0,0:0:0:0:
402,192,12014,1,0,0:0:0:0:
182,192,12105,1,0,0:0:0:0:
256,192,12196,1,0,0:0:0:0:
402,192,12196,1,0,0:0:0:0:
182,192,12287,1,0,0:0:0:0:
109,192,12878,1,0,0:0:0:0:
329,192,12923,1,0,0:0:0:0:
402,192,12923,1,0,0:0:0:0:
475,192,12923,1,0,0:0:0:0:
182,192,12923,1,0,0:0:0:0:
109,192,12969,1,0,0:0:0:0:
402,192,13105,1,0,0:0:0:0:
475,192,13105,1,0,0:0:0:0:
36,192,13105,1,0,0:0:0:0:
256,192,13105,1,0,0:0:0:0:
182,192,13196,1,0,0:0:0:0:
182,192,13287,1,0,0:0:0:0:
402,192,13287,1,0,0:0:0:0:
402,192,13378,1,0,0:0:0:0:
109,192,13378,1,0,0:0:0:0:
256,192,13469,1,0,0:0:0:0:
109,192,13514,1,0,0:0:0:0:
182,192,13560,1,0,0:0:0:0:
256,192,13605,1,0,0:0:0:0:
36,192,13650,1,0,0:0:0:0:
475,192,13650,1,0,0:0:0:0:
329,192,13650,1,0,0:0:0:0:
182,192,13741,1,0,0:0:0:0:
109,192,13832,1,0,0:0:0:0:
36,192,13832,1,0,0:0:0:0:
475,192,13878,1,0,0:0:0:0:
329,192,13878,1,0,0:0:0:0:
256,192,13923,1,0,0:0:0:0:
182,192,13969,1,0,0:0:0:0:
402,192,14014,1,0,0:0:0:0:
475,192,14105,1,0,0:0:0:0:
109,192,14105,1,0,0:0:0:0:
36,192,14105,1,0,0:0:0:0:
329,192,14150,1,0,0:0:0:0:
256,192,14196,1,0,0:0:0:0:
182,192,14241,1,0,0:0:0:0:
402,192,14287,1,0,0:0:0:0:
109,192,14332,1,0,0:0:0:0:
256,192,14378,1,0,0:0:0:0:
329,192,14378,1,0,0:0:0:0:
475,192,14378,1,0,0:0:0:0:
36,192,14423,1,0,0:0:0:0:
182,192,14560,1,0,0:0:0:0:
256,192,14560,1,0,0:0:0:0:
36,192,14560,1,0,0:0:0:0:
402,192,14590,1,0,0:0:0:0:
475,192,14590,1,0,0:0:0:0:
329,192,14681,1,0,0:0:0:0:
256,192,14711,1,0,0:0:0:0:
475,192,14741,1,0,0:0:0:0:
182,192,14741,1,0,0:0:0:0:
109,192,14802,1,0,0:0:0:0:
182,192,14863,1,0,0:0:0:0:
256,192,14893,1,0,0:0:0:0:
329,192,14923,1,0,0:0:0:0:
36,192,14923,1,0,0:0:0:0:
402,192,14984,1,0,0:0:0:0:
256,192,15044,1,0,0:0:0:0:
182,192,15075,1,0,0:0:0:0:
109,192,15105,1,0,0:0:0:0:
36,192,15105,1,0,0:0:0:0:
475,192,15105,1,0,0:0:0:0:
329,192,15166,1,0,0:0:0:0:
256,192,15226,1,0,0:0:0:0:
182,192,15287,5,0,0:0:0:0:
329,192,15378,1,0,0:0:0:0:
182,192,15469,1,0,0:0:0:0:
36,192,15560,1,0,0:0:0:0:
182,192,15650,1,0,0:0:0:0:
329,192,15741,1,0,0:0:0:0:
402,192,15832,1,0,0:0:0:0:
36,192,15832,1,0,0:0:0:0:
256,192,15832,1,0,0:0:0:0:
329,192,15923,1,0,0:0:0:0:
36,192,15923,1,0,0:0:0:0:
182,192,16014,1,0,0:0:0:0:
475,192,16014,1,0,0:0:0:0:
36,192,16105,1,0,0:0:0:0:
182,192,16196,1,0,0:0:0:0:
329,192,16287,1,0,0:0:0:0:
475,192,16378,1,0,0:0:0:0:
109,192,16378,1,0,0:0:0:0:
329,192,16469,1,0,0:0:0:0:
402,192,16560,1,0,0:0:0:0:
182,192,16560,1,0,0:0:0:0:
256,192,16650,1,0,0:0:0:0:
109,192,16741,1,0,0:0:0:0:
36,192,16741,1,0,0:0:0:0:
329,192,16787,1,0,0:0:0:0:
475,192,16787,1,0,0:0:0:0:
256,192,16832,1,0,0:0:0:0:
182,192,16878,1,0,0:0:0:0:
402,192,16923,1,0,0:0:0:0:
36,192,17014,1,0,0:0:0:0:
182,192,17014,1,0,0:0:0:0:
256,192,17014,1,0,0:0:0:0:
329,192,17060,1,0,0:0:0:0:
402,192,17105,1,0,0:0:0:0:
475,192,17150,1,0,0:0:0:0:
109,192,17196,1,0,0:0:0:0:
182,192,17241,1,0,0:0:0:0:
329,192,17287,1,0,0:0:0:0:
256,192,17287,1,0,0:0:0:0:
402,192,17287,1,0,0:0:0:0:
36,192,17332,1,0,0:0:0:0:
402,192,17469,1,0,0:0:0:0:
475,192,17469,128,0,17741:0:0:0:0:
256,192,17469,1,0,0:0:0:0:
182,192,17469,1,0,0:0:0:0:
36,192,17529,1,0,0:0:0:0:
109,192,17590,1,0,0:0:0:0:
329,192,17650,1,0,0:0:0:0:
256,192,17650,1,0,0:0:0:0:
36,192,17650,128,0,17787:0:0:0:0:
182,192,17741,128,0,17832:0:0:0:0:
329,192,17787,1,0,0:0:0:0:
402,192,17832,128,0,17923:0:0:0:0:
475,192,17878,128,0,18014:0:0:0:0:
256,192,17923,1,0,0:0:0:0:
109,192,17969,1,0,0:0:0:0:
329,192,18014,1,0,0:0:0:0:
402,192,18014,1,0,0:0:0:0:
36,192,18014,1,0,0:0:0:0:
256,192,18075,1,0,0:0:0:0:
182,192,18135,1,0,0:0:0:0:
329,192,18196,1,0,0:0:0:0:
475,192,18287,1,0,0:0:0:0:
182,192,18378,1,0,0:0:0:0:
256,192,18378,1,0,0:0:0:0:
402,192,18378,1,0,0:0:0:0:
36,192,18469,1,0,0:0:0:0:
329,192,18529,1,0,0:0:0:0:
182,192,18560,1,0,0:0:0:0:
475,192,18560,1,0,0:0:0:0:
109,192,18650,1,0,0:0:0:0:
475,192,18650,1,0,0:0:0:0:
329,192,18741,1,0,0:0:0:0:
256,192,18832,1,0,0:0:0:0:
36,192,18832,1,0,0:0:0:0:
36,192,18923,1,0,0:0:0:0:
329,192,18923,1,0,0:0:0:0:
475,192,18923,1,0,0:0:0:0:
182,192,19014,1,0,0:0:0:0:
256,192,19105,1,0,0:0:0:0:
36,192,19196,1,0,0:0:0:0:
402,192,19196,1,0,0:0:0:0:
182,192,19196,1,0,0:0:0:0:
402,192,19287,1,0,0:0:0:0:
329,192,19378,1,0,0:0:0:0:
109,192,19469,1,0,0:0:0:0:
256,192,19469,1,0,0:0:0:0:
109,192,19560,1,0,0:0:0:0:
329,192,19560,1,0,0:0:0:0:
402,192,19560,1,0,0:0:0:0:
475,192,19650,1,0,0:0:0:0:
256,192,19650,1,0,0:0:0:0:
182,192,19696,1,0,0:0:0:0:
36,192,19696,1,0,0:0:0:0:
402,192,19741,1,0,0:0:0:0:
329,192,19787,1,0,0:0:0:0:
256,192,19832,1,0,0:0:0:0:
475,192,19923,1,0,0:0:0:0:
182,192,19923,1,0,0:0:0:0:
36,192,19923,1,0,0:0:0:0:
256,192,19969,1,0,0:0:0:0:
329,192,20014,1,0,0:0:0:0:
36,192,20060,1,0,0:0:0:0:
109,192,20105,1,0,0:0:0:0:
182,192,20150,1,0,0:0:0:0:
475,192,20196,1,0,0:0:0:0:
329,192,20196,1,0,0:0:0:0:
402,192,20196,1,0,0:0:0:0:
36,192,20241,1,0,0:0:0:0:
109,192,20378,1,0,0:0:0:0:
256,192,20378,1,0,0:0:0:0:
402,192,20408,1,0,0:0:0:0:
475,192,20408,1,0,0:0:0:0:
256,192,20469,1,0,0:0:0:0:
109,192,20560,1,0,0:0:0:0:
329,192,20650,1,0,0:0:0:0:
182,192,20741,1,0,0:0:0:0:
402,192,20741,1,0,0:0:0:0:
36,192,20832,1,0,0:0:0:0:
109,192,20923,1,0,0:0:0:0:
329,192,20923,1,0,0:0:0:0:
36,192,21014,1,0,0:0:0:0:
182,192,21105,5,0,0:0:0:0:
402,192,21196,1,0,0:0:0:0:
182,192,21287,1,0,0:0:0:0:
36,192,21378,1,0,0:0:0:0:
402,192,21378,1,0,0:0:0:0:
182,192,21469,1,0,0:0:0:0:
329,192,21560,1,0,0:0:0:0:
402,192,21650,1,0,0:0:0:0:
36,192,21650,1,0,0:0:0:0:
109,192,21650,1,0,0:0:0:0:
329,192,21741,1,0,0:0:0:0:
182,192,21832,1,0,0:0:0:0:
109,192,21832,1,0,0:0:0:0:
256,192,21832,1,0,0:0:0:0:
475,192,21832,1,0,0:0:0:0:
36,192,21923,1,0,0:0:0:0:
182,192,22014,1,0,0:0:0:0:
329,192,22105,1,0,0:0:0:0:
475,192,22196,1,0,0:0:0:0:
182,192,22196,1,0,0:0:0:0:
329,192,22287,1,0,0:0:0:0:
402,192,22378,1,0,0:0:0:0:
109,192,22378,1,0,0:0:0:0:
36,192,22378,1,0,0:0:0:0:
256,192,22469,1,0,0:0:0:0:
329,192,22560,5,0,0:0:0:0:
475,192,22560,1,0,0:0:0:0:
182,192,22605,1,0,0:0:0:0:
109,192,22650,1,0,0:0:0:0:
182,192,22696,1,0,0:0:0:0:
329,192,22741,1,0,0:0:0:0:
475,192,22832,1,0,0:0:0:0:
109,192,22832,1,0,0:0:0:0:
36,192,22832,1,0,0:0:0:0:
256,192,22878,1,0,0:0:0:0:
329,192,22923,1,0,0:0:0:0:
256,192,22969,1,0,0:0:0:0:
36,192,23014,1,0,0:0:0:0:
109,192,23060,1,0,0:0:0:0:
182,192,23105,1,0,0:0:0:0:
402,192,23105,1,0,0:0:0:0:
475,192,23105,1,0,0:0:0:0:
109,192,23196,1,0,0:0:0:0:
329,192,23287,1,0,0:0:0:0:
36,192,23287,1,0,0:0:0:0:
256,192,23287,1,0,0:0:0:0:
402,192,23287,1,0,0:0:0:0:
475,192,23378,1,0,0:0:0:0:
329,192,23469,1,0,0:0:0:0:
109,192,23469,1,0,0:0:0:0:
36,192,23469,1,0,0:0:0:0:
182,192,23560,1,0,0:0:0:0:
36,192,23650,1,0,0:0:0:0:
329,192,23650,1,0,0:0:0:0:
182,192,23741,1,0,0:0:0:0:
109,192,23832,1,0,0:0:0:0:
402,192,23832,1,0,0:0:0:0:
256,192,23923,1,0,0:0:0:0:
182,192,24014,5,0,0:0:0:0:
402,192,24105,1,0,0:0:0:0:
182,192,24196,1,0,0:0:0:0:
36,192,24287,1,0,0:0:0:0:
329,192,24287,1,0,0:0:0:0:
182,192,24378,1,0,0:0:0:0:
475,192,24378,1,0,0:0:0:0:
329,192,24469,1,0,0:0:0:0:
402,192,24560,1,0,0:0:0:0:
36,192,24560,1,0,0:0:0:0:
182,192,24560,1,0,0:0:0:0:
329,192,24650,1,0,0:0:0:0:
109,192,24741,1,0,0:0:0:0:
256,192,24787,1,0,0:0:0:0:
109,192,24832,1,0,0:0:0:0:
402,192,24878,1,0,0:0:0:0:
256,192,24923,1,0,0:0:0:0:
402,192,24969,1,0,0:0:0:0:
182,192,25014,1,0,0:0:0:0:
329,192,25060,1,0,0:0:0:0:
182,192,25105,1,0,0:0:0:0:
402,192,25150,1,0,0:0:0:0:
109,192,25196,1,0,0:0:0:0:
329,192,25241,1,0,0:0:0:0:
182,192,25287,1,0,0:0:0:0:
402,192,25332,1,0,0:0:0:0:
109,192,25378,1,0,0:0:0:0:
475,192,25423,1,0,0:0:0:0:
36,192,25469,1,0,0:0:0:0:
329,192,25469,1,0,0:0:0:0:
256,192,25514,1,0,0:0:0:0:
182,192,25560,1,0,0:0:0:0:
109,192,25605,1,0,0:0:0:0:
402,192,25650,1,0,0:0:0:0:
256,192,25741,1,0,0:0:0:0:
182,192,25741,1,0,0:0:0:0:
36,192,25741,1,0,0:0:0:0:
329,192,25787,1,0,0:0:0:0:
402,192,25832,1,0,0:0:0:0:
475,192,25878,1,0,0:0:0:0:
109,192,25923,1,0,0:0:0:0:
182,192,25969,1,0,0:0:0:0:
256,192,26014,1,0,0:0:0:0:
402,192,26014,1,0,0:0:0:0:
329,192,26014,1,0,0:0:0:0:
36,192,26060,1,0,0:0:0:0:
36,192,26196,1,0,0:0:0:0:
182,192,26196,1,0,0:0:0:0:
256,192,26196,1,0,0:0:0:0:
402,192,26226,1,0,0:0:0:0:
475,192,26226,1,0,0:0:0:0:
329,192,26317,1,0,0:0:0:0:
256,192,26347,1,0,0:0:0:0:
475,192,26378,1,0,0:0:0:0:
182,192,26378,1,0,0:0:0:0:
109,192,26438,1,0,0:0:0:0:
182,192,26499,1,0,0:0:0:0:
256,192,26529,1,0,0:0:0:0:
329,192,26560,1,0,0:0:0:0:
36,192,26560,1,0,0:0:0:0:
402,192,26620,1,0,0:0:0:0:
256,192,26681,1,0,0:0:0:0:
182,192,26711,1,0,0:0:0:0:
109,192,26741,1,0,0:0:0:0:
36,192,26741,1,0,0:0:0:0:
475,192,26741,1,0,0:0:0:0:
329,192,26802,1,0,0:0:0:0:
256,192,26863,1,0,0:0:0:0:
182,192,26923,5,0,0:0:0:0:
402,192,27014,1,0,0:0:0:0:
402,192,27105,1,0,0:0:0:0:
182,192,27196,1,0,0:0:0:0:
329,192,27287,1,0,0:0:0:0:
36,192,27287,1,0,0:0:0:0:
329,192,27378,1,0,0:0:0:0:
109,192,27469,1,0,0:0:0:0:
36,192,27469,1,0,0:0:0:0:
182,192,27469,1,0,0:0:0:0:
36,192,27650,128,0,27832:0:0:0:0:
109,192,27650,1,0,0:0:0:0:
256,192,27650,1,0,0:0:0:0:
475,192,27650,1,0,0:0:0:0:
402,192,27711,1,0,0:0:0:0:
256,192,27787,128,0,27923:0:0:0:0:
109,192,27832,1,0,0:0:0:0:
402,192,27832,128,0,27969:0:0:0:0:
182,192,27923,128,0,28014:0:0:0:0:
475,192,28014,1,0,0:0:0:0:
329,192,28014,1,0,0:0:0:0:
109,192,28060,1,0,0:0:0:0:
182,192,28105,1,0,0:0:0:0:
256,192,28150,1,0,0:0:0:0:
475,192,28196,1,0,0:0:0:0:
329,192,28196,1,0,0:0:0:0:
36,192,28196,1,0,0:0:0:0:
109,192,28256,1,0,0:0:0:0:
182,192,28317,1,0,0:0:0:0:
475,192,28378,5,0,0:0:0:0:
256,192,28378,1,0,0:0:0:0:
329,192,28423,1,0,0:0:0:0:
36,192,28469,1,0,0:0:0:0:
329,192,28514,1,0,0:0:0:0:
109,192,28560,1,0,0:0:0:0:
402,192,28650,1,0,0:0:0:0:
475,192,28650,1,0,0:0:0:0:
36,192,28650,1,0,0:0:0:0:
182,192,28696,1,0,0:0:0:0:
256,192,28741,1,0,0:0:0:0:
182,192,28787,1,0,0:0:0:0:
475,192,28832,1,0,0:0:0:0:
402,192,28878,1,0,0:0:0:0:
36,192,28923,1,0,0:0:0:0:
109,192,28923,1,0,0:0:0:0:
329,192,28923,1,0,0:0:0:0:
402,192,29014,1,0,0:0:0:0:
182,192,29105,1,0,0:0:0:0:
256,192,29105,1,0,0:0:0:0:
109,192,29105,1,0,0:0:0:0:
475,192,29105,1,0,0:0:0:0:
36,192,29196,1,0,0:0:0:0:
182,192,29287,1,0,0:0:0:0:
36,192,29347,1,0,0:0:0:0:
329,192,29378,1,0,0:0:0:0:
109,192,29438,1,0,0:0:0:0:
475,192,29469,1,0,0:0:0:0:
109,192,29529,1,0,0:0:0:0:
329,192,29560,1,0,0:0:0:0:
402,192,29650,1,0,0:0:0:0:
182,192,29650,1,0,0:0:0:0:
36,192,29650,1,0,0:0:0:0:
256,192,29741,1,0,0:0:0:0:
182,192,29832,5,0,0:0:0:0:
402,192,29923,1,0,0:0:0:0:
182,192,30014,1,0,0:0:0:0:
402,192,30014,1,0,0:0:0:0:
256,192,30014,1,0,0:0:0:0:
36,192,30105,1,0,0:0:0:0:
256,192,30196,1,0,0:0:0:0:
329,192,30196,1,0,0:0:0:0:
475,192,30196,1,0,0:0:0:0:
109,192,30196,1,0,0:0:0:0:
109,192,30287,1,0,0:0:0:0:
402,192,30378,1,0,0:0:0:0:
329,192,30469,1,0,0:0:0:0:
36,192,30469,1,0,0:0:0:0:
182,192,30560,1,0,0:0:0:0:
475,192,30560,1,0,0:0:0:0:
256,192,30560,1,0,0:0:0:0:
36,192,30560,1,0,0:0:0:0:
402,192,30650,1,0,0:0:0:0:
182,192,30741,1,0,0:0:0:0:
402,192,30832,1,0,0:0:0:0:
475,192,30923,1,0,0:0:0:0:
36,192,30923,1,0,0:0:0:0:
182,192,30923,1,0,0:0:0:0:
256,192,30923,1,0,0:0:0:0:
329,192,31014,1,0,0:0:0:0:
402,192,31105,1,0,0:0:0:0:
109,192,31105,1,0,0:0:0:0:
109,192,31196,1,0,0:0:0:0:
475,192,31287,1,0,0:0:0:0:
256,192,31287,128,0,31378:0:0:0:0:
329,192,31287,1,0,0:0:0:0:
182,192,31332,128,0,31560:0:0:0:0:
36,192,31469,1,0,0:0:0:0:
402,192,31469,1,0,0:0:0:0:
402,192,31560,128,0,31650:0:0:0:0:
256,192,31590,128,0,31711:0:0:0:0:
36,192,31620,128,0,31772:0:0:0:0:
109,192,31650,128,0,31832:0:0:0:0:
256,192,31832,1,0,0:0:0:0:
475,192,31832,1,0,0:0:0:0:
182,192,31832,1,0,0:0:0:0:
329,192,31832,128,0,32014:0:0:0:0:
182,192,32014,1,0,0:0:0:0:
36,192,32014,1,0,0:0:0:0:
402,192,32014,1,0,0:0:0:0:
475,192,32014,1,0,0:0:0:0:
256,192,32196,1,0,0:0:0:0:
256,192,32287,1,0,0:0:0:0:
402,192,32287,1,0,0:0:0:0:
182,192,32355,1,0,0:0:0:0:
36,192,32378,128,0,33832:0:0:0:0:
329,192,32378,1,0,0:0:0:0:
475,192,32400,1,0,0:0:0:0:
256,192,33810,1,0,0:0:0:0:
329,192,33832,1,0,0:0:0:0:
329,192,33923,1,0,0:0:0:0:
475,192,34014,1,0,0:0:0:0:
182,192,34014,1,0,0:0:0:0:
36,192,34014,1,0,0:0:0:0:
256,192,34060,1,0,0:0:0:0:
475,192,34196,1,0,0:0:0:0:
36,192,34196,128,0,34469:0:0:0:0:
109,192,34196,1,0,0:0:0:0:
109,192,34287,1,0,0:0:0:0:
256,192,34332,1,0,0:0:0:0:
402,192,34378,1,0,0:0:0:0:
329,192,34469,128,0,34560:0:0:0:0:
402,192,34469,1,0,0:0:0:0:
182,192,34514,128,0,34650:0:0:0:0:
109,192,34560,128,0,34741:0:0:0:0:
475,192,34560,1,0,0:0:0:0:
329,192,34741,128,0,34923:0:0:0:0:
182,192,34741,1,0,0:0:0:0:
36,192,34741,1,0,0:0:0:0:
256,192,34741,1,0,0:0:0:0:
182,192,34923,1,0,0:0:0:0:
475,192,34923,1,0,0:0:0:0:
256,192,34923,1,0,0:0:0:0:
402,192,34923,1,0,0:0:0:0:
329,192,35287,1,0,0:0:0:0:
402,192,35317,1,0,0:0:0:0:
109,192,36196,1,0,0:0:0:0:
256,192,36196,1,0,0:0:0:0:
329,192,36196,1,0,0:0:0:0:
36,192,36256,1,0,0:0:0:0:
182,192,36287,1,0,0:0:0:0:
329,192,36378,1,0,0:0:0:0:
402,192,36378,1,0,0:0:0:0:
475,192,36378,1,0,0:0:0:0:
36,192,36378,1,0,0:0:0:0:
256,192,36423,1,0,0:0:0:0:
182,192,36469,1,0,0:0:0:0:
402,192,36499,1,0,0:0:0:0:
256,192,36560,1,0,0:0:0:0:
329,192,36620,1,0,0:0:0:0:
36,192,36650,1,0,0:0:0:0:
402,192,36681,1,0,0:0:0:0:
182,192,36711,1,0,0:0:0:0:
256,192,36741,1,0,0:0:0:0:
329,192,36802,1,0,0:0:0:0:
36,192,36832,1,0,0:0:0:0:
402,192,36863,1,0,0:0:0:0:
182,192,36923,1,0,0:0:0:0:
256,192,36923,1,0,0:0:0:0:
109,192,36923,1,0,0:0:0:0:
402,192,37014,1,0,0:0:0:0:
475,192,37105,1,0,0:0:0:0:
182,192,37105,1,0,0:0:0:0:
36,192,37105,128,0,37378:0:0:0:0:
182,192,37196,1,0,0:0:0:0:
329,192,37241,1,0,0:0:0:0:
475,192,37287,1,0,0:0:0:0:
475,192,37378,1,0,0:0:0:0:
256,192,37378,128,0,37469:0:0:0:0:
182,192,37423,128,0,37560:0:0:0:0:
402,192,37469,1,0,0:0:0:0:
109,192,37469,128,0,37650:0:0:0:0:
402,192,37650,1,0,0:0:0:0:
36,192,37650,1,0,0:0:0:0:
329,192,37650,128,0,37832:0:0:0:0:
256,192,37650,1,0,0:0:0:0:
36,192,37741,1,0,0:0:0:0:
182,192,37787,128,0,37923:0:0:0:0:
475,192,37832,1,0,0:0:0:0:
256,192,37832,128,0,38014:0:0:0:0:
329,192,38014,1,0,0:0:0:0:
109,192,38014,1,0,0:0:0:0:
475,192,38014,1,0,0:0:0:0:
36,192,38105,1,0,0:0:0:0:
402,192,38166,1,0,0:0:0:0:
182,192,38196,1,0,0:0:0:0:
402,192,38256,1,0,0:0:0:0:
256,192,38287,1,0,0:0:0:0:
182,192,38378,1,0,0:0:0:0:
109,192,38469,1,0,0:0:0:0:
256,192,38560,1,0,0:0:0:0:
36,192,38681,1,0,0:0:0:0:
109,192,38741,1,0,0:0:0:0:
475,192,39060,1,0,0:0:0:0:
402,192,39082,1,0,0:0:0:0:
329,192,39105,1,0,0:0:0:0:
182,192,39105,1,0,0:0:0:0:
109,192,39105,1,0,0:0:0:0:
36,192,39105,1,0,0:0:0:0:
475,192,39196,1,0,0:0:0:0:
329,192,39287,1,0,0:0:0:0:
182,192,39287,1,0,0:0:0:0:
36,192,39287,1,0,0:0:0:0:
109,192,39287,1,0,0:0:0:0:
256,192,39287,1,0,0:0:0:0:
402,192,39332,1,0,0:0:0:0:
402,192,39469,1,0,0:0:0:0:
402,192,39650,1,0,0:0:0:0:
256,192,39832,1,0,0:0:0:0:
182,192,39832,1,0,0:0:0:0:
402,192,39832,1,0,0:0:0:0:
402,192,40014,1,0,0:0:0:0:
36,192,40014,128,0,40287:0:0:0:0:
475,192,40014,1,0,0:0:0:0:
182,192,40014,1,0,0:0:0:0:
402,192,40105,1,0,0:0:0:0:
256,192,40150,1,0,0:0:0:0:
109,192,40196,1,0,0:0:0:0:
329,192,40287,128,0,40378:0:0:0:0:
109,192,40287,1,0,0:0:0:0:
402,192,40332,128,0,40469:0:0:0:0:
475,192,40378,128,0,40560:0:0:0:0:
182,192,40378,1,0,0:0:0:0:
36,192,40469,1,0,0:0:0:0:
402,192,40560,1,0,0:0:0:0:
256,192,40560,1,0,0:0:0:0:
109,192,40560,128,0,40741:0:0:0:0:
36,192,40741,1,0,0:0:0:0:
475,192,40741,1,0,0:0:0:0:
256,192,40741,1,0,0:0:0:0:
329,192,40741,1,0,0:0:0:0:
256,192,40923,1,0,0:0:0:0:
182,192,41014,1,0,0:0:0:0:
256,192,41105,1,0,0:0:0:0:
402,192,41105,1,0,0:0:0:0:
329,192,41196,1,0,0:0:0:0:
256,192,41287,1,0,0:0:0:0:
475,192,41287,1,0,0:0:0:0:
109,192,41287,1,0,0:0:0:0:
36,192,41287,1,0,0:0:0:0:
402,192,41378,1,0,0:0:0:0:
329,192,41469,1,0,0:0:0:0:
256,192,41560,1,0,0:0:0:0:
329,192,41650,1,0,0:0:0:0:
36,192,41650,1,0,0:0:0:0:
36,192,41741,1,0,0:0:0:0:
182,192,41832,1,0,0:0:0:0:
329,192,41832,1,0,0:0:0:0:
109,192,41832,1,0,0:0:0:0:
256,192,41832,1,0,0:0:0:0:
475,192,41923,1,0,0:0:0:0:
36,192,42014,128,0,42105:0:0:0:0:
329,192,42014,1,0,0:0:0:0:
109,192,42060,128,0,42196:0:0:0:0:
329,192,42105,1,0,0:0:0:0:
402,192,42196,1,0,0:0:0:0:
475,192,42196,1,0,0:0:0:0:
182,192,42196,1,0,0:0:0:0:
256,192,42196,1,0,0:0:0:0:
182,192,42378,1,0,0:0:0:0:
256,192,42469,1,0,0:0:0:0:
402,192,42469,1,0,0:0:0:0:
475,192,42469,1,0,0:0:0:0:
36,192,42469,1,0,0:0:0:0:
256,192,42650,1,0,0:0:0:0:
182,192,42741,1,0,0:0:0:0:
36,192,42741,1,0,0:0:0:0:
475,192,42741,1,0,0:0:0:0:
402,192,42741,1,0,0:0:0:0:
402,192,42832,5,0,0:0:0:0:
475,192,42832,1,0,0:0:0:0:
109,192,42923,1,0,0:0:0:0:
256,192,42923,128,0,43014:0:0:0:0:
182,192,42923,1,0,0:0:0:0:
329,192,42969,128,0,43196:0:0:0:0:
475,192,43105,1,0,0:0:0:0:
36,192,43105,1,0,0:0:0:0:
36,192,43196,128,0,43287:0:0:0:0:
256,192,43226,128,0,43347:0:0:0:0:
182,192,43256,128,0,43408:0:0:0:0:
402,192,43287,128,0,43469:0:0:0:0:
256,192,43469,1,0,0:0:0:0:
329,192,43469,1,0,0:0:0:0:
475,192,43469,1,0,0:0:0:0:
109,192,43469,128,0,43650:0:0:0:0:
475,192,43650,1,0,0:0:0:0:
402,192,43650,1,0,0:0:0:0:
182,192,43650,1,0,0:0:0:0:
256,192,43650,1,0,0:0:0:0:
256,192,43832,1,0,0:0:0:0:
256,192,43923,1,0,0:0:0:0:
109,192,43923,1,0,0:0:0:0:
329,192,43991,1,0,0:0:0:0:
182,192,44014,1,0,0:0:0:0:
475,192,44014,1,0,0:0:0:0:
36,192,44037,128,0,44196:0:0:0:0:
402,192,44105,1,0,0:0:0:0:
329,192,44196,1,0,0:0:0:0:
402,192,44287,1,0,0:0:0:0:
182,192,44378,5,0,0:0:0:0:
402,192,44469,1,0,0:0:0:0:
182,192,44560,1,0,0:0:0:0:
36,192,44650,1,0,0:0:0:0:
182,192,44741,1,0,0:0:0:0:
329,192,44832,1,0,0:0:0:0:
402,192,44923,1,0,0:0:0:0:
109,192,44923,1,0,0:0:0:0:
256,192,44923,1,0,0:0:0:0:
329,192,45014,1,0,0:0:0:0:
182,192,45105,1,0,0:0:0:0:
256,192,45105,1,0,0:0:0:0:
475,192,45105,1,0,0:0:0:0:
36,192,45196,1,0,0:0:0:0:
182,192,45287,1,0,0:0:0:0:
329,192,45378,1,0,0:0:0:0:
109,192,45438,1,0,0:0:0:0:
475,192,45469,1,0,0:0:0:0:
109,192,45529,1,0,0:0:0:0:
329,192,45560,1,0,0:0:0:0:
256,192,45650,1,0,0:0:0:0:
475,192,45650,1,0,0:0:0:0:
182,192,45650,1,0,0:0:0:0:
109,192,45741,1,0,0:0:0:0:
329,192,45832,1,0,0:0:0:0:
475,192,45832,128,0,46105:0:0:0:0:
36,192,45832,1,0,0:0:0:0:
402,192,45832,1,0,0:0:0:0:
329,192,45923,1,0,0:0:0:0:
182,192,45969,1,0,0:0:0:0:
36,192,46014,1,0,0:0:0:0:
256,192,46105,128,0,46196:0:0:0:0:
36,192,46105,1,0,0:0:0:0:
329,192,46150,128,0,46287:0:0:0:0:
402,192,46196,128,0,46378:0:0:0:0:
109,192,46196,1,0,0:0:0:0:
329,192,46378,1,0,0:0:0:0:
182,192,46378,1,0,0:0:0:0:
475,192,46378,1,0,0:0:0:0:
256,192,46378,128,0,46560:0:0:0:0:
402,192,46560,1,0,0:0:0:0:
182,192,46560,1,0,0:0:0:0:
36,192,46560,1,0,0:0:0:0:
109,192,46560,1,0,0:0:0:0:
475,192,46741,1,0,0:0:0:0:
329,192,46741,1,0,0:0:0:0:
182,192,46772,1,0,0:0:0:0:
109,192,46832,1,0,0:0:0:0:
256,192,46893,128,0,47014:0:0:0:0:
402,192,46923,128,0,47196:0:0:0:0:
36,192,46923,1,0,0:0:0:0:
109,192,47014,1,0,0:0:0:0:
36,192,47105,1,0,0:0:0:0:
182,192,47196,1,0,0:0:0:0:
256,192,47287,1,0,0:0:0:0:
329,192,47378,1,0,0:0:0:0:
36,192,47438,1,0,0:0:0:0:
475,192,47469,1,0,0:0:0:0:
109,192,47499,1,0,0:0:0:0:
182,192,47560,1,0,0:0:0:0:
329,192,47560,1,0,0:0:0:0:
402,192,47650,1,0,0:0:0:0:
36,192,47650,1,0,0:0:0:0:
109,192,47711,1,0,0:0:0:0:
402,192,47741,1,0,0:0:0:0:
182,192,47772,1,0,0:0:0:0:
256,192,47832,1,0,0:0:0:0:
475,192,47832,1,0,0:0:0:0:
36,192,48014,1,0,0:0:0:0:
256,192,48014,1,0,0:0:0:0:
329,192,48014,1,0,0:0:0:0:
475,192,48014,1,0,0:0:0:0:
182,192,48196,1,0,0:0:0:0:
402,192,48256,1,0,0:0:0:0:
36,192,48287,1,0,0:0:0:0:
329,192,48317,1,0,0:0:0:0:
109,192,48378,1,0,0:0:0:0:
256,192,48378,1,0,0:0:0:0:
329,192,48438,1,0,0:0:0:0:
109,192,48469,1,0,0:0:0:0:
402,192,48499,1,0,0:0:0:0:
256,192,48560,1,0,0:0:0:0:
475,192,48560,1,0,0:0:0:0:
36,192,48560,1,0,0:0:0:0:
402,192,48650,1,0,0:0:0:0:
475,192,48741,1,0,0:0:0:0:
182,192,48741,1,0,0:0:0:0:
36,192,48741,128,0,49014:0:0:0:0:
182,192,48832,1,0,0:0:0:0:
329,192,48878,1,0,0:0:0:0:
475,192,48923,1,0,0:0:0:0:
475,192,49014,1,0,0:0:0:0:
256,192,49014,128,0,49105:0:0:0:0:
182,192,49060,128,0,49196:0:0:0:0:
109,192,49105,128,0,49287:0:0:0:0:
402,192,49105,1,0,0:0:0:0:
36,192,49287,1,0,0:0:0:0:
475,192,49287,1,0,0:0:0:0:
329,192,49287,128,0,49469:0:0:0:0:
256,192,49287,1,0,0:0:0:0:
182,192,49469,1,0,0:0:0:0:
36,192,49469,1,0,0:0:0:0:
475,192,49469,1,0,0:0:0:0:
109,192,49469,1,0,0:0:0:0:
109,192,49650,1,0,0:0:0:0:
402,192,49650,1,0,0:0:0:0:
475,192,49650,1,0,0:0:0:0:
182,192,49741,1,0,0:0:0:0:
256,192,49741,1,0,0:0:0:0:
329,192,49832,1,0,0:0:0:0:
36,192,49832,1,0,0:0:0:0:
402,192,49893,1,0,0:0:0:0:
109,192,49923,1,0,0:0:0:0:
329,192,49953,1,0,0:0:0:0:
36,192,50014,1,0,0:0:0:0:
256,192,50014,1,0,0:0:0:0:
182,192,50105,1,0,0:0:0:0:
402,192,50105,1,0,0:0:0:0:
182,192,50696,1,0,0:0:0:0:
109,192,50719,1,0,0:0:0:0:
36,192,50741,1,0,0:0:0:0:
329,192,50741,1,0,0:0:0:0:
402,192,50741,1,0,0:0:0:0:
475,192,50741,1,0,0:0:0:0:
182,192,50832,1,0,0:0:0:0:
36,192,50923,1,0,0:0:0:0:
475,192,50923,1,0,0:0:0:0:
329,192,50923,1,0,0:0:0:0:
402,192,50923,1,0,0:0:0:0:
109,192,50923,1,0,0:0:0:0:
256,192,50969,1,0,0:0:0:0:
256,192,51105,1,0,0:0:0:0:
256,192,51287,1,0,0:0:0:0:
109,192,51469,1,0,0:0:0:0:
256,192,51469,1,0,0:0:0:0:
36,192,51469,1,0,0:0:0:0:
109,192,51650,1,0,0:0:0:0:
329,192,51650,1,0,0:0:0:0:
475,192,51650,128,0,51923:0:0:0:0:
36,192,51650,1,0,0:0:0:0:
329,192,51741,1,0,0:0:0:0:
182,192,51787,1,0,0:0:0:0:
36,192,51832,1,0,0:0:0:0:
256,192,51923,128,0,52014:0:0:0:0:
36,192,51923,1,0,0:0:0:0:
329,192,51969,128,0,52105:0:0:0:0:
475,192,52014,1,0,0:0:0:0:
402,192,52014,128,0,52196:0:0:0:0:
109,192,52014,1,0,0:0:0:0:
109,192,52196,1,0,0:0:0:0:
256,192,52196,1,0,0:0:0:0:
36,192,52196,128,0,52378:0:0:0:0:
182,192,52378,1,0,0:0:0:0:
329,192,52378,1,0,0:0:0:0:
475,192,52378,1,0,0:0:0:0:
402,192,52378,1,0,0:0:0:0:
36,192,52469,1,0,0:0:0:0:
109,192,52560,1,0,0:0:0:0:
402,192,52560,1,0,0:0:0:0:
475,192,52560,1,0,0:0:0:0:
256,192,52620,1,0,0:0:0:0:
36,192,52650,1,0,0:0:0:0:
329,192,52681,1,0,0:0:0:0:
256,192,52741,1,0,0:0:0:0:
182,192,52741,1,0,0:0:0:0:
402,192,52832,1,0,0:0:0:0:
475,192,52832,1,0,0:0:0:0:
109,192,52923,1,0,0:0:0:0:
36,192,52923,1,0,0:0:0:0:
329,192,52923,1,0,0:0:0:0:
256,192,52923,1,0,0:0:0:0:
402,192,53014,1,0,0:0:0:0:
475,192,53105,1,0,0:0:0:0:
182,192,53105,1,0,0:0:0:0:
182,192,53196,1,0,0:0:0:0:
36,192,53287,1,0,0:0:0:0:
402,192,53287,1,0,0:0:0:0:
256,192,53287,1,0,0:0:0:0:
109,192,53378,1,0,0:0:0:0:
475,192,53469,1,0,0:0:0:0:
182,192,53469,1,0,0:0:0:0:
402,192,53469,1,0,0:0:0:0:
256,192,53469,1,0,0:0:0:0:
402,192,53560,1,0,0:0:0:0:
182,192,53650,1,0,0:0:0:0:
109,192,53741,1,0,0:0:0:0:
329,192,53741,1,0,0:0:0:0:
329,192,53832,1,0,0:0:0:0:
36,192,53832,1,0,0:0:0:0:
256,192,53832,1,0,0:0:0:0:
475,192,53832,1,0,0:0:0:0:
109,192,53923,1,0,0:0:0:0:
256,192,54014,1,0,0:0:0:0:
109,192,54105,1,0,0:0:0:0:
36,192,54196,1,0,0:0:0:0:
475,192,54196,1,0,0:0:0:0:
329,192,54196,1,0,0:0:0:0:
256,192,54196,1,0,0:0:0:0:
182,192,54256,1,0,0:0:0:0:
256,192,54317,1,0,0:0:0:0:
109,192,54347,1,0,0:0:0:0:
329,192,54378,1,0,0:0:0:0:
182,192,54438,1,0,0:0:0:0:
402,192,54469,1,0,0:0:0:0:
36,192,54529,1,0,0:0:0:0:
256,192,54529,1,0,0:0:0:0:
475,192,54560,1,0,0:0:0:0:
402,192,54560,128,0,56014:0:0:0:0:
182,192,54923,1,0,0:0:0:0:
36,192,55287,1,0,0:0:0:0:
109,192,55650,1,0,0:0:0:0:
256,192,56014,1,0,0:0:0:0:
256,192,56196,1,0,0:0:0:0:
182,192,56560,1,0,0:0:0:0:
329,192,56741,1,0,0:0:0:0:
329,192,56923,1,0,0:0:0:0:
109,192,57105,1,0,0:0:0:0:
109,192,57832,1,0,0:0:0:0:
256,192,58196,1,0,0:0:0:0:
182,192,58560,1,0,0:0:0:0:
36,192,58923,1,0,0:0:0:0:
36,192,59105,1,0,0:0:0:0:
109,192,59650,1,0,0:0:0:0:
402,192,60378,1,0,0:0:0:0:
36,192,60378,1,0,0:0:0:0:
256,192,60560,1,0,0:0:0:0:
36,192,60560,1,0,0:0:0:0:
402,192,60741,1,0,0:0:0:0:
109,192,60741,1,0,0:0:0:0:
182,192,60923,1,0,0:0:0:0:
256,192,61014,1,0,0:0:0:0:
182,192,61105,1,0,0:0:0:0:
402,192,61105,1,0,0:0:0:0:
36,192,61166,1,0,0:0:0:0:
109,192,61226,1,0,0:0:0:0:
402,192,61287,1,0,0:0:0:0:
109,192,61347,1,0,0:0:0:0:
475,192,61378,1,0,0:0:0:0:
182,192,61408,1,0,0:0:0:0:
256,192,61469,1,0,0:0:0:0:
36,192,61469,1,0,0:0:0:0:
329,192,61469,1,0,0:0:0:0:
109,192,61560,1,0,0:0:0:0:
182,192,61650,1,0,0:0:0:0:
402,192,61650,1,0,0:0:0:0:
256,192,61741,1,0,0:0:0:0:
475,192,61832,1,0,0:0:0:0:
329,192,61832,1,0,0:0:0:0:
36,192,61832,1,0,0:0:0:0:
36,192,62014,1,0,0:0:0:0:
256,192,62196,1,0,0:0:0:0:
402,192,62196,1,0,0:0:0:0:
256,192,62378,1,0,0:0:0:0:
36,192,62378,1,0,0:0:0:0:
109,192,62560,1,0,0:0:0:0:
329,192,62560,1,0,0:0:0:0:
475,192,62650,128,0,62802:0:0:0:0:
182,192,62650,1,0,0:0:0:0:
402,192,62719,128,0,62923:0:0:0:0:
109,192,62741,1,0,0:0:0:0:
256,192,62802,1,0,0:0:0:0:
182,192,62923,1,0,0:0:0:0:
36,192,62923,128,0,63196:0:0:0:0:
329,192,62984,1,0,0:0:0:0:
402,192,63014,1,0,0:0:0:0:
256,192,63105,1,0,0:0:0:0:
109,192,63105,1,0,0:0:0:0:
329,192,63196,1,0,0:0:0:0:
36,192,63287,1,0,0:0:0:0:
475,192,63287,1,0,0:0:0:0:
256,192,63287,1,0,0:0:0:0:
182,192,63287,1,0,0:0:0:0:
402,192,63469,1,0,0:0:0:0:
36,192,63469,1,0,0:0:0:0:
475,192,63650,1,0,0:0:0:0:
182,192,63650,1,0,0:0:0:0:
256,192,63650,1,0,0:0:0:0:
36,192,63741,1,0,0:0:0:0:
256,192,63832,1,0,0:0:0:0:
109,192,63832,1,0,0:0:0:0:
329,192,63893,1,0,0:0:0:0:
402,192,63953,1,0,0:0:0:0:
182,192,64014,1,0,0:0:0:0:
109,192,64014,1,0,0:0:0:0:
182,192,64196,1,0,0:0:0:0:
475,192,64196,1,0,0:0:0:0:
36,192,64196,1,0,0:0:0:0:
402,192,64196,1,0,0:0:0:0:
256,192,64287,1,0,0:0:0:0:
329,192,64378,1,0,0:0:0:0:
109,192,64438,1,0,0:0:0:0:
256,192,64499,1,0,0:0:0:0:
402,192,64560,1,0,0:0:0:0:
109,192,64560,1,0,0:0:0:0:
36,192,64620,1,0,0:0:0:0:
109,192,64681,1,0,0:0:0:0:
329,192,64741,1,0,0:0:0:0:
182,192,64741,1,0,0:0:0:0:
329,192,64923,1,0,0:0:0:0:
475,192,64923,1,0,0:0:0:0:
36,192,65105,1,0,0:0:0:0:
109,192,65105,1,0,0:0:0:0:
256,192,65105,1,0,0:0:0:0:
475,192,65287,1,0,0:0:0:0:
109,192,65287,1,0,0:0:0:0:
182,192,65287,1,0,0:0:0:0:
329,192,65347,1,0,0:0:0:0:
256,192,65408,1,0,0:0:0:0:
329,192,65469,1,0,0:0:0:0:
36,192,65469,1,0,0:0:0:0:
36,192,65560,1,0,0:0:0:0:
402,192,65560,1,0,0:0:0:0:
182,192,65650,1,0,0:0:0:0:
256,192,65650,1,0,0:0:0:0:
109,192,65741,1,0,0:0:0:0:
36,192,65832,1,0,0:0:0:0:
329,192,65832,1,0,0:0:0:0:
475,192,65832,1,0,0:0:0:0:
36,192,66196,1,0,0:0:0:0:
109,192,66196,1,0,0:0:0:0:
256,192,66196,1,0,0:0:0:0:
402,192,66196,1,0,0:0:0:0:
109,192,66378,1,0,0:0:0:0:
256,192,66378,1,0,0:0:0:0:
329,192,66469,1,0,0:0:0:0:
182,192,66560,1,0,0:0:0:0:
256,192,66560,1,0,0:0:0:0:
475,192,66560,1,0,0:0:0:0:
402,192,66560,1,0,0:0:0:0:
329,192,66741,1,0,0:0:0:0:
475,192,66741,1,0,0:0:0:0:
256,192,66832,1,0,0:0:0:0:
109,192,66832,1,0,0:0:0:0:
402,192,66923,1,0,0:0:0:0:
182,192,67014,1,0,0:0:0:0:
402,192,67014,1,0,0:0:0:0:
256,192,67105,1,0,0:0:0:0:
109,192,67105,1,0,0:0:0:0:
36,192,67105,1,0,0:0:0:0:
36,192,67287,1,0,0:0:0:0:
182,192,67287,1,0,0:0:0:0:
329,192,67287,1,0,0:0:0:0:
402,192,67287,1,0,0:0:0:0:
329,192,67469,1,0,0:0:0:0:
475,192,67469,1,0,0:0:0:0:
256,192,67560,1,0,0:0:0:0:
475,192,67650,1,0,0:0:0:0:
402,192,67650,1,0,0:0:0:0:
182,192,67650,1,0,0:0:0:0:
182,192,67832,1,0,0:0:0:0:
402,192,67832,1,0,0:0:0:0:
256,192,67923,1,0,0:0:0:0:
329,192,68014,1,0,0:0:0:0:
475,192,68014,1,0,0:0:0:0:
109,192,68014,1,0,0:0:0:0:
109,192,68196,1,0,0:0:0:0:
402,192,68196,1,0,0:0:0:0:
256,192,68287,1,0,0:0:0:0:
36,192,68287,1,0,0:0:0:0:
329,192,68378,1,0,0:0:0:0:
475,192,68378,1,0,0:0:0:0:
329,192,68469,1,0,0:0:0:0:
256,192,68560,1,0,0:0:0:0:
109,192,68560,1,0,0:0:0:0:
36,192,68560,1,0,0:0:0:0:
109,192,68741,1,0,0:0:0:0:
256,192,68741,1,0,0:0:0:0:
329,192,68741,1,0,0:0:0:0:
475,192,68741,1,0,0:0:0:0:
109,192,68923,1,0,0:0:0:0:
256,192,69014,1,0,0:0:0:0:
182,192,69105,1,0,0:0:0:0:
329,192,69105,1,0,0:0:0:0:
475,192,69105,1,0,0:0:0:0:
329,192,69287,1,0,0:0:0:0:
109,192,69287,1,0,0:0:0:0:
36,192,69378,1,0,0:0:0:0:
182,192,69469,1,0,0:0:0:0:
256,192,69469,1,0,0:0:0:0:
329,192,69469,1,0,0:0:0:0:
475,192,69469,1,0,0:0:0:0:
109,192,69650,1,0,0:0:0:0:
329,192,69650,1,0,0:0:0:0:
256,192,69741,1,0,0:0:0:0:
36,192,69741,1,0,0:0:0:0:
182,192,69832,1,0,0:0:0:0:
182,192,69923,1,0,0:0:0:0:
329,192,69923,1,0,0:0:0:0:
402,192,70014,1,0,0:0:0:0:
36,192,70014,1,0,0:0:0:0:
109,192,70105,1,0,0:0:0:0:
182,192,70196,1,0,0:0:0:0:
256,192,70196,1,0,0:0:0:0:
329,192,70196,1,0,0:0:0:0:
475,192,70196,1,0,0:0:0:0:
182,192,70378,1,0,0:0:0:0:
329,192,70378,1,0,0:0:0:0:
36,192,70469,1,0,0:0:0:0:
402,192,70560,1,0,0:0:0:0:
109,192,70560,1,0,0:0:0:0:
256,192,70560,1,0,0:0:0:0:
109,192,70741,1,0,0:0:0:0:
256,192,70741,1,0,0:0:0:0:
329,192,70832,1,0,0:0:0:0:
402,192,70923,1,0,0:0:0:0:
475,192,70923,1,0,0:0:0:0:
182,192,70923,1,0,0:0:0:0:
36,192,70923,1,0,0:0:0:0:
256,192,71014,1,0,0:0:0:0:
36,192,71105,1,0,0:0:0:0:
329,192,71105,1,0,0:0:0:0:
182,192,71196,1,0,0:0:0:0:
402,192,71196,1,0,0:0:0:0:
256,192,71287,1,0,0:0:0:0:
256,192,71378,1,0,0:0:0:0:
36,192,71378,1,0,0:0:0:0:
109,192,71469,1,0,0:0:0:0:
182,192,71469,1,0,0:0:0:0:
402,192,71469,1,0,0:0:0:0:
256,192,71650,1,0,0:0:0:0:
36,192,71650,1,0,0:0:0:0:
475,192,71650,1,0,0:0:0:0:
182,192,71650,1,0,0:0:0:0:
329,192,71711,1,0,0:0:0:0:
182,192,71772,1,0,0:0:0:0:
329,192,71832,1,0,0:0:0:0:
256,192,71878,1,0,0:0:0:0:
36,192,71923,1,0,0:0:0:0:
109,192,71969,1,0,0:0:0:0:
182,192,72014,1,0,0:0:0:0:
256,192,72014,1,0,0:0:0:0:
402,192,72014,1,0,0:0:0:0:
109,192,72196,1,0,0:0:0:0:
256,192,72196,1,0,0:0:0:0:
329,192,72287,1,0,0:0:0:0:
182,192,72378,1,0,0:0:0:0:
402,192,72378,1,0,0:0:0:0:
256,192,72378,1,0,0:0:0:0:
475,192,72378,1,0,0:0:0:0:
329,192,72560,1,0,0:0:0:0:
475,192,72560,1,0,0:0:0:0:
402,192,72650,1,0,0:0:0:0:
182,192,72650,1,0,0:0:0:0:
36,192,72741,1,0,0:0:0:0:
36,192,72832,1,0,0:0:0:0:
256,192,72832,1,0,0:0:0:0:
109,192,72923,1,0,0:0:0:0:
329,192,72923,1,0,0:0:0:0:
402,192,72923,1,0,0:0:0:0:
182,192,73105,1,0,0:0:0:0:
36,192,73105,1,0,0:0:0:0:
329,192,73105,1,0,0:0:0:0:
475,192,73105,1,0,0:0:0:0:
182,192,73287,1,0,0:0:0:0:
402,192,73287,1,0,0:0:0:0:
109,192,73378,1,0,0:0:0:0:
256,192,73469,1,0,0:0:0:0:
402,192,73469,1,0,0:0:0:0:
36,192,73469,1,0,0:0:0:0:
36,192,73650,1,0,0:0:0:0:
256,192,73650,1,0,0:0:0:0:
329,192,73741,1,0,0:0:0:0:
182,192,73832,1,0,0:0:0:0:
109,192,73832,1,0,0:0:0:0:
402,192,73832,1,0,0:0:0:0:
182,192,74014,1,0,0:0:0:0:
402,192,74014,1,0,0:0:0:0:
109,192,74105,1,0,0:0:0:0:
256,192,74105,1,0,0:0:0:0:
329,192,74196,1,0,0:0:0:0:
329,192,74287,1,0,0:0:0:0:
36,192,74287,1,0,0:0:0:0:
256,192,74378,1,0,0:0:0:0:
182,192,74378,1,0,0:0:0:0:
402,192,74378,1,0,0:0:0:0:
109,192,74469,1,0,0:0:0:0:
36,192,74560,1,0,0:0:0:0:
182,192,74560,1,0,0:0:0:0:
329,192,74560,1,0,0:0:0:0:
475,192,74560,1,0,0:0:0:0:
182,192,74741,1,0,0:0:0:0:
329,192,74832,1,0,0:0:0:0:
475,192,74832,1,0,0:0:0:0:
256,192,74923,1,0,0:0:0:0:
109,192,74923,1,0,0:0:0:0:
36,192,74923,1,0,0:0:0:0:
256,192,75105,1,0,0:0:0:0:
109,192,75105,1,0,0:0:0:0:
329,192,75196,1,0,0:0:0:0:
475,192,75287,1,0,0:0:0:0:
402,192,75287,1,0,0:0:0:0:
36,192,75287,1,0,0:0:0:0:
182,192,75287,1,0,0:0:0:0:
256,192,75469,1,0,0:0:0:0:
402,192,75469,1,0,0:0:0:0:
329,192,75560,1,0,0:0:0:0:
109,192,75560,1,0,0:0:0:0:
182,192,75650,1,0,0:0:0:0:
182,192,75741,1,0,0:0:0:0:
402,192,75741,1,0,0:0:0:0:
256,192,75832,1,0,0:0:0:0:
36,192,75832,1,0,0:0:0:0:
36,192,76014,1,0,0:0:0:0:
182,192,76014,1,0,0:0:0:0:
256,192,76014,1,0,0:0:0:0:
475,192,76014,1,0,0:0:0:0:
256,192,76196,1,0,0:0:0:0:
402,192,76196,1,0,0:0:0:0:
182,192,76287,1,0,0:0:0:0:
109,192,76378,1,0,0:0:0:0:
329,192,76378,1,0,0:0:0:0:
475,192,76378,1,0,0:0:0:0:
329,192,76560,1,0,0:0:0:0:
256,192,76560,1,0,0:0:0:0:
182,192,76650,1,0,0:0:0:0:
109,192,76741,1,0,0:0:0:0:
36,192,76741,1,0,0:0:0:0:
329,192,76741,1,0,0:0:0:0:
402,192,76741,1,0,0:0:0:0:
182,192,76832,1,0,0:0:0:0:
36,192,76923,1,0,0:0:0:0:
256,192,76923,1,0,0:0:0:0:
182,192,77014,1,0,0:0:0:0:
329,192,77014,1,0,0:0:0:0:
109,192,77105,1,0,0:0:0:0:
109,192,77196,1,0,0:0:0:0:
329,192,77196,1,0,0:0:0:0:
256,192,77287,1,0,0:0:0:0:
402,192,77287,1,0,0:0:0:0:
329,192,77469,1,0,0:0:0:0:
475,192,77469,1,0,0:0:0:0:
36,192,77469,1,0,0:0:0:0:
109,192,77469,1,0,0:0:0:0:
256,192,77529,1,0,0:0:0:0:
329,192,77590,1,0,0:0:0:0:
182,192,77650,1,0,0:0:0:0:
256,192,77696,1,0,0:0:0:0:
329,192,77741,1,0,0:0:0:0:
402,192,77787,1,0,0:0:0:0:
36,192,77832,1,0,0:0:0:0:
182,192,77832,1,0,0:0:0:0:
475,192,77832,1,0,0:0:0:0:
256,192,77832,1,0,0:0:0:0:
329,192,77923,1,0,0:0:0:0:
256,192,78014,1,0,0:0:0:0:
109,192,78014,1,0,0:0:0:0:
36,192,78105,1,0,0:0:0:0:
109,192,78196,1,0,0:0:0:0:
182,192,78196,1,0,0:0:0:0:
329,192,78196,1,0,0:0:0:0:
402,192,78196,1,0,0:0:0:0:
109,192,78378,1,0,0:0:0:0:
256,192,78378,1,0,0:0:0:0:
182,192,78469,1,0,0:0:0:0:
329,192,78469,1,0,0:0:0:0:
402,192,78560,1,0,0:0:0:0:
402,192,78650,1,0,0:0:0:0:
109,192,78650,1,0,0:0:0:0:
182,192,78741,1,0,0:0:0:0:
256,192,78741,1,0,0:0:0:0:
475,192,78741,1,0,0:0:0:0:
402,192,78923,1,0,0:0:0:0:
256,192,78923,1,0,0:0:0:0:
109,192,78923,1,0,0:0:0:0:
182,192,78923,1,0,0:0:0:0:
256,192,79105,1,0,0:0:0:0:
475,192,79105,1,0,0:0:0:0:
182,192,79196,1,0,0:0:0:0:
109,192,79287,1,0,0:0:0:0:
36,192,79287,1,0,0:0:0:0:
329,192,79287,1,0,0:0:0:0:
256,192,79469,1,0,0:0:0:0:
36,192,79469,1,0,0:0:0:0:
109,192,79560,1,0,0:0:0:0:
182,192,79650,1,0,0:0:0:0:
256,192,79650,1,0,0:0:0:0:
329,192,79650,1,0,0:0:0:0:
475,192,79650,1,0,0:0:0:0:
402,192,79741,1,0,0:0:0:0:
329,192,79832,1,0,0:0:0:0:
182,192,79832,1,0,0:0:0:0:
256,192,79923,1,0,0:0:0:0:
109,192,79923,1,0,0:0:0:0:
182,192,80014,1,0,0:0:0:0:
182,192,80105,1,0,0:0:0:0:
402,192,80105,1,0,0:0:0:0:
256,192,80196,1,0,0:0:0:0:
109,192,80196,1,0,0:0:0:0:
36,192,80196,1,0,0:0:0:0:
329,192,80287,1,0,0:0:0:0:
402,192,80378,1,0,0:0:0:0:
475,192,80378,1,0,0:0:0:0:
182,192,80378,1,0,0:0:0:0:
36,192,80378,1,0,0:0:0:0:
256,192,80469,1,0,0:0:0:0:
182,192,80560,1,0,0:0:0:0:
109,192,80560,1,0,0:0:0:0:
256,192,80650,1,0,0:0:0:0:
109,192,80741,1,0,0:0:0:0:
329,192,80741,1,0,0:0:0:0:
475,192,80741,1,0,0:0:0:0:
475,192,80923,1,0,0:0:0:0:
329,192,80923,1,0,0:0:0:0:
182,192,81014,1,0,0:0:0:0:
402,192,81105,1,0,0:0:0:0:
256,192,81105,1,0,0:0:0:0:
36,192,81105,1,0,0:0:0:0:
109,192,81105,1,0,0:0:0:0:
256,192,81287,1,0,0:0:0:0:
109,192,81287,1,0,0:0:0:0:
329,192,81378,1,0,0:0:0:0:
182,192,81378,1,0,0:0:0:0:
36,192,81469,1,0,0:0:0:0:
36,192,81560,1,0,0:0:0:0:
329,192,81560,1,0,0:0:0:0:
402,192,81650,1,0,0:0:0:0:
256,192,81650,1,0,0:0:0:0:
109,192,81650,1,0,0:0:0:0:
182,192,81741,1,0,0:0:0:0:
329,192,81832,1,0,0:0:0:0:
475,192,81832,1,0,0:0:0:0:
256,192,81832,1,0,0:0:0:0:
36,192,81832,1,0,0:0:0:0:
256,192,82014,1,0,0:0:0:0:
475,192,82014,1,0,0:0:0:0:
182,192,82105,1,0,0:0:0:0:
109,192,82196,1,0,0:0:0:0:
329,192,82196,1,0,0:0:0:0:
402,192,82196,1,0,0:0:0:0:
182,192,82378,1,0,0:0:0:0:
329,192,82378,1,0,0:0:0:0:
109,192,82469,1,0,0:0:0:0:
36,192,82560,1,0,0:0:0:0:
256,192,82560,1,0,0:0:0:0:
329,192,82560,1,0,0:0:0:0:
475,192,82560,1,0,0:0:0:0:
182,192,82741,1,0,0:0:0:0:
36,192,82741,1,0,0:0:0:0:
256,192,82832,1,0,0:0:0:0:
402,192,82832,1,0,0:0:0:0:
329,192,82923,1,0,0:0:0:0:
109,192,83014,1,0,0:0:0:0:
329,192,83014,1,0,0:0:0:0:
182,192,83105,1,0,0:0:0:0:
256,192,83105,1,0,0:0:0:0:
475,192,83105,1,0,0:0:0:0:
109,192,83196,1,0,0:0:0:0:
36,192,83287,1,0,0:0:0:0:
402,192,83287,1,0,0:0:0:0:
475,192,83287,1,0,0:0:0:0:
329,192,83287,1,0,0:0:0:0:
256,192,83347,1,0,0:0:0:0:
182,192,83408,1,0,0:0:0:0:
256,192,83469,1,0,0:0:0:0:
402,192,83514,1,0,0:0:0:0:
475,192,83560,1,0,0:0:0:0:
329,192,83605,1,0,0:0:0:0:
182,192,83650,1,0,0:0:0:0:
109,192,83650,1,0,0:0:0:0:
36,192,83650,1,0,0:0:0:0:
256,192,83741,1,0,0:0:0:0:
329,192,83832,1,0,0:0:0:0:
402,192,83832,1,0,0:0:0:0:
36,192,83832,1,0,0:0:0:0:
256,192,83923,1,0,0:0:0:0:
182,192,84014,1,0,0:0:0:0:
36,192,84014,1,0,0:0:0:0:
402,192,84014,1,0,0:0:0:0:
475,192,84014,1,0,0:0:0:0:
109,192,84105,1,0,0:0:0:0:
182,192,84196,1,0,0:0:0:0:
402,192,84196,1,0,0:0:0:0:
329,192,84287,1,0,0:0:0:0:
475,192,84287,1,0,0:0:0:0:
256,192,84378,1,0,0:0:0:0:
256,192,84469,1,0,0:0:0:0:
36,192,84469,1,0,0:0:0:0:
109,192,84560,1,0,0:0:0:0:
182,192,84560,1,0,0:0:0:0:
402,192,84560,1,0,0:0:0:0:
109,192,84741,1,0,0:0:0:0:
329,192,84741,1,0,0:0:0:0:
475,192,84741,1,0,0:0:0:0:
402,192,84741,1,0,0:0:0:0:
256,192,84923,1,0,0:0:0:0:
402,192,84923,1,0,0:0:0:0:
182,192,85014,1,0,0:0:0:0:
329,192,85105,1,0,0:0:0:0:
109,192,85105,1,0,0:0:0:0:
36,192,85105,1,0,0:0:0:0:
109,192,85287,1,0,0:0:0:0:
329,192,85287,1,0,0:0:0:0:
256,192,85378,1,0,0:0:0:0:
182,192,85469,1,0,0:0:0:0:
402,192,85469,1,0,0:0:0:0:
475,192,85469,1,0,0:0:0:0:
36,192,85469,1,0,0:0:0:0:
256,192,85650,1,0,0:0:0:0:
109,192,85650,1,0,0:0:0:0:
182,192,85741,1,0,0:0:0:0:
329,192,85741,1,0,0:0:0:0:
402,192,85832,1,0,0:0:0:0:
402,192,85923,1,0,0:0:0:0:
182,192,85923,1,0,0:0:0:0:
329,192,86014,1,0,0:0:0:0:
475,192,86014,1,0,0:0:0:0:
36,192,86014,1,0,0:0:0:0:
256,192,86196,1,0,0:0:0:0:
402,192,86196,1,0,0:0:0:0:
109,192,86196,1,0,0:0:0:0:
36,192,86196,1,0,0:0:0:0:
109,192,86378,1,0,0:0:0:0:
256,192,86378,1,0,0:0:0:0:
182,192,86560,1,0,0:0:0:0:
329,192,86560,1,0,0:0:0:0:
402,192,86560,1,0,0:0:0:0:
256,192,86741,1,0,0:0:0:0:
402,192,86741,1,0,0:0:0:0:
182,192,86832,1,0,0:0:0:0:
256,192,86923,1,0,0:0:0:0:
329,192,86923,1,0,0:0:0:0:
109,192,86923,1,0,0:0:0:0:
36,192,86923,1,0,0:0:0:0:
36,192,87105,1,0,0:0:0:0:
329,192,87105,1,0,0:0:0:0:
402,192,87196,1,0,0:0:0:0:
182,192,87196,1,0,0:0:0:0:
109,192,87287,1,0,0:0:0:0:
109,192,87378,1,0,0:0:0:0:
329,192,87378,1,0,0:0:0:0:
256,192,87469,1,0,0:0:0:0:
402,192,87469,1,0,0:0:0:0:
36,192,87469,1,0,0:0:0:0:
256,192,87650,1,0,0:0:0:0:
402,192,87650,1,0,0:0:0:0:
475,192,87650,1,0,0:0:0:0:
182,192,87650,1,0,0:0:0:0:
329,192,87832,1,0,0:0:0:0:
182,192,87832,1,0,0:0:0:0:
256,192,87923,1,0,0:0:0:0:
109,192,88014,1,0,0:0:0:0:
329,192,88014,1,0,0:0:0:0:
475,192,88014,1,0,0:0:0:0:
329,192,88196,1,0,0:0:0:0:
475,192,88196,1,0,0:0:0:0:
182,192,88287,1,0,0:0:0:0:
402,192,88378,1,0,0:0:0:0:
256,192,88378,1,0,0:0:0:0:
329,192,88378,1,0,0:0:0:0:
36,192,88378,1,0,0:0:0:0:
36,192,88560,1,0,0:0:0:0:
182,192,88560,1,0,0:0:0:0:
256,192,88650,1,0,0:0:0:0:
475,192,88650,1,0,0:0:0:0:
329,192,88741,1,0,0:0:0:0:
109,192,88741,1,0,0:0:0:0:
329,192,88832,1,0,0:0:0:0:
182,192,88923,1,0,0:0:0:0:
256,192,88923,1,0,0:0:0:0:
402,192,88923,1,0,0:0:0:0:
256,192,89105,1,0,0:0:0:0:
329,192,89105,1,0,0:0:0:0:
475,192,89105,1,0,0:0:0:0:
36,192,89105,1,0,0:0:0:0:
182,192,89166,1,0,0:0:0:0:
109,192,89226,1,0,0:0:0:0:
256,192,89287,1,0,0:0:0:0:
109,192,89332,1,0,0:0:0:0:
256,192,89378,1,0,0:0:0:0:
329,192,89423,1,0,0:0:0:0:
402,192,89469,1,0,0:0:0:0:
475,192,89469,1,0,0:0:0:0:
36,192,89469,1,0,0:0:0:0:
109,192,89469,1,0,0:0:0:0:
402,192,89802,1,0,0:0:0:0:
256,192,89832,1,0,0:0:0:0:
475,192,89832,1,0,0:0:0:0:
182,192,89893,1,0,0:0:0:0:
329,192,89923,1,0,0:0:0:0:
109,192,89953,1,0,0:0:0:0:
402,192,90014,1,0,0:0:0:0:
402,192,90166,1,0,0:0:0:0:
109,192,90196,1,0,0:0:0:0:
182,192,90226,1,0,0:0:0:0:
256,192,90287,1,0,0:0:0:0:
182,192,90378,1,0,0:0:0:0:
109,192,90499,1,0,0:0:0:0:
329,192,90560,1,0,0:0:0:0:
475,192,90560,1,0,0:0:0:0:
109,192,90620,1,0,0:0:0:0:
256,192,90681,1,0,0:0:0:0:
329,192,90741,1,0,0:0:0:0:
109,192,90923,1,0,0:0:0:0:
182,192,90923,1,0,0:0:0:0:
36,192,90923,1,0,0:0:0:0:
256,192,90923,1,0,0:0:0:0:
402,192,90984,1,0,0:0:0:0:
329,192,91105,1,0,0:0:0:0:
182,192,91166,1,0,0:0:0:0:
109,192,91256,1,0,0:0:0:0:
256,192,91287,1,0,0:0:0:0:
329,192,91287,1,0,0:0:0:0:
475,192,91317,1,0,0:0:0:0:
109,192,91378,1,0,0:0:0:0:
256,192,91469,1,0,0:0:0:0:
402,192,91620,1,0,0:0:0:0:
182,192,91650,1,0,0:0:0:0:
475,192,91681,1,0,0:0:0:0:
329,192,91741,1,0,0:0:0:0:
256,192,91787,1,0,0:0:0:0:
182,192,91832,1,0,0:0:0:0:
402,192,91863,1,0,0:0:0:0:
256,192,92014,1,0,0:0:0:0:
36,192,92014,1,0,0:0:0:0:
182,192,92014,1,0,0:0:0:0:
329,192,92075,1,0,0:0:0:0:
402,192,92135,1,0,0:0:0:0:
256,192,92196,1,0,0:0:0:0:
182,192,92287,1,0,0:0:0:0:
475,192,92378,1,0,0:0:0:0:
329,192,92378,1,0,0:0:0:0:
402,192,92378,1,0,0:0:0:0:
256,192,92378,1,0,0:0:0:0:
109,192,92438,1,0,0:0:0:0:
256,192,92560,1,0,0:0:0:0:
109,192,92681,1,0,0:0:0:0:
36,192,92741,1,0,0:0:0:0:
402,192,92741,1,0,0:0:0:0:
329,192,92741,1,0,0:0:0:0:
182,192,92772,1,0,0:0:0:0:
256,192,92832,1,0,0:0:0:0:
329,192,92893,1,0,0:0:0:0:
256,192,93075,1,0,0:0:0:0:
475,192,93105,1,0,0:0:0:0:
329,192,93135,1,0,0:0:0:0:
256,192,93196,1,0,0:0:0:0:
182,192,93256,1,0,0:0:0:0:
329,192,93317,1,0,0:0:0:0:
402,192,93378,1,0,0:0:0:0:
36,192,93438,1,0,0:0:0:0:
256,192,93469,1,0,0:0:0:0:
182,192,93469,1,0,0:0:0:0:
402,192,93529,1,0,0:0:0:0:
256,192,93650,1,0,0:0:0:0:
329,192,93772,1,0,0:0:0:0:
109,192,93832,1,0,0:0:0:0:
36,192,93832,1,0,0:0:0:0:
256,192,93863,1,0,0:0:0:0:
329,192,93923,1,0,0:0:0:0:
109,192,93953,1,0,0:0:0:0:
182,192,94014,1,0,0:0:0:0:
256,192,94075,1,0,0:0:0:0:
182,192,94166,1,0,0:0:0:0:
475,192,94196,1,0,0:0:0:0:
329,192,94196,1,0,0:0:0:0:
402,192,94196,1,0,0:0:0:0:
475,192,94378,1,0,0:0:0:0:
256,192,94469,1,0,0:0:0:0:
182,192,94529,1,0,0:0:0:0:
402,192,94560,1,0,0:0:0:0:
36,192,94590,1,0,0:0:0:0:
182,192,94650,1,0,0:0:0:0:
109,192,94741,1,0,0:0:0:0:
36,192,94741,1,0,0:0:0:0:
256,192,94832,1,0,0:0:0:0:
329,192,94923,1,0,0:0:0:0:
475,192,94923,1,0,0:0:0:0:
182,192,94984,1,0,0:0:0:0:
109,192,95044,1,0,0:0:0:0:
402,192,95044,1,0,0:0:0:0:
182,192,95105,1,0,0:0:0:0:
256,192,95166,1,0,0:0:0:0:
329,192,95226,1,0,0:0:0:0:
36,192,95287,1,0,0:0:0:0:
109,192,95287,1,0,0:0:0:0:
402,192,95287,1,0,0:0:0:0:
36,192,95469,1,0,0:0:0:0:
256,192,95469,1,0,0:0:0:0:
109,192,95620,1,0,0:0:0:0:
182,192,95650,1,0,0:0:0:0:
329,192,95650,1,0,0:0:0:0:
109,192,95741,1,0,0:0:0:0:
329,192,95832,1,0,0:0:0:0:
256,192,95923,1,0,0:0:0:0:
182,192,96014,1,0,0:0:0:0:
402,192,96014,1,0,0:0:0:0:
36,192,96105,1,0,0:0:0:0:
256,192,96196,1,0,0:0:0:0:
109,192,96378,1,0,0:0:0:0:
329,192,96378,1,0,0:0:0:0:
36,192,96378,1,0,0:0:0:0:
182,192,96438,1,0,0:0:0:0:
109,192,96499,1,0,0:0:0:0:
109,192,96650,1,0,0:0:0:0:
329,192,96741,1,0,0:0:0:0:
182,192,96741,1,0,0:0:0:0:
256,192,96741,1,0,0:0:0:0:
475,192,96802,1,0,0:0:0:0:
402,192,96923,1,0,0:0:0:0:
182,192,97075,1,0,0:0:0:0:
329,192,97105,1,0,0:0:0:0:
256,192,97105,1,0,0:0:0:0:
182,192,97196,1,0,0:0:0:0:
36,192,97287,1,0,0:0:0:0:
109,192,97378,1,0,0:0:0:0:
256,192,97438,1,0,0:0:0:0:
402,192,97469,1,0,0:0:0:0:
109,192,97499,1,0,0:0:0:0:
182,192,97590,1,0,0:0:0:0:
402,192,97650,1,0,0:0:0:0:
329,192,97650,1,0,0:0:0:0:
256,192,97802,1,0,0:0:0:0:
36,192,97832,1,0,0:0:0:0:
109,192,97832,1,0,0:0:0:0:
329,192,97923,1,0,0:0:0:0:
329,192,98105,1,0,0:0:0:0:
182,192,98196,1,0,0:0:0:0:
256,192,98196,1,0,0:0:0:0:
402,192,98196,1,0,0:0:0:0:
109,192,98256,1,0,0:0:0:0:
182,192,98378,1,0,0:0:0:0:
329,192,98469,1,0,0:0:0:0:
475,192,98529,1,0,0:0:0:0:
256,192,98560,1,0,0:0:0:0:
109,192,98560,1,0,0:0:0:0:
329,192,98590,1,0,0:0:0:0:
402,192,98681,1,0,0:0:0:0:
182,192,98741,1,0,0:0:0:0:
329,192,98893,1,0,0:0:0:0:
36,192,98923,1,0,0:0:0:0:
256,192,98953,1,0,0:0:0:0:
182,192,99014,1,0,0:0:0:0:
329,192,99105,1,0,0:0:0:0:
109,192,99287,1,0,0:0:0:0:
329,192,99287,1,0,0:0:0:0:
256,192,99378,1,0,0:0:0:0:
109,192,99469,1,0,0:0:0:0:
402,192,99650,1,0,0:0:0:0:
329,192,99650,1,0,0:0:0:0:
36,192,99650,1,0,0:0:0:0:
256,192,99681,1,0,0:0:0:0:
182,192,99741,1,0,0:0:0:0:
329,192,99802,1,0,0:0:0:0:
402,192,99863,1,0,0:0:0:0:
109,192,100014,1,0,0:0:0:0:
256,192,100014,1,0,0:0:0:0:
402,192,100105,1,0,0:0:0:0:
256,192,100196,1,0,0:0:0:0:
329,192,100347,1,0,0:0:0:0:
182,192,100378,1,0,0:0:0:0:
475,192,100408,1,0,0:0:0:0:
329,192,100469,1,0,0:0:0:0:
36,192,100469,1,0,0:0:0:0:
402,192,100560,1,0,0:0:0:0:
182,192,100560,1,0,0:0:0:0:
256,192,100650,1,0,0:0:0:0:
36,192,100650,1,0,0:0:0:0:
329,192,100741,1,0,0:0:0:0:
109,192,100741,1,0,0:0:0:0:
475,192,100741,1,0,0:0:0:0:
256,192,100832,1,0,0:0:0:0:
182,192,100923,1,0,0:0:0:0:
402,192,100923,1,0,0:0:0:0:
109,192,101014,1,0,0:0:0:0:
36,192,101105,1,0,0:0:0:0:
329,192,101105,1,0,0:0:0:0:
475,192,101105,1,0,0:0:0:0:
256,192,101105,1,0,0:0:0:0:
182,192,101196,1,0,0:0:0:0:
402,192,101287,1,0,0:0:0:0:
109,192,101287,1,0,0:0:0:0:
256,192,101347,1,0,0:0:0:0:
329,192,101408,1,0,0:0:0:0:
402,192,101469,1,0,0:0:0:0:
36,192,101469,128,0,101560:0:0:0:0:
475,192,101469,1,0,0:0:0:0:
182,192,101514,128,0,101605:0:0:0:0:
256,192,101560,128,0,101650:0:0:0:0:
329,192,101605,128,0,101719:0:0:0:0:
402,192,101650,128,0,101787:0:0:0:0:
109,192,101650,1,0,0:0:0:0:
475,192,101696,128,0,102014:0:0:0:0:
182,192,101741,1,0,0:0:0:0:
109,192,101832,1,0,0:0:0:0:
256,192,101893,128,0,102075:0:0:0:0:
36,192,101953,128,0,102135:0:0:0:0:
109,192,102014,128,0,102166:0:0:0:0:
329,192,102075,128,0,102196:0:0:0:0:
475,192,102196,1,0,0:0:0:0:
402,192,102196,1,0,0:0:0:0:
182,192,102256,1,0,0:0:0:0:
256,192,102287,1,0,0:0:0:0:
329,192,102317,1,0,0:0:0:0:
402,192,102347,1,0,0:0:0:0:
475,192,102378,1,0,0:0:0:0:
109,192,102378,1,0,0:0:0:0:
182,192,102423,1,0,0:0:0:0:
256,192,102469,1,0,0:0:0:0:
329,192,102514,1,0,0:0:0:0:
36,192,102560,1,0,0:0:0:0:
109,192,102560,1,0,0:0:0:0:
402,192,102560,1,0,0:0:0:0:
256,192,102650,1,0,0:0:0:0:
182,192,102741,1,0,0:0:0:0:
109,192,102741,1,0,0:0:0:0:
329,192,102802,1,0,0:0:0:0:
256,192,102863,1,0,0:0:0:0:
182,192,102923,1,0,0:0:0:0:
36,192,102923,1,0,0:0:0:0:
475,192,102923,1,0,0:0:0:0:
402,192,102923,1,0,0:0:0:0:
329,192,103105,1,0,0:0:0:0:
475,192,103105,1,0,0:0:0:0:
182,192,103166,1,0,0:0:0:0:
109,192,103226,1,0,0:0:0:0:
36,192,103287,1,0,0:0:0:0:
256,192,103287,1,0,0:0:0:0:
402,192,103378,1,0,0:0:0:0:
109,192,103378,1,0,0:0:0:0:
475,192,103469,1,0,0:0:0:0:
182,192,103469,1,0,0:0:0:0:
256,192,103469,1,0,0:0:0:0:
329,192,103560,1,0,0:0:0:0:
36,192,103650,1,0,0:0:0:0:
182,192,103650,1,0,0:0:0:0:
475,192,103650,1,0,0:0:0:0:
402,192,103650,1,0,0:0:0:0:
256,192,103741,1,0,0:0:0:0:
109,192,103832,1,0,0:0:0:0:
182,192,103923,1,0,0:0:0:0:
36,192,104014,1,0,0:0:0:0:
329,192,104014,1,0,0:0:0:0:
402,192,104014,1,0,0:0:0:0:
256,192,104014,1,0,0:0:0:0:
475,192,104105,1,0,0:0:0:0:
109,192,104196,1,0,0:0:0:0:
329,192,104196,1,0,0:0:0:0:
256,192,104256,1,0,0:0:0:0:
182,192,104317,1,0,0:0:0:0:
256,192,104378,1,0,0:0:0:0:
36,192,104378,1,0,0:0:0:0:
402,192,104423,128,0,104514:0:0:0:0:
475,192,104469,128,0,104741:0:0:0:0:
109,192,104514,128,0,104605:0:0:0:0:
256,192,104560,128,0,104650:0:0:0:0:
329,192,104605,128,0,104696:0:0:0:0:
36,192,104650,1,0,0:0:0:0:
182,192,104741,1,0,0:0:0:0:
402,192,104802,128,0,104984:0:0:0:0:
256,192,104863,128,0,105044:0:0:0:0:
36,192,104923,128,0,105075:0:0:0:0:
109,192,104984,128,0,105105:0:0:0:0:
256,192,105105,1,0,0:0:0:0:
182,192,105105,1,0,0:0:0:0:
475,192,105166,1,0,0:0:0:0:
402,192,105196,1,0,0:0:0:0:
329,192,105226,1,0,0:0:0:0:
256,192,105256,1,0,0:0:0:0:
36,192,105287,1,0,0:0:0:0:
182,192,105332,1,0,0:0:0:0:
329,192,105378,1,0,0:0:0:0:
402,192,105423,1,0,0:0:0:0:
475,192,105469,1,0,0:0:0:0:
109,192,105469,1,0,0:0:0:0:
36,192,105469,1,0,0:0:0:0:
256,192,105560,1,0,0:0:0:0:
182,192,105650,1,0,0:0:0:0:
109,192,105650,1,0,0:0:0:0:
256,192,105711,1,0,0:0:0:0:
329,192,105772,1,0,0:0:0:0:
36,192,105832,1,0,0:0:0:0:
402,192,105832,1,0,0:0:0:0:
475,192,105832,1,0,0:0:0:0:
182,192,105832,1,0,0:0:0:0:
402,192,106014,1,0,0:0:0:0:
256,192,106014,1,0,0:0:0:0:
182,192,106075,1,0,0:0:0:0:
109,192,106135,1,0,0:0:0:0:
475,192,106196,1,0,0:0:0:0:
36,192,106196,1,0,0:0:0:0:
329,192,106196,1,0,0:0:0:0:
182,192,106287,1,0,0:0:0:0:
402,192,106287,1,0,0:0:0:0:
36,192,106378,1,0,0:0:0:0:
256,192,106378,1,0,0:0:0:0:
475,192,106378,1,0,0:0:0:0:
109,192,106469,1,0,0:0:0:0:
329,192,106469,1,0,0:0:0:0:
182,192,106560,1,0,0:0:0:0:
475,192,106560,1,0,0:0:0:0:
402,192,106560,1,0,0:0:0:0:
36,192,106620,1,0,0:0:0:0:
329,192,106650,1,0,0:0:0:0:
109,192,106681,1,0,0:0:0:0:
182,192,106741,1,0,0:0:0:0:
475,192,106741,1,0,0:0:0:0:
256,192,106802,1,0,0:0:0:0:
329,192,106863,1,0,0:0:0:0:
182,192,106923,1,0,0:0:0:0:
475,192,106923,1,0,0:0:0:0:
36,192,106923,1,0,0:0:0:0:
402,192,106923,1,0,0:0:0:0:
36,192,107105,1,0,0:0:0:0:
182,192,107105,1,0,0:0:0:0:
256,192,107166,1,0,0:0:0:0:
329,192,107226,1,0,0:0:0:0:
475,192,107287,1,0,0:0:0:0:
182,192,107287,1,0,0:0:0:0:
402,192,107287,1,0,0:0:0:0:
109,192,107332,128,0,107423:0:0:0:0:
36,192,107378,128,0,107650:0:0:0:0:
256,192,107423,128,0,107514:0:0:0:0:
329,192,107469,128,0,107560:0:0:0:0:
475,192,107514,128,0,107605:0:0:0:0:
182,192,107560,1,0,0:0:0:0:
256,192,107650,1,0,0:0:0:0:
402,192,107711,128,0,107893:0:0:0:0:
329,192,107772,128,0,107953:0:0:0:0:
182,192,107832,128,0,107984:0:0:0:0:
36,192,107893,128,0,108014:0:0:0:0:
256,192,108014,1,0,0:0:0:0:
475,192,108014,1,0,0:0:0:0:
36,192,108075,1,0,0:0:0:0:
109,192,108105,1,0,0:0:0:0:
182,192,108135,1,0,0:0:0:0:
329,192,108166,1,0,0:0:0:0:
475,192,108196,1,0,0:0:0:0:
256,192,108241,1,0,0:0:0:0:
182,192,108287,1,0,0:0:0:0:
109,192,108332,1,0,0:0:0:0:
329,192,108378,1,0,0:0:0:0:
36,192,108378,1,0,0:0:0:0:
475,192,108378,1,0,0:0:0:0:
402,192,108469,1,0,0:0:0:0:
36,192,108560,1,0,0:0:0:0:
182,192,108560,1,0,0:0:0:0:
256,192,108620,1,0,0:0:0:0:
329,192,108681,1,0,0:0:0:0:
109,192,108741,1,0,0:0:0:0:
402,192,108741,1,0,0:0:0:0:
475,192,108741,1,0,0:0:0:0:
36,192,108741,1,0,0:0:0:0:
36,192,108923,1,0,0:0:0:0:
402,192,108923,1,0,0:0:0:0:
109,192,108984,1,0,0:0:0:0:
182,192,109044,1,0,0:0:0:0:
329,192,109105,1,0,0:0:0:0:
475,192,109105,1,0,0:0:0:0:
109,192,109105,1,0,0:0:0:0:
256,192,109196,1,0,0:0:0:0:
36,192,109287,1,0,0:0:0:0:
182,192,109287,1,0,0:0:0:0:
402,192,109287,1,0,0:0:0:0:
329,192,109378,1,0,0:0:0:0:
256,192,109469,1,0,0:0:0:0:
475,192,109469,1,0,0:0:0:0:
182,192,109469,1,0,0:0:0:0:
109,192,109529,1,0,0:0:0:0:
182,192,109590,1,0,0:0:0:0:
256,192,109650,1,0,0:0:0:0:
402,192,109650,1,0,0:0:0:0:
475,192,109832,1,0,0:0:0:0:
329,192,109832,1,0,0:0:0:0:
36,192,109832,128,0,110378:0:0:0:0:
109,192,109832,1,0,0:0:0:0:
402,192,109923,1,0,0:0:0:0:
256,192,110014,1,0,0:0:0:0:
109,192,110014,1,0,0:0:0:0:
329,192,110105,1,0,0:0:0:0:
402,192,110196,1,0,0:0:0:0:
475,192,110196,1,0,0:0:0:0:
182,192,110196,1,0,0:0:0:0:
256,192,110287,1,0,0:0:0:0:
329,192,110378,1,0,0:0:0:0:
109,192,110378,1,0,0:0:0:0:
182,192,110469,1,0,0:0:0:0:
329,192,110560,1,0,0:0:0:0:
475,192,110560,1,0,0:0:0:0:
109,192,110560,1,0,0:0:0:0:
256,192,110620,128,0,110802:0:0:0:0:
36,192,110681,128,0,110863:0:0:0:0:
109,192,110741,128,0,110893:0:0:0:0:
402,192,110802,128,0,110923:0:0:0:0:
182,192,110923,1,0,0:0:0:0:
256,192,110923,1,0,0:0:0:0:
475,192,110984,1,0,0:0:0:0:
402,192,111014,1,0,0:0:0:0:
329,192,111044,1,0,0:0:0:0:
256,192,111075,1,0,0:0:0:0:
36,192,111105,1,0,0:0:0:0:
182,192,111150,1,0,0:0:0:0:
329,192,111196,1,0,0:0:0:0:
402,192,111241,1,0,0:0:0:0:
109,192,111287,1,0,0:0:0:0:
475,192,111287,1,0,0:0:0:0:
36,192,111378,1,0,0:0:0:0:
329,192,111378,1,0,0:0:0:0:
256,192,111469,1,0,0:0:0:0:
36,192,111560,1,0,0:0:0:0:
329,192,111560,1,0,0:0:0:0:
182,192,111650,1,0,0:0:0:0:
402,192,111650,1,0,0:0:0:0:
256,192,111650,1,0,0:0:0:0:
36,192,111741,1,0,0:0:0:0:
256,192,111832,1,0,0:0:0:0:
402,192,111923,1,0,0:0:0:0:
36,192,111923,1,0,0:0:0:0:
109,192,111923,1,0,0:0:0:0:
329,192,112014,1,0,0:0:0:0:
475,192,112014,1,0,0:0:0:0:
109,192,112075,128,0,112256:0:0:0:0:
256,192,112135,128,0,112317:0:0:0:0:
402,192,112196,128,0,112347:0:0:0:0:
475,192,112256,128,0,112378:0:0:0:0:
109,192,112378,1,0,0:0:0:0:
36,192,112378,1,0,0:0:0:0:
329,192,112438,1,0,0:0:0:0:
256,192,112469,1,0,0:0:0:0:
182,192,112499,1,0,0:0:0:0:
109,192,112529,1,0,0:0:0:0:
36,192,112560,1,0,0:0:0:0:
256,192,112605,1,0,0:0:0:0:
329,192,112650,1,0,0:0:0:0:
402,192,112696,1,0,0:0:0:0:
475,192,112741,1,0,0:0:0:0:
109,192,112741,1,0,0:0:0:0:
182,192,112741,1,0,0:0:0:0:
36,192,112832,1,0,0:0:0:0:
36,192,112923,1,0,0:0:0:0:
109,192,113014,1,0,0:0:0:0:
402,192,113014,1,0,0:0:0:0:
329,192,113014,1,0,0:0:0:0:
256,192,113105,1,0,0:0:0:0:
256,192,113196,1,0,0:0:0:0:
402,192,113287,1,0,0:0:0:0:
36,192,113378,1,0,0:0:0:0:
475,192,113378,1,0,0:0:0:0:
182,192,113378,1,0,0:0:0:0:
256,192,113378,1,0,0:0:0:0:
36,192,113650,1,0,0:0:0:0:
109,192,113650,1,0,0:0:0:0:
402,192,113650,1,0,0:0:0:0:
256,192,113711,1,0,0:0:0:0:
475,192,113832,1,0,0:0:0:0:
182,192,113832,1,0,0:0:0:0:
329,192,113832,1,0,0:0:0:0:
109,192,113923,1,0,0:0:0:0:
329,192,113923,1,0,0:0:0:0:
109,192,114014,1,0,0:0:0:0:
402,192,114014,1,0,0:0:0:0:
182,192,114075,1,0,0:0:0:0:
256,192,114135,1,0,0:0:0:0:
329,192,114196,1,0,0:0:0:0:
109,192,114196,1,0,0:0:0:0:
36,192,114196,1,0,0:0:0:0:
475,192,114196,1,0,0:0:0:0:
256,192,114529,1,0,0:0:0:0:
109,192,114560,1,0,0:0:0:0:
475,192,114560,128,0,114681:0:0:0:0:
402,192,114560,1,0,0:0:0:0:
256,192,114620,1,0,0:0:0:0:
329,192,114681,1,0,0:0:0:0:
182,192,114741,1,0,0:0:0:0:
402,192,114741,1,0,0:0:0:0:
329,192,114923,1,0,0:0:0:0:
475,192,114923,1,0,0:0:0:0:
256,192,114923,128,0,115014:0:0:0:0:
182,192,114953,128,0,115044:0:0:0:0:
36,192,115014,128,0,115166:0:0:0:0:
329,192,115014,1,0,0:0:0:0:
109,192,115105,128,0,115226:0:0:0:0:
256,192,115150,128,0,115287:0:0:0:0:
36,192,115287,1,0,0:0:0:0:
109,192,115287,1,0,0:0:0:0:
329,192,115287,1,0,0:0:0:0:
109,192,115469,1,0,0:0:0:0:
36,192,115514,1,0,0:0:0:0:
182,192,115560,1,0,0:0:0:0:
256,192,115605,1,0,0:0:0:0:
109,192,115650,1,0,0:0:0:0:
475,192,115650,1,0,0:0:0:0:
402,192,115650,1,0,0:0:0:0:
329,192,115650,1,0,0:0:0:0:
329,192,115832,1,0,0:0:0:0:
182,192,115984,1,0,0:0:0:0:
256,192,115984,1,0,0:0:0:0:
36,192,116014,128,0,116150:0:0:0:0:
402,192,116014,1,0,0:0:0:0:
182,192,116105,128,0,116196:0:0:0:0:
256,192,116150,128,0,116241:0:0:0:0:
402,192,116196,128,0,116378:0:0:0:0:
182,192,116287,1,0,0:0:0:0:
329,192,116378,1,0,0:0:0:0:
475,192,116378,128,0,116560:0:0:0:0:
36,192,116378,128,0,116514:0:0:0:0:
109,192,116469,128,0,116560:0:0:0:0:
256,192,116514,128,0,116650:0:0:0:0:
329,192,116560,128,0,116741:0:0:0:0:
402,192,116560,1,0,0:0:0:0:
402,192,116741,1,0,0:0:0:0:
256,192,116741,1,0,0:0:0:0:
182,192,116741,1,0,0:0:0:0:
109,192,116923,1,0,0:0:0:0:
256,192,116923,1,0,0:0:0:0:
109,192,117014,1,0,0:0:0:0:
256,192,117105,1,0,0:0:0:0:
36,192,117105,1,0,0:0:0:0:
475,192,117105,1,0,0:0:0:0:
402,192,117105,1,0,0:0:0:0:
329,192,117256,1,0,0:0:0:0:
109,192,117287,128,0,117560:0:0:0:0:
329,192,117378,128,0,117560:0:0:0:0:
36,192,117469,128,0,117650:0:0:0:0:
182,192,117469,1,0,0:0:0:0:
256,192,117469,1,0,0:0:0:0:
475,192,117469,128,0,117832:0:0:0:0:
329,192,117650,1,0,0:0:0:0:
182,192,117741,1,0,0:0:0:0:
256,192,117832,128,0,117923:0:0:0:0:
36,192,117832,1,0,0:0:0:0:
329,192,117832,1,0,0:0:0:0:
402,192,117893,1,0,0:0:0:0:
109,192,117923,1,0,0:0:0:0:
256,192,118014,1,0,0:0:0:0:
402,192,118014,128,0,118196:0:0:0:0:
475,192,118196,1,0,0:0:0:0:
329,192,118196,1,0,0:0:0:0:
182,192,118196,1,0,0:0:0:0:
256,192,118347,128,0,118469:0:0:0:0:
475,192,118378,128,0,118696:0:0:0:0:
329,192,118469,128,0,118650:0:0:0:0:
182,192,118514,128,0,118605:0:0:0:0:
109,192,118560,128,0,118863:0:0:0:0:
402,192,118560,1,0,0:0:0:0:
182,192,118650,1,0,0:0:0:0:
329,192,118741,1,0,0:0:0:0:
256,192,118802,128,0,118923:0:0:0:0:
329,192,118863,128,0,118953:0:0:0:0:
402,192,118923,128,0,118984:0:0:0:0:
182,192,118923,1,0,0:0:0:0:
109,192,118923,1,0,0:0:0:0:
475,192,119014,1,0,0:0:0:0:
329,192,119105,1,0,0:0:0:0:
329,192,119196,128,0,119378:0:0:0:0:
256,192,119287,128,0,119378:0:0:0:0:
182,192,119287,1,0,0:0:0:0:
475,192,119287,1,0,0:0:0:0:
402,192,119378,1,0,0:0:0:0:
475,192,119469,128,0,119650:0:0:0:0:
329,192,119469,1,0,0:0:0:0:
256,192,119650,1,0,0:0:0:0:
109,192,119650,1,0,0:0:0:0:
36,192,119650,1,0,0:0:0:0:
329,192,119696,1,0,0:0:0:0:
256,192,119741,1,0,0:0:0:0:
182,192,119787,128,0,119878:0:0:0:0:
402,192,119832,128,0,119923:0:0:0:0:
182,192,119923,1,0,0:0:0:0:
256,192,119923,1,0,0:0:0:0:
475,192,120014,1,0,0:0:0:0:
36,192,120014,1,0,0:0:0:0:
329,192,120014,1,0,0:0:0:0:
109,192,120014,1,0,0:0:0:0:
256,192,120166,1,0,0:0:0:0:
402,192,120196,1,0,0:0:0:0:
256,192,120287,128,0,120423:0:0:0:0:
475,192,120378,1,0,0:0:0:0:
182,192,120378,128,0,120469:0:0:0:0:
36,192,120378,128,0,120650:0:0:0:0:
402,192,120378,1,0,0:0:0:0:
329,192,120469,1,0,0:0:0:0:
402,192,120560,128,0,120681:0:0:0:0:
182,192,120620,128,0,120741:0:0:0:0:
256,192,120681,128,0,120802:0:0:0:0:
329,192,120741,128,0,120863:0:0:0:0:
36,192,120741,1,0,0:0:0:0:
182,192,120832,1,0,0:0:0:0:
329,192,120923,128,0,121105:0:0:0:0:
475,192,120923,1,0,0:0:0:0:
109,192,120923,1,0,0:0:0:0:
256,192,121105,1,0,0:0:0:0:
402,192,121105,1,0,0:0:0:0:
475,192,121105,1,0,0:0:0:0:
182,192,121196,1,0,0:0:0:0:
329,192,121287,128,0,122196:0:0:0:0:
109,192,121287,1,0,0:0:0:0:
109,192,121378,1,0,0:0:0:0:
475,192,121469,1,0,0:0:0:0:
182,192,121469,1,0,0:0:0:0:
256,192,121469,1,0,0:0:0:0:
36,192,121469,1,0,0:0:0:0:
36,192,121650,1,0,0:0:0:0:
182,192,121650,1,0,0:0:0:0:
256,192,121741,1,0,0:0:0:0:
109,192,121832,1,0,0:0:0:0:
475,192,121832,1,0,0:0:0:0:
182,192,121832,1,0,0:0:0:0:
36,192,121923,1,0,0:0:0:0:
182,192,122014,1,0,0:0:0:0:
402,192,122014,1,0,0:0:0:0:
109,192,122105,1,0,0:0:0:0:
475,192,122196,1,0,0:0:0:0:
256,192,122196,128,0,122287:0:0:0:0:
109,192,122241,1,0,0:0:0:0:
329,192,122287,1,0,0:0:0:0:
402,192,122317,128,0,122408:0:0:0:0:
256,192,122378,128,0,122469:0:0:0:0:
182,192,122438,128,0,122499:0:0:0:0:
36,192,122469,128,0,122529:0:0:0:0:
329,192,122560,1,0,0:0:0:0:
475,192,122560,1,0,0:0:0:0:
256,192,122560,1,0,0:0:0:0:
36,192,122605,1,0,0:0:0:0:
109,192,122650,1,0,0:0:0:0:
182,192,122741,1,0,0:0:0:0:
109,192,122832,1,0,0:0:0:0:
256,192,122832,1,0,0:0:0:0:
36,192,122923,1,0,0:0:0:0:
475,192,122923,128,0,123196:0:0:0:0:
329,192,122923,128,0,123014:0:0:0:0:
402,192,122923,1,0,0:0:0:0:
182,192,122984,128,0,123105:0:0:0:0:
256,192,123105,1,0,0:0:0:0:
402,192,123196,1,0,0:0:0:0:
109,192,123287,1,0,0:0:0:0:
256,192,123287,128,0,123378:0:0:0:0:
36,192,123347,1,0,0:0:0:0:
329,192,123378,1,0,0:0:0:0:
329,192,123469,128,0,123650:0:0:0:0:
36,192,123469,1,0,0:0:0:0:
402,192,123560,128,0,123741:0:0:0:0:
475,192,123650,128,0,123832:0:0:0:0:
182,192,123650,1,0,0:0:0:0:
256,192,123711,128,0,123832:0:0:0:0:
109,192,123772,128,0,123863:0:0:0:0:
329,192,123832,128,0,124014:0:0:0:0:
109,192,123923,1,0,0:0:0:0:
402,192,124014,1,0,0:0:0:0:
256,192,124014,1,0,0:0:0:0:
36,192,124014,1,0,0:0:0:0:
182,192,124014,128,0,124105:0:0:0:0:
182,192,124196,1,0,0:0:0:0:
109,192,124287,128,0,124378:0:0:0:0:
36,192,124378,1,0,0:0:0:0:
256,192,124378,1,0,0:0:0:0:
402,192,124378,128,0,124469:0:0:0:0:
182,192,124438,128,0,124560:0:0:0:0:
329,192,124529,128,0,124590:0:0:0:0:
402,192,124560,128,0,124681:0:0:0:0:
256,192,124620,1,0,0:0:0:0:
109,192,124681,1,0,0:0:0:0:
182,192,124741,1,0,0:0:0:0:
402,192,124741,1,0,0:0:0:0:
329,192,124741,128,0,124832:0:0:0:0:
182,192,124832,1,0,0:0:0:0:
402,192,124863,128,0,124984:0:0:0:0:
475,192,124923,1,0,0:0:0:0:
256,192,124969,128,0,125060:0:0:0:0:
109,192,125014,1,0,0:0:0:0:
329,192,125105,1,0,0:0:0:0:
256,192,125105,1,0,0:0:0:0:
182,192,125105,128,0,125196:0:0:0:0:
36,192,125166,1,0,0:0:0:0:
256,192,125226,1,0,0:0:0:0:
109,192,125287,128,0,125378:0:0:0:0:
182,192,125347,128,0,125438:0:0:0:0:
256,192,125408,128,0,125499:0:0:0:0:
329,192,125469,1,0,0:0:0:0:
475,192,125469,1,0,0:0:0:0:
36,192,125514,1,0,0:0:0:0:
329,192,125560,128,0,125696:0:0:0:0:
182,192,125605,1,0,0:0:0:0:
402,192,125650,128,0,125741:0:0:0:0:
256,192,125696,1,0,0:0:0:0:
182,192,125741,1,0,0:0:0:0:
109,192,125787,1,0,0:0:0:0:
475,192,125832,1,0,0:0:0:0:
329,192,125832,1,0,0:0:0:0:
36,192,125832,1,0,0:0:0:0:
329,192,126014,1,0,0:0:0:0:
256,192,126166,1,0,0:0:0:0:
329,192,126196,128,0,126287:0:0:0:0:
36,192,126196,1,0,0:0:0:0:
109,192,126196,1,0,0:0:0:0:
109,192,126287,1,0,0:0:0:0:
329,192,126347,1,0,0:0:0:0:
475,192,126378,1,0,0:0:0:0:
402,192,126378,128,0,126469:0:0:0:0:
109,192,126469,1,0,0:0:0:0:
182,192,126560,128,0,126650:0:0:0:0:
256,192,126560,1,0,0:0:0:0:
329,192,126560,1,0,0:0:0:0:
402,192,126620,1,0,0:0:0:0:
329,192,126681,1,0,0:0:0:0:
182,192,126741,1,0,0:0:0:0:
402,192,126741,128,0,126832:0:0:0:0:
475,192,126923,1,0,0:0:0:0:
256,192,126923,128,0,127014:0:0:0:0:
182,192,126923,1,0,0:0:0:0:
475,192,127014,1,0,0:0:0:0:
329,192,127105,128,0,127196:0:0:0:0:
402,192,127105,1,0,0:0:0:0:
256,192,127287,1,0,0:0:0:0:
182,192,127287,1,0,0:0:0:0:
109,192,127287,1,0,0:0:0:0:
36,192,127287,1,0,0:0:0:0:
475,192,127332,1,0,0:0:0:0:
329,192,127378,1,0,0:0:0:0:
109,192,127408,128,0,127469:0:0:0:0:
36,192,127438,128,0,127560:0:0:0:0:
256,192,127469,1,0,0:0:0:0:
329,192,127499,128,0,127650:0:0:0:0:
109,192,127560,1,0,0:0:0:0:
182,192,127650,1,0,0:0:0:0:
256,192,127650,1,0,0:0:0:0:
402,192,127650,128,0,127923:0:0:0:0:
329,192,127741,128,0,127832:0:0:0:0:
475,192,127832,128,0,128014:0:0:0:0:
182,192,127832,1,0,0:0:0:0:
329,192,127923,1,0,0:0:0:0:
402,192,128014,1,0,0:0:0:0:
256,192,128014,1,0,0:0:0:0:
36,192,128014,128,0,128105:0:0:0:0:
182,192,128075,1,0,0:0:0:0:
402,192,128135,1,0,0:0:0:0:
182,192,128196,128,0,128317:0:0:0:0:
256,192,128256,128,0,128378:0:0:0:0:
109,192,128317,1,0,0:0:0:0:
329,192,128378,1,0,0:0:0:0:
36,192,128378,1,0,0:0:0:0:
475,192,128378,1,0,0:0:0:0:
329,192,128469,1,0,0:0:0:0:
475,192,128469,1,0,0:0:0:0:
402,192,128560,1,0,0:0:0:0:
329,192,128650,1,0,0:0:0:0:
36,192,128741,1,0,0:0:0:0:
109,192,128741,1,0,0:0:0:0:
182,192,128741,1,0,0:0:0:0:
256,192,128741,1,0,0:0:0:0:
256,192,128923,1,0,0:0:0:0:
329,192,128969,128,0,129105:0:0:0:0:
256,192,129105,128,0,129196:0:0:0:0:
475,192,129105,1,0,0:0:0:0:
182,192,129105,1,0,0:0:0:0:
182,192,129196,1,0,0:0:0:0:
256,192,129256,1,0,0:0:0:0:
475,192,129287,1,0,0:0:0:0:
329,192,129287,128,0,129378:0:0:0:0:
109,192,129378,1,0,0:0:0:0:
329,192,129469,1,0,0:0:0:0:
36,192,129469,128,0,129560:0:0:0:0:
402,192,129469,1,0,0:0:0:0:
182,192,129529,1,0,0:0:0:0:
256,192,129590,128,0,129711:0:0:0:0:
402,192,129650,1,0,0:0:0:0:
182,192,129650,128,0,129772:0:0:0:0:
109,192,129832,1,0,0:0:0:0:
36,192,129832,128,0,129923:0:0:0:0:
256,192,129832,1,0,0:0:0:0:
109,192,129923,1,0,0:0:0:0:
182,192,130014,1,0,0:0:0:0:
256,192,130014,128,0,130105:0:0:0:0:
109,192,130196,1,0,0:0:0:0:
329,192,130196,1,0,0:0:0:0:
402,192,130196,1,0,0:0:0:0:
475,192,130196,1,0,0:0:0:0:
36,192,130241,1,0,0:0:0:0:
182,192,130287,1,0,0:0:0:0:
402,192,130317,128,0,130378:0:0:0:0:
475,192,130347,128,0,130469:0:0:0:0:
256,192,130378,1,0,0:0:0:0:
182,192,130408,128,0,130560:0:0:0:0:
402,192,130469,1,0,0:0:0:0:
329,192,130560,1,0,0:0:0:0:
109,192,130560,128,0,130832:0:0:0:0:
256,192,130560,1,0,0:0:0:0:
36,192,130741,128,0,130923:0:0:0:0:
329,192,130741,1,0,0:0:0:0:
182,192,130741,1,0,0:0:0:0:
402,192,130832,1,0,0:0:0:0:
182,192,130923,1,0,0:0:0:0:
256,192,130923,1,0,0:0:0:0:
475,192,130923,128,0,131014:0:0:0:0:
329,192,130984,1,0,0:0:0:0:
109,192,131044,1,0,0:0:0:0:
329,192,131105,128,0,131226:0:0:0:0:
475,192,131105,1,0,0:0:0:0:
256,192,131166,128,0,131287:0:0:0:0:
402,192,131226,1,0,0:0:0:0:
182,192,131287,1,0,0:0:0:0:
475,192,131287,1,0,0:0:0:0:
36,192,131287,1,0,0:0:0:0:
329,192,131378,1,0,0:0:0:0:
36,192,131378,1,0,0:0:0:0:
182,192,131423,1,0,0:0:0:0:
402,192,131469,1,0,0:0:0:0:
256,192,131560,1,0,0:0:0:0:
182,192,131560,1,0,0:0:0:0:
109,192,131650,1,0,0:0:0:0:
329,192,131650,1,0,0:0:0:0:
475,192,131650,1,0,0:0:0:0:
36,192,131650,1,0,0:0:0:0:
256,192,131802,1,0,0:0:0:0:
402,192,131832,1,0,0:0:0:0:
256,192,131923,128,0,132060:0:0:0:0:
475,192,132014,1,0,0:0:0:0:
182,192,132014,128,0,132105:0:0:0:0:
402,192,132014,128,0,132287:0:0:0:0:
36,192,132014,1,0,0:0:0:0:
109,192,132105,1,0,0:0:0:0:
182,192,132196,1,0,0:0:0:0:
256,192,132256,128,0,132378:0:0:0:0:
182,192,132317,128,0,132438:0:0:0:0:
109,192,132378,128,0,132499:0:0:0:0:
329,192,132378,1,0,0:0:0:0:
475,192,132378,1,0,0:0:0:0:
109,192,132560,128,0,132650:0:0:0:0:
182,192,132560,1,0,0:0:0:0:
329,192,132560,1,0,0:0:0:0:
36,192,132741,1,0,0:0:0:0:
256,192,132741,1,0,0:0:0:0:
109,192,132741,128,0,132923:0:0:0:0:
329,192,132832,1,0,0:0:0:0:
182,192,132923,128,0,133469:0:0:0:0:
402,192,132923,1,0,0:0:0:0:
402,192,133014,1,0,0:0:0:0:
36,192,133105,1,0,0:0:0:0:
256,192,133105,1,0,0:0:0:0:
475,192,133105,1,0,0:0:0:0:
329,192,133105,1,0,0:0:0:0:
475,192,133287,1,0,0:0:0:0:
256,192,133287,1,0,0:0:0:0:
36,192,133469,1,0,0:0:0:0:
402,192,133469,1,0,0:0:0:0:
329,192,133469,128,0,133560:0:0:0:0:
182,192,133529,1,0,0:0:0:0:
475,192,133560,1,0,0:0:0:0:
475,192,133650,1,0,0:0:0:0:
182,192,133650,128,0,133832:0:0:0:0:
329,192,133741,1,0,0:0:0:0:
109,192,133832,1,0,0:0:0:0:
402,192,133832,128,0,133923:0:0:0:0:
256,192,133832,1,0,0:0:0:0:
109,192,133923,128,0,134014:0:0:0:0:
256,192,133984,128,0,134044:0:0:0:0:
36,192,134014,1,0,0:0:0:0:
329,192,134014,128,0,134135:0:0:0:0:
182,192,134135,128,0,134256:0:0:0:0:
36,192,134196,1,0,0:0:0:0:
402,192,134196,1,0,0:0:0:0:
256,192,134226,128,0,134287:0:0:0:0:
182,192,134317,1,0,0:0:0:0:
256,192,134378,128,0,134469:0:0:0:0:
329,192,134423,128,0,134514:0:0:0:0:
402,192,134469,128,0,134560:0:0:0:0:
256,192,134560,1,0,0:0:0:0:
36,192,134560,1,0,0:0:0:0:
475,192,134560,1,0,0:0:0:0:
109,192,134560,1,0,0:0:0:0:
329,192,134650,1,0,0:0:0:0:
402,192,134741,1,0,0:0:0:0:
182,192,134787,1,0,0:0:0:0:
256,192,134832,1,0,0:0:0:0:
329,192,134923,1,0,0:0:0:0:
475,192,134923,1,0,0:0:0:0:
109,192,134923,1,0,0:0:0:0:
36,192,134984,1,0,0:0:0:0:
329,192,135044,1,0,0:0:0:0:
182,192,135105,1,0,0:0:0:0:
402,192,135150,1,0,0:0:0:0:
256,192,135196,1,0,0:0:0:0:
182,192,135241,1,0,0:0:0:0:
109,192,135287,1,0,0:0:0:0:
329,192,135287,1,0,0:0:0:0:
475,192,135287,1,0,0:0:0:0:
329,192,135469,128,0,135560:0:0:0:0:
109,192,135469,1,0,0:0:0:0:
402,192,135514,128,0,135605:0:0:0:0:
36,192,135650,1,0,0:0:0:0:
256,192,135650,128,0,135741:0:0:0:0:
182,192,135650,1,0,0:0:0:0:
402,192,135741,1,0,0:0:0:0:
256,192,135832,128,0,135923:0:0:0:0:
36,192,135832,1,0,0:0:0:0:
109,192,135923,1,0,0:0:0:0:
182,192,136014,1,0,0:0:0:0:
329,192,136014,1,0,0:0:0:0:
256,192,136014,1,0,0:0:0:0:
475,192,136014,128,0,136196:0:0:0:0:
36,192,136075,1,0,0:0:0:0:
182,192,136135,128,0,136256:0:0:0:0:
256,192,136196,128,0,136317:0:0:0:0:
109,192,136378,1,0,0:0:0:0:
329,192,136378,1,0,0:0:0:0:
475,192,136378,1,0,0:0:0:0:
256,192,136438,1,0,0:0:0:0:
329,192,136499,128,0,136620:0:0:0:0:
402,192,136560,128,0,136681:0:0:0:0:
109,192,136560,1,0,0:0:0:0:
256,192,136741,1,0,0:0:0:0:
475,192,136741,1,0,0:0:0:0:
36,192,136741,1,0,0:0:0:0:
182,192,136741,1,0,0:0:0:0:
402,192,136832,1,0,0:0:0:0:
329,192,136923,1,0,0:0:0:0:
182,192,136984,1,0,0:0:0:0:
402,192,137044,1,0,0:0:0:0:
475,192,137105,1,0,0:0:0:0:
36,192,137105,1,0,0:0:0:0:
329,192,137105,1,0,0:0:0:0:
256,192,137166,1,0,0:0:0:0:
182,192,137226,1,0,0:0:0:0:
109,192,137287,128,0,137469:0:0:0:0:
256,192,137332,1,0,0:0:0:0:
329,192,137378,1,0,0:0:0:0:
402,192,137423,1,0,0:0:0:0:
36,192,137469,1,0,0:0:0:0:
475,192,137469,1,0,0:0:0:0:
182,192,137469,1,0,0:0:0:0:
329,192,137560,128,0,137711:0:0:0:0:
475,192,137650,1,0,0:0:0:0:
182,192,137650,128,0,137772:0:0:0:0:
109,192,137711,128,0,137832:0:0:0:0:
36,192,137772,128,0,137893:0:0:0:0:
475,192,137832,1,0,0:0:0:0:
256,192,137832,1,0,0:0:0:0:
329,192,137832,1,0,0:0:0:0:
182,192,137923,1,0,0:0:0:0:
256,192,138014,128,0,138135:0:0:0:0:
329,192,138075,128,0,138166:0:0:0:0:
36,192,138105,1,0,0:0:0:0:
402,192,138135,128,0,138196:0:0:0:0:
256,192,138196,1,0,0:0:0:0:
475,192,138196,1,0,0:0:0:0:
182,192,138196,1,0,0:0:0:0:
329,192,138256,1,0,0:0:0:0:
36,192,138287,1,0,0:0:0:0:
256,192,138317,1,0,0:0:0:0:
402,192,138378,1,0,0:0:0:0:
109,192,138378,1,0,0:0:0:0:
329,192,138469,1,0,0:0:0:0:
109,192,138469,1,0,0:0:0:0:
256,192,138560,1,0,0:0:0:0:
475,192,138560,1,0,0:0:0:0:
182,192,138560,1,0,0:0:0:0:
329,192,138605,1,0,0:0:0:0:
402,192,138650,1,0,0:0:0:0:
329,192,138741,1,0,0:0:0:0:
475,192,138787,1,0,0:0:0:0:
256,192,138832,1,0,0:0:0:0:
109,192,138923,1,0,0:0:0:0:
36,192,138923,1,0,0:0:0:0:
182,192,138923,1,0,0:0:0:0:
402,192,138923,1,0,0:0:0:0:
109,192,139105,1,0,0:0:0:0:
329,192,139105,1,0,0:0:0:0:
109,192,139196,1,0,0:0:0:0:
182,192,139287,1,0,0:0:0:0:
475,192,139287,1,0,0:0:0:0:
256,192,139287,1,0,0:0:0:0:
329,192,139347,1,0,0:0:0:0:
182,192,139408,1,0,0:0:0:0:
256,192,139469,1,0,0:0:0:0:
402,192,139469,1,0,0:0:0:0:
109,192,139560,1,0,0:0:0:0:
329,192,139650,128,0,139787:0:0:0:0:
182,192,139650,1,0,0:0:0:0:
402,192,139741,1,0,0:0:0:0:
36,192,139832,1,0,0:0:0:0:
182,192,139832,1,0,0:0:0:0:
256,192,139832,128,0,139969:0:0:0:0:
329,192,139923,1,0,0:0:0:0:
36,192,140014,1,0,0:0:0:0:
402,192,140014,1,0,0:0:0:0:
182,192,140014,128,0,140150:0:0:0:0:
256,192,140105,1,0,0:0:0:0:
329,192,140196,1,0,0:0:0:0:
182,192,140256,1,0,0:0:0:0:
109,192,140317,128,0,140499:0:0:0:0:
329,192,140378,1,0,0:0:0:0:
475,192,140378,1,0,0:0:0:0:
256,192,140438,128,0,140560:0:0:0:0:
329,192,140499,128,0,140681:0:0:0:0:
109,192,140560,1,0,0:0:0:0:
36,192,140620,128,0,140741:0:0:0:0:
182,192,140681,128,0,140802:0:0:0:0:
256,192,140741,128,0,140863:0:0:0:0:
402,192,140741,1,0,0:0:0:0:
475,192,140832,1,0,0:0:0:0:
329,192,140923,1,0,0:0:0:0:
402,192,141014,1,0,0:0:0:0:
182,192,141014,1,0,0:0:0:0:
475,192,141105,1,0,0:0:0:0:
329,192,141105,1,0,0:0:0:0:
109,192,141150,1,0,0:0:0:0:
256,192,141196,1,0,0:0:0:0:
182,192,141287,128,0,141408:0:0:0:0:
36,192,141287,1,0,0:0:0:0:
329,192,141347,128,0,141469:0:0:0:0:
402,192,141408,128,0,141529:0:0:0:0:
256,192,141469,1,0,0:0:0:0:
109,192,141469,1,0,0:0:0:0:
329,192,141650,1,0,0:0:0:0:
475,192,141650,1,0,0:0:0:0:
182,192,141741,1,0,0:0:0:0:
475,192,141832,1,0,0:0:0:0:
329,192,141832,128,0,141923:0:0:0:0:
109,192,141893,1,0,0:0:0:0:
256,192,141923,1,0,0:0:0:0:
109,192,142014,1,0,0:0:0:0:
402,192,142014,128,0,142196:0:0:0:0:
182,192,142075,1,0,0:0:0:0:
36,192,142135,128,0,142256:0:0:0:0:
475,192,142196,1,0,0:0:0:0:
256,192,142196,128,0,142378:0:0:0:0:
109,192,142256,1,0,0:0:0:0:
329,192,142287,128,0,142469:0:0:0:0:
402,192,142378,128,0,142560:0:0:0:0:
182,192,142469,1,0,0:0:0:0:
256,192,142560,1,0,0:0:0:0:
329,192,142560,128,0,142741:0:0:0:0:
109,192,142650,1,0,0:0:0:0:
402,192,142741,1,0,0:0:0:0:
36,192,142741,128,0,142923:0:0:0:0:
182,192,142802,1,0,0:0:0:0:
256,192,142863,1,0,0:0:0:0:
475,192,142923,1,0,0:0:0:0:
329,192,142923,1,0,0:0:0:0:
109,192,142923,1,0,0:0:0:0:
182,192,142984,1,0,0:0:0:0:
36,192,143044,1,0,0:0:0:0:
256,192,143105,1,0,0:0:0:0:
109,192,143105,1,0,0:0:0:0:
402,192,143196,1,0,0:0:0:0:
256,192,143196,1,0,0:0:0:0:
36,192,143287,1,0,0:0:0:0:
475,192,143287,1,0,0:0:0:0:
329,192,143287,1,0,0:0:0:0:
109,192,143287,1,0,0:0:0:0:
182,192,143469,1,0,0:0:0:0:
402,192,143469,1,0,0:0:0:0:
182,192,143560,128,0,143741:0:0:0:0:
329,192,143650,1,0,0:0:0:0:
475,192,143650,128,0,143923:0:0:0:0:
256,192,143650,128,0,143741:0:0:0:0:
109,192,143741,1,0,0:0:0:0:
36,192,143832,1,0,0:0:0:0:
256,192,143832,128,0,144014:0:0:0:0:
329,192,143923,1,0,0:0:0:0:
402,192,143984,1,0,0:0:0:0:
182,192,144014,1,0,0:0:0:0:
475,192,144044,128,0,144196:0:0:0:0:
329,192,144105,128,0,144287:0:0:0:0:
256,192,144196,1,0,0:0:0:0:
36,192,144196,1,0,0:0:0:0:
182,192,144241,1,0,0:0:0:0:
109,192,144287,1,0,0:0:0:0:
182,192,144378,1,0,0:0:0:0:
329,192,144378,1,0,0:0:0:0:
36,192,144423,1,0,0:0:0:0:
256,192,144469,1,0,0:0:0:0:
109,192,144560,1,0,0:0:0:0:
329,192,144560,128,0,144650:0:0:0:0:
402,192,144605,128,0,144741:0:0:0:0:
256,192,144650,1,0,0:0:0:0:
329,192,144741,1,0,0:0:0:0:
182,192,144741,1,0,0:0:0:0:
475,192,144741,1,0,0:0:0:0:
36,192,144741,1,0,0:0:0:0:
182,192,144923,1,0,0:0:0:0:
256,192,144984,1,0,0:0:0:0:
109,192,145044,1,0,0:0:0:0:
36,192,145105,1,0,0:0:0:0:
329,192,145105,1,0,0:0:0:0:
475,192,145105,1,0,0:0:0:0:
402,192,145150,1,0,0:0:0:0:
182,192,145196,1,0,0:0:0:0:
256,192,145287,1,0,0:0:0:0:
475,192,145287,128,0,145408:0:0:0:0:
329,192,145347,128,0,145469:0:0:0:0:
182,192,145408,128,0,145529:0:0:0:0:
402,192,145469,1,0,0:0:0:0:
256,192,145560,1,0,0:0:0:0:
36,192,145650,128,0,145787:0:0:0:0:
182,192,145650,1,0,0:0:0:0:
256,192,145741,1,0,0:0:0:0:
182,192,145832,1,0,0:0:0:0:
329,192,145832,1,0,0:0:0:0:
109,192,145832,128,0,145969:0:0:0:0:
475,192,145878,1,0,0:0:0:0:
402,192,145923,1,0,0:0:0:0:
256,192,146014,1,0,0:0:0:0:
182,192,146014,128,0,146150:0:0:0:0:
329,192,146075,1,0,0:0:0:0:
402,192,146135,1,0,0:0:0:0:
475,192,146196,1,0,0:0:0:0:
36,192,146196,1,0,0:0:0:0:
109,192,146196,1,0,0:0:0:0:
256,192,146196,1,0,0:0:0:0:
475,192,146378,1,0,0:0:0:0:
402,192,146378,128,0,146514:0:0:0:0:
256,192,146469,1,0,0:0:0:0:
475,192,146560,1,0,0:0:0:0:
329,192,146560,128,0,146696:0:0:0:0:
109,192,146560,1,0,0:0:0:0:
182,192,146650,1,0,0:0:0:0:
329,192,146741,1,0,0:0:0:0:
256,192,146741,128,0,146878:0:0:0:0:
182,192,146832,1,0,0:0:0:0:
109,192,146923,1,0,0:0:0:0:
36,192,146923,1,0,0:0:0:0:
329,192,146923,1,0,0:0:0:0:
256,192,146984,1,0,0:0:0:0:
182,192,147044,1,0,0:0:0:0:
109,192,147105,1,0,0:0:0:0:
329,192,147105,1,0,0:0:0:0:
256,192,147166,1,0,0:0:0:0:
182,192,147226,1,0,0:0:0:0:
109,192,147287,1,0,0:0:0:0:
329,192,147287,1,0,0:0:0:0:
402,192,147287,1,0,0:0:0:0:
256,192,147378,1,0,0:0:0:0:
329,192,147469,1,0,0:0:0:0:
182,192,147514,1,0,0:0:0:0:
402,192,147560,1,0,0:0:0:0:
256,192,147650,1,0,0:0:0:0:
109,192,147650,1,0,0:0:0:0:
36,192,147650,1,0,0:0:0:0:
475,192,147650,1,0,0:0:0:0:
402,192,147832,1,0,0:0:0:0:
182,192,147832,1,0,0:0:0:0:
402,192,147923,128,0,148105:0:0:0:0:
36,192,148014,1,0,0:0:0:0:
256,192,148014,1,0,0:0:0:0:
329,192,148014,128,0,148105:0:0:0:0:
182,192,148105,128,0,148256:0:0:0:0:
475,192,148196,1,0,0:0:0:0:
329,192,148196,128,0,148560:0:0:0:0:
109,192,148256,128,0,148378:0:0:0:0:
36,192,148317,128,0,148438:0:0:0:0:
256,192,148378,1,0,0:0:0:0:
182,192,148378,1,0,0:0:0:0:
402,192,148469,1,0,0:0:0:0:
256,192,148560,1,0,0:0:0:0:
475,192,148560,1,0,0:0:0:0:
182,192,148620,128,0,148741:0:0:0:0:
329,192,148681,1,0,0:0:0:0:
109,192,148741,1,0,0:0:0:0:
36,192,148741,1,0,0:0:0:0:
402,192,148741,128,0,148923:0:0:0:0:
329,192,148923,1,0,0:0:0:0:
475,192,148923,1,0,0:0:0:0:
256,192,148969,1,0,0:0:0:0:
182,192,149014,1,0,0:0:0:0:
475,192,149105,1,0,0:0:0:0:
329,192,149105,1,0,0:0:0:0:
109,192,149105,1,0,0:0:0:0:
36,192,149105,1,0,0:0:0:0:
402,192,149196,1,0,0:0:0:0:
256,192,149287,1,0,0:0:0:0:
329,192,149378,1,0,0:0:0:0:
402,192,149469,1,0,0:0:0:0:
475,192,149469,1,0,0:0:0:0:
182,192,149469,1,0,0:0:0:0:
182,192,149650,1,0,0:0:0:0:
329,192,149650,1,0,0:0:0:0:
109,192,149741,1,0,0:0:0:0:
256,192,149832,1,0,0:0:0:0:
475,192,149832,1,0,0:0:0:0:
402,192,149893,1,0,0:0:0:0:
182,192,149923,1,0,0:0:0:0:
329,192,149953,1,0,0:0:0:0:
109,192,150014,1,0,0:0:0:0:
256,192,150014,1,0,0:0:0:0:
402,192,150105,1,0,0:0:0:0:
109,192,150105,1,0,0:0:0:0:
475,192,150196,1,0,0:0:0:0:
182,192,150196,1,0,0:0:0:0:
256,192,150196,1,0,0:0:0:0:
329,192,150241,1,0,0:0:0:0:
402,192,150287,1,0,0:0:0:0:
329,192,150378,1,0,0:0:0:0:
475,192,150423,1,0,0:0:0:0:
256,192,150469,1,0,0:0:0:0:
182,192,150560,1,0,0:0:0:0:
109,192,150560,1,0,0:0:0:0:
36,192,150560,1,0,0:0:0:0:
402,192,150560,1,0,0:0:0:0:
109,192,150741,1,0,0:0:0:0:
329,192,150741,1,0,0:0:0:0:
109,192,150832,1,0,0:0:0:0:
182,192,150923,1,0,0:0:0:0:
256,192,150923,1,0,0:0:0:0:
475,192,150923,128,0,151105:0:0:0:0:
329,192,150984,1,0,0:0:0:0:
182,192,151044,1,0,0:0:0:0:
256,192,151105,1,0,0:0:0:0:
329,192,151166,128,0,151287:0:0:0:0:
256,192,151226,128,0,151347:0:0:0:0:
182,192,151287,128,0,151408:0:0:0:0:
109,192,151347,1,0,0:0:0:0:
402,192,151378,128,0,151560:0:0:0:0:
36,192,151408,1,0,0:0:0:0:
256,192,151469,1,0,0:0:0:0:
182,192,151469,1,0,0:0:0:0:
329,192,151560,1,0,0:0:0:0:
182,192,151650,1,0,0:0:0:0:
36,192,151650,1,0,0:0:0:0:
402,192,151650,1,0,0:0:0:0:
256,192,151741,1,0,0:0:0:0:
329,192,151832,1,0,0:0:0:0:
109,192,151878,1,0,0:0:0:0:
256,192,151923,1,0,0:0:0:0:
329,192,151969,1,0,0:0:0:0:
36,192,152014,1,0,0:0:0:0:
475,192,152014,1,0,0:0:0:0:
182,192,152014,1,0,0:0:0:0:
402,192,152014,1,0,0:0:0:0:
329,192,152196,1,0,0:0:0:0:
475,192,152196,128,0,152332:0:0:0:0:
256,192,152287,1,0,0:0:0:0:
109,192,152378,1,0,0:0:0:0:
182,192,152378,1,0,0:0:0:0:
402,192,152378,128,0,152514:0:0:0:0:
36,192,152469,1,0,0:0:0:0:
109,192,152560,1,0,0:0:0:0:
329,192,152560,128,0,152696:0:0:0:0:
256,192,152620,1,0,0:0:0:0:
182,192,152681,1,0,0:0:0:0:
475,192,152741,1,0,0:0:0:0:
329,192,152741,1,0,0:0:0:0:
182,192,152802,1,0,0:0:0:0:
329,192,152863,1,0,0:0:0:0:
256,192,152923,1,0,0:0:0:0:
182,192,152984,1,0,0:0:0:0:
256,192,153044,1,0,0:0:0:0:
402,192,153105,1,0,0:0:0:0:
329,192,153105,1,0,0:0:0:0:
109,192,153105,1,0,0:0:0:0:
36,192,153196,1,0,0:0:0:0:
36,192,153287,1,0,0:0:0:0:
182,192,153332,1,0,0:0:0:0:
256,192,153378,1,0,0:0:0:0:
329,192,153423,1,0,0:0:0:0:
402,192,153469,1,0,0:0:0:0:
109,192,153469,1,0,0:0:0:0:
475,192,153469,1,0,0:0:0:0:
36,192,153469,1,0,0:0:0:0:
256,192,153650,1,0,0:0:0:0:
182,192,153681,1,0,0:0:0:0:
329,192,153741,1,0,0:0:0:0:
256,192,153772,1,0,0:0:0:0:
402,192,153832,1,0,0:0:0:0:
109,192,153832,1,0,0:0:0:0:
475,192,153832,1,0,0:0:0:0:
256,192,153893,128,0,154014:0:0:0:0:
402,192,153953,128,0,154105:0:0:0:0:
109,192,154014,128,0,154196:0:0:0:0:
182,192,154014,1,0,0:0:0:0:
329,192,154105,1,0,0:0:0:0:
256,192,154196,128,0,154332:0:0:0:0:
36,192,154196,1,0,0:0:0:0:
182,192,154196,1,0,0:0:0:0:
402,192,154287,1,0,0:0:0:0:
329,192,154378,1,0,0:0:0:0:
182,192,154378,128,0,154514:0:0:0:0:
109,192,154378,1,0,0:0:0:0:
402,192,154469,1,0,0:0:0:0:
36,192,154560,1,0,0:0:0:0:
256,192,154560,1,0,0:0:0:0:
329,192,154560,128,0,154696:0:0:0:0:
182,192,154620,1,0,0:0:0:0:
109,192,154681,1,0,0:0:0:0:
182,192,154741,1,0,0:0:0:0:
402,192,154741,1,0,0:0:0:0:
402,192,154832,1,0,0:0:0:0:
36,192,154832,1,0,0:0:0:0:
109,192,154923,1,0,0:0:0:0:
475,192,154923,1,0,0:0:0:0:
329,192,154923,1,0,0:0:0:0:
256,192,154923,1,0,0:0:0:0:
182,192,155075,1,0,0:0:0:0:
329,192,155105,1,0,0:0:0:0:
182,192,155166,1,0,0:0:0:0:
329,192,155196,128,0,155378:0:0:0:0:
36,192,155287,1,0,0:0:0:0:
182,192,155287,1,0,0:0:0:0:
256,192,155287,128,0,155378:0:0:0:0:
109,192,155378,1,0,0:0:0:0:
256,192,155469,1,0,0:0:0:0:
329,192,155469,128,0,155560:0:0:0:0:
182,192,155529,1,0,0:0:0:0:
475,192,155560,1,0,0:0:0:0:
256,192,155590,1,0,0:0:0:0:
402,192,155650,1,0,0:0:0:0:
109,192,155650,1,0,0:0:0:0:
182,192,155741,1,0,0:0:0:0:
402,192,155741,1,0,0:0:0:0:
256,192,155832,1,0,0:0:0:0:
36,192,155832,1,0,0:0:0:0:
182,192,155878,1,0,0:0:0:0:
109,192,155923,1,0,0:0:0:0:
182,192,156014,1,0,0:0:0:0:
402,192,156014,1,0,0:0:0:0:
475,192,156014,1,0,0:0:0:0:
36,192,156060,1,0,0:0:0:0:
256,192,156105,1,0,0:0:0:0:
109,192,156196,1,0,0:0:0:0:
329,192,156196,128,0,156287:0:0:0:0:
402,192,156256,128,0,156378:0:0:0:0:
256,192,156287,1,0,0:0:0:0:
329,192,156378,1,0,0:0:0:0:
182,192,156378,1,0,0:0:0:0:
475,192,156378,1,0,0:0:0:0:
36,192,156378,1,0,0:0:0:0:
182,192,156560,1,0,0:0:0:0:
402,192,156560,1,0,0:0:0:0:
256,192,156620,1,0,0:0:0:0:
109,192,156681,1,0,0:0:0:0:
36,192,156741,1,0,0:0:0:0:
475,192,156741,1,0,0:0:0:0:
329,192,156741,1,0,0:0:0:0:
256,192,156787,1,0,0:0:0:0:
182,192,156832,128,0,156984:0:0:0:0:
475,192,156923,1,0,0:0:0:0:
109,192,156923,128,0,157044:0:0:0:0:
256,192,156984,128,0,157105:0:0:0:0:
329,192,157044,128,0,157166:0:0:0:0:
475,192,157105,1,0,0:0:0:0:
182,192,157105,1,0,0:0:0:0:
256,192,157196,1,0,0:0:0:0:
329,192,157287,1,0,0:0:0:0:
109,192,157287,1,0,0:0:0:0:
402,192,157287,1,0,0:0:0:0:
36,192,157347,1,0,0:0:0:0:
109,192,157408,1,0,0:0:0:0:
329,192,157469,1,0,0:0:0:0:
256,192,157469,1,0,0:0:0:0:
475,192,157469,1,0,0:0:0:0:
182,192,157560,1,0,0:0:0:0:
109,192,157650,1,0,0:0:0:0:
329,192,157650,128,0,157832:0:0:0:0:
109,192,157741,1,0,0:0:0:0:
36,192,157832,1,0,0:0:0:0:
475,192,157832,1,0,0:0:0:0:
256,192,157832,128,0,157953:0:0:0:0:
182,192,157832,128,0,158014:0:0:0:0:
329,192,157923,1,0,0:0:0:0:
256,192,158014,1,0,0:0:0:0:
36,192,158014,1,0,0:0:0:0:
329,192,158075,128,0,158196:0:0:0:0:
402,192,158135,128,0,158287:0:0:0:0:
256,192,158196,1,0,0:0:0:0:
36,192,158196,1,0,0:0:0:0:
182,192,158196,1,0,0:0:0:0:
329,192,158287,1,0,0:0:0:0:
475,192,158378,1,0,0:0:0:0:
402,192,158378,1,0,0:0:0:0:
256,192,158423,1,0,0:0:0:0:
182,192,158469,1,0,0:0:0:0:
329,192,158560,1,0,0:0:0:0:
109,192,158560,1,0,0:0:0:0:
475,192,158560,1,0,0:0:0:0:
182,192,158650,1,0,0:0:0:0:
402,192,158741,1,0,0:0:0:0:
256,192,158741,1,0,0:0:0:0:
256,192,158832,1,0,0:0:0:0:
109,192,158832,1,0,0:0:0:0:
329,192,158923,1,0,0:0:0:0:
475,192,158923,1,0,0:0:0:0:
36,192,158923,1,0,0:0:0:0:
182,192,159014,1,0,0:0:0:0:
329,192,159105,128,0,159287:0:0:0:0:
475,192,159105,1,0,0:0:0:0:
256,192,159105,1,0,0:0:0:0:
182,192,159287,1,0,0:0:0:0:
36,192,159287,1,0,0:0:0:0:
256,192,159287,1,0,0:0:0:0:
329,192,159347,1,0,0:0:0:0:
109,192,159378,1,0,0:0:0:0:
402,192,159408,1,0,0:0:0:0:
182,192,159469,1,0,0:0:0:0:
475,192,159469,1,0,0:0:0:0:
329,192,159529,1,0,0:0:0:0:
36,192,159560,1,0,0:0:0:0:
256,192,159590,1,0,0:0:0:0:
182,192,159650,1,0,0:0:0:0:
402,192,159650,1,0,0:0:0:0:
109,192,159711,1,0,0:0:0:0:
256,192,159772,1,0,0:0:0:0:
109,192,159832,1,0,0:0:0:0:
329,192,159832,1,0,0:0:0:0:
402,192,159893,1,0,0:0:0:0:
182,192,159923,1,0,0:0:0:0:
329,192,159953,1,0,0:0:0:0:
36,192,160014,1,0,0:0:0:0:
256,192,160014,1,0,0:0:0:0:
475,192,160014,1,0,0:0:0:0:
182,192,160075,1,0,0:0:0:0:
329,192,160105,1,0,0:0:0:0:
256,192,160196,1,0,0:0:0:0:
36,192,160196,1,0,0:0:0:0:
109,192,160256,1,0,0:0:0:0:
329,192,160287,1,0,0:0:0:0:
182,192,160317,1,0,0:0:0:0:
475,192,160378,1,0,0:0:0:0:
256,192,160378,1,0,0:0:0:0:
36,192,160378,1,0,0:0:0:0:
402,192,160378,128,0,160620:0:0:0:0:
182,192,160469,1,0,0:0:0:0:
109,192,160560,1,0,0:0:0:0:
256,192,160620,128,0,160711:0:0:0:0:
329,192,160681,128,0,160772:0:0:0:0:
109,192,160741,1,0,0:0:0:0:
36,192,160741,1,0,0:0:0:0:
475,192,160741,128,0,162105:0:0:0:0:
402,192,160741,128,0,160832:0:0:0:0:
182,192,160832,1,0,0:0:0:0:
36,192,160923,1,0,0:0:0:0:
256,192,160923,1,0,0:0:0:0:
329,192,161075,1,0,0:0:0:0:
36,192,161105,1,0,0:0:0:0:
402,192,161105,1,0,0:0:0:0:
109,192,161105,1,0,0:0:0:0:
36,192,161287,1,0,0:0:0:0:
402,192,161287,1,0,0:0:0:0:
329,192,161469,1,0,0:0:0:0:
402,192,161469,1,0,0:0:0:0:
182,192,161469,1,0,0:0:0:0:
109,192,161469,1,0,0:0:0:0:
256,192,161499,1,0,0:0:0:0:
109,192,161650,1,0,0:0:0:0:
402,192,161650,1,0,0:0:0:0:
109,192,161832,1,0,0:0:0:0:
402,192,161832,1,0,0:0:0:0:
256,192,161832,1,0,0:0:0:0:
256,192,162014,1,0,0:0:0:0:
109,192,162014,128,0,162196:0:0:0:0:
402,192,162105,1,0,0:0:0:0:
256,192,162105,1,0,0:0:0:0:
329,192,162196,1,0,0:0:0:0:
475,192,162196,1,0,0:0:0:0:
36,192,162196,128,0,162378:0:0:0:0:
329,192,162378,1,0,0:0:0:0:
475,192,162378,1,0,0:0:0:0:
109,192,162378,1,0,0:0:0:0:
36,192,162560,128,0,162711:0:0:0:0:
109,192,162560,1,0,0:0:0:0:
256,192,162560,1,0,0:0:0:0:
402,192,162560,1,0,0:0:0:0:
256,192,162741,1,0,0:0:0:0:
402,192,162741,1,0,0:0:0:0:
36,192,162923,128,0,163044:0:0:0:0:
182,192,162923,1,0,0:0:0:0:
329,192,162923,1,0,0:0:0:0:
475,192,162923,1,0,0:0:0:0:
256,192,162953,1,0,0:0:0:0:
256,192,163105,1,0,0:0:0:0:
475,192,163105,1,0,0:0:0:0:
182,192,163105,1,0,0:0:0:0:
329,192,163196,1,0,0:0:0:0:
402,192,163196,1,0,0:0:0:0:
36,192,163287,128,0,163378:0:0:0:0:
256,192,163287,1,0,0:0:0:0:
182,192,163287,1,0,0:0:0:0:
182,192,163469,1,0,0:0:0:0:
256,192,163529,1,0,0:0:0:0:
329,192,163620,128,0,163772:0:0:0:0:
475,192,163650,1,0,0:0:0:0:
256,192,163650,128,0,163863:0:0:0:0:
182,192,163681,1,0,0:0:0:0:
475,192,163772,1,0,0:0:0:0:
109,192,163832,128,0,163953:0:0:0:0:
256,192,163953,1,0,0:0:0:0:
182,192,163984,128,0,164075:0:0:0:0:
36,192,164014,128,0,164378:0:0:0:0:
475,192,164014,1,0,0:0:0:0:
329,192,164014,1,0,0:0:0:0:
329,192,164135,1,0,0:0:0:0:
402,192,164196,1,0,0:0:0:0:
182,192,164196,1,0,0:0:0:0:
109,192,164378,1,0,0:0:0:0:
475,192,164378,1,0,0:0:0:0:
329,192,164378,1,0,0:0:0:0:
256,192,164423,1,0,0:0:0:0:
182,192,164469,1,0,0:0:0:0:
329,192,164499,128,0,164560:0:0:0:0:
109,192,164529,128,0,164681:0:0:0:0:
256,192,164620,128,0,164741:0:0:0:0:
109,192,164741,1,0,0:0:0:0:
329,192,164741,1,0,0:0:0:0:
256,192,164923,1,0,0:0:0:0:
109,192,164923,1,0,0:0:0:0:
402,192,164923,1,0,0:0:0:0:
109,192,165105,1,0,0:0:0:0:
402,192,165105,1,0,0:0:0:0:
329,192,165105,1,0,0:0:0:0:
256,192,165150,128,0,165287:0:0:0:0:
329,192,165196,128,0,165347:0:0:0:0:
182,192,165287,1,0,0:0:0:0:
256,192,165347,1,0,0:0:0:0:
182,192,165408,1,0,0:0:0:0:
109,192,165469,1,0,0:0:0:0:
329,192,165469,1,0,0:0:0:0:
475,192,165469,1,0,0:0:0:0:
475,192,165650,1,0,0:0:0:0:
256,192,165650,1,0,0:0:0:0:
36,192,165832,1,0,0:0:0:0:
182,192,165832,1,0,0:0:0:0:
256,192,165832,1,0,0:0:0:0:
329,192,165878,1,0,0:0:0:0:
256,192,165923,128,0,166014:0:0:0:0:
182,192,165946,128,0,166105:0:0:0:0:
402,192,166014,1,0,0:0:0:0:
402,192,166105,1,0,0:0:0:0:
109,192,166105,1,0,0:0:0:0:
36,192,166196,1,0,0:0:0:0:
329,192,166196,1,0,0:0:0:0:
182,192,166196,1,0,0:0:0:0:
329,192,166378,1,0,0:0:0:0:
36,192,166378,1,0,0:0:0:0:
402,192,166560,1,0,0:0:0:0:
475,192,166560,128,0,166863:0:0:0:0:
36,192,166560,128,0,166741:0:0:0:0:
182,192,166590,128,0,166802:0:0:0:0:
256,192,166620,128,0,166863:0:0:0:0:
402,192,166741,128,0,166863:0:0:0:0:
109,192,166863,128,0,166984:0:0:0:0:
329,192,166863,128,0,166984:0:0:0:0:
36,192,166923,128,0,167105:0:0:0:0:
402,192,166923,128,0,167166:0:0:0:0:
256,192,166984,128,0,167226:0:0:0:0:
182,192,167044,128,0,167287:0:0:0:0:
475,192,167287,1,0,0:0:0:0:
36,192,167287,1,0,0:0:0:0:
256,192,167287,128,0,167378:0:0:0:0:
109,192,167287,1,0,0:0:0:0:
329,192,167332,1,0,0:0:0:0:
475,192,167378,128,0,167650:0:0:0:0:
109,192,167408,128,0,167469:0:0:0:0:
329,192,167469,128,0,167650:0:0:0:0:
109,192,167650,1,0,0:0:0:0:
256,192,167650,1,0,0:0:0:0:
402,192,167711,1,0,0:0:0:0:
182,192,167832,1,0,0:0:0:0:
256,192,167832,1,0,0:0:0:0:
182,192,167923,1,0,0:0:0:0:
256,192,167923,1,0,0:0:0:0:
475,192,168014,1,0,0:0:0:0:
329,192,168014,1,0,0:0:0:0:
36,192,168014,1,0,0:0:0:0:
109,192,168014,1,0,0:0:0:0:
475,192,168196,1,0,0:0:0:0:
402,192,168196,1,0,0:0:0:0:
256,192,168196,1,0,0:0:0:0:
109,192,168196,1,0,0:0:0:0:
182,192,168196,1,0,0:0:0:0:
402,192,168378,128,0,168650:0:0:0:0:
182,192,168378,128,0,168560:0:0:0:0:
36,192,168378,1,0,0:0:0:0:
475,192,168378,1,0,0:0:0:0:
329,192,168423,128,0,168741:0:0:0:0:
109,192,168469,128,0,168741:0:0:0:0:
36,192,168741,1,0,0:0:0:0:
475,192,168741,1,0,0:0:0:0:
182,192,168772,1,0,0:0:0:0:
256,192,168802,1,0,0:0:0:0:
329,192,168923,1,0,0:0:0:0:
402,192,168923,1,0,0:0:0:0:
182,192,168923,1,0,0:0:0:0:
36,192,169014,1,0,0:0:0:0:
402,192,169014,1,0,0:0:0:0:
329,192,169014,1,0,0:0:0:0:
256,192,169105,1,0,0:0:0:0:
109,192,169105,1,0,0:0:0:0:
329,192,169166,1,0,0:0:0:0:
402,192,169226,1,0,0:0:0:0:
475,192,169287,1,0,0:0:0:0:
109,192,169287,128,0,169469:0:0:0:0:
329,192,169347,1,0,0:0:0:0:
36,192,169378,128,0,169650:0:0:0:0:
256,192,169408,1,0,0:0:0:0:
402,192,169469,1,0,0:0:0:0:
182,192,169469,128,0,169832:0:0:0:0:
475,192,169529,128,0,170196:0:0:0:0:
329,192,169560,128,0,170196:0:0:0:0:
36,192,169741,1,0,0:0:0:0:
402,192,169832,1,0,0:0:0:0:
256,192,169832,1,0,0:0:0:0:
109,192,169832,128,0,170560:0:0:0:0:
182,192,170196,1,0,0:0:0:0:
36,192,170196,1,0,0:0:0:0:
256,192,170196,128,0,170317:0:0:0:0:
402,192,170256,1,0,0:0:0:0:
329,192,170317,1,0,0:0:0:0:
402,192,170378,128,0,170741:0:0:0:0:
182,192,170560,1,0,0:0:0:0:
36,192,170560,1,0,0:0:0:0:
329,192,170560,1,0,0:0:0:0:
475,192,170560,128,0,170923:0:0:0:0:
182,192,170741,1,0,0:0:0:0:
329,192,170741,1,0,0:0:0:0:
36,192,170832,1,0,0:0:0:0:
256,192,170832,1,0,0:0:0:0:
329,192,170923,1,0,0:0:0:0:
402,192,170923,1,0,0:0:0:0:
182,192,170923,1,0,0:0:0:0:
109,192,170923,1,0,0:0:0:0:
475,192,171105,1,0,0:0:0:0:
256,192,171105,1,0,0:0:0:0:
329,192,171105,1,0,0:0:0:0:
402,192,171105,1,0,0:0:0:0:
256,192,171196,1,0,0:0:0:0:
36,192,171196,1,0,0:0:0:0:
329,192,171287,1,0,0:0:0:0:
402,192,171287,1,0,0:0:0:0:
109,192,171287,1,0,0:0:0:0:
182,192,171287,1,0,0:0:0:0:
475,192,171378,1,0,0:0:0:0:
256,192,171469,1,0,0:0:0:0:
182,192,171469,1,0,0:0:0:0:
109,192,171469,1,0,0:0:0:0:
36,192,171469,1,0,0:0:0:0:
329,192,171560,1,0,0:0:0:0:
109,192,171650,128,0,171923:0:0:0:0:
256,192,171650,128,0,171741:0:0:0:0:
182,192,171650,1,0,0:0:0:0:
402,192,171650,1,0,0:0:0:0:
36,192,171832,1,0,0:0:0:0:
182,192,171832,128,0,172105:0:0:0:0:
329,192,171832,128,0,171923:0:0:0:0:
109,192,172014,1,0,0:0:0:0:
256,192,172014,128,0,172256:0:0:0:0:
402,192,172014,128,0,172105:0:0:0:0:
329,192,172196,128,0,172287:0:0:0:0:
475,192,172196,128,0,172347:0:0:0:0:
182,192,172196,1,0,0:0:0:0:
36,192,172196,1,0,0:0:0:0:
402,192,172317,128,0,172378:0:0:0:0:
256,192,172347,128,0,172408:0:0:0:0:
109,192,172378,128,0,172438:0:0:0:0:
36,192,172408,128,0,172560:0:0:0:0:
329,192,172469,1,0,0:0:0:0:
182,192,172499,128,0,172650:0:0:0:0:
402,192,172529,128,0,172741:0:0:0:0:
256,192,173075,1,0,0:0:0:0:
182,192,173105,128,0,173226:0:0:0:0:
329,192,173166,128,0,173287:0:0:0:0:
475,192,173166,128,0,173469:0:0:0:0:
109,192,173802,1,0,0:0:0:0:
329,192,173832,128,0,173953:0:0:0:0:
256,192,173893,128,0,174014:0:0:0:0:
36,192,173893,128,0,174105:0:0:0:0:
36,192,174196,1,0,0:0:0:0:
36,192,174378,1,0,0:0:0:0:
182,192,174529,1,0,0:0:0:0:
402,192,174560,1,0,0:0:0:0:
256,192,174560,128,0,174681:0:0:0:0:
36,192,174620,128,0,174741:0:0:0:0:
109,192,174620,128,0,174832:0:0:0:0:
402,192,174741,1,0,0:0:0:0:
329,192,174832,1,0,0:0:0:0:
109,192,174923,1,0,0:0:0:0:
256,192,174923,1,0,0:0:0:0:
256,192,175196,1,0,0:0:0:0:
402,192,175256,1,0,0:0:0:0:
182,192,175287,128,0,175408:0:0:0:0:
329,192,175347,128,0,175469:0:0:0:0:
475,192,175347,128,0,175560:0:0:0:0:
475,192,175650,1,0,0:0:0:0:
329,192,175650,1,0,0:0:0:0:
329,192,175832,1,0,0:0:0:0:
256,192,175832,1,0,0:0:0:0:
182,192,175984,1,0,0:0:0:0:
109,192,176014,128,0,176135:0:0:0:0:
256,192,176075,128,0,176196:0:0:0:0:
329,192,176075,128,0,176287:0:0:0:0:
36,192,176196,1,0,0:0:0:0:
182,192,176196,1,0,0:0:0:0:
36,192,176378,1,0,0:0:0:0:
109,192,176469,1,0,0:0:0:0:
109,192,176560,1,0,0:0:0:0:
256,192,176560,1,0,0:0:0:0:
329,192,176711,1,0,0:0:0:0:
402,192,176741,128,0,176863:0:0:0:0:
256,192,176802,128,0,176923:0:0:0:0:
109,192,176802,128,0,177014:0:0:0:0:
329,192,177105,1,0,0:0:0:0:
475,192,177105,1,0,0:0:0:0:
182,192,177105,1,0,0:0:0:0:
182,192,177287,1,0,0:0:0:0:
256,192,177287,1,0,0:0:0:0:
329,192,177438,1,0,0:0:0:0:
256,192,177469,128,0,177590:0:0:0:0:
475,192,177529,128,0,177650:0:0:0:0:
402,192,177529,128,0,177741:0:0:0:0:
109,192,177560,1,0,0:0:0:0:
109,192,177650,1,0,0:0:0:0:
402,192,177832,1,0,0:0:0:0:
256,192,177832,1,0,0:0:0:0:
36,192,177832,1,0,0:0:0:0:
36,192,178014,1,0,0:0:0:0:
182,192,178105,1,0,0:0:0:0:
109,192,178105,1,0,0:0:0:0:
36,192,178196,1,0,0:0:0:0:
256,192,178196,128,0,178317:0:0:0:0:
329,192,178256,128,0,178469:0:0:0:0:
475,192,178256,128,0,178378:0:0:0:0:
36,192,178378,1,0,0:0:0:0:
109,192,178378,1,0,0:0:0:0:
475,192,178560,1,0,0:0:0:0:
109,192,178560,1,0,0:0:0:0:
256,192,178560,1,0,0:0:0:0:
329,192,178741,1,0,0:0:0:0:
475,192,178741,1,0,0:0:0:0:
402,192,178893,1,0,0:0:0:0:
182,192,178923,128,0,179044:0:0:0:0:
475,192,178984,128,0,179105:0:0:0:0:
329,192,178984,128,0,179196:0:0:0:0:
256,192,179105,1,0,0:0:0:0:
109,192,179105,1,0,0:0:0:0:
36,192,179105,1,0,0:0:0:0:
256,192,179287,1,0,0:0:0:0:
109,192,179378,1,0,0:0:0:0:
329,192,179469,1,0,0:0:0:0:
109,192,179469,1,0,0:0:0:0:
256,192,179560,1,0,0:0:0:0:
329,192,179620,1,0,0:0:0:0:
402,192,179650,128,0,179772:0:0:0:0:
36,192,179711,128,0,179832:0:0:0:0:
182,192,179711,128,0,179923:0:0:0:0:
402,192,179832,1,0,0:0:0:0:
109,192,180014,1,0,0:0:0:0:
256,192,180014,1,0,0:0:0:0:
402,192,180014,1,0,0:0:0:0:
256,192,180196,1,0,0:0:0:0:
475,192,180196,1,0,0:0:0:0:
329,192,180196,1,0,0:0:0:0:
109,192,180347,1,0,0:0:0:0:
329,192,180378,128,0,180499:0:0:0:0:
36,192,180438,128,0,180560:0:0:0:0:
182,192,180438,128,0,180650:0:0:0:0:
402,192,180560,1,0,0:0:0:0:
256,192,180560,1,0,0:0:0:0:
36,192,180741,1,0,0:0:0:0:
182,192,180741,1,0,0:0:0:0:
402,192,180741,1,0,0:0:0:0:
109,192,180923,1,0,0:0:0:0:
109,192,181014,1,0,0:0:0:0:
402,192,181014,1,0,0:0:0:0:
256,192,181075,1,0,0:0:0:0:
182,192,181105,128,0,181226:0:0:0:0:
329,192,181166,128,0,181287:0:0:0:0:
475,192,181166,128,0,181378:0:0:0:0:
182,192,181287,1,0,0:0:0:0:
182,192,181469,1,0,0:0:0:0:
256,192,181469,1,0,0:0:0:0:
475,192,181469,1,0,0:0:0:0:
329,192,181650,1,0,0:0:0:0:
182,192,181650,1,0,0:0:0:0:
475,192,181650,1,0,0:0:0:0:
256,192,181802,1,0,0:0:0:0:
109,192,181832,128,0,181953:0:0:0:0:
475,192,181893,128,0,182105:0:0:0:0:
329,192,181893,128,0,182014:0:0:0:0:
256,192,182014,1,0,0:0:0:0:
109,192,182014,1,0,0:0:0:0:
36,192,182014,1,0,0:0:0:0:
109,192,182196,1,0,0:0:0:0:
329,192,182287,1,0,0:0:0:0:
109,192,182287,1,0,0:0:0:0:
256,192,182347,1,0,0:0:0:0:
36,192,182378,1,0,0:0:0:0:
329,192,182408,1,0,0:0:0:0:
182,192,182499,1,0,0:0:0:0:
256,192,182529,1,0,0:0:0:0:
329,192,182560,128,0,182681:0:0:0:0:
475,192,182560,1,0,0:0:0:0:
109,192,182620,128,0,182741:0:0:0:0:
36,192,182620,128,0,182832:0:0:0:0:
329,192,182741,1,0,0:0:0:0:
402,192,182741,1,0,0:0:0:0:
36,192,182923,1,0,0:0:0:0:
182,192,182923,1,0,0:0:0:0:
475,192,182923,1,0,0:0:0:0:
329,192,182923,1,0,0:0:0:0:
329,192,183105,1,0,0:0:0:0:
475,192,183105,1,0,0:0:0:0:
256,192,183105,1,0,0:0:0:0:
182,192,183166,1,0,0:0:0:0:
256,192,183226,1,0,0:0:0:0:
182,192,183287,128,0,183408:0:0:0:0:
475,192,183347,128,0,183560:0:0:0:0:
329,192,183347,128,0,183469:0:0:0:0:
109,192,183378,1,0,0:0:0:0:
256,192,183469,1,0,0:0:0:0:
36,192,183650,1,0,0:0:0:0:
109,192,183650,1,0,0:0:0:0:
402,192,183650,1,0,0:0:0:0:
256,192,183650,1,0,0:0:0:0:
36,192,184014,1,0,0:0:0:0:
182,192,184014,1,0,0:0:0:0:
329,192,184014,1,0,0:0:0:0:
475,192,184014,1,0,0:0:0:0:
182,192,184196,1,0,0:0:0:0:
329,192,184196,1,0,0:0:0:0:
109,192,184378,1,0,0:0:0:0:
256,192,184378,1,0,0:0:0:0:
36,192,184378,128,0,184438:0:0:0:0:
36,192,184560,128,0,184620:0:0:0:0:
182,192,184560,1,0,0:0:0:0:
256,192,184650,1,0,0:0:0:0:
329,192,184741,1,0,0:0:0:0:
109,192,184741,128,0,184863:0:0:0:0:
329,192,184832,128,0,184984:0:0:0:0:
109,192,184923,1,0,0:0:0:0:
256,192,184923,128,0,185044:0:0:0:0:
182,192,185105,1,0,0:0:0:0:
36,192,185105,128,0,185166:0:0:0:0:
329,192,185105,1,0,0:0:0:0:
36,192,185287,128,0,185347:0:0:0:0:
182,192,185287,1,0,0:0:0:0:
256,192,185378,1,0,0:0:0:0:
402,192,185378,1,0,0:0:0:0:
36,192,185469,1,0,0:0:0:0:
109,192,185469,1,0,0:0:0:0:
329,192,185469,1,0,0:0:0:0:
475,192,185469,1,0,0:0:0:0:
36,192,185650,128,0,185711:0:0:0:0:
329,192,185650,1,0,0:0:0:0:
36,192,185832,128,0,185893:0:0:0:0:
329,192,185832,1,0,0:0:0:0:
256,192,185878,1,0,0:0:0:0:
182,192,185923,1,0,0:0:0:0:
36,192,186014,128,0,186075:0:0:0:0:
256,192,186014,1,0,0:0:0:0:
109,192,186105,1,0,0:0:0:0:
182,192,186196,1,0,0:0:0:0:
256,192,186196,128,0,186287:0:0:0:0:
329,192,186256,128,0,186438:0:0:0:0:
256,192,186378,128,0,186499:0:0:0:0:
475,192,186378,1,0,0:0:0:0:
182,192,186438,128,0,186560:0:0:0:0:
402,192,186499,128,0,186620:0:0:0:0:
256,192,186560,1,0,0:0:0:0:
109,192,186560,1,0,0:0:0:0:
36,192,186560,1,0,0:0:0:0:
182,192,186741,1,0,0:0:0:0:
329,192,186741,1,0,0:0:0:0:
402,192,186832,1,0,0:0:0:0:
402,192,186923,1,0,0:0:0:0:
109,192,186923,1,0,0:0:0:0:
256,192,186923,1,0,0:0:0:0:
36,192,186923,1,0,0:0:0:0:
182,192,187105,128,0,187166:0:0:0:0:
329,192,187105,1,0,0:0:0:0:
182,192,187287,128,0,187347:0:0:0:0:
329,192,187287,1,0,0:0:0:0:
402,192,187287,1,0,0:0:0:0:
182,192,187469,128,0,187590:0:0:0:0:
256,192,187529,128,0,187650:0:0:0:0:
402,192,187560,1,0,0:0:0:0:
475,192,187650,1,0,0:0:0:0:
329,192,187650,1,0,0:0:0:0:
109,192,187650,1,0,0:0:0:0:
182,192,187832,128,0,187893:0:0:0:0:
475,192,187832,1,0,0:0:0:0:
329,192,187832,1,0,0:0:0:0:
182,192,188014,128,0,188075:0:0:0:0:
329,192,188014,1,0,0:0:0:0:
402,192,188014,1,0,0:0:0:0:
182,192,188196,128,0,188317:0:0:0:0:
402,192,188196,1,0,0:0:0:0:
256,192,188256,128,0,188378:0:0:0:0:
402,192,188287,1,0,0:0:0:0:
329,192,188378,1,0,0:0:0:0:
36,192,188378,1,0,0:0:0:0:
475,192,188378,1,0,0:0:0:0:
109,192,188378,1,0,0:0:0:0:
182,192,188560,128,0,188620:0:0:0:0:
329,192,188560,1,0,0:0:0:0:
182,192,188741,128,0,188802:0:0:0:0:
256,192,188741,1,0,0:0:0:0:
329,192,188787,1,0,0:0:0:0:
402,192,188832,1,0,0:0:0:0:
182,192,188923,128,0,188984:0:0:0:0:
329,192,188923,1,0,0:0:0:0:
402,192,189014,1,0,0:0:0:0:
475,192,189105,1,0,0:0:0:0:
256,192,189105,128,0,189196:0:0:0:0:
182,192,189166,128,0,189347:0:0:0:0:
329,192,189196,1,0,0:0:0:0:
256,192,189287,128,0,189408:0:0:0:0:
36,192,189287,1,0,0:0:0:0:
402,192,189347,128,0,189469:0:0:0:0:
329,192,189469,1,0,0:0:0:0:
475,192,189469,1,0,0:0:0:0:
182,192,189469,128,0,189529:0:0:0:0:
182,192,189650,1,0,0:0:0:0:
36,192,189650,1,0,0:0:0:0:
256,192,189741,1,0,0:0:0:0:
475,192,189832,1,0,0:0:0:0:
109,192,189832,1,0,0:0:0:0:
402,192,189832,1,0,0:0:0:0:
256,192,189832,1,0,0:0:0:0:
182,192,190014,1,0,0:0:0:0:
329,192,190014,128,0,190075:0:0:0:0:
329,192,190196,128,0,190256:0:0:0:0:
182,192,190196,1,0,0:0:0:0:
109,192,190196,1,0,0:0:0:0:
329,192,190378,128,0,190438:0:0:0:0:
109,192,190378,1,0,0:0:0:0:
182,192,190469,1,0,0:0:0:0:
256,192,190560,128,0,190681:0:0:0:0:
402,192,190560,1,0,0:0:0:0:
36,192,190620,128,0,190802:0:0:0:0:
109,192,190741,128,0,190863:0:0:0:0:
256,192,190741,1,0,0:0:0:0:
329,192,190923,128,0,190984:0:0:0:0:
109,192,190923,1,0,0:0:0:0:
182,192,190923,1,0,0:0:0:0:
329,192,191105,128,0,191166:0:0:0:0:
256,192,191105,1,0,0:0:0:0:
182,192,191196,1,0,0:0:0:0:
36,192,191196,1,0,0:0:0:0:
475,192,191287,1,0,0:0:0:0:
402,192,191287,1,0,0:0:0:0:
256,192,191287,1,0,0:0:0:0:
109,192,191287,1,0,0:0:0:0:
329,192,191469,128,0,191529:0:0:0:0:
402,192,191469,1,0,0:0:0:0:
256,192,191650,1,0,0:0:0:0:
329,192,191650,128,0,191711:0:0:0:0:
182,192,191696,1,0,0:0:0:0:
109,192,191741,1,0,0:0:0:0:
329,192,191832,128,0,191893:0:0:0:0:
182,192,191832,1,0,0:0:0:0:
109,192,191923,1,0,0:0:0:0:
256,192,192014,128,0,192105:0:0:0:0:
36,192,192014,1,0,0:0:0:0:
329,192,192075,128,0,192256:0:0:0:0:
182,192,192105,1,0,0:0:0:0:
475,192,192196,1,0,0:0:0:0:
256,192,192196,128,0,192317:0:0:0:0:
109,192,192256,128,0,192378:0:0:0:0:
329,192,192378,128,0,192438:0:0:0:0:
36,192,192378,1,0,0:0:0:0:
402,192,192378,1,0,0:0:0:0:
329,192,192560,128,0,192620:0:0:0:0:
36,192,192560,1,0,0:0:0:0:
182,192,192650,1,0,0:0:0:0:
475,192,192741,128,0,192802:0:0:0:0:
182,192,192741,1,0,0:0:0:0:
256,192,192741,1,0,0:0:0:0:
402,192,192741,1,0,0:0:0:0:
475,192,192923,128,0,192984:0:0:0:0:
329,192,192923,1,0,0:0:0:0:
475,192,193105,128,0,193166:0:0:0:0:
329,192,193105,1,0,0:0:0:0:
256,192,193105,128,0,193226:0:0:0:0:
182,192,193166,128,0,193287:0:0:0:0:
329,192,193226,128,0,193469:0:0:0:0:
475,192,193287,128,0,193347:0:0:0:0:
109,192,193378,1,0,0:0:0:0:
256,192,193469,1,0,0:0:0:0:
402,192,193469,1,0,0:0:0:0:
475,192,193650,128,0,193711:0:0:0:0:
182,192,193650,1,0,0:0:0:0:
329,192,193650,1,0,0:0:0:0:
475,192,193832,128,0,193893:0:0:0:0:
182,192,193832,1,0,0:0:0:0:
256,192,193878,1,0,0:0:0:0:
329,192,193923,1,0,0:0:0:0:
475,192,194014,1,0,0:0:0:0:
256,192,194014,128,0,194135:0:0:0:0:
329,192,194105,128,0,194256:0:0:0:0:
109,192,194196,128,0,194317:0:0:0:0:
256,192,194196,1,0,0:0:0:0:
36,192,194256,128,0,194378:0:0:0:0:
256,192,194317,128,0,194499:0:0:0:0:
402,192,194378,128,0,194438:0:0:0:0:
109,192,194378,1,0,0:0:0:0:
402,192,194560,128,0,194620:0:0:0:0:
329,192,194560,1,0,0:0:0:0:
182,192,194560,128,0,194681:0:0:0:0:
182,192,194741,128,0,194863:0:0:0:0:
402,192,194741,1,0,0:0:0:0:
256,192,194802,128,0,194923:0:0:0:0:
475,192,194832,1,0,0:0:0:0:
329,192,194923,1,0,0:0:0:0:
109,192,194923,128,0,195044:0:0:0:0:
402,192,195014,1,0,0:0:0:0:
475,192,195105,1,0,0:0:0:0:
256,192,195105,1,0,0:0:0:0:
182,192,195105,128,0,195166:0:0:0:0:
329,192,195105,1,0,0:0:0:0:
402,192,195287,1,0,0:0:0:0:
256,192,195287,1,0,0:0:0:0:
109,192,195287,128,0,195347:0:0:0:0:
109,192,195469,1,0,0:0:0:0:
329,192,195469,1,0,0:0:0:0:
109,192,195560,1,0,0:0:0:0:
182,192,195650,1,0,0:0:0:0:
256,192,195650,1,0,0:0:0:0:
402,192,195650,1,0,0:0:0:0:
36,192,195650,1,0,0:0:0:0:
329,192,195832,1,0,0:0:0:0:
402,192,195832,1,0,0:0:0:0:
256,192,196014,1,0,0:0:0:0:
182,192,196014,1,0,0:0:0:0:
36,192,196014,1,0,0:0:0:0:
329,192,196105,1,0,0:0:0:0:
36,192,196196,1,0,0:0:0:0:
182,192,196196,1,0,0:0:0:0:
329,192,196287,1,0,0:0:0:0:
402,192,196378,1,0,0:0:0:0:
182,192,196378,1,0,0:0:0:0:
402,192,196469,1,0,0:0:0:0:
109,192,196560,1,0,0:0:0:0:
256,192,196560,1,0,0:0:0:0:
475,192,196560,1,0,0:0:0:0:
475,192,196741,1,0,0:0:0:0:
329,192,196741,1,0,0:0:0:0:
256,192,196741,1,0,0:0:0:0:
329,192,196923,1,0,0:0:0:0:
182,192,196984,1,0,0:0:0:0:
329,192,197044,1,0,0:0:0:0:
182,192,197105,1,0,0:0:0:0:
475,192,197105,1,0,0:0:0:0:
256,192,197105,1,0,0:0:0:0:
256,192,197287,1,0,0:0:0:0:
329,192,197347,1,0,0:0:0:0:
256,192,197408,1,0,0:0:0:0:
182,192,197469,1,0,0:0:0:0:
36,192,197469,1,0,0:0:0:0:
402,192,197469,1,0,0:0:0:0:
36,192,197560,1,0,0:0:0:0:
182,192,197650,1,0,0:0:0:0:
256,192,197711,1,0,0:0:0:0:
109,192,197772,1,0,0:0:0:0:
182,192,197832,1,0,0:0:0:0:
256,192,197832,1,0,0:0:0:0:
109,192,197923,1,0,0:0:0:0:
36,192,198014,1,0,0:0:0:0:
402,192,198014,1,0,0:0:0:0:
256,192,198014,1,0,0:0:0:0:
182,192,198075,1,0,0:0:0:0:
256,192,198135,1,0,0:0:0:0:
329,192,198196,1,0,0:0:0:0:
109,192,198196,1,0,0:0:0:0:
402,192,198256,1,0,0:0:0:0:
475,192,198317,1,0,0:0:0:0:
256,192,198317,1,0,0:0:0:0:
329,192,198378,1,0,0:0:0:0:
256,192,198469,1,0,0:0:0:0:
329,192,198514,1,0,0:0:0:0:
182,192,198560,1,0,0:0:0:0:
402,192,198560,1,0,0:0:0:0:
36,192,198560,1,0,0:0:0:0:
109,192,198560,1,0,0:0:0:0:
256,192,198741,1,0,0:0:0:0:
182,192,198741,1,0,0:0:0:0:
402,192,198741,1,0,0:0:0:0:
256,192,198923,1,0,0:0:0:0:
475,192,198923,1,0,0:0:0:0:
182,192,198923,1,0,0:0:0:0:
329,192,199105,1,0,0:0:0:0:
182,192,199105,1,0,0:0:0:0:
329,192,199196,1,0,0:0:0:0:
182,192,199287,1,0,0:0:0:0:
475,192,199287,1,0,0:0:0:0:
256,192,199287,1,0,0:0:0:0:
402,192,199347,1,0,0:0:0:0:
36,192,199378,1,0,0:0:0:0:
329,192,199408,1,0,0:0:0:0:
402,192,199469,1,0,0:0:0:0:
109,192,199469,1,0,0:0:0:0:
256,192,199560,1,0,0:0:0:0:
109,192,199560,1,0,0:0:0:0:
182,192,199650,1,0,0:0:0:0:
475,192,199650,1,0,0:0:0:0:
329,192,199650,1,0,0:0:0:0:
182,192,199832,1,0,0:0:0:0:
402,192,199832,1,0,0:0:0:0:
36,192,199878,1,0,0:0:0:0:
256,192,199923,1,0,0:0:0:0:
182,192,199969,1,0,0:0:0:0:
329,192,200014,1,0,0:0:0:0:
109,192,200014,1,0,0:0:0:0:
475,192,200014,1,0,0:0:0:0:
402,192,200014,1,0,0:0:0:0:
256,192,200196,1,0,0:0:0:0:
475,192,200196,1,0,0:0:0:0:
109,192,200378,1,0,0:0:0:0:
256,192,200378,1,0,0:0:0:0:
402,192,200378,1,0,0:0:0:0:
109,192,200560,1,0,0:0:0:0:
256,192,200560,1,0,0:0:0:0:
109,192,200650,1,0,0:0:0:0:
256,192,200741,1,0,0:0:0:0:
36,192,200741,1,0,0:0:0:0:
329,192,200802,1,0,0:0:0:0:
182,192,200863,1,0,0:0:0:0:
256,192,200923,1,0,0:0:0:0:
402,192,200923,1,0,0:0:0:0:
182,192,200969,1,0,0:0:0:0:
109,192,201014,1,0,0:0:0:0:
36,192,201105,1,0,0:0:0:0:
402,192,201105,1,0,0:0:0:0:
256,192,201105,1,0,0:0:0:0:
475,192,201105,1,0,0:0:0:0:
182,192,201166,1,0,0:0:0:0:
36,192,201226,1,0,0:0:0:0:
109,192,201287,1,0,0:0:0:0:
256,192,201332,1,0,0:0:0:0:
329,192,201378,1,0,0:0:0:0:
182,192,201469,1,0,0:0:0:0:
402,192,201469,1,0,0:0:0:0:
256,192,201469,1,0,0:0:0:0:
475,192,201469,1,0,0:0:0:0:
475,192,201650,1,0,0:0:0:0:
329,192,201650,1,0,0:0:0:0:
182,192,201741,1,0,0:0:0:0:
109,192,201832,1,0,0:0:0:0:
256,192,201832,1,0,0:0:0:0:
402,192,201832,1,0,0:0:0:0:
36,192,201832,1,0,0:0:0:0:
402,192,202014,1,0,0:0:0:0:
182,192,202014,1,0,0:0:0:0:
182,192,202105,1,0,0:0:0:0:
36,192,202196,1,0,0:0:0:0:
329,192,202196,1,0,0:0:0:0:
256,192,202287,1,0,0:0:0:0:
475,192,202378,1,0,0:0:0:0:
329,192,202378,1,0,0:0:0:0:
109,192,202378,1,0,0:0:0:0:
475,192,202560,1,0,0:0:0:0:
182,192,202560,1,0,0:0:0:0:
329,192,202560,1,0,0:0:0:0:
402,192,202741,1,0,0:0:0:0:
182,192,202741,1,0,0:0:0:0:
402,192,202832,1,0,0:0:0:0:
329,192,202923,1,0,0:0:0:0:
475,192,202923,1,0,0:0:0:0:
256,192,202923,1,0,0:0:0:0:
182,192,203014,1,0,0:0:0:0:
256,192,203105,1,0,0:0:0:0:
36,192,203105,1,0,0:0:0:0:
182,192,203166,1,0,0:0:0:0:
256,192,203226,1,0,0:0:0:0:
329,192,203287,1,0,0:0:0:0:
475,192,203287,1,0,0:0:0:0:
109,192,203287,1,0,0:0:0:0:
329,192,203469,1,0,0:0:0:0:
256,192,203529,1,0,0:0:0:0:
402,192,203590,1,0,0:0:0:0:
329,192,203650,1,0,0:0:0:0:
402,192,203741,1,0,0:0:0:0:
182,192,203741,1,0,0:0:0:0:
475,192,203832,1,0,0:0:0:0:
109,192,203832,1,0,0:0:0:0:
256,192,203832,1,0,0:0:0:0:
329,192,203893,1,0,0:0:0:0:
402,192,203953,1,0,0:0:0:0:
182,192,204014,1,0,0:0:0:0:
256,192,204014,1,0,0:0:0:0:
109,192,204075,1,0,0:0:0:0:
329,192,204105,1,0,0:0:0:0:
36,192,204135,1,0,0:0:0:0:
256,192,204196,1,0,0:0:0:0:
402,192,204287,1,0,0:0:0:0:
182,192,204287,1,0,0:0:0:0:
329,192,204378,1,0,0:0:0:0:
109,192,204378,1,0,0:0:0:0:
256,192,204378,1,0,0:0:0:0:
36,192,204378,1,0,0:0:0:0:
256,192,204560,1,0,0:0:0:0:
402,192,204560,1,0,0:0:0:0:
256,192,204650,1,0,0:0:0:0:
329,192,204741,1,0,0:0:0:0:
182,192,204741,1,0,0:0:0:0:
475,192,204741,1,0,0:0:0:0:
109,192,204832,1,0,0:0:0:0:
36,192,204923,1,0,0:0:0:0:
182,192,204923,1,0,0:0:0:0:
256,192,205014,1,0,0:0:0:0:
329,192,205105,1,0,0:0:0:0:
109,192,205105,1,0,0:0:0:0:
182,192,205166,1,0,0:0:0:0:
475,192,205196,1,0,0:0:0:0:
36,192,205226,1,0,0:0:0:0:
256,192,205287,1,0,0:0:0:0:
402,192,205287,1,0,0:0:0:0:
182,192,205378,1,0,0:0:0:0:
402,192,205378,1,0,0:0:0:0:
329,192,205469,1,0,0:0:0:0:
36,192,205469,1,0,0:0:0:0:
109,192,205469,1,0,0:0:0:0:
256,192,205560,1,0,0:0:0:0:
329,192,205650,1,0,0:0:0:0:
109,192,205650,1,0,0:0:0:0:
475,192,205696,1,0,0:0:0:0:
256,192,205741,1,0,0:0:0:0:
329,192,205787,1,0,0:0:0:0:
182,192,205832,1,0,0:0:0:0:
402,192,205832,1,0,0:0:0:0:
36,192,205832,1,0,0:0:0:0:
109,192,205832,1,0,0:0:0:0:
329,192,205923,1,0,0:0:0:0:
109,192,206014,1,0,0:0:0:0:
475,192,206014,1,0,0:0:0:0:
256,192,206014,1,0,0:0:0:0:
182,192,206105,1,0,0:0:0:0:
256,192,206196,1,0,0:0:0:0:
109,192,206196,1,0,0:0:0:0:
36,192,206196,1,0,0:0:0:0:
402,192,206196,1,0,0:0:0:0:
36,192,206378,1,0,0:0:0:0:
402,192,206378,1,0,0:0:0:0:
329,192,206378,1,0,0:0:0:0:
475,192,206469,1,0,0:0:0:0:
256,192,206469,1,0,0:0:0:0:
402,192,206560,1,0,0:0:0:0:
36,192,206560,1,0,0:0:0:0:
182,192,206560,1,0,0:0:0:0:
329,192,206620,1,0,0:0:0:0:
402,192,206681,1,0,0:0:0:0:
256,192,206741,1,0,0:0:0:0:
109,192,206741,1,0,0:0:0:0:
475,192,206741,1,0,0:0:0:0:
36,192,206741,1,0,0:0:0:0:
329,192,206832,1,0,0:0:0:0:
36,192,206923,1,0,0:0:0:0:
182,192,206923,1,0,0:0:0:0:
256,192,206923,1,0,0:0:0:0:
402,192,206923,1,0,0:0:0:0:
36,192,207105,1,0,0:0:0:0:
329,192,207105,1,0,0:0:0:0:
109,192,207105,1,0,0:0:0:0:
182,192,207196,1,0,0:0:0:0:
36,192,207287,1,0,0:0:0:0:
329,192,207287,128,0,208650:0:0:0:0:
475,192,207347,128,0,208741:0:0:0:0:
109,192,207560,1,0,0:0:0:0:
182,192,207741,1,0,0:0:0:0:
36,192,207923,1,0,0:0:0:0:
182,192,208287,1,0,0:0:0:0:
402,192,208469,1,0,0:0:0:0:
256,192,208650,1,0,0:0:0:0:
109,192,208741,1,0,0:0:0:0:
402,192,208741,1,0,0:0:0:0:
182,192,208741,1,0,0:0:0:0:
329,192,208741,1,0,0:0:0:0:
36,192,208832,1,0,0:0:0:0:
36,192,208923,1,0,0:0:0:0:
402,192,208923,1,0,0:0:0:0:
109,192,209014,1,0,0:0:0:0:
182,192,209014,1,0,0:0:0:0:
475,192,209014,1,0,0:0:0:0:
329,192,209014,1,0,0:0:0:0:
256,192,209105,1,0,0:0:0:0:
256,192,209196,1,0,0:0:0:0:
402,192,209287,1,0,0:0:0:0:
329,192,209378,128,0,209741:0:0:0:0:
475,192,209378,1,0,0:0:0:0:
182,192,209378,1,0,0:0:0:0:
109,192,209650,1,0,0:0:0:0:
182,192,209650,1,0,0:0:0:0:
36,192,209650,1,0,0:0:0:0:
402,192,209741,1,0,0:0:0:0:
36,192,209832,1,0,0:0:0:0:
256,192,209832,1,0,0:0:0:0:
182,192,209832,1,0,0:0:0:0:
475,192,209878,1,0,0:0:0:0:
256,192,209923,1,0,0:0:0:0:
329,192,209969,1,0,0:0:0:0:
109,192,210014,1,0,0:0:0:0:
329,192,210060,1,0,0:0:0:0:
109,192,210105,1,0,0:0:0:0:
256,192,210196,128,0,210287:0:0:0:0:
475,192,210196,1,0,0:0:0:0:
402,192,210196,1,0,0:0:0:0:
182,192,210241,128,0,210469:0:0:0:0:
36,192,210378,1,0,0:0:0:0:
402,192,210378,1,0,0:0:0:0:
36,192,210469,128,0,210560:0:0:0:0:
256,192,210499,128,0,210620:0:0:0:0:
329,192,210529,128,0,210681:0:0:0:0:
475,192,210560,1,0,0:0:0:0:
109,192,210560,128,0,210741:0:0:0:0:
402,192,210741,128,0,210923:0:0:0:0:
329,192,210741,1,0,0:0:0:0:
182,192,210741,1,0,0:0:0:0:
256,192,210741,1,0,0:0:0:0:
182,192,210923,1,0,0:0:0:0:
329,192,210923,1,0,0:0:0:0:
475,192,210923,1,0,0:0:0:0:
109,192,210923,1,0,0:0:0:0:
36,192,210923,128,0,211196:0:0:0:0:
256,192,211105,1,0,0:0:0:0:
256,192,211196,1,0,0:0:0:0:
329,192,211241,128,0,211378:0:0:0:0:
402,192,211287,128,0,211469:0:0:0:0:
36,192,211287,1,0,0:0:0:0:
109,192,211287,1,0,0:0:0:0:
256,192,211378,1,0,0:0:0:0:
182,192,211469,1,0,0:0:0:0:
475,192,211469,1,0,0:0:0:0:
182,192,211560,128,0,211741:0:0:0:0:
402,192,211560,1,0,0:0:0:0:
329,192,211650,128,0,211832:0:0:0:0:
109,192,211650,128,0,212196:0:0:0:0:
256,192,211832,128,0,211923:0:0:0:0:
402,192,211832,1,0,0:0:0:0:
256,192,212014,128,0,212105:0:0:0:0:
36,192,212014,128,0,212196:0:0:0:0:
402,192,212014,1,0,0:0:0:0:
329,192,212196,128,0,212287:0:0:0:0:
256,192,212241,128,0,212378:0:0:0:0:
329,192,212378,1,0,0:0:0:0:
182,192,212378,128,0,212560:0:0:0:0:
475,192,212378,128,0,212923:0:0:0:0:
402,192,212378,1,0,0:0:0:0:
109,192,212560,128,0,212650:0:0:0:0:
256,192,212560,1,0,0:0:0:0:
109,192,212741,128,0,212832:0:0:0:0:
402,192,212741,128,0,213105:0:0:0:0:
182,192,212787,128,0,212923:0:0:0:0:
256,192,212923,1,0,0:0:0:0:
36,192,212923,1,0,0:0:0:0:
329,192,212923,1,0,0:0:0:0:
329,192,213105,1,0,0:0:0:0:
36,192,213105,1,0,0:0:0:0:
256,192,213105,1,0,0:0:0:0:
475,192,213105,1,0,0:0:0:0:
36,192,213196,1,0,0:0:0:0:
182,192,213241,1,0,0:0:0:0:
402,192,213287,1,0,0:0:0:0:
402,192,213378,1,0,0:0:0:0:
109,192,213378,1,0,0:0:0:0:
329,192,213378,128,0,213469:0:0:0:0:
256,192,213423,128,0,213560:0:0:0:0:
36,192,213469,128,0,213650:0:0:0:0:
182,192,213560,1,0,0:0:0:0:
109,192,213650,128,0,213832:0:0:0:0:
329,192,213650,1,0,0:0:0:0:
475,192,213650,1,0,0:0:0:0:
256,192,213741,1,0,0:0:0:0:
182,192,213832,1,0,0:0:0:0:
475,192,213832,1,0,0:0:0:0:
329,192,213832,1,0,0:0:0:0:
402,192,213832,1,0,0:0:0:0:
36,192,213893,1,0,0:0:0:0:
256,192,213953,1,0,0:0:0:0:
109,192,214014,1,0,0:0:0:0:
402,192,214014,1,0,0:0:0:0:
109,192,214105,1,0,0:0:0:0:
329,192,214105,1,0,0:0:0:0:
256,192,214196,1,0,0:0:0:0:
182,192,214196,1,0,0:0:0:0:
475,192,214196,1,0,0:0:0:0:
329,192,214241,1,0,0:0:0:0:
402,192,214287,1,0,0:0:0:0:
182,192,214378,1,0,0:0:0:0:
329,192,214378,128,0,214560:0:0:0:0:
475,192,214423,1,0,0:0:0:0:
109,192,214469,128,0,214650:0:0:0:0:
36,192,214560,128,0,214923:0:0:0:0:
256,192,214560,1,0,0:0:0:0:
109,192,214741,128,0,214832:0:0:0:0:
329,192,214741,1,0,0:0:0:0:
109,192,214923,128,0,215014:0:0:0:0:
256,192,214969,128,0,215105:0:0:0:0:
36,192,215105,1,0,0:0:0:0:
109,192,215105,1,0,0:0:0:0:
329,192,215105,1,0,0:0:0:0:
402,192,215128,1,0,0:0:0:0:
475,192,215150,1,0,0:0:0:0:
475,192,215287,1,0,0:0:0:0:
36,192,215287,1,0,0:0:0:0:
182,192,215287,1,0,0:0:0:0:
109,192,215287,1,0,0:0:0:0:
256,192,215332,1,0,0:0:0:0:
329,192,215378,1,0,0:0:0:0:
256,192,215469,1,0,0:0:0:0:
182,192,215529,1,0,0:0:0:0:
475,192,215560,1,0,0:0:0:0:
109,192,215590,1,0,0:0:0:0:
329,192,215620,1,0,0:0:0:0:
256,192,215650,1,0,0:0:0:0:
182,192,215711,1,0,0:0:0:0:
475,192,215741,1,0,0:0:0:0:
109,192,215772,1,0,0:0:0:0:
256,192,215832,1,0,0:0:0:0:
329,192,215832,1,0,0:0:0:0:
402,192,215832,1,0,0:0:0:0:
109,192,215923,1,0,0:0:0:0:
475,192,216014,1,0,0:0:0:0:
36,192,216014,1,0,0:0:0:0:
329,192,216014,128,0,216105:0:0:0:0:
256,192,216060,128,0,216287:0:0:0:0:
109,192,216196,1,0,0:0:0:0:
402,192,216196,1,0,0:0:0:0:
109,192,216287,128,0,216378:0:0:0:0:
402,192,216317,128,0,216438:0:0:0:0:
329,192,216347,128,0,216499:0:0:0:0:
182,192,216378,1,0,0:0:0:0:
36,192,216378,128,0,216560:0:0:0:0:
402,192,216560,128,0,216741:0:0:0:0:
256,192,216560,1,0,0:0:0:0:
109,192,216560,1,0,0:0:0:0:
475,192,216560,1,0,0:0:0:0:
109,192,216741,1,0,0:0:0:0:
36,192,216741,1,0,0:0:0:0:
256,192,216741,128,0,217014:0:0:0:0:
329,192,216741,1,0,0:0:0:0:
109,192,216923,1,0,0:0:0:0:
329,192,216923,1,0,0:0:0:0:
36,192,216923,1,0,0:0:0:0:
329,192,217014,1,0,0:0:0:0:
182,192,217060,128,0,217196:0:0:0:0:
402,192,217105,128,0,217287:0:0:0:0:
475,192,217105,1,0,0:0:0:0:
256,192,217196,1,0,0:0:0:0:
109,192,217287,1,0,0:0:0:0:
329,192,217287,1,0,0:0:0:0:
402,192,217378,1,0,0:0:0:0:
109,192,217378,128,0,217560:0:0:0:0:
475,192,217469,128,0,217832:0:0:0:0:
329,192,217469,1,0,0:0:0:0:
329,192,217650,128,0,217741:0:0:0:0:
402,192,217650,1,0,0:0:0:0:
402,192,217832,1,0,0:0:0:0:
329,192,217832,128,0,217923:0:0:0:0:
256,192,217878,128,0,218014:0:0:0:0:
475,192,218014,1,0,0:0:0:0:
182,192,218014,1,0,0:0:0:0:
329,192,218014,1,0,0:0:0:0:
109,192,218196,1,0,0:0:0:0:
36,192,218196,1,0,0:0:0:0:
256,192,218196,1,0,0:0:0:0:
182,192,218196,1,0,0:0:0:0:
329,192,218196,128,0,218469:0:0:0:0:
36,192,218317,128,0,218560:0:0:0:0:
402,192,218378,1,0,0:0:0:0:
256,192,218529,1,0,0:0:0:0:
402,192,218560,1,0,0:0:0:0:
256,192,218650,1,0,0:0:0:0:
182,192,218741,1,0,0:0:0:0:
329,192,218741,1,0,0:0:0:0:
475,192,218741,1,0,0:0:0:0:
36,192,218832,1,0,0:0:0:0:
256,192,218923,1,0,0:0:0:0:
475,192,218923,1,0,0:0:0:0:
109,192,218923,1,0,0:0:0:0:
402,192,218923,1,0,0:0:0:0:
402,192,219014,1,0,0:0:0:0:
256,192,219060,1,0,0:0:0:0:
109,192,219105,1,0,0:0:0:0:
109,192,219196,1,0,0:0:0:0:
182,192,219196,128,0,219287:0:0:0:0:
402,192,219196,1,0,0:0:0:0:
256,192,219241,128,0,219378:0:0:0:0:
475,192,219287,128,0,219469:0:0:0:0:
36,192,219378,1,0,0:0:0:0:
256,192,219469,1,0,0:0:0:0:
109,192,219469,128,0,219650:0:0:0:0:
402,192,219469,1,0,0:0:0:0:
256,192,219650,1,0,0:0:0:0:
329,192,219650,1,0,0:0:0:0:
475,192,219650,1,0,0:0:0:0:
36,192,219650,1,0,0:0:0:0:
182,192,219711,1,0,0:0:0:0:
329,192,219772,1,0,0:0:0:0:
109,192,219832,1,0,0:0:0:0:
36,192,219832,1,0,0:0:0:0:
402,192,219832,1,0,0:0:0:0:
402,192,219923,1,0,0:0:0:0:
182,192,219923,1,0,0:0:0:0:
329,192,220014,1,0,0:0:0:0:
256,192,220014,1,0,0:0:0:0:
475,192,220014,1,0,0:0:0:0:
182,192,220060,1,0,0:0:0:0:
109,192,220105,1,0,0:0:0:0:
256,192,220196,1,0,0:0:0:0:
36,192,220241,1,0,0:0:0:0:
402,192,220287,1,0,0:0:0:0:
329,192,220378,1,0,0:0:0:0:
182,192,220378,128,0,220469:0:0:0:0:
109,192,220423,128,0,220560:0:0:0:0:
329,192,220469,1,0,0:0:0:0:
182,192,220560,1,0,0:0:0:0:
256,192,220560,1,0,0:0:0:0:
36,192,220560,1,0,0:0:0:0:
329,192,220650,1,0,0:0:0:0:
402,192,220741,1,0,0:0:0:0:
109,192,220741,128,0,220832:0:0:0:0:
256,192,220832,1,0,0:0:0:0:
182,192,220923,128,0,221105:0:0:0:0:
329,192,220923,1,0,0:0:0:0:
402,192,221014,1,0,0:0:0:0:
256,192,221105,1,0,0:0:0:0:
329,192,221105,128,0,221378:0:0:0:0:
475,192,221105,128,0,221287:0:0:0:0:
36,192,221105,1,0,0:0:0:0:
182,192,221287,1,0,0:0:0:0:
182,192,221378,1,0,0:0:0:0:
475,192,221378,1,0,0:0:0:0:
36,192,221378,1,0,0:0:0:0:
256,192,221378,1,0,0:0:0:0:
402,192,221423,1,0,0:0:0:0:
329,192,221469,1,0,0:0:0:0:
475,192,221650,1,0,0:0:0:0:
329,192,221650,1,0,0:0:0:0:
109,192,221650,1,0,0:0:0:0:
36,192,221650,1,0,0:0:0:0:
36,192,221741,1,0,0:0:0:0:
109,192,221741,1,0,0:0:0:0:
475,192,221832,1,0,0:0:0:0:
402,192,221832,1,0,0:0:0:0:
256,192,221832,128,0,221923:0:0:0:0:
182,192,221878,128,0,222105:0:0:0:0:
402,192,222014,1,0,0:0:0:0:
36,192,222014,1,0,0:0:0:0:
36,192,222105,128,0,222196:0:0:0:0:
256,192,222135,128,0,222256:0:0:0:0:
329,192,222166,128,0,222317:0:0:0:0:
475,192,222196,1,0,0:0:0:0:
109,192,222196,128,0,222378:0:0:0:0:
256,192,222378,1,0,0:0:0:0:
402,192,222378,128,0,222560:0:0:0:0:
36,192,222378,1,0,0:0:0:0:
182,192,222378,1,0,0:0:0:0:
329,192,222560,1,0,0:0:0:0:
182,192,222560,1,0,0:0:0:0:
256,192,222560,1,0,0:0:0:0:
36,192,222560,128,0,222832:0:0:0:0:
109,192,222741,1,0,0:0:0:0:
329,192,222741,1,0,0:0:0:0:
109,192,222832,1,0,0:0:0:0:
256,192,222878,128,0,223014:0:0:0:0:
402,192,222923,128,0,223105:0:0:0:0:
475,192,222923,1,0,0:0:0:0:
182,192,223014,1,0,0:0:0:0:
256,192,223105,1,0,0:0:0:0:
109,192,223105,128,0,223287:0:0:0:0:
256,192,223196,1,0,0:0:0:0:
36,192,223287,1,0,0:0:0:0:
475,192,223287,128,0,223560:0:0:0:0:
329,192,223287,1,0,0:0:0:0:
182,192,223378,1,0,0:0:0:0:
329,192,223469,128,0,223560:0:0:0:0:
402,192,223514,128,0,223650:0:0:0:0:
182,192,223560,1,0,0:0:0:0:
329,192,223650,128,0,223741:0:0:0:0:
475,192,223650,1,0,0:0:0:0:
256,192,223696,128,0,223832:0:0:0:0:
182,192,223832,1,0,0:0:0:0:
475,192,223832,1,0,0:0:0:0:
329,192,223832,1,0,0:0:0:0:
182,192,224014,1,0,0:0:0:0:
256,192,224014,1,0,0:0:0:0:
329,192,224014,128,0,224560:0:0:0:0:
475,192,224014,128,0,224196:0:0:0:0:
402,192,224196,1,0,0:0:0:0:
109,192,224196,128,0,224287:0:0:0:0:
109,192,224378,128,0,224469:0:0:0:0:
402,192,224378,128,0,224741:0:0:0:0:
36,192,224423,128,0,224560:0:0:0:0:
475,192,224560,1,0,0:0:0:0:
256,192,224560,1,0,0:0:0:0:
182,192,224560,1,0,0:0:0:0:
256,192,224741,1,0,0:0:0:0:
182,192,224741,1,0,0:0:0:0:
36,192,224741,1,0,0:0:0:0:
475,192,224741,1,0,0:0:0:0:
475,192,224832,1,0,0:0:0:0:
329,192,224878,1,0,0:0:0:0:
182,192,224923,1,0,0:0:0:0:
182,192,225014,1,0,0:0:0:0:
256,192,225014,128,0,225105:0:0:0:0:
36,192,225014,1,0,0:0:0:0:
329,192,225060,128,0,225196:0:0:0:0:
475,192,225105,128,0,225287:0:0:0:0:
109,192,225196,1,0,0:0:0:0:
36,192,225287,1,0,0:0:0:0:
402,192,225287,128,0,225469:0:0:0:0:
256,192,225287,1,0,0:0:0:0:
329,192,225469,1,0,0:0:0:0:
109,192,225469,1,0,0:0:0:0:
36,192,225469,1,0,0:0:0:0:
256,192,225469,1,0,0:0:0:0:
182,192,225529,1,0,0:0:0:0:
256,192,225590,1,0,0:0:0:0:
109,192,225650,1,0,0:0:0:0:
402,192,225650,1,0,0:0:0:0:
182,192,225741,1,0,0:0:0:0:
402,192,225741,1,0,0:0:0:0:
36,192,225832,1,0,0:0:0:0:
329,192,225832,1,0,0:0:0:0:
256,192,225832,1,0,0:0:0:0:
182,192,225878,1,0,0:0:0:0:
109,192,225923,1,0,0:0:0:0:
36,192,226014,1,0,0:0:0:0:
256,192,226014,1,0,0:0:0:0:
329,192,226060,1,0,0:0:0:0:
182,192,226105,1,0,0:0:0:0:
36,192,226196,128,0,226560:0:0:0:0:
109,192,226196,1,0,0:0:0:0:
329,192,226196,128,0,226287:0:0:0:0:
475,192,226347,1,0,0:0:0:0:
256,192,226378,128,0,226469:0:0:0:0:
402,192,226408,1,0,0:0:0:0:
329,192,226469,1,0,0:0:0:0:
475,192,226560,1,0,0:0:0:0:
182,192,226560,128,0,226650:0:0:0:0:
402,192,226620,1,0,0:0:0:0:
329,192,226681,1,0,0:0:0:0:
256,192,226741,1,0,0:0:0:0:
109,192,226741,1,0,0:0:0:0:
109,192,226832,1,0,0:0:0:0:
329,192,226923,1,0,0:0:0:0:
402,192,226923,1,0,0:0:0:0:
475,192,226923,1,0,0:0:0:0:
256,192,226923,1,0,0:0:0:0:
182,192,227014,1,0,0:0:0:0:
402,192,227060,1,0,0:0:0:0:
256,192,227105,1,0,0:0:0:0:
329,192,227166,1,0,0:0:0:0:
36,192,227196,1,0,0:0:0:0:
402,192,227226,1,0,0:0:0:0:
182,192,227256,1,0,0:0:0:0:
256,192,227287,1,0,0:0:0:0:
329,192,227347,1,0,0:0:0:0:
36,192,227378,1,0,0:0:0:0:
402,192,227408,1,0,0:0:0:0:
182,192,227469,1,0,0:0:0:0:
256,192,227469,1,0,0:0:0:0:
109,192,227514,1,0,0:0:0:0:
402,192,227560,1,0,0:0:0:0:
329,192,227650,1,0,0:0:0:0:
256,192,227650,1,0,0:0:0:0:
182,192,227650,128,0,227741:0:0:0:0:
36,192,227696,128,0,227923:0:0:0:0:
402,192,227832,1,0,0:0:0:0:
109,192,227832,1,0,0:0:0:0:
402,192,227923,128,0,228014:0:0:0:0:
182,192,227953,128,0,228075:0:0:0:0:
256,192,227984,128,0,228135:0:0:0:0:
36,192,228014,1,0,0:0:0:0:
475,192,228014,128,0,228196:0:0:0:0:
329,192,228196,128,0,228378:0:0:0:0:
256,192,228196,1,0,0:0:0:0:
402,192,228196,1,0,0:0:0:0:
182,192,228196,1,0,0:0:0:0:
109,192,228378,1,0,0:0:0:0:
256,192,228378,1,0,0:0:0:0:
475,192,228378,1,0,0:0:0:0:
36,192,228378,128,0,228650:0:0:0:0:
402,192,228560,1,0,0:0:0:0:
256,192,228560,1,0,0:0:0:0:
109,192,228560,1,0,0:0:0:0:
402,192,228650,1,0,0:0:0:0:
329,192,228696,128,0,228832:0:0:0:0:
182,192,228741,1,0,0:0:0:0:
475,192,228741,128,0,228923:0:0:0:0:
36,192,228832,1,0,0:0:0:0:
256,192,228923,1,0,0:0:0:0:
402,192,228923,128,0,229105:0:0:0:0:
256,192,229014,1,0,0:0:0:0:
36,192,229105,128,0,229378:0:0:0:0:
182,192,229105,1,0,0:0:0:0:
475,192,229105,1,0,0:0:0:0:
329,192,229196,1,0,0:0:0:0:
182,192,229287,128,0,229378:0:0:0:0:
109,192,229332,128,0,229469:0:0:0:0:
329,192,229378,1,0,0:0:0:0:
182,192,229469,128,0,229560:0:0:0:0:
36,192,229469,1,0,0:0:0:0:
256,192,229514,128,0,229650:0:0:0:0:
109,192,229650,1,0,0:0:0:0:
329,192,229650,1,0,0:0:0:0:
36,192,229650,1,0,0:0:0:0:
329,192,229832,1,0,0:0:0:0:
182,192,229832,128,0,230105:0:0:0:0:
475,192,229832,1,0,0:0:0:0:
109,192,229832,1,0,0:0:0:0:
256,192,229832,1,0,0:0:0:0:
475,192,229953,128,0,230196:0:0:0:0:
329,192,230014,1,0,0:0:0:0:
109,192,230166,1,0,0:0:0:0:
256,192,230196,1,0,0:0:0:0:
109,192,230287,1,0,0:0:0:0:
256,192,230378,1,0,0:0:0:0:
36,192,230378,1,0,0:0:0:0:
329,192,230378,1,0,0:0:0:0:
402,192,230469,1,0,0:0:0:0:
475,192,230560,1,0,0:0:0:0:
256,192,230560,1,0,0:0:0:0:
182,192,230560,1,0,0:0:0:0:
36,192,230560,1,0,0:0:0:0:
36,192,230650,1,0,0:0:0:0:
182,192,230696,1,0,0:0:0:0:
329,192,230741,1,0,0:0:0:0:
329,192,230832,1,0,0:0:0:0:
256,192,230832,128,0,230923:0:0:0:0:
475,192,230832,1,0,0:0:0:0:
182,192,230878,128,0,231014:0:0:0:0:
402,192,230923,128,0,231105:0:0:0:0:
109,192,231014,1,0,0:0:0:0:
329,192,231105,1,0,0:0:0:0:
256,192,231105,128,0,231287:0:0:0:0:
36,192,231105,1,0,0:0:0:0:
182,192,231287,1,0,0:0:0:0:
402,192,231287,1,0,0:0:0:0:
329,192,231287,1,0,0:0:0:0:
36,192,231287,1,0,0:0:0:0:
475,192,231347,1,0,0:0:0:0:
402,192,231408,1,0,0:0:0:0:
109,192,231469,1,0,0:0:0:0:
256,192,231469,1,0,0:0:0:0:
109,192,231560,1,0,0:0:0:0:
329,192,231560,1,0,0:0:0:0:
182,192,231650,1,0,0:0:0:0:
256,192,231650,1,0,0:0:0:0:
36,192,231650,1,0,0:0:0:0:
329,192,231696,1,0,0:0:0:0:
402,192,231741,1,0,0:0:0:0:
475,192,231832,1,0,0:0:0:0:
256,192,231832,1,0,0:0:0:0:
182,192,231832,1,0,0:0:0:0:
402,192,232014,1,0,0:0:0:0:
256,192,232014,128,0,232105:0:0:0:0:
182,192,232060,128,0,232196:0:0:0:0:
402,192,232105,1,0,0:0:0:0:
256,192,232196,1,0,0:0:0:0:
329,192,232196,1,0,0:0:0:0:
475,192,232196,1,0,0:0:0:0:
182,192,232378,1,0,0:0:0:0:
109,192,232378,1,0,0:0:0:0:
402,192,232378,1,0,0:0:0:0:
329,192,232378,1,0,0:0:0:0:
109,192,232469,1,0,0:0:0:0:
182,192,232469,1,0,0:0:0:0:
36,192,232560,128,0,232650:0:0:0:0:
329,192,232560,1,0,0:0:0:0:
109,192,232605,128,0,232741:0:0:0:0:
182,192,232741,1,0,0:0:0:0:
256,192,232741,1,0,0:0:0:0:
402,192,232741,1,0,0:0:0:0:
475,192,232741,1,0,0:0:0:0:
402,192,232832,1,0,0:0:0:0:
182,192,232923,1,0,0:0:0:0:
256,192,233014,1,0,0:0:0:0:
182,192,233014,1,0,0:0:0:0:
36,192,233014,1,0,0:0:0:0:
329,192,233060,1,0,0:0:0:0:
402,192,233105,1,0,0:0:0:0:
256,192,233166,1,0,0:0:0:0:
182,192,233226,1,0,0:0:0:0:
475,192,233287,1,0,0:0:0:0:
329,192,233287,1,0,0:0:0:0:
109,192,233287,1,0,0:0:0:0:
256,192,233332,1,0,0:0:0:0:
182,192,233378,1,0,0:0:0:0:
329,192,233423,1,0,0:0:0:0:
109,192,233469,128,0,233605:0:0:0:0:
256,192,233469,128,0,233560:0:0:0:0:
36,192,233469,1,0,0:0:0:0:
402,192,233499,128,0,233711:0:0:0:0:
475,192,233529,128,0,233650:0:0:0:0:
256,192,233650,128,0,233772:0:0:0:0:
182,192,233696,128,0,233832:0:0:0:0:
256,192,233832,1,0,0:0:0:0:
329,192,233832,128,0,234014:0:0:0:0:
402,192,233832,1,0,0:0:0:0:
36,192,233832,1,0,0:0:0:0:
182,192,234014,128,0,234135:0:0:0:0:
256,192,234014,1,0,0:0:0:0:
109,192,234044,128,0,234196:0:0:0:0:
329,192,234075,128,0,234287:0:0:0:0:
475,192,234135,128,0,234378:0:0:0:0:
182,192,234196,128,0,234287:0:0:0:0:
402,192,234378,128,0,234469:0:0:0:0:
256,192,234423,128,0,234560:0:0:0:0:
109,192,234560,128,0,234650:0:0:0:0:
182,192,234560,128,0,234741:0:0:0:0:
329,192,234560,1,0,0:0:0:0:
36,192,234560,1,0,0:0:0:0:
256,192,234681,128,0,234802:0:0:0:0:
109,192,234741,128,0,234863:0:0:0:0:
182,192,234802,128,0,234923:0:0:0:0:
256,192,234863,128,0,234984:0:0:0:0:
475,192,234923,1,0,0:0:0:0:
402,192,234923,1,0,0:0:0:0:
329,192,234923,1,0,0:0:0:0:
256,192,235105,128,0,235196:0:0:0:0:
402,192,235105,1,0,0:0:0:0:
182,192,235150,128,0,235287:0:0:0:0:
475,192,235287,1,0,0:0:0:0:
329,192,235287,1,0,0:0:0:0:
109,192,235287,128,0,235469:0:0:0:0:
256,192,235287,1,0,0:0:0:0:
36,192,235469,128,0,235590:0:0:0:0:
402,192,235469,1,0,0:0:0:0:
182,192,235499,128,0,235650:0:0:0:0:
256,192,235529,128,0,235741:0:0:0:0:
329,192,235590,128,0,235832:0:0:0:0:
36,192,235650,1,0,0:0:0:0:
402,192,235741,128,0,235832:0:0:0:0:
182,192,235832,1,0,0:0:0:0:
256,192,235832,1,0,0:0:0:0:
475,192,235832,1,0,0:0:0:0:
329,192,236014,128,0,236105:0:0:0:0:
256,192,236014,128,0,236196:0:0:0:0:
475,192,236014,1,0,0:0:0:0:
182,192,236014,1,0,0:0:0:0:
402,192,236135,128,0,236256:0:0:0:0:
182,192,236196,128,0,236317:0:0:0:0:
256,192,236256,128,0,236378:0:0:0:0:
329,192,236317,128,0,236438:0:0:0:0:
475,192,236378,1,0,0:0:0:0:
402,192,236378,128,0,236650:0:0:0:0:
36,192,236378,1,0,0:0:0:0:
109,192,236378,1,0,0:0:0:0:
182,192,236469,1,0,0:0:0:0:
256,192,236560,128,0,236650:0:0:0:0:
256,192,236741,1,0,0:0:0:0:
329,192,236741,128,0,236923:0:0:0:0:
475,192,236741,128,0,236832:0:0:0:0:
402,192,236741,1,0,0:0:0:0:
182,192,236863,128,0,236984:0:0:0:0:
402,192,236923,128,0,237044:0:0:0:0:
329,192,236984,128,0,237105:0:0:0:0:
182,192,237044,128,0,237166:0:0:0:0:
36,192,237105,128,0,237378:0:0:0:0:
109,192,237196,1,0,0:0:0:0:
329,192,237287,1,0,0:0:0:0:
109,192,237287,1,0,0:0:0:0:
402,192,237347,1,0,0:0:0:0:
256,192,237423,128,0,237560:0:0:0:0:
182,192,237469,128,0,237650:0:0:0:0:
475,192,237469,1,0,0:0:0:0:
329,192,237469,1,0,0:0:0:0:
36,192,237560,1,0,0:0:0:0:
109,192,237650,1,0,0:0:0:0:
256,192,237650,128,0,237772:0:0:0:0:
475,192,237650,1,0,0:0:0:0:
329,192,237711,128,0,237832:0:0:0:0:
402,192,237772,128,0,237893:0:0:0:0:
182,192,237832,1,0,0:0:0:0:
256,192,237832,1,0,0:0:0:0:
36,192,237832,1,0,0:0:0:0:
329,192,238014,128,0,238105:0:0:0:0:
475,192,238060,128,0,238196:0:0:0:0:
109,192,238196,1,0,0:0:0:0:
402,192,238196,128,0,238378:0:0:0:0:
256,192,238196,128,0,238287:0:0:0:0:
329,192,238196,1,0,0:0:0:0:
182,192,238317,128,0,238438:0:0:0:0:
475,192,238378,128,0,238499:0:0:0:0:
402,192,238438,128,0,238560:0:0:0:0:
36,192,238469,1,0,0:0:0:0:
256,192,238499,128,0,238620:0:0:0:0:
109,192,238560,128,0,238832:0:0:0:0:
329,192,238650,1,0,0:0:0:0:
36,192,238741,1,0,0:0:0:0:
329,192,238741,1,0,0:0:0:0:
256,192,238832,1,0,0:0:0:0:
182,192,238878,128,0,239014:0:0:0:0:
329,192,238923,128,0,239105:0:0:0:0:
402,192,238923,1,0,0:0:0:0:
475,192,238923,1,0,0:0:0:0:
402,192,239105,128,0,239287:0:0:0:0:
109,192,239105,1,0,0:0:0:0:
256,192,239105,1,0,0:0:0:0:
109,192,239196,1,0,0:0:0:0:
182,192,239287,1,0,0:0:0:0:
475,192,239287,1,0,0:0:0:0:
256,192,239287,128,0,239378:0:0:0:0:
329,192,239287,128,0,239469:0:0:0:0:
109,192,239408,128,0,239529:0:0:0:0:
256,192,239469,128,0,239590:0:0:0:0:
329,192,239529,128,0,239650:0:0:0:0:
402,192,239590,128,0,239711:0:0:0:0:
182,192,239650,1,0,0:0:0:0:
256,192,239650,1,0,0:0:0:0:
36,192,239650,128,0,239893:0:0:0:0:
182,192,239772,128,0,239953:0:0:0:0:
256,192,239832,128,0,240014:0:0:0:0:
402,192,239923,1,0,0:0:0:0:
182,192,240014,1,0,0:0:0:0:
402,192,240014,128,0,240196:0:0:0:0:
329,192,240196,128,0,240287:0:0:0:0:
109,192,240287,1,0,0:0:0:0:
182,192,240332,128,0,240469:0:0:0:0:
256,192,240378,128,0,240560:0:0:0:0:
475,192,240378,1,0,0:0:0:0:
329,192,240378,1,0,0:0:0:0:
36,192,240438,128,0,240620:0:0:0:0:
329,192,240560,128,0,240681:0:0:0:0:
256,192,240620,128,0,240741:0:0:0:0:
182,192,240681,128,0,240802:0:0:0:0:
329,192,240741,128,0,240863:0:0:0:0:
475,192,240741,1,0,0:0:0:0:
109,192,240832,1,0,0:0:0:0:
475,192,240863,1,0,0:0:0:0:
256,192,240923,1,0,0:0:0:0:
36,192,240923,1,0,0:0:0:0:
402,192,240923,1,0,0:0:0:0:
329,192,241060,128,0,241196:0:0:0:0:
182,192,241105,1,0,0:0:0:0:
109,192,241105,1,0,0:0:0:0:
475,192,241105,128,0,241287:0:0:0:0:
256,192,241196,1,0,0:0:0:0:
402,192,241287,1,0,0:0:0:0:
329,192,241332,1,0,0:0:0:0:
256,192,241378,1,0,0:0:0:0:
182,192,241423,1,0,0:0:0:0:
109,192,241469,1,0,0:0:0:0:
402,192,241469,1,0,0:0:0:0:
182,192,241560,1,0,0:0:0:0:
256,192,241650,128,0,241741:0:0:0:0:
402,192,241650,128,0,241832:0:0:0:0:
36,192,241650,1,0,0:0:0:0:
182,192,241787,128,0,241923:0:0:0:0:
329,192,241832,1,0,0:0:0:0:
256,192,241832,128,0,242014:0:0:0:0:
475,192,241832,1,0,0:0:0:0:
402,192,242014,1,0,0:0:0:0:
329,192,242014,128,0,242196:0:0:0:0:
36,192,242196,1,0,0:0:0:0:
182,192,242196,1,0,0:0:0:0:
256,192,242196,1,0,0:0:0:0:
475,192,242196,1,0,0:0:0:0:
182,192,242317,1,0,0:0:0:0:
256,192,242378,1,0,0:0:0:0:
402,192,242378,128,0,242499:0:0:0:0:
475,192,242438,128,0,242650:0:0:0:0:
109,192,242560,1,0,0:0:0:0:
329,192,242560,128,0,242741:0:0:0:0:
402,192,242560,1,0,0:0:0:0:
256,192,242650,1,0,0:0:0:0:
109,192,242681,128,0,242802:0:0:0:0:
182,192,242741,128,0,242863:0:0:0:0:
329,192,242802,128,0,242923:0:0:0:0:
402,192,242863,128,0,242984:0:0:0:0:
36,192,242923,1,0,0:0:0:0:
256,192,242923,1,0,0:0:0:0:
109,192,243014,128,0,243196:0:0:0:0:
36,192,243105,128,0,243287:0:0:0:0:
329,192,243105,1,0,0:0:0:0:
402,192,243287,1,0,0:0:0:0:
109,192,243287,128,0,243469:0:0:0:0:
256,192,243287,128,0,243378:0:0:0:0:
182,192,243287,1,0,0:0:0:0:
329,192,243378,1,0,0:0:0:0:
256,192,243469,128,0,243650:0:0:0:0:
36,192,243469,1,0,0:0:0:0:
329,192,243650,128,0,243832:0:0:0:0:
182,192,243650,1,0,0:0:0:0:
36,192,243650,1,0,0:0:0:0:
402,192,243772,128,0,243893:0:0:0:0:
109,192,243832,1,0,0:0:0:0:
256,192,243832,128,0,243953:0:0:0:0:
329,192,243893,128,0,244014:0:0:0:0:
402,192,243953,128,0,244075:0:0:0:0:
256,192,244014,1,0,0:0:0:0:
109,192,244014,1,0,0:0:0:0:
36,192,244014,1,0,0:0:0:0:
475,192,244014,128,0,244196:0:0:0:0:
402,192,244135,128,0,244256:0:0:0:0:
256,192,244196,128,0,244317:0:0:0:0:
182,192,244256,128,0,244378:0:0:0:0:
109,192,244317,128,0,244560:0:0:0:0:
329,192,244378,1,0,0:0:0:0:
182,192,244469,1,0,0:0:0:0:
36,192,244560,1,0,0:0:0:0:
256,192,244560,128,0,244741:0:0:0:0:
402,192,244560,1,0,0:0:0:0:
109,192,244741,1,0,0:0:0:0:
475,192,244741,1,0,0:0:0:0:
329,192,244741,1,0,0:0:0:0:
182,192,244802,1,0,0:0:0:0:
109,192,244863,1,0,0:0:0:0:
329,192,244923,1,0,0:0:0:0:
36,192,244953,128,0,245105:0:0:0:0:
109,192,245014,128,0,245196:0:0:0:0:
256,192,245060,128,0,245196:0:0:0:0:
329,192,245105,128,0,245287:0:0:0:0:
256,192,245287,128,0,245378:0:0:0:0:
402,192,245287,1,0,0:0:0:0:
109,192,245332,128,0,245469:0:0:0:0:
182,192,245469,128,0,245650:0:0:0:0:
256,192,245469,1,0,0:0:0:0:
475,192,245469,1,0,0:0:0:0:
329,192,245469,1,0,0:0:0:0:
475,192,245650,1,0,0:0:0:0:
256,192,245650,128,0,245772:0:0:0:0:
329,192,245681,128,0,245832:0:0:0:0:
109,192,245711,128,0,245923:0:0:0:0:
36,192,245772,128,0,246014:0:0:0:0:
256,192,245832,128,0,245923:0:0:0:0:
109,192,246014,128,0,246105:0:0:0:0:
256,192,246060,128,0,246196:0:0:0:0:
402,192,246196,128,0,246287:0:0:0:0:
329,192,246196,128,0,246378:0:0:0:0:
475,192,246196,1,0,0:0:0:0:
182,192,246196,1,0,0:0:0:0:
256,192,246317,128,0,246438:0:0:0:0:
402,192,246378,128,0,246499:0:0:0:0:
329,192,246438,128,0,246560:0:0:0:0:
256,192,246499,128,0,246620:0:0:0:0:
109,192,246560,1,0,0:0:0:0:
182,192,246560,1,0,0:0:0:0:
36,192,246560,1,0,0:0:0:0:
402,192,246560,1,0,0:0:0:0:
329,192,246741,128,0,246832:0:0:0:0:
182,192,246741,1,0,0:0:0:0:
475,192,246787,128,0,246923:0:0:0:0:
36,192,246923,1,0,0:0:0:0:
402,192,246923,128,0,247105:0:0:0:0:
256,192,246923,1,0,0:0:0:0:
109,192,246923,1,0,0:0:0:0:
475,192,247105,128,0,247226:0:0:0:0:
329,192,247105,1,0,0:0:0:0:
256,192,247135,128,0,247287:0:0:0:0:
182,192,247166,128,0,247378:0:0:0:0:
109,192,247226,128,0,247469:0:0:0:0:
475,192,247287,1,0,0:0:0:0:
36,192,247378,128,0,247469:0:0:0:0:
182,192,247469,1,0,0:0:0:0:
402,192,247469,1,0,0:0:0:0:
256,192,247469,1,0,0:0:0:0:
329,192,247469,1,0,0:0:0:0:
256,192,247650,1,0,0:0:0:0:
109,192,247650,128,0,247741:0:0:0:0:
475,192,247650,1,0,0:0:0:0:
182,192,247650,128,0,247832:0:0:0:0:
329,192,247772,128,0,247893:0:0:0:0:
256,192,247832,128,0,247953:0:0:0:0:
182,192,247893,128,0,248014:0:0:0:0:
36,192,247953,128,0,248075:0:0:0:0:
475,192,248014,1,0,0:0:0:0:
256,192,248014,1,0,0:0:0:0:
329,192,248014,128,0,248287:0:0:0:0:
402,192,248014,1,0,0:0:0:0:
182,192,248105,1,0,0:0:0:0:
109,192,248196,128,0,248287:0:0:0:0:
36,192,248378,1,0,0:0:0:0:
256,192,248378,128,0,248469:0:0:0:0:
182,192,248378,128,0,248560:0:0:0:0:
109,192,248378,1,0,0:0:0:0:
329,192,248499,128,0,248620:0:0:0:0:
109,192,248560,128,0,248681:0:0:0:0:
182,192,248620,128,0,248741:0:0:0:0:
329,192,248681,128,0,248802:0:0:0:0:
475,192,248741,128,0,249014:0:0:0:0:
402,192,248832,1,0,0:0:0:0:
256,192,248923,128,0,249014:0:0:0:0:
109,192,248969,128,0,249105:0:0:0:0:
329,192,249060,128,0,249196:0:0:0:0:
402,192,249105,128,0,249287:0:0:0:0:
182,192,249105,1,0,0:0:0:0:
36,192,249105,1,0,0:0:0:0:
256,192,249196,1,0,0:0:0:0:
329,192,249287,128,0,249408:0:0:0:0:
475,192,249287,1,0,0:0:0:0:
256,192,249347,128,0,249469:0:0:0:0:
182,192,249408,128,0,249529:0:0:0:0:
109,192,249469,128,0,249590:0:0:0:0:
36,192,249469,1,0,0:0:0:0:
475,192,249469,1,0,0:0:0:0:
329,192,249469,1,0,0:0:0:0:
402,192,249590,1,0,0:0:0:0:
256,192,249650,1,0,0:0:0:0:
109,192,249650,1,0,0:0:0:0:
329,192,249787,128,0,249923:0:0:0:0:
402,192,249832,128,0,250014:0:0:0:0:
109,192,249832,1,0,0:0:0:0:
475,192,249832,1,0,0:0:0:0:
256,192,249923,1,0,0:0:0:0:
182,192,250014,1,0,0:0:0:0:
256,192,250060,1,0,0:0:0:0:
329,192,250105,1,0,0:0:0:0:
402,192,250150,1,0,0:0:0:0:
475,192,250196,1,0,0:0:0:0:
109,192,250196,1,0,0:0:0:0:
329,192,250287,1,0,0:0:0:0:
109,192,250287,1,0,0:0:0:0:
182,192,250378,1,0,0:0:0:0:
402,192,250378,128,0,250560:0:0:0:0:
256,192,250378,1,0,0:0:0:0:
256,192,250560,1,0,0:0:0:0:
329,192,250560,1,0,0:0:0:0:
475,192,250560,128,0,250741:0:0:0:0:
182,192,250605,1,0,0:0:0:0:
402,192,250650,128,0,250832:0:0:0:0:
182,192,250741,1,0,0:0:0:0:
256,192,250787,1,0,0:0:0:0:
329,192,250832,128,0,251014:0:0:0:0:
36,192,250923,1,0,0:0:0:0:
109,192,250923,1,0,0:0:0:0:
182,192,250923,1,0,0:0:0:0:
256,192,250923,128,0,251014:0:0:0:0:
36,192,251060,128,0,251150:0:0:0:0:
109,192,251105,128,0,251287:0:0:0:0:
256,192,251105,1,0,0:0:0:0:
402,192,251105,128,0,251378:0:0:0:0:
182,192,251287,1,0,0:0:0:0:
256,192,251287,1,0,0:0:0:0:
329,192,251287,128,0,251378:0:0:0:0:
475,192,251287,128,0,251378:0:0:0:0:
182,192,251408,1,0,0:0:0:0:
475,192,251469,1,0,0:0:0:0:
329,192,251469,128,0,251650:0:0:0:0:
402,192,251560,1,0,0:0:0:0:
256,192,251650,128,0,251772:0:0:0:0:
109,192,251650,1,0,0:0:0:0:
36,192,251711,128,0,251832:0:0:0:0:
182,192,251772,128,0,251893:0:0:0:0:
256,192,251832,128,0,251953:0:0:0:0:
329,192,251893,128,0,252014:0:0:0:0:
402,192,252014,1,0,0:0:0:0:
475,192,252014,1,0,0:0:0:0:
109,192,252014,128,0,252196:0:0:0:0:
256,192,252014,128,0,252105:0:0:0:0:
329,192,252105,1,0,0:0:0:0:
256,192,252196,1,0,0:0:0:0:
36,192,252196,1,0,0:0:0:0:
182,192,252378,128,0,252560:0:0:0:0:
475,192,252378,1,0,0:0:0:0:
402,192,252378,1,0,0:0:0:0:
329,192,252378,1,0,0:0:0:0:
109,192,252499,128,0,252620:0:0:0:0:
402,192,252560,1,0,0:0:0:0:
256,192,252560,128,0,252681:0:0:0:0:
182,192,252620,128,0,252741:0:0:0:0:
109,192,252681,128,0,252802:0:0:0:0:
36,192,252741,128,0,252923:0:0:0:0:
475,192,252741,1,0,0:0:0:0:
256,192,252741,1,0,0:0:0:0:
402,192,252741,1,0,0:0:0:0:
109,192,252863,128,0,253014:0:0:0:0:
256,192,252923,128,0,253014:0:0:0:0:
475,192,252923,1,0,0:0:0:0:
329,192,252969,128,0,253105:0:0:0:0:
402,192,253105,1,0,0:0:0:0:
182,192,253105,128,0,253287:0:0:0:0:
402,192,253196,1,0,0:0:0:0:
109,192,253287,1,0,0:0:0:0:
36,192,253287,1,0,0:0:0:0:
256,192,253287,128,0,253378:0:0:0:0:
329,192,253423,128,0,253560:0:0:0:0:
402,192,253469,128,0,253650:0:0:0:0:
475,192,253469,1,0,0:0:0:0:
109,192,253469,1,0,0:0:0:0:
256,192,253469,1,0,0:0:0:0:
182,192,253590,128,0,253711:0:0:0:0:
329,192,253650,128,0,253772:0:0:0:0:
402,192,253711,128,0,253832:0:0:0:0:
475,192,253772,128,0,253953:0:0:0:0:
256,192,253832,1,0,0:0:0:0:
36,192,253832,1,0,0:0:0:0:
182,192,253832,1,0,0:0:0:0:
109,192,253832,1,0,0:0:0:0:
329,192,253923,1,0,0:0:0:0:
475,192,254014,1,0,0:0:0:0:
182,192,254014,1,0,0:0:0:0:
256,192,254014,128,0,254196:0:0:0:0:
182,192,254196,128,0,254317:0:0:0:0:
329,192,254196,1,0,0:0:0:0:
36,192,254196,1,0,0:0:0:0:
402,192,254256,128,0,254378:0:0:0:0:
256,192,254317,128,0,254438:0:0:0:0:
182,192,254378,128,0,254499:0:0:0:0:
109,192,254438,128,0,254560:0:0:0:0:
36,192,254560,1,0,0:0:0:0:
329,192,254560,128,0,254741:0:0:0:0:
182,192,254560,128,0,254650:0:0:0:0:
109,192,254650,1,0,0:0:0:0:
182,192,254741,1,0,0:0:0:0:
402,192,254741,1,0,0:0:0:0:
256,192,254741,1,0,0:0:0:0:
329,192,254878,128,0,255014:0:0:0:0:
475,192,254923,1,0,0:0:0:0:
256,192,254923,128,0,255105:0:0:0:0:
402,192,254923,1,0,0:0:0:0:
109,192,254984,1,0,0:0:0:0:
36,192,255044,128,0,255166:0:0:0:0:
182,192,255105,128,0,255226:0:0:0:0:
256,192,255166,128,0,255287:0:0:0:0:
109,192,255287,1,0,0:0:0:0:
475,192,255287,1,0,0:0:0:0:
402,192,255287,1,0,0:0:0:0:
329,192,255287,128,0,255469:0:0:0:0:
36,192,255287,1,0,0:0:0:0:
256,192,255378,128,0,255560:0:0:0:0:
402,192,255469,1,0,0:0:0:0:
182,192,255469,128,0,255650:0:0:0:0:
329,192,255560,1,0,0:0:0:0:
256,192,255650,1,0,0:0:0:0:
36,192,255650,1,0,0:0:0:0:
109,192,255650,1,0,0:0:0:0:
475,192,255650,1,0,0:0:0:0:
402,192,255741,1,0,0:0:0:0:
182,192,255741,128,0,255893:0:0:0:0:
36,192,255832,1,0,0:0:0:0:
329,192,255832,128,0,256014:0:0:0:0:
109,192,255893,1,0,0:0:0:0:
402,192,255923,128,0,256075:0:0:0:0:
182,192,255953,1,0,0:0:0:0:
256,192,256014,1,0,0:0:0:0:
36,192,256014,1,0,0:0:0:0:
475,192,256014,128,0,256166:0:0:0:0:
329,192,256105,128,0,256226:0:0:0:0:
109,192,256105,1,0,0:0:0:0:
256,192,256166,128,0,256287:0:0:0:0:
182,192,256226,128,0,256347:0:0:0:0:
109,192,256287,128,0,256408:0:0:0:0:
329,192,256287,128,0,256438:0:0:0:0:
36,192,256347,128,0,256469:0:0:0:0:
402,192,256378,128,0,256560:0:0:0:0:
182,192,256438,1,0,0:0:0:0:
475,192,256469,128,0,256650:0:0:0:0:
256,192,256499,1,0,0:0:0:0:
36,192,256560,1,0,0:0:0:0:
329,192,256560,1,0,0:0:0:0:
182,192,256620,1,0,0:0:0:0:
402,192,256650,1,0,0:0:0:0:
109,192,256681,1,0,0:0:0:0:
36,192,256741,1,0,0:0:0:0:
475,192,256741,128,0,257287:0:0:0:0:
256,192,256741,1,0,0:0:0:0:
402,192,256832,128,0,257196:0:0:0:0:
182,192,256832,1,0,0:0:0:0:
109,192,256923,128,0,257105:0:0:0:0:
329,192,256923,1,0,0:0:0:0:
256,192,257014,1,0,0:0:0:0:
329,192,257105,1,0,0:0:0:0:
36,192,257105,1,0,0:0:0:0:
182,192,257105,128,0,257287:0:0:0:0:
256,192,257196,128,0,257378:0:0:0:0:
109,192,257287,1,0,0:0:0:0:
329,192,257287,128,0,257469:0:0:0:0:
402,192,257378,1,0,0:0:0:0:
256,192,257469,128,0,257832:0:0:0:0:
475,192,257469,1,0,0:0:0:0:
182,192,257469,1,0,0:0:0:0:
109,192,257560,128,0,257832:0:0:0:0:
329,192,257560,1,0,0:0:0:0:
36,192,257650,128,0,257741:0:0:0:0:
475,192,257650,1,0,0:0:0:0:
329,192,257741,128,0,258014:0:0:0:0:
475,192,257832,1,0,0:0:0:0:
402,192,257832,128,0,258075:0:0:0:0:
36,192,257832,1,0,0:0:0:0:
182,192,257923,1,0,0:0:0:0:
256,192,258014,128,0,258135:0:0:0:0:
36,192,258014,1,0,0:0:0:0:
329,192,258075,128,0,258196:0:0:0:0:
109,192,258105,1,0,0:0:0:0:
402,192,258135,128,0,258256:0:0:0:0:
475,192,258196,128,0,258469:0:0:0:0:
256,192,258196,1,0,0:0:0:0:
182,192,258196,1,0,0:0:0:0:
402,192,258378,128,0,258741:0:0:0:0:
256,192,258378,1,0,0:0:0:0:
109,192,258378,1,0,0:0:0:0:
182,192,258469,1,0,0:0:0:0:
36,192,258560,1,0,0:0:0:0:
256,192,258560,1,0,0:0:0:0:
329,192,258560,1,0,0:0:0:0:
182,192,258650,128,0,258802:0:0:0:0:
256,192,258741,128,0,258863:0:0:0:0:
475,192,258741,1,0,0:0:0:0:
109,192,258802,128,0,258923:0:0:0:0:
402,192,258832,1,0,0:0:0:0:
36,192,258863,128,0,259105:0:0:0:0:
256,192,258923,1,0,0:0:0:0:
329,192,258923,1,0,0:0:0:0:
402,192,259014,1,0,0:0:0:0:
109,192,259014,128,0,259196:0:0:0:0:
475,192,259105,1,0,0:0:0:0:
256,192,259105,128,0,259408:0:0:0:0:
182,192,259105,1,0,0:0:0:0:
36,192,259287,1,0,0:0:0:0:
475,192,259287,1,0,0:0:0:0:
182,192,259287,128,0,259469:0:0:0:0:
402,192,259287,1,0,0:0:0:0:
256,192,259469,128,0,259590:0:0:0:0:
329,192,259469,1,0,0:0:0:0:
182,192,259529,128,0,259650:0:0:0:0:
109,192,259590,128,0,259711:0:0:0:0:
36,192,259650,128,0,260196:0:0:0:0:
256,192,259650,1,0,0:0:0:0:
475,192,259650,1,0,0:0:0:0:
329,192,259650,1,0,0:0:0:0:
182,192,259741,128,0,260105:0:0:0:0:
402,192,259741,1,0,0:0:0:0:
256,192,259832,128,0,260014:0:0:0:0:
402,192,259923,1,0,0:0:0:0:
109,192,260014,1,0,0:0:0:0:
475,192,260014,128,0,260196:0:0:0:0:
329,192,260014,1,0,0:0:0:0:
256,192,260105,128,0,260287:0:0:0:0:
402,192,260196,128,0,260378:0:0:0:0:
329,192,260196,1,0,0:0:0:0:
182,192,260287,128,0,260469:0:0:0:0:
475,192,260378,1,0,0:0:0:0:
329,192,260378,128,0,260560:0:0:0:0:
109,192,260378,1,0,0:0:0:0:
256,192,260469,1,0,0:0:0:0:
36,192,260469,1,0,0:0:0:0:
402,192,260560,1,0,0:0:0:0:
109,192,260560,128,0,260741:0:0:0:0:
182,192,260650,128,0,260832:0:0:0:0:
402,192,260741,1,0,0:0:0:0:
475,192,260741,1,0,0:0:0:0:
256,192,260741,1,0,0:0:0:0:
329,192,260832,1,0,0:0:0:0:
109,192,260923,1,0,0:0:0:0:
402,192,260923,1,0,0:0:0:0:
329,192,261014,1,0,0:0:0:0:
256,192,261060,128,0,261150:0:0:0:0:
182,192,261105,128,0,261378:0:0:0:0:
475,192,261105,1,0,0:0:0:0:
36,192,261105,128,0,261196:0:0:0:0:
256,192,261287,128,0,261650:0:0:0:0:
329,192,261287,1,0,0:0:0:0:
36,192,261287,1,0,0:0:0:0:
402,192,261378,1,0,0:0:0:0:
109,192,261469,1,0,0:0:0:0:
475,192,261469,1,0,0:0:0:0:
329,192,261469,128,0,261711:0:0:0:0:
402,192,261650,128,0,261772:0:0:0:0:
182,192,261650,1,0,0:0:0:0:
256,192,261711,128,0,261832:0:0:0:0:
36,192,261741,1,0,0:0:0:0:
329,192,261772,128,0,262014:0:0:0:0:
109,192,261832,1,0,0:0:0:0:
402,192,261832,1,0,0:0:0:0:
256,192,261923,128,0,262105:0:0:0:0:
402,192,262014,1,0,0:0:0:0:
182,192,262014,128,0,262317:0:0:0:0:
36,192,262014,1,0,0:0:0:0:
329,192,262105,1,0,0:0:0:0:
475,192,262196,1,0,0:0:0:0:
36,192,262196,1,0,0:0:0:0:
256,192,262196,128,0,262378:0:0:0:0:
402,192,262196,1,0,0:0:0:0:
182,192,262378,128,0,262499:0:0:0:0:
109,192,262378,1,0,0:0:0:0:
256,192,262438,128,0,262560:0:0:0:0:
402,192,262499,128,0,262620:0:0:0:0:
475,192,262560,128,0,263105:0:0:0:0:
182,192,262560,1,0,0:0:0:0:
36,192,262560,1,0,0:0:0:0:
329,192,262650,128,0,263014:0:0:0:0:
256,192,262650,1,0,0:0:0:0:
109,192,262741,128,0,262923:0:0:0:0:
182,192,262832,1,0,0:0:0:0:
256,192,262923,128,0,263105:0:0:0:0:
402,192,262923,1,0,0:0:0:0:
36,192,262923,1,0,0:0:0:0:
182,192,263014,128,0,263196:0:0:0:0:
109,192,263105,128,0,263287:0:0:0:0:
329,192,263105,1,0,0:0:0:0:
36,192,263196,128,0,263378:0:0:0:0:
402,192,263287,1,0,0:0:0:0:
475,192,263287,1,0,0:0:0:0:
256,192,263287,128,0,263469:0:0:0:0:
329,192,263378,1,0,0:0:0:0:
109,192,263378,1,0,0:0:0:0:
402,192,263469,128,0,263650:0:0:0:0:
182,192,263469,1,0,0:0:0:0:
475,192,263560,128,0,263741:0:0:0:0:
36,192,263650,1,0,0:0:0:0:
256,192,263650,1,0,0:0:0:0:
329,192,263650,1,0,0:0:0:0:
182,192,263741,1,0,0:0:0:0:
109,192,263832,1,0,0:0:0:0:
402,192,263832,1,0,0:0:0:0:
182,192,263923,1,0,0:0:0:0:
256,192,263969,128,0,264060:0:0:0:0:
36,192,264014,1,0,0:0:0:0:
329,192,264014,128,0,264256:0:0:0:0:
475,192,264014,128,0,264105:0:0:0:0:
256,192,264196,128,0,264317:0:0:0:0:
402,192,264196,1,0,0:0:0:0:
109,192,264256,128,0,264378:0:0:0:0:
329,192,264317,128,0,264438:0:0:0:0:
402,192,264378,128,0,264650:0:0:0:0:
182,192,264378,1,0,0:0:0:0:
36,192,264378,1,0,0:0:0:0:
256,192,264469,1,0,0:0:0:0:
329,192,264560,128,0,264741:0:0:0:0:
109,192,264560,1,0,0:0:0:0:
256,192,264650,128,0,264832:0:0:0:0:
182,192,264741,128,0,264923:0:0:0:0:
402,192,264741,1,0,0:0:0:0:
475,192,264741,1,0,0:0:0:0:
329,192,264832,1,0,0:0:0:0:
256,192,264923,128,0,265105:0:0:0:0:
36,192,264923,1,0,0:0:0:0:
402,192,264923,1,0,0:0:0:0:
109,192,265014,1,0,0:0:0:0:
329,192,265105,128,0,265287:0:0:0:0:
182,192,265105,1,0,0:0:0:0:
475,192,265105,1,0,0:0:0:0:
109,192,265196,128,0,265347:0:0:0:0:
256,192,265287,128,0,265408:0:0:0:0:
402,192,265287,1,0,0:0:0:0:
182,192,265347,128,0,265469:0:0:0:0:
109,192,265408,128,0,265529:0:0:0:0:
475,192,265469,1,0,0:0:0:0:
329,192,265469,1,0,0:0:0:0:
256,192,265469,128,0,266196:0:0:0:0:
402,192,265560,1,0,0:0:0:0:
182,192,265650,1,0,0:0:0:0:
36,192,265650,1,0,0:0:0:0:
402,192,265741,1,0,0:0:0:0:
329,192,265832,1,0,0:0:0:0:
475,192,265832,1,0,0:0:0:0:
109,192,265832,1,0,0:0:0:0:
36,192,265923,1,0,0:0:0:0:
329,192,266014,1,0,0:0:0:0:
182,192,266014,1,0,0:0:0:0:
402,192,266105,1,0,0:0:0:0:
182,192,266196,1,0,0:0:0:0:
36,192,266196,1,0,0:0:0:0:
475,192,266196,1,0,0:0:0:0:
109,192,266287,1,0,0:0:0:0:
329,192,266378,1,0,0:0:0:0:
182,192,266378,1,0,0:0:0:0:
475,192,266378,1,0,0:0:0:0:
256,192,266469,1,0,0:0:0:0:
36,192,266469,1,0,0:0:0:0:
182,192,266560,1,0,0:0:0:0:
402,192,266560,1,0,0:0:0:0:
109,192,266650,1,0,0:0:0:0:
329,192,266650,1,0,0:0:0:0:
36,192,266741,1,0,0:0:0:0:
256,192,266741,1,0,0:0:0:0:
475,192,266741,1,0,0:0:0:0:
182,192,266832,1,0,0:0:0:0:
475,192,266923,1,0,0:0:0:0:
36,192,266923,1,0,0:0:0:0:
329,192,266923,1,0,0:0:0:0:
256,192,266923,1,0,0:0:0:0:
36,192,267014,1,0,0:0:0:0:
402,192,267105,1,0,0:0:0:0:
475,192,267105,1,0,0:0:0:0:
182,192,267105,1,0,0:0:0:0:
329,192,267196,1,0,0:0:0:0:
36,192,267287,1,0,0:0:0:0:
256,192,267287,1,0,0:0:0:0:
182,192,267287,1,0,0:0:0:0:
109,192,267287,1,0,0:0:0:0:
256,192,267378,1,0,0:0:0:0:
475,192,267469,1,0,0:0:0:0:
109,192,267469,1,0,0:0:0:0:
329,192,267469,1,0,0:0:0:0:
182,192,267560,1,0,0:0:0:0:
402,192,267650,1,0,0:0:0:0:
475,192,267650,1,0,0:0:0:0:
36,192,267650,1,0,0:0:0:0:
256,192,267650,1,0,0:0:0:0:
402,192,267741,1,0,0:0:0:0:
109,192,267832,1,0,0:0:0:0:
475,192,267832,1,0,0:0:0:0:
329,192,267832,1,0,0:0:0:0:
256,192,267923,1,0,0:0:0:0:
109,192,268014,1,0,0:0:0:0:
36,192,268014,1,0,0:0:0:0:
402,192,268014,1,0,0:0:0:0:
182,192,268014,1,0,0:0:0:0:
36,192,268105,1,0,0:0:0:0:
182,192,268196,1,0,0:0:0:0:
329,192,268196,1,0,0:0:0:0:
475,192,268196,1,0,0:0:0:0:
109,192,268287,1,0,0:0:0:0:
36,192,268378,128,0,268923:0:0:0:0:
475,192,268378,1,0,0:0:0:0:
402,192,268378,1,0,0:0:0:0:
256,192,268378,1,0,0:0:0:0:
109,192,268469,128,0,268832:0:0:0:0:
329,192,268469,1,0,0:0:0:0:
402,192,268560,128,0,268741:0:0:0:0:
256,192,268650,1,0,0:0:0:0:
182,192,268741,1,0,0:0:0:0:
475,192,268741,1,0,0:0:0:0:
329,192,268741,128,0,268923:0:0:0:0:
256,192,268832,128,0,269014:0:0:0:0:
402,192,268923,1,0,0:0:0:0:
182,192,268923,128,0,269105:0:0:0:0:
109,192,269014,1,0,0:0:0:0:
36,192,269105,1,0,0:0:0:0:
329,192,269105,1,0,0:0:0:0:
475,192,269105,1,0,0:0:0:0:
256,192,269166,1,0,0:0:0:0:
329,192,269226,1,0,0:0:0:0:
402,192,269287,1,0,0:0:0:0:
109,192,269287,1,0,0:0:0:0:
182,192,269378,1,0,0:0:0:0:
402,192,269378,1,0,0:0:0:0:
256,192,269469,1,0,0:0:0:0:
36,192,269469,1,0,0:0:0:0:
329,192,269469,1,0,0:0:0:0:
182,192,269514,1,0,0:0:0:0:
109,192,269560,1,0,0:0:0:0:
182,192,269650,1,0,0:0:0:0:
329,192,269650,128,0,269832:0:0:0:0:
402,192,269741,128,0,269923:0:0:0:0:
475,192,269832,128,0,270105:0:0:0:0:
36,192,269832,1,0,0:0:0:0:
256,192,269832,1,0,0:0:0:0:
109,192,269832,1,0,0:0:0:0:
402,192,270014,128,0,270378:0:0:0:0:
182,192,270014,1,0,0:0:0:0:
256,192,270014,1,0,0:0:0:0:
109,192,270105,1,0,0:0:0:0:
182,192,270196,1,0,0:0:0:0:
475,192,270196,1,0,0:0:0:0:
36,192,270196,1,0,0:0:0:0:
256,192,270287,128,0,270438:0:0:0:0:
329,192,270378,128,0,270499:0:0:0:0:
182,192,270438,128,0,270560:0:0:0:0:
109,192,270499,128,0,270741:0:0:0:0:
256,192,270560,1,0,0:0:0:0:
475,192,270560,1,0,0:0:0:0:
402,192,270560,1,0,0:0:0:0:
36,192,270650,1,0,0:0:0:0:
182,192,270650,128,0,270832:0:0:0:0:
256,192,270741,128,0,271044:0:0:0:0:
475,192,270741,1,0,0:0:0:0:
329,192,270741,1,0,0:0:0:0:
475,192,270923,1,0,0:0:0:0:
329,192,270923,128,0,271105:0:0:0:0:
36,192,270923,1,0,0:0:0:0:
109,192,270923,1,0,0:0:0:0:
256,192,271105,128,0,271226:0:0:0:0:
182,192,271105,1,0,0:0:0:0:
329,192,271166,128,0,271287:0:0:0:0:
402,192,271226,128,0,271347:0:0:0:0:
475,192,271287,128,0,271832:0:0:0:0:
256,192,271287,1,0,0:0:0:0:
36,192,271287,1,0,0:0:0:0:
182,192,271287,1,0,0:0:0:0:
329,192,271378,128,0,271741:0:0:0:0:
109,192,271378,1,0,0:0:0:0:
256,192,271469,128,0,271650:0:0:0:0:
109,192,271560,1,0,0:0:0:0:
402,192,271650,1,0,0:0:0:0:
182,192,271650,128,0,271832:0:0:0:0:
36,192,271650,1,0,0:0:0:0:
256,192,271741,128,0,271923:0:0:0:0:
329,192,271832,128,0,272014:0:0:0:0:
109,192,271832,1,0,0:0:0:0:
402,192,271923,1,0,0:0:0:0:
182,192,272014,1,0,0:0:0:0:
36,192,272014,1,0,0:0:0:0:
475,192,272014,1,0,0:0:0:0:
256,192,272075,1,0,0:0:0:0:
182,192,272135,1,0,0:0:0:0:
109,192,272196,1,0,0:0:0:0:
402,192,272196,1,0,0:0:0:0:
109,192,272287,1,0,0:0:0:0:
329,192,272287,1,0,0:0:0:0:
182,192,272378,1,0,0:0:0:0:
256,192,272378,1,0,0:0:0:0:
475,192,272378,1,0,0:0:0:0:
329,192,272423,1,0,0:0:0:0:
402,192,272469,1,0,0:0:0:0:
256,192,272560,1,0,0:0:0:0:
109,192,272560,1,0,0:0:0:0:
402,192,272650,1,0,0:0:0:0:
182,192,272696,128,0,272787:0:0:0:0:
329,192,272741,128,0,273014:0:0:0:0:
36,192,272741,1,0,0:0:0:0:
475,192,272741,128,0,272832:0:0:0:0:
475,192,272923,128,0,273287:0:0:0:0:
109,192,272923,1,0,0:0:0:0:
182,192,273014,1,0,0:0:0:0:
402,192,273105,128,0,273347:0:0:0:0:
256,192,273105,1,0,0:0:0:0:
36,192,273105,1,0,0:0:0:0:
329,192,273287,128,0,273408:0:0:0:0:
109,192,273287,1,0,0:0:0:0:
256,192,273347,128,0,273469:0:0:0:0:
36,192,273378,1,0,0:0:0:0:
182,192,273408,128,0,273650:0:0:0:0:
329,192,273469,1,0,0:0:0:0:
475,192,273469,1,0,0:0:0:0:
256,192,273560,128,0,273741:0:0:0:0:
109,192,273560,1,0,0:0:0:0:
329,192,273650,128,0,273953:0:0:0:0:
402,192,273650,1,0,0:0:0:0:
475,192,273650,1,0,0:0:0:0:
36,192,273832,1,0,0:0:0:0:
182,192,273832,1,0,0:0:0:0:
256,192,273832,128,0,274014:0:0:0:0:
109,192,273832,1,0,0:0:0:0:
329,192,274014,128,0,274135:0:0:0:0:
402,192,274014,1,0,0:0:0:0:
256,192,274075,128,0,274196:0:0:0:0:
182,192,274135,128,0,274256:0:0:0:0:
36,192,274196,128,0,274741:0:0:0:0:
329,192,274196,1,0,0:0:0:0:
475,192,274196,1,0,0:0:0:0:
256,192,274287,128,0,274650:0:0:0:0:
109,192,274287,1,0,0:0:0:0:
329,192,274378,128,0,274560:0:0:0:0:
109,192,274469,1,0,0:0:0:0:
402,192,274560,128,0,274741:0:0:0:0:
182,192,274560,1,0,0:0:0:0:
475,192,274560,1,0,0:0:0:0:
329,192,274650,128,0,274832:0:0:0:0:
256,192,274741,128,0,274923:0:0:0:0:
109,192,274741,1,0,0:0:0:0:
402,192,274832,1,0,0:0:0:0:
36,192,274832,1,0,0:0:0:0:
182,192,274923,1,0,0:0:0:0:
329,192,274923,1,0,0:0:0:0:
475,192,274923,1,0,0:0:0:0:
109,192,274984,1,0,0:0:0:0:
182,192,275044,1,0,0:0:0:0:
402,192,275105,1,0,0:0:0:0:
256,192,275105,1,0,0:0:0:0:
109,192,275196,1,0,0:0:0:0:
402,192,275196,1,0,0:0:0:0:
36,192,275287,1,0,0:0:0:0:
256,192,275287,1,0,0:0:0:0:
329,192,275287,1,0,0:0:0:0:
182,192,275332,1,0,0:0:0:0:
109,192,275378,1,0,0:0:0:0:
182,192,275469,1,0,0:0:0:0:
329,192,275469,1,0,0:0:0:0:
402,192,275560,1,0,0:0:0:0:
36,192,275650,1,0,0:0:0:0:
256,192,275650,128,0,276287:0:0:0:0:
475,192,275650,1,0,0:0:0:0:
329,192,275650,1,0,0:0:0:0:
109,192,275650,1,0,0:0:0:0:
182,192,275832,1,0,0:0:0:0:
402,192,275832,1,0,0:0:0:0:
109,192,275832,1,0,0:0:0:0:
36,192,275923,1,0,0:0:0:0:
109,192,276014,1,0,0:0:0:0:
475,192,276014,1,0,0:0:0:0:
329,192,276014,128,0,276196:0:0:0:0:
402,192,276105,1,0,0:0:0:0:
475,192,276196,1,0,0:0:0:0:
182,192,276196,128,0,276378:0:0:0:0:
329,192,276287,1,0,0:0:0:0:
109,192,276287,128,0,276469:0:0:0:0:
256,192,276378,1,0,0:0:0:0:
36,192,276378,128,0,276741:0:0:0:0:
475,192,276378,1,0,0:0:0:0:
329,192,276469,1,0,0:0:0:0:
402,192,276560,1,0,0:0:0:0:
256,192,276560,1,0,0:0:0:0:
109,192,276560,1,0,0:0:0:0:
182,192,276650,1,0,0:0:0:0:
329,192,276741,1,0,0:0:0:0:
256,192,276741,1,0,0:0:0:0:
475,192,276741,1,0,0:0:0:0:
402,192,276741,1,0,0:0:0:0:
256,192,276923,1,0,0:0:0:0:
109,192,276923,1,0,0:0:0:0:
402,192,276923,1,0,0:0:0:0:
109,192,277014,1,0,0:0:0:0:
36,192,277105,1,0,0:0:0:0:
256,192,277105,1,0,0:0:0:0:
475,192,277105,128,0,277650:0:0:0:0:
329,192,277105,1,0,0:0:0:0:
182,192,277196,1,0,0:0:0:0:
256,192,277287,1,0,0:0:0:0:
36,192,277287,1,0,0:0:0:0:
329,192,277378,1,0,0:0:0:0:
256,192,277469,1,0,0:0:0:0:
402,192,277469,1,0,0:0:0:0:
109,192,277469,1,0,0:0:0:0:
36,192,277529,1,0,0:0:0:0:
182,192,277590,1,0,0:0:0:0:
109,192,277650,1,0,0:0:0:0:
402,192,277650,1,0,0:0:0:0:
182,192,277741,128,0,277923:0:0:0:0:
475,192,277741,1,0,0:0:0:0:
329,192,277832,1,0,0:0:0:0:
256,192,277832,128,0,278014:0:0:0:0:
475,192,277893,1,0,0:0:0:0:
109,192,277923,1,0,0:0:0:0:
402,192,277953,1,0,0:0:0:0:
36,192,278014,1,0,0:0:0:0:
329,192,278014,128,0,278196:0:0:0:0:
36,192,278105,1,0,0:0:0:0:
109,192,278196,128,0,278560:0:0:0:0:
182,192,278196,1,0,0:0:0:0:
475,192,278196,1,0,0:0:0:0:
256,192,278241,1,0,0:0:0:0:
329,192,278287,1,0,0:0:0:0:
475,192,278378,1,0,0:0:0:0:
402,192,278378,1,0,0:0:0:0:
329,192,278469,1,0,0:0:0:0:
402,192,278560,1,0,0:0:0:0:
36,192,278560,1,0,0:0:0:0:
182,192,278560,128,0,278741:0:0:0:0:
256,192,278650,128,0,279105:0:0:0:0:
329,192,278741,1,0,0:0:0:0:
475,192,278741,1,0,0:0:0:0:
182,192,278832,1,0,0:0:0:0:
109,192,278923,1,0,0:0:0:0:
36,192,278923,1,0,0:0:0:0:
402,192,278923,1,0,0:0:0:0:
475,192,279014,1,0,0:0:0:0:
182,192,279105,1,0,0:0:0:0:
329,192,279105,1,0,0:0:0:0:
402,192,279166,1,0,0:0:0:0:
109,192,279166,1,0,0:0:0:0:
256,192,279226,1,0,0:0:0:0:
329,192,279287,1,0,0:0:0:0:
475,192,279287,1,0,0:0:0:0:
36,192,279287,128,0,279408:0:0:0:0:
182,192,279347,128,0,279469:0:0:0:0:
256,192,279408,128,0,279529:0:0:0:0:
329,192,279469,128,0,279590:0:0:0:0:
475,192,279469,1,0,0:0:0:0:
36,192,279469,1,0,0:0:0:0:
109,192,279529,1,0,0:0:0:0:
182,192,279590,1,0,0:0:0:0:
402,192,279650,1,0,0:0:0:0:
256,192,279650,128,0,279772:0:0:0:0:
475,192,279711,1,0,0:0:0:0:
109,192,279741,128,0,279893:0:0:0:0:
329,192,279772,1,0,0:0:0:0:
182,192,279832,128,0,279953:0:0:0:0:
402,192,279832,1,0,0:0:0:0:
256,192,279893,128,0,280014:0:0:0:0:
36,192,279923,1,0,0:0:0:0:
329,192,279953,128,0,280075:0:0:0:0:
109,192,280014,1,0,0:0:0:0:
402,192,280014,128,0,280135:0:0:0:0:
475,192,280014,128,0,281105:0:0:0:0:
256,192,280075,1,0,0:0:0:0:
182,192,280135,1,0,0:0:0:0:
109,192,280196,1,0,0:0:0:0:
256,192,280287,1,0,0:0:0:0:
109,192,280378,1,0,0:0:0:0:
329,192,280378,1,0,0:0:0:0:
402,192,280469,1,0,0:0:0:0:
256,192,280560,1,0,0:0:0:0:
402,192,280650,1,0,0:0:0:0:
36,192,280741,1,0,0:0:0:0:
329,192,280741,1,0,0:0:0:0:
256,192,280832,1,0,0:0:0:0:
109,192,280923,1,0,0:0:0:0:
182,192,281014,1,0,0:0:0:0:
256,192,281105,1,0,0:0:0:0:
329,192,281105,1,0,0:0:0:0:
109,192,281105,1,0,0:0:0:0:
36,192,281196,1,0,0:0:0:0:
329,192,281287,1,0,0:0:0:0:
109,192,281287,1,0,0:0:0:0:
256,192,281378,1,0,0:0:0:0:
329,192,281423,1,0,0:0:0:0:
475,192,281469,1,0,0:0:0:0:
402,192,281469,1,0,0:0:0:0:
182,192,281469,1,0,0:0:0:0:
36,192,281469,1,0,0:0:0:0:
402,192,281650,1,0,0:0:0:0:
256,192,281832,1,0,0:0:0:0:
109,192,281832,1,0,0:0:0:0:
475,192,281832,1,0,0:0:0:0:
109,192,282014,1,0,0:0:0:0:
329,192,282014,1,0,0:0:0:0:
182,192,282105,1,0,0:0:0:0:
109,192,282196,1,0,0:0:0:0:
402,192,282196,1,0,0:0:0:0:
256,192,282287,1,0,0:0:0:0:
109,192,282378,1,0,0:0:0:0:
256,192,282423,1,0,0:0:0:0:
182,192,282560,1,0,0:0:0:0:
329,192,282560,1,0,0:0:0:0:
36,192,282560,1,0,0:0:0:0:
402,192,282560,1,0,0:0:0:0:
109,192,282832,1,0,0:0:0:0:
36,192,282923,1,0,0:0:0:0:
256,192,282923,1,0,0:0:0:0:
402,192,282923,1,0,0:0:0:0:
182,192,283014,1,0,0:0:0:0:
36,192,283105,1,0,0:0:0:0:
182,192,283196,1,0,0:0:0:0:
109,192,283287,1,0,0:0:0:0:
329,192,283287,1,0,0:0:0:0:
256,192,283378,1,0,0:0:0:0:
182,192,283469,1,0,0:0:0:0:
256,192,283560,1,0,0:0:0:0:
182,192,283650,1,0,0:0:0:0:
402,192,283650,1,0,0:0:0:0:
329,192,283741,1,0,0:0:0:0:
182,192,283832,1,0,0:0:0:0:
329,192,283923,1,0,0:0:0:0:
256,192,284014,1,0,0:0:0:0:
182,192,284014,1,0,0:0:0:0:
109,192,284105,1,0,0:0:0:0:
36,192,284196,1,0,0:0:0:0:
109,192,284287,1,0,0:0:0:0:
182,192,284332,1,0,0:0:0:0:
256,192,284378,1,0,0:0:0:0:
36,192,284378,1,0,0:0:0:0:
402,192,284378,1,0,0:0:0:0:
182,192,284469,1,0,0:0:0:0:
109,192,284696,1,0,0:0:0:0:
182,192,284741,1,0,0:0:0:0:
402,192,284741,1,0,0:0:0:0:
256,192,284741,1,0,0:0:0:0:
109,192,284832,1,0,0:0:0:0:
182,192,284923,1,0,0:0:0:0:
256,192,285014,1,0,0:0:0:0:
329,192,285105,1,0,0:0:0:0:
475,192,285105,1,0,0:0:0:0:
36,192,285105,1,0,0:0:0:0:
256,192,285196,1,0,0:0:0:0:
329,192,285287,1,0,0:0:0:0:
475,192,285287,1,0,0:0:0:0:
182,192,285378,1,0,0:0:0:0:
256,192,285469,1,0,0:0:0:0:
402,192,285469,1,0,0:0:0:0:
109,192,285469,1,0,0:0:0:0:
109,192,285741,1,0,0:0:0:0:
182,192,285832,1,0,0:0:0:0:
256,192,285832,1,0,0:0:0:0:
475,192,285832,1,0,0:0:0:0:
329,192,285923,1,0,0:0:0:0:
182,192,286014,1,0,0:0:0:0:
329,192,286105,1,0,0:0:0:0:
402,192,286196,1,0,0:0:0:0:
256,192,286196,1,0,0:0:0:0:
475,192,286287,1,0,0:0:0:0:
329,192,286378,1,0,0:0:0:0:
475,192,286469,1,0,0:0:0:0:
402,192,286560,1,0,0:0:0:0:
329,192,286650,1,0,0:0:0:0:
402,192,286741,1,0,0:0:0:0:
329,192,286832,1,0,0:0:0:0:
109,192,286923,1,0,0:0:0:0:
256,192,286923,1,0,0:0:0:0:
36,192,287014,1,0,0:0:0:0:
182,192,287105,1,0,0:0:0:0:
329,192,287105,1,0,0:0:0:0:
36,192,287196,1,0,0:0:0:0:
109,192,287287,1,0,0:0:0:0:
256,192,287287,1,0,0:0:0:0:
182,192,287287,1,0,0:0:0:0:
402,192,287287,1,0,0:0:0:0:
329,192,287650,1,0,0:0:0:0:
475,192,287650,1,0,0:0:0:0:
182,192,287650,1,0,0:0:0:0:
182,192,287832,1,0,0:0:0:0:
256,192,288014,1,0,0:0:0:0:
109,192,288014,1,0,0:0:0:0:
402,192,288014,1,0,0:0:0:0:
329,192,288196,1,0,0:0:0:0:
109,192,288196,1,0,0:0:0:0:
182,192,288332,1,0,0:0:0:0:
256,192,288378,1,0,0:0:0:0:
329,192,288423,1,0,0:0:0:0:
256,192,288514,1,0,0:0:0:0:
329,192,288560,1,0,0:0:0:0:
256,192,288650,1,0,0:0:0:0:
402,192,288741,1,0,0:0:0:0:
182,192,288741,1,0,0:0:0:0:
36,192,288741,1,0,0:0:0:0:
475,192,288832,1,0,0:0:0:0:
402,192,288923,1,0,0:0:0:0:
182,192,289014,1,0,0:0:0:0:
256,192,289105,1,0,0:0:0:0:
329,192,289105,1,0,0:0:0:0:
109,192,289196,1,0,0:0:0:0:
329,192,289287,1,0,0:0:0:0:
109,192,289378,1,0,0:0:0:0:
36,192,289469,1,0,0:0:0:0:
182,192,289469,1,0,0:0:0:0:
256,192,289560,1,0,0:0:0:0:
182,192,289650,1,0,0:0:0:0:
256,192,289741,1,0,0:0:0:0:
329,192,289832,1,0,0:0:0:0:
109,192,289832,1,0,0:0:0:0:
36,192,289923,1,0,0:0:0:0:
182,192,290014,1,0,0:0:0:0:
36,192,290105,1,0,0:0:0:0:
475,192,290196,1,0,0:0:0:0:
256,192,290196,1,0,0:0:0:0:
329,192,290196,1,0,0:0:0:0:
109,192,290196,1,0,0:0:0:0:
329,192,290514,1,0,0:0:0:0:
475,192,290560,1,0,0:0:0:0:
109,192,290560,1,0,0:0:0:0:
329,192,290650,1,0,0:0:0:0:
475,192,290741,1,0,0:0:0:0:
109,192,290741,1,0,0:0:0:0:
329,192,290787,1,0,0:0:0:0:
256,192,290832,1,0,0:0:0:0:
182,192,290923,1,0,0:0:0:0:
36,192,290923,1,0,0:0:0:0:
36,192,291105,1,0,0:0:0:0:
109,192,291105,1,0,0:0:0:0:
256,192,291105,1,0,0:0:0:0:
36,192,291287,1,0,0:0:0:0:
329,192,291287,1,0,0:0:0:0:
109,192,291287,1,0,0:0:0:0:
256,192,291287,1,0,0:0:0:0:
402,192,291605,1,0,0:0:0:0:
329,192,291650,1,0,0:0:0:0:
109,192,291650,1,0,0:0:0:0:
256,192,291696,1,0,0:0:0:0:
182,192,291741,1,0,0:0:0:0:
402,192,291832,1,0,0:0:0:0:
182,192,291923,1,0,0:0:0:0:
109,192,291969,1,0,0:0:0:0:
475,192,292014,1,0,0:0:0:0:
329,192,292014,1,0,0:0:0:0:
256,192,292060,1,0,0:0:0:0:
182,192,292105,1,0,0:0:0:0:
36,192,292196,1,0,0:0:0:0:
256,192,292287,1,0,0:0:0:0:
402,192,292378,1,0,0:0:0:0:
475,192,292438,1,0,0:0:0:0:
182,192,292469,1,0,0:0:0:0:
329,192,292499,1,0,0:0:0:0:
256,192,292560,1,0,0:0:0:0:
109,192,292560,1,0,0:0:0:0:
109,192,292650,1,0,0:0:0:0:
182,192,292741,1,0,0:0:0:0:
402,192,292741,1,0,0:0:0:0:
256,192,292787,1,0,0:0:0:0:
36,192,292832,1,0,0:0:0:0:
109,192,292923,1,0,0:0:0:0:
256,192,292923,1,0,0:0:0:0:
329,192,293014,1,0,0:0:0:0:
36,192,293105,1,0,0:0:0:0:
402,192,293105,1,0,0:0:0:0:
182,192,293105,1,0,0:0:0:0:
256,192,293105,1,0,0:0:0:0:
182,192,293469,1,0,0:0:0:0:
329,192,293469,1,0,0:0:0:0:
256,192,293469,1,0,0:0:0:0:
109,192,293650,1,0,0:0:0:0:
256,192,293832,1,0,0:0:0:0:
36,192,293832,1,0,0:0:0:0:
109,192,293832,1,0,0:0:0:0:
182,192,294105,1,0,0:0:0:0:
256,192,294196,1,0,0:0:0:0:
109,192,294241,1,0,0:0:0:0:
256,192,294332,1,0,0:0:0:0:
109,192,294378,1,0,0:0:0:0:
256,192,294469,1,0,0:0:0:0:
329,192,294560,1,0,0:0:0:0:
36,192,294560,1,0,0:0:0:0:
402,192,294605,1,0,0:0:0:0:
475,192,294650,1,0,0:0:0:0:
329,192,294741,1,0,0:0:0:0:
182,192,294832,1,0,0:0:0:0:
256,192,294878,1,0,0:0:0:0:
109,192,294923,1,0,0:0:0:0:
36,192,294969,1,0,0:0:0:0:
329,192,295014,1,0,0:0:0:0:
182,192,295105,1,0,0:0:0:0:
329,192,295196,1,0,0:0:0:0:
402,192,295287,1,0,0:0:0:0:
256,192,295287,1,0,0:0:0:0:
475,192,295378,1,0,0:0:0:0:
329,192,295469,1,0,0:0:0:0:
256,192,295560,1,0,0:0:0:0:
329,192,295650,1,0,0:0:0:0:
402,192,295741,1,0,0:0:0:0:
256,192,295832,1,0,0:0:0:0:
182,192,295923,1,0,0:0:0:0:
256,192,296014,1,0,0:0:0:0:
402,192,296014,1,0,0:0:0:0:
475,192,296014,1,0,0:0:0:0:
329,192,296332,1,0,0:0:0:0:
475,192,296378,1,0,0:0:0:0:
182,192,296378,1,0,0:0:0:0:
329,192,296469,1,0,0:0:0:0:
475,192,296560,1,0,0:0:0:0:
182,192,296560,1,0,0:0:0:0:
329,192,296605,1,0,0:0:0:0:
109,192,296741,1,0,0:0:0:0:
256,192,296741,1,0,0:0:0:0:
109,192,296923,1,0,0:0:0:0:
329,192,296923,1,0,0:0:0:0:
36,192,297105,1,0,0:0:0:0:
109,192,297105,1,0,0:0:0:0:
256,192,297105,1,0,0:0:0:0:
256,192,297423,1,0,0:0:0:0:
329,192,297469,1,0,0:0:0:0:
36,192,297469,1,0,0:0:0:0:
402,192,297514,1,0,0:0:0:0:
182,192,297560,1,0,0:0:0:0:
329,192,297650,1,0,0:0:0:0:
182,192,297741,1,0,0:0:0:0:
109,192,297787,1,0,0:0:0:0:
36,192,297832,1,0,0:0:0:0:
402,192,297832,1,0,0:0:0:0:
329,192,297878,1,0,0:0:0:0:
256,192,297923,1,0,0:0:0:0:
182,192,298014,1,0,0:0:0:0:
329,192,298105,1,0,0:0:0:0:
109,192,298196,1,0,0:0:0:0:
475,192,298196,1,0,0:0:0:0:
256,192,298256,1,0,0:0:0:0:
109,192,298317,1,0,0:0:0:0:
182,192,298378,1,0,0:0:0:0:
329,192,298378,1,0,0:0:0:0:
329,192,298469,1,0,0:0:0:0:
36,192,298469,1,0,0:0:0:0:
256,192,298560,1,0,0:0:0:0:
402,192,298560,1,0,0:0:0:0:
182,192,298605,1,0,0:0:0:0:
109,192,298650,1,0,0:0:0:0:
256,192,298741,1,0,0:0:0:0:
109,192,298832,1,0,0:0:0:0:
182,192,298923,1,0,0:0:0:0:
329,192,298923,1,0,0:0:0:0:
475,192,298923,1,0,0:0:0:0:
475,192,299287,1,0,0:0:0:0:
256,192,299287,1,0,0:0:0:0:
402,192,299287,1,0,0:0:0:0:
329,192,299650,1,0,0:0:0:0:
475,192,299650,1,0,0:0:0:0:
402,192,299650,1,0,0:0:0:0:
256,192,300014,1,0,0:0:0:0:
402,192,300060,1,0,0:0:0:0:
256,192,300150,1,0,0:0:0:0:
402,192,300196,1,0,0:0:0:0:
256,192,300287,1,0,0:0:0:0:
36,192,300332,1,0,0:0:0:0:
109,192,300378,1,0,0:0:0:0:
329,192,300378,1,0,0:0:0:0:
182,192,300423,1,0,0:0:0:0:
402,192,300469,1,0,0:0:0:0:
256,192,300560,1,0,0:0:0:0:
402,192,300650,1,0,0:0:0:0:
109,192,300696,1,0,0:0:0:0:
182,192,300741,1,0,0:0:0:0:
475,192,300741,1,0,0:0:0:0:
256,192,300787,1,0,0:0:0:0:
36,192,300832,1,0,0:0:0:0:
182,192,300923,1,0,0:0:0:0:
109,192,301014,1,0,0:0:0:0:
256,192,301060,1,0,0:0:0:0:
329,192,301105,1,0,0:0:0:0:
402,192,301150,1,0,0:0:0:0:
182,192,301196,1,0,0:0:0:0:
402,192,301287,1,0,0:0:0:0:
329,192,301378,1,0,0:0:0:0:
256,192,301423,1,0,0:0:0:0:
182,192,301469,1,0,0:0:0:0:
109,192,301514,1,0,0:0:0:0:
402,192,301560,1,0,0:0:0:0:
182,192,301650,1,0,0:0:0:0:
256,192,301741,1,0,0:0:0:0:
36,192,301832,1,0,0:0:0:0:
329,192,301832,1,0,0:0:0:0:
475,192,301878,1,0,0:0:0:0:
402,192,301923,1,0,0:0:0:0:
256,192,301969,1,0,0:0:0:0:
182,192,302014,1,0,0:0:0:0:
402,192,302060,1,0,0:0:0:0:
329,192,302105,1,0,0:0:0:0:
109,192,302196,1,0,0:0:0:0:
256,192,302196,1,0,0:0:0:0:
36,192,302241,1,0,0:0:0:0:
182,192,302287,1,0,0:0:0:0:
256,192,302332,1,0,0:0:0:0:
329,192,302378,1,0,0:0:0:0:
109,192,302423,1,0,0:0:0:0:
182,192,302469,1,0,0:0:0:0:
329,192,302560,1,0,0:0:0:0:
475,192,302605,1,0,0:0:0:0:
256,192,302650,1,0,0:0:0:0:
182,192,302696,1,0,0:0:0:0:
329,192,302741,1,0,0:0:0:0:
402,192,302787,1,0,0:0:0:0:
109,192,302832,1,0,0:0:0:0:
256,192,302878,1,0,0:0:0:0:
36,192,302923,1,0,0:0:0:0:
329,192,302923,1,0,0:0:0:0:
402,192,302969,1,0,0:0:0:0:
182,192,303014,1,0,0:0:0:0:
402,192,303105,1,0,0:0:0:0:
182,192,303196,1,0,0:0:0:0:
