osu file format v14

[General]
AudioFilename: sonng.mp3
AudioLeadIn: 1489
PreviewTime: 44777
Countdown: 0
SampleSet: Soft
StackLeniency: 0.3
Mode: 0
LetterboxInBreaks: 1
WidescreenStoryboard: 1

[Editor]
Bookmarks: 151444,204777
DistanceSpacing: 0.5
BeatDivisor: 4
GridSize: 32
TimelineZoom: 2.5

[Metadata]
Title:boku-boku
TitleUnicode:boku-boku.β
Artist:AVTechNO!xTreow
ArtistUnicode:AVTechNO!xTreow
Creator:[-obee58-]
Version:stream-of-consciousness
Source:
Tags:Hatsune Miku Kagamine Rin Len Crystalloid Vocaloid Electrocutica ISHIDAMITSUNARI
BeatmapID:1764740
BeatmapSetID:843487

[Difficulty]
HPDrainRate:4
CircleSize:3.7
OverallDifficulty:8.3
ApproachRate:9.5
SliderMultiplier:2.2
SliderTickRate:4

[Events]
//Background and Video events
0,0,"bg.jpg",0,0
//Break Periods
2,6893,39594
2,57310,66509
2,119725,124250
2,130309,154750
2,156975,158917
2,178475,182917
2,199558,202917
//Storyboard Layer 0 (Background)
//Storyboard Layer 1 (Fail)
//Storyboard Layer 2 (Pass)
//Storyboard Layer 3 (Foreground)
//Storyboard Sound Samples

[TimingPoints]
111,333.333333333333,4,2,2,70,1,0
111,-172.413793103448,4,2,2,70,0,0
2444,-86.2068965517241,4,2,1,20,0,0
2569,-172.413793103448,4,2,2,70,0,0
3777,-86.2068965517241,4,2,1,60,0,0
3902,-172.413793103448,4,2,2,70,0,0
4444,-86.2068965517241,4,2,2,70,0,0
5444,-86.2068965517241,4,2,2,70,0,0
44110,-86.2068965517241,4,2,1,5,0,0
44777,-86.2068965517241,4,2,1,80,0,0
53360,-86.2068965517241,4,2,1,100,0,0
54027,-86.2068965517241,4,2,1,80,0,0
56610,-86.2068965517241,4,1,0,40,0,0
57110,333.333333333333,4,1,0,40,1,0
57110,-86.2068965517241,4,1,0,40,0,0
66277,-86.2068965517241,4,2,1,80,0,0
67776,-172.413793103448,4,2,1,80,0,0
86360,-344.827586206897,4,2,1,70,0,0
86610,-344.827586206897,4,1,1,70,0,0
86944,-344.827586206897,4,2,1,70,0,0
87277,-344.827586206897,4,1,1,70,0,0
87694,-344.827586206897,4,2,1,70,0,0
87944,-344.827586206897,4,2,1,50,0,0
88277,-344.827586206897,4,2,1,70,0,0
88860,-666.666666666667,4,1,1,70,0,0
89027,-666.666666666667,4,2,1,70,0,0
91444,-1000,4,2,1,100,0,0
92776,333.333333333333,4,1,2,70,1,1
92776,-86.2068965517241,4,1,2,70,0,1
92942,-86.2068965517241,4,1,2,70,0,0
98026,-86.2068965517241,4,1,1,75,0,0
98109,-86.2068965517241,4,1,1,75,0,1
103402,-86.2068965517241,4,1,2,70,0,0
103442,-86.2068965517241,4,1,2,70,0,1
103609,-86.2068965517241,4,1,2,70,0,0
108775,-86.2068965517241,4,1,1,75,0,1
114069,-86.2068965517241,4,1,2,70,0,0
114109,-86.2068965517241,4,1,2,70,0,1
114275,-86.2068965517241,4,1,2,70,0,0
119402,-86.2068965517241,4,1,1,75,0,1
124775,-172.413793103448,4,1,2,60,0,0
124860,-172.413793103448,4,2,1,60,0,0
129402,-86.2068965517241,4,1,1,60,0,0
129777,-43.1034482758621,4,2,1,80,0,1
129860,-43.1034482758621,4,2,1,80,0,1
130027,-43.1034482758621,4,1,1,80,0,0
130109,-86.2068965517241,4,1,1,80,0,1
135359,-86.2068965517241,4,1,2,80,0,0
135442,-86.2068965517241,4,1,2,80,0,1
135525,-86.2068965517241,4,1,2,80,0,0
140109,-86.2068965517241,4,1,2,80,0,0
140735,-86.2068965517241,4,1,1,80,0,1
146069,-86.2068965517241,4,1,2,80,0,1
151402,-86.2068965517241,4,1,1,80,0,1
156609,-43.1034482758621,4,1,1,60,0,1
156777,-172.413793103448,4,1,2,80,0,0
161277,-86.2068965517241,4,2,2,80,0,0
162109,-43.1034482758621,4,2,1,80,0,1
167442,-86.2068965517241,4,2,2,80,0,0
171860,-86.2068965517241,4,1,2,80,0,0
172775,-43.1034482758621,4,2,1,80,0,1
178109,-86.2068965517241,4,2,2,80,0,0
182694,-86.2068965517241,4,2,2,90,0,0
183444,-43.1034482758621,4,2,1,80,0,1
188444,-43.1034482758621,4,2,1,80,0,1
188775,-86.2068965517241,4,2,2,80,0,0
193360,-86.2068965517241,4,1,2,70,0,0
193860,-86.2068965517241,4,2,2,80,0,0
194109,-43.1034482758621,4,2,1,80,0,1
199444,-86.2068965517241,4,2,2,80,0,0
203442,-43.1034482758621,4,2,2,80,0,0
203942,-42.9184549356223,4,2,2,80,0,0

[Colours]
Combo1 : 244,77,160
Combo2 : 179,255,207
Combo3 : 134,248,255
Combo4 : 190,200,212

[HitObjects]
384,320,111,6,0,L|320:320,1,63.8000019470215,0|0,0:2|0:2,0:2:0:0:
256,320,360,1,0,0:2:0:0:
224,320,444,1,0,0:2:0:0:
256,224,694,1,0,0:2:0:0:
224,224,777,2,0,L|192:224,1,31.9000009735108,0|0,0:2|0:2,0:2:0:0:
96,224,944,2,0,L|160:224,1,63.8000019470215,0|0,0:2|0:2,0:2:0:0:
256,128,1277,5,0,0:2:0:0:
256,224,1444,2,0,L|256:256,1,31.9000009735108,0|0,0:2|0:2,0:2:0:0:
256,352,1611,2,0,L|256:288,1,63.8000019470215,0|0,0:2|0:2,0:2:0:0:
256,128,1944,5,0,0:2:0:0:
192,224,2110,2,0,L|160:224,1,31.9000009735108,0|0,0:2|0:2,0:2:0:0:
384,224,2277,2,0,L|384:256,1,31.9000009735108,0|0,0:2|0:2,0:2:0:0:
320,352,2444,6,0,L|448:352,1,127.600003894043,0|0,0:2|0:2,0:2:0:0:
256,256,2777,6,0,L|320:256,1,63.8000019470215,0|0,0:2|0:2,0:2:0:0:
384,256,3027,1,0,0:2:0:0:
416,256,3110,1,0,0:2:0:0:
256,256,3277,6,0,L|288:256,1,31.9000009735108,0|0,0:2|0:2,0:2:0:0:
416,256,3444,1,0,0:2:0:0:
320,160,3610,2,0,L|288:160,1,31.9000009735108,0|0,0:2|0:2,0:2:0:0:
192,64,3777,6,0,L|192:192,1,127.600003894043,0|0,0:2|0:2,0:2:0:0:
64,288,4110,6,0,L|96:288,1,31.9000009735108,0|0,0:2|0:2,0:2:0:0:
256,352,4277,2,0,L|256:320,1,31.9000009735108,0|0,0:2|0:2,0:2:0:0:
192,191,4444,2,0,L|192:255,1,63.8000019470215,0|0,0:2|0:2,0:2:0:0:
288,128,4610,2,0,L|288:192,1,63.8000019470215,0|0,0:2|0:2,0:2:0:0:
352,288,4777,6,0,L|480:288,1,127.600003894043,0|0,0:2|0:2,0:2:0:0:
480,160,5110,6,0,L|448:160,1,31.9000009735108,0|0,0:2|0:2,0:2:0:0:
480,128,5194,2,0,L|448:128,1,31.9000009735108,0|0,0:2|0:2,0:2:0:0:
480,96,5277,2,0,L|448:96,1,31.9000009735108,0|0,0:2|0:2,0:2:0:0:
480,64,5361,2,0,L|448:64,1,31.9000009735108,0|0,0:2|0:2,0:2:0:0:
480,32,5444,6,0,L|352:32,1,127.600003894043,0|0,0:2|0:2,0:2:0:0:
288,32,5694,1,0,0:2:0:0:
256,32,5777,1,0,0:2:0:0:
96,160,5944,2,0,L|96:96,1,63.8000019470215,0|0,0:2|0:2,0:2:0:0:
192,96,6110,2,0,L|192:160,1,63.8000019470215,0|0,0:2|0:2,0:2:0:0:
192,256,6277,2,0,L|320:256,1,127.600003894043,0|0,0:2|0:2,0:2:0:0:
320,96,6610,2,0,L|384:96,1,63.8000019470215,0|0,0:2|0:2,0:2:0:0:
256,192,40194,12,0,44444,0:2:0:0:
384,32,44777,5,0,0:2:0:0:
384,32,44860,1,0,0:2:0:0:
320,32,44944,1,0,0:2:0:0:
320,32,45027,1,0,0:2:0:0:
256,32,45110,1,0,0:2:0:0:
192,32,45194,1,0,0:2:0:0:
192,96,45277,1,0,0:2:0:0:
256,96,45360,1,0,0:2:0:0:
256,160,45444,5,0,0:2:0:0:
96,160,45610,2,0,L|96:224,1,63.8000019470215,0|0,0:2|0:2,0:2:0:0:
96,320,45777,2,0,L|224:320,1,127.600003894043,0|0,0:2|0:2,0:2:0:0:
416,320,46110,1,0,0:2:0:0:
320,192,46277,2,0,L|320:320,1,127.600003894043,0|0,0:2|0:2,0:2:0:0:
480,192,46610,2,0,L|416:192,1,63.8000019470215,0|0,0:2|0:2,0:2:0:0:
320,192,46777,5,0,0:2:0:0:
320,64,46944,1,0,0:2:0:0:
160,64,47110,2,0,L|160:128,1,63.8000019470215,0|0,0:2|0:2,0:2:0:0:
96,224,47277,2,0,L|224:224,1,127.600003894043,0|0,0:2|0:2,0:2:0:0:
384,288,47610,1,0,0:2:0:0:
384,128,47777,1,0,0:2:0:0:
384,288,47944,2,0,L|384:224,1,63.8000019470215,0|0,0:2|0:2,0:2:0:0:
384,128,48110,5,0,0:2:0:0:
256,128,48277,2,0,L|192:128,1,63.8000019470215,0|0,0:2|0:2,0:2:0:0:
96,64,48444,2,0,L|96:192,1,127.600003894043,0|0,0:2|0:2,0:2:0:0:
256,192,48777,1,0,0:2:0:0:
256,64,48944,2,0,L|320:64,1,63.8000019470215,0|0,0:2|0:2,0:2:0:0:
416,64,49110,1,0,0:2:0:0:
416,192,49277,2,0,L|416:256,1,63.8000019470215,0|0,0:2|0:2,0:2:0:0:
416,352,49444,5,0,0:2:0:0:
256,352,49610,2,0,L|192:352,1,63.8000019470215,0|0,0:2|0:2,0:2:0:0:
96,352,49777,2,0,L|96:224,1,127.600003894043,0|0,0:2|0:2,0:2:0:0:
96,64,50110,5,0,0:2:0:0:
256,64,50277,2,0,L|256:128,1,63.8000019470215,0|0,0:2|0:2,0:2:0:0:
256,224,50444,1,0,0:2:0:0:
96,224,50610,2,0,L|96:160,1,63.8000019470215,0|0,0:2|0:2,0:2:0:0:
96,64,50777,5,0,0:2:0:0:
256,64,50944,2,0,L|320:64,1,63.8000019470215,0|0,0:2|0:2,0:2:0:0:
416,160,51110,2,0,L|416:32,1,127.600003894043,0|0,0:2|0:2,0:2:0:0:
512,160,51444,1,0,0:2:0:0:
320,160,51610,2,0,L|320:288,1,127.600003894043,0|0,0:2|0:2,0:2:0:0:
224,160,51944,2,0,L|160:160,1,63.8000019470215,0|0,0:2|0:2,0:2:0:0:
64,160,52110,5,0,0:2:0:0:
64,320,52277,1,0,0:2:0:0:
224,320,52444,2,0,L|224:256,1,63.8000019470215,0|0,0:2|0:2,0:2:0:0:
224,160,52610,1,0,0:2:0:0:
416,160,52777,1,0,0:2:0:0:
320,320,52944,2,0,L|320:192,1,127.600003894043,0|0,0:2|0:2,0:2:0:0:
320,32,53277,2,0,L|256:32,1,63.8000019470215,0|0,0:2|0:2,0:2:0:0:
128,32,53444,5,0,0:2:0:0:
128,160,53610,1,0,0:2:0:0:
288,160,53777,2,0,L|224:160,1,63.8000019470215,0|0,0:2|0:2,0:2:0:0:
128,256,53944,2,0,L|192:256,1,63.8000019470215,0|0,0:2|0:2,0:2:0:0:
288,256,54110,2,0,L|288:320,1,63.8000019470215,0|0,0:2|0:2,0:2:0:0:
384,320,54277,2,0,L|384:256,1,63.8000019470215,0|0,0:2|0:2,0:2:0:0:
480,192,54444,2,0,L|480:256,1,63.8000019470215,0|0,0:2|0:2,0:2:0:0:
384,160,54610,2,0,L|384:96,1,63.8000019470215,0|0,0:2|0:2,0:2:0:0:
288,96,54777,6,0,L|224:96,1,63.8000019470215,0|0,0:2|0:2,0:2:0:0:
128,96,54944,2,0,L|128:32,1,63.8000019470215,0|0,0:2|0:2,0:2:0:0:
32,32,55110,2,0,L|32:96,1,63.8000019470215,0|0,0:2|0:2,0:2:0:0:
32,192,55277,2,0,L|96:192,1,63.8000019470215,0|0,0:2|0:2,0:2:0:0:
192,256,55444,6,0,B|192:128,1,127.600003894043,0|0,0:2|0:2,0:2:0:0:
320,128,55694,2,0,B|320:256,1,127.600003894043,0|0,0:2|0:2,0:2:0:0:
256,320,55944,2,0,L|256:384,1,63.8000019470215,0|0,0:2|0:2,0:2:0:0:
256,320,56777,6,0,B|224:288|224:288|256:256|256:256|256:128|256:128,1,191.400005841065,0|0,0:2|0:2,0:2:0:0:
256,64,57110,5,0,0:2:0:0:
288,320,67109,5,0,0:2:0:0:
288,288,67193,1,0,0:2:0:0:
288,256,67276,1,0,0:2:0:0:
288,224,67359,1,0,0:2:0:0:
224,192,67443,5,0,0:2:0:0:
224,224,67526,1,0,0:2:0:0:
224,256,67609,1,0,0:2:0:0:
224,288,67693,1,0,0:2:0:0:
224,320,67776,6,0,L|192:320,1,31.9000009735108,0|0,0:2|0:2,0:2:0:0:
64,320,67943,5,0,0:2:0:0:
64,64,68109,1,0,0:2:0:0:
352,64,68276,1,0,0:2:0:0:
352,256,68443,1,0,0:2:0:0:
160,256,68609,1,0,0:2:0:0:
160,32,68776,1,0,0:2:0:0:
416,32,68943,1,0,0:2:0:0:
416,288,69109,5,0,0:2:0:0:
416,96,69276,1,0,0:2:0:0:
224,96,69443,1,0,0:2:0:0:
224,320,69609,1,0,0:2:0:0:
480,320,69776,5,0,0:2:0:0:
160,320,70026,5,0,0:2:0:0:
160,32,70276,5,0,0:2:0:0:
288,32,70443,6,0,L|320:32,1,31.9000009735108,0|0,0:2|0:2,0:2:0:0:
448,32,70609,5,0,0:2:0:0:
448,256,70776,1,0,0:2:0:0:
224,256,70943,1,0,0:2:0:0:
224,64,71109,1,0,0:2:0:0:
32,64,71276,1,0,0:2:0:0:
32,256,71443,1,0,0:2:0:0:
224,256,71609,1,0,0:2:0:0:
224,32,71776,5,0,0:2:0:0:
32,32,71943,1,0,0:2:0:0:
32,320,72109,1,0,0:2:0:0:
320,320,72276,1,0,0:2:0:0:
320,32,72443,5,0,0:2:0:0:
320,320,72693,5,0,0:2:0:0:
32,320,72943,5,0,0:2:0:0:
32,192,73109,6,0,L|32:160,1,31.9000009735108,0|0,0:2|0:2,0:2:0:0:
32,0,73276,1,0,0:2:0:0:
256,0,73443,1,0,0:2:0:0:
256,224,73609,1,0,0:2:0:0:
96,224,73776,1,0,0:2:0:0:
96,64,73943,1,0,0:2:0:0:
320,64,74109,1,0,0:2:0:0:
320,288,74276,1,0,0:2:0:0:
96,288,74443,5,0,0:2:0:0:
96,32,74609,1,0,0:2:0:0:
256,32,74776,1,0,0:2:0:0:
256,288,74943,1,0,0:2:0:0:
480,288,75109,5,0,0:2:0:0:
256,288,75359,5,0,0:2:0:0:
256,32,75609,5,0,0:2:0:0:
128,32,75776,6,0,L|128:64,1,31.9000009735108,0|0,0:2|0:2,0:2:0:0:
128,192,75943,5,0,0:2:0:0:
128,384,76109,1,0,0:2:0:0:
320,384,76276,1,0,0:2:0:0:
320,192,76443,1,0,0:2:0:0:
192,192,76609,1,0,0:2:0:0:
192,320,76776,1,0,0:2:0:0:
320,320,76943,1,0,0:2:0:0:
320,192,77109,5,0,0:2:0:0:
448,192,77276,1,0,0:2:0:0:
448,32,77443,1,0,0:2:0:0:
256,32,77609,1,0,0:2:0:0:
256,320,77776,5,0,0:2:0:0:
256,32,78026,5,0,0:2:0:0:
512,32,78276,5,0,0:2:0:0:
384,32,78443,6,0,L|352:32,1,31.9000009735108,0|0,0:2|0:2,0:2:0:0:
224,32,78609,1,0,0:2:0:0:
224,256,78776,1,0,0:2:0:0:
448,256,78943,1,0,0:2:0:0:
448,64,79109,1,0,0:2:0:0:
256,64,79276,1,0,0:2:0:0:
256,64,79443,1,0,0:2:0:0:
256,288,79609,5,0,0:2:0:0:
256,288,79776,1,0,0:2:0:0:
448,288,79943,1,0,0:2:0:0:
448,96,80109,1,0,0:2:0:0:
256,96,80276,1,0,0:2:0:0:
256,352,80443,5,0,0:2:0:0:
64,352,80609,1,0,0:2:0:0:
64,192,80776,1,0,0:2:0:0:
256,192,80943,1,0,0:2:0:0:
256,320,81109,6,0,L|288:320,1,31.9000009735108,0|0,0:2|0:2,0:2:0:0:
416,320,81276,1,0,0:2:0:0:
416,96,81443,1,0,0:2:0:0:
224,96,81609,1,0,0:2:0:0:
224,288,81776,1,0,0:2:0:0:
448,288,81943,1,0,0:2:0:0:
448,288,82109,1,0,0:2:0:0:
448,64,82276,5,0,0:2:0:0:
448,64,82443,1,0,0:2:0:0:
256,64,82609,1,0,0:2:0:0:
256,288,82776,1,0,0:2:0:0:
64,288,82943,1,0,0:2:0:0:
256,288,83109,5,0,0:2:0:0:
256,32,83359,5,0,0:2:0:0:
512,32,83609,5,0,0:2:0:0:
512,160,83776,6,0,L|512:192,1,31.9000009735108,0|0,0:2|0:2,0:2:0:0:
512,320,83943,1,0,0:2:0:0:
288,320,84109,1,0,0:2:0:0:
288,128,84276,1,0,0:2:0:0:
480,128,84443,1,0,0:2:0:0:
480,352,84609,1,0,0:2:0:0:
480,352,84776,1,0,0:2:0:0:
224,352,84943,5,0,0:2:0:0:
224,352,85109,1,0,0:2:0:0:
224,128,85276,1,0,0:2:0:0:
32,128,85443,1,0,0:2:0:0:
32,320,85609,1,0,0:2:0:0:
256,320,85776,5,0,0:2:0:0:
0,320,86026,5,0,0:2:0:0:
0,64,86276,5,0,0:2:0:0:
128,64,86443,6,0,L|160:64,1,31.9000009735108,0|0,0:2|0:2,0:2:0:0:
256,64,86776,1,0,0:2:0:0:
256,64,86943,1,0,0:2:0:0:
256,160,87109,1,0,0:2:0:0:
256,160,87276,1,0,0:2:0:0:
352,160,87443,1,0,0:2:0:0:
352,160,87610,1,0,0:2:0:0:
352,256,87776,1,0,0:2:0:0:
352,256,87943,1,0,0:2:0:0:
256,256,88109,1,0,0:2:0:0:
256,256,88276,1,0,0:2:0:0:
256,352,88443,5,0,0:2:0:0:
352,352,88693,5,0,0:2:0:0:
448,352,88943,6,0,B|480:256|480:256|448:128,1,230.99999295044,0|0,0:2|0:2,0:2:0:0:
352,192,91443,6,0,B|336:239|336:239|352:302,1,115.49999647522,0|0,0:2|0:2,0:2:0:0:
416,352,92777,6,0,L|288:352,1,127.600003894043,0|0,0:2|0:2,0:2:0:0:
192,288,93027,1,0,0:2:0:0:
128,288,93110,2,0,L|128:352,1,63.8000019470215,0|0,0:2|0:2,0:2:0:0:
288,256,93277,2,0,L|288:192,1,63.8000019470215,0|0,0:2|0:2,0:2:0:0:
128,96,93444,2,0,L|192:96,1,63.8000019470215,0|0,0:2|0:2,0:2:0:0:
320,32,93610,2,0,L|320:96,1,63.8000019470215,0|0,0:2|0:2,0:2:0:0:
160,192,93777,2,0,L|96:192,1,63.8000019470215,0|0,0:2|0:2,0:2:0:0:
32,352,93944,1,0,0:2:0:0:
96,352,94027,1,0,0:2:0:0:
160,352,94110,6,0,L|160:288,1,63.8000019470215,0|0,0:2|0:2,0:2:0:0:
0,160,94277,2,0,L|0:224,1,63.8000019470215,0|0,0:2|0:2,0:2:0:0:
160,192,94444,1,0,0:2:0:0:
160,128,94527,1,0,0:2:0:0:
160,64,94610,2,0,L|224:64,1,63.8000019470215,0|0,0:2|0:2,0:2:0:0:
384,32,94777,2,0,L|384:96,1,63.8000019470215,0|0,0:2|0:2,0:2:0:0:
256,224,94944,2,0,L|256:160,1,63.8000019470215,0|0,0:2|0:2,0:2:0:0:
480,192,95110,1,0,0:2:0:0:
416,192,95194,1,0,0:2:0:0:
352,192,95277,5,0,0:2:0:0:
320,256,95360,1,0,0:2:0:0:
288,320,95444,6,0,L|224:320,1,63.8000019470215,0|0,0:2|0:2,0:2:0:0:
64,352,95610,2,0,L|64:288,1,63.8000019470215,0|0,0:2|0:2,0:2:0:0:
160,192,95777,2,0,L|224:192,1,63.8000019470215,0|0,0:2|0:2,0:2:0:0:
352,96,95944,1,0,0:2:0:0:
352,160,96027,1,0,0:2:0:0:
352,224,96111,2,0,L|352:288,1,63.8000019470215,0|0,0:2|0:2,0:2:0:0:
192,352,96277,2,0,L|192:288,1,63.8000019470215,0|0,0:2|0:2,0:2:0:0:
64,96,96444,5,0,0:2:0:0:
64,192,96527,2,0,L|64:320,1,127.600003894043,0|0,0:2|0:2,0:2:0:0:
160,352,96777,5,0,0:2:0:0:
224,352,96860,1,0,0:2:0:0:
288,352,96944,2,0,L|288:288,1,63.8000019470215,0|0,0:2|0:2,0:2:0:0:
416,192,97110,1,0,0:2:0:0:
352,192,97194,1,0,0:2:0:0:
288,192,97277,2,0,L|224:192,1,63.8000019470215,0|0,0:2|0:2,0:2:0:0:
320,32,97444,1,0,0:2:0:0:
384,32,97527,1,0,0:2:0:0:
384,96,97610,2,0,L|384:160,1,63.8000019470215,0|0,0:2|0:2,0:2:0:0:
256,320,97777,5,0,0:2:0:0:
320,320,97860,1,0,0:2:0:0:
384,320,97944,1,0,0:2:0:0:
448,320,98027,1,0,0:2:0:0:
512,320,98111,6,0,L|512:256,1,63.8000019470215,0|0,0:2|0:2,0:2:0:0:
416,160,98277,2,0,L|352:160,1,63.8000019470215,0|0,0:2|0:2,0:2:0:0:
256,288,98444,1,0,0:2:0:0:
192,288,98527,1,0,0:2:0:0:
128,288,98610,2,0,L|128:224,1,63.8000019470215,0|0,0:2|0:2,0:2:0:0:
256,128,98777,2,0,L|256:192,1,63.8000019470215,0|0,0:2|0:2,0:2:0:0:
96,320,98944,1,0,0:2:0:0:
96,256,99027,1,0,0:2:0:0:
96,192,99110,2,0,L|96:128,1,63.8000019470215,0|0,0:2|0:2,0:2:0:0:
256,64,99277,2,0,L|256:128,1,63.8000019470215,0|0,0:2|0:2,0:2:0:0:
224,288,99444,6,0,L|160:288,1,63.8000019470215,0|0,0:2|0:2,0:2:0:0:
96,128,99610,2,0,L|160:128,1,63.8000019470215,0|0,0:2|0:2,0:2:0:0:
352,192,99777,1,0,0:2:0:0:
352,256,99860,1,0,0:2:0:0:
352,320,99944,2,0,L|288:320,1,63.8000019470215,0|0,0:2|0:2,0:2:0:0:
128,320,100110,5,0,0:2:0:0:
128,224,100194,2,0,L|128:96,1,127.600003894043,0|0,0:2|0:2,0:2:0:0:
288,32,100444,2,0,L|288:160,1,127.600003894043,0|0,0:2|0:2,0:2:0:0:
352,288,100694,1,0,0:2:0:0:
288,288,100777,6,0,L|224:288,1,63.8000019470215,0|0,0:2|0:2,0:2:0:0:
64,192,100944,1,0,0:2:0:0:
64,128,101027,1,0,0:2:0:0:
128,128,101110,2,0,L|256:128,1,127.600003894043,0|0,0:2|0:2,0:2:0:0:
384,64,101360,1,0,0:2:0:0:
384,128,101444,2,0,L|384:192,1,63.8000019470215,0|0,0:2|0:2,0:2:0:0:
192,288,101610,2,0,L|192:224,1,63.8000019470215,0|0,0:2|0:2,0:2:0:0:
288,64,101777,2,0,L|288:128,1,63.8000019470215,0|0,0:2|0:2,0:2:0:0:
192,288,101944,1,0,0:2:0:0:
128,288,102027,1,0,0:2:0:0:
64,288,102110,6,0,L|64:224,1,63.8000019470215,0|0,0:2|0:2,0:2:0:0:
160,96,102277,2,0,L|224:96,1,63.8000019470215,0|0,0:2|0:2,0:2:0:0:
352,64,102444,5,0,0:2:0:0:
416,96,102527,1,0,0:2:0:0:
480,128,102610,5,0,0:2:0:0:
480,192,102694,1,0,0:2:0:0:
480,256,102777,2,0,L|416:256,1,63.8000019470215,0|0,0:2|0:2,0:2:0:0:
288,320,102944,1,0,0:2:0:0:
160,320,103027,6,0,L|288:320,1,127.600003894043,0|0,0:2|0:2,0:2:0:0:
320,160,103277,2,0,L|320:224,1,63.8000019470215,0|0,0:2|0:2,0:2:0:0:
160,320,103444,5,0,0:2:0:0:
128,320,103527,1,0,0:2:0:0:
96,320,103610,2,0,L|96:256,1,63.8000019470215,0|0,0:2|0:2,0:2:0:0:
160,128,103777,1,0,0:2:0:0:
192,128,103860,1,0,0:2:0:0:
224,128,103944,1,0,0:2:0:0:
256,128,104027,1,0,0:2:0:0:
288,128,104110,2,0,L|352:128,1,63.8000019470215,0|0,0:2|0:2,0:2:0:0:
480,224,104277,1,0,0:2:0:0:
448,224,104360,1,0,0:2:0:0:
416,224,104444,2,0,L|352:224,1,63.8000019470215,0|0,0:2|0:2,0:2:0:0:
288,320,104610,2,0,L|224:320,1,63.8000019470215,0|0,0:2|0:2,0:2:0:0:
128,192,104777,5,0,0:2:0:0:
128,160,104860,1,0,0:2:0:0:
128,128,104944,1,0,0:2:0:0:
128,96,105027,2,0,L|192:96,1,63.8000019470215,0|0,0:2|0:2,0:2:0:0:
320,64,105194,1,0,0:2:0:0:
320,96,105277,6,0,L|320:160,1,63.8000019470215,0|0,0:2|0:2,0:2:0:0:
416,224,105444,2,0,L|416:288,1,63.8000019470215,0|0,0:2|0:2,0:2:0:0:
256,352,105610,1,0,0:2:0:0:
224,352,105694,1,0,0:2:0:0:
192,352,105777,1,0,0:2:0:0:
192,320,105860,1,0,0:2:0:0:
192,288,105944,1,0,0:2:0:0:
192,256,106027,1,0,0:2:0:0:
192,224,106110,5,0,0:2:0:0:
192,192,106194,2,0,L|256:192,1,63.8000019470215,0|0,0:2|0:2,0:2:0:0:
384,160,106360,1,0,0:2:0:0:
384,128,106444,1,0,0:2:0:0:
384,96,106527,1,0,0:2:0:0:
384,64,106610,1,0,0:2:0:0:
384,32,106694,2,0,L|320:32,1,63.8000019470215,0|0,0:2|0:2,0:2:0:0:
128,96,106860,5,0,0:2:0:0:
160,96,106944,1,0,0:2:0:0:
192,96,107027,1,0,0:2:0:0:
224,96,107110,2,0,L|224:160,1,63.8000019470215,0|0,0:2|0:2,0:2:0:0:
96,192,107277,2,0,L|96:256,1,63.8000019470215,0|0,0:2|0:2,0:2:0:0:
224,320,107444,1,0,0:2:0:0:
256,320,107527,1,0,0:2:0:0:
288,320,107610,2,0,L|352:320,1,63.8000019470215,0|0,0:2|0:2,0:2:0:0:
480,288,107777,1,0,0:2:0:0:
480,256,107860,1,0,0:2:0:0:
480,224,107944,1,0,0:2:0:0:
480,192,108027,1,0,0:2:0:0:
480,160,108110,5,0,0:2:0:0:
480,160,108194,1,0,0:2:0:0:
480,160,108277,2,0,L|480:96,1,63.8000019470215,0|0,0:2|0:2,0:2:0:0:
320,64,108444,2,0,L|320:0,1,63.8000019470215,0|0,0:2|0:2,0:2:0:0:
160,96,108610,1,0,0:2:0:0:
160,96,108694,1,0,0:2:0:0:
160,96,108777,6,0,L|160:160,1,63.8000019470215,0|0,0:2|0:2,0:2:0:0:
288,256,108942,1,0,0:0:0:0:
224,256,109025,1,0,0:0:0:0:
160,256,109108,2,0,L|96:256,1,63.8000019470215
160,384,109275,1,0,0:0:0:0:
224,384,109359,6,0,L|288:384,1,63.8000019470215
384,224,109525,1,0,0:0:0:0:
320,224,109609,2,0,L|256:224,1,63.8000019470215
160,96,109775,2,0,L|160:160,1,63.8000019470215
96,288,109942,2,0,L|160:288,1,63.8000019470215
320,352,110109,5,0,0:0:0:0:
384,352,110192,1,0,0:0:0:0:
384,288,110275,2,0,L|384:224,1,63.8000019470215
320,96,110442,2,0,L|256:96,1,63.8000019470215
160,160,110609,2,0,L|160:224,1,63.8000019470215
320,320,110775,1,0,0:0:0:0:
320,256,110859,1,0,0:0:0:0:
320,192,110942,2,0,L|256:192,1,63.8000019470215
96,288,111109,2,0,L|160:288,1,63.8000019470215
320,384,111275,2,0,L|320:320,1,63.8000019470215
448,192,111442,6,0,L|448:256,1,63.8000019470215
288,320,111609,1,0,0:0:0:0:
288,256,111692,1,0,0:0:0:0:
288,192,111776,2,0,L|288:128,1,63.8000019470215
448,32,111942,1,0,0:0:0:0:
448,96,112025,2,0,L|384:96,1,63.8000019470215
224,32,112192,1,0,0:0:0:0:
160,32,112275,2,0,L|160:96,1,63.8000019470215
128,288,112442,5,0,0:0:0:0:
192,288,112525,1,0,0:0:0:0:
256,288,112609,1,0,0:0:0:0:
320,288,112692,2,0,L|320:224,1,63.8000019470215
128,224,112859,2,0,L|128:288,1,63.8000019470215
224,160,113025,1,0,0:0:0:0:
224,160,113109,6,0,L|224:96,1,63.8000019470215
352,32,113275,1,0,0:0:0:0:
416,32,113359,2,0,L|416:96,1,63.8000019470215
320,224,113525,2,0,L|320:160,1,63.8000019470215
448,224,113692,1,0,0:0:0:0:
448,288,113775,1,0,0:0:0:0:
448,352,113859,1,0,0:0:0:0:
384,352,113942,2,0,L|320:352,1,63.8000019470215
160,352,114109,5,0,0:0:0:0:
256,352,114192,2,0,L|384:352,1,127.600003894043
448,224,114442,5,0,0:0:0:0:
448,192,114525,1,0,0:0:0:0:
448,160,114609,2,0,L|448:96,1,63.8000019470215
288,32,114775,1,0,0:0:0:0:
288,64,114858,1,0,0:0:0:0:
288,96,114942,2,0,L|288:160,1,63.8000019470215
224,288,115109,1,0,0:0:0:0:
192,288,115192,1,0,0:0:0:0:
160,288,115275,1,0,0:0:0:0:
128,288,115359,1,0,0:0:0:0:
96,288,115442,6,0,L|96:224,1,63.8000019470215
192,160,115609,2,0,L|192:96,1,63.8000019470215
288,32,115775,1,0,0:0:0:0:
320,32,115859,1,0,0:0:0:0:
352,32,115942,1,0,0:0:0:0:
384,32,116025,1,0,0:0:0:0:
416,32,116109,5,0,0:0:0:0:
416,64,116192,2,0,L|416:128,1,63.8000019470215
352,256,116359,1,0,0:0:0:0:
320,256,116442,1,0,0:0:0:0:
288,256,116525,1,0,0:0:0:0:
256,256,116609,1,0,0:0:0:0:
224,256,116692,1,0,0:0:0:0:
192,256,116775,6,0,L|192:192,1,63.8000019470215
128,64,116942,1,0,0:0:0:0:
96,64,117025,1,0,0:0:0:0:
64,64,117109,2,0,L|64:128,1,63.8000019470215
64,256,117275,2,0,L|128:256,1,63.8000019470215
256,192,117442,1,0,0:0:0:0:
256,160,117525,1,0,0:0:0:0:
256,128,117609,1,0,0:0:0:0:
256,96,117692,1,0,0:0:0:0:
256,64,117775,6,0,L|320:64,1,63.8000019470215
448,128,117942,2,0,L|384:128,1,63.8000019470215
256,192,118109,1,0,0:0:0:0:
256,224,118192,1,0,0:0:0:0:
256,256,118275,1,0,0:0:0:0:
256,288,118359,1,0,0:0:0:0:
256,320,118442,2,0,L|320:320,1,63.8000019470215
448,256,118609,1,0,0:0:0:0:
448,224,118692,1,0,0:0:0:0:
448,192,118775,5,0,0:0:0:0:
416,192,118859,2,0,L|352:192,1,63.8000019470215
160,96,119025,1,0,0:0:0:0:
160,128,119109,1,0,0:0:0:0:
160,160,119192,1,0,0:0:0:0:
160,192,119275,1,0,0:0:0:0:
160,224,119359,1,0,0:0:0:0:
160,256,119442,6,0,L|224:256,1,63.8000019470215
224,352,124775,6,0,L|224:288,1,63.8000019470215,0|0,0:2|0:2,0:2:0:0:
288,256,125025,1,0,0:2:0:0:
288,256,125109,2,0,L|320:256,1,31.9000009735108,0|0,0:2|0:2,0:2:0:0:
384,288,125275,2,0,L|416:288,1,31.9000009735108,0|0,0:2|0:2,0:2:0:0:
480,256,125442,2,0,L|480:288,2,31.9000009735108,0|0|0,0:2|0:2|0:2,0:2:0:0:
480,224,125692,1,0,0:2:0:0:
480,192,125775,1,0,0:2:0:0:
480,192,125859,1,0,0:2:0:0:
480,192,125942,2,0,L|448:192,1,31.9000009735108,0|0,0:2|0:2,0:2:0:0:
416,128,126109,6,0,L|384:128,1,31.9000009735108,0|0,0:2|0:2,0:2:0:0:
320,128,126276,2,0,L|320:160,1,31.9000009735108,0|0,0:2|0:2,0:2:0:0:
288,224,126442,1,0,0:2:0:0:
288,224,126525,2,0,L|256:224,1,31.9000009735108,0|0,0:2|0:2,0:2:0:0:
192,192,126692,2,0,L|192:160,1,31.9000009735108,0|0,0:2|0:2,0:2:0:0:
128,224,126859,2,0,L|128:256,1,31.9000009735108,0|0,0:2|0:2,0:2:0:0:
64,288,127025,1,0,0:2:0:0:
64,288,127109,2,0,L|64:320,1,31.9000009735108,0|0,0:2|0:2,0:2:0:0:
128,352,127275,2,0,L|160:352,1,31.9000009735108,0|0,0:2|0:2,0:2:0:0:
224,320,127442,6,0,L|224:288,2,31.9000009735108,0|0|0,0:2|0:2|0:2,0:2:0:0:
288,352,127692,1,0,0:2:0:0:
288,352,127775,2,0,L|320:352,1,31.9000009735108,0|0,0:2|0:2,0:2:0:0:
384,320,127942,2,0,L|384:288,2,31.9000009735108,0|0|0,0:2|0:2|0:2,0:2:0:0:
320,256,128192,2,0,L|320:224,1,31.9000009735108,0|0,0:2|0:2,0:2:0:0:
352,160,128359,1,0,0:2:0:0:
352,160,128442,2,0,L|352:128,1,31.9000009735108,0|0,0:2|0:2,0:2:0:0:
416,96,128609,2,0,L|416:64,1,31.9000009735108,0|0,0:2|0:2,0:2:0:0:
352,32,128775,6,0,L|320:32,1,31.9000009735108,0|0,0:2|0:2,0:2:0:0:
256,64,128942,2,0,L|256:96,1,31.9000009735108,0|0,0:2|0:2,0:2:0:0:
288,160,129109,2,0,L|320:160,1,31.9000009735108,0|0,0:2|0:2,0:2:0:0:
384,128,129276,2,0,L|384:96,1,31.9000009735108,0|0,0:2|0:2,0:2:0:0:
319,96,129442,5,0,0:2:0:0:
319,128,129525,1,0,0:2:0:0:
319,160,129609,1,0,0:2:0:0:
319,192,129692,1,0,0:2:0:0:
319,224,129775,5,0,0:2:0:0:
447,224,129859,1,0,0:2:0:0:
447,352,129942,2,0,L|319:352,1,127.600003894043,0|0,0:2|0:2,0:2:0:0:
319,224,130109,5,0,0:2:0:0:
224,192,155275,6,0,L|288:192,1,63.8000019470215,0|0,0:2|0:2,0:2:0:0:
416,128,155442,1,0,0:2:0:0:
416,192,155526,5,0,0:2:0:0:
448,256,155609,2,0,L|448:320,1,63.8000019470215,0|0,0:2|0:2,0:2:0:0:
256,320,155775,5,0,0:2:0:0:
224,256,155858,1,0,0:2:0:0:
192,192,155942,1,0,0:2:0:0:
160,128,156025,1,0,0:2:0:0:
128,64,156109,5,0,0:2:0:0:
96,128,156192,1,0,0:2:0:0:
64,192,156275,1,0,0:2:0:0:
32,256,156359,5,0,0:2:0:0:
128,256,156442,1,0,0:2:0:0:
224,256,156525,1,0,0:2:0:0:
320,256,156609,2,0,L|448:256,1,127.600003894043,0|0,0:2|0:2,0:2:0:0:
448,256,156775,5,0,0:2:0:0:
256,192,159442,12,0,161275,0:2:0:0:
128,352,161442,6,0,L|320:352,1,191.400005841065,0|0,0:2|0:2,0:2:0:0:
320,256,161775,6,0,L|128:256,1,191.400005841065,0|0,0:2|0:2,0:2:0:0:
128,128,162109,6,0,B|128:256|128:256|256:256,1,255.200007788086,4|0,0:2|0:2,0:2:0:0:
224,32,162442,2,0,L|224:160,1,127.600003894043,0|0,0:2|0:2,0:2:0:0:
352,256,162609,2,0,B|352:0,1,255.200007788086,0|0,0:2|0:2,0:2:0:0:
96,32,162942,2,0,B|224:32|224:32|224:160,1,255.200007788086,0|0,0:2|0:2,0:2:0:0:
0,288,163275,6,0,L|0:32,1,255.200007788086,0|0,0:2|0:2,0:2:0:0:
224,256,163609,2,0,B|96:256|96:256|96:128|96:128|352:128,1,510.400015576172,0|0,0:2|0:2,0:2:0:0:
352,352,164109,1,0,0:2:0:0:
160,352,164275,1,0,0:2:0:0:
160,128,164442,6,0,L|160:256,1,127.600003894043,0|0,0:2|0:2,0:2:0:0:
256,320,164609,2,0,L|256:192,1,127.600003894043,0|0,0:2|0:2,0:2:0:0:
256,32,164775,2,0,L|0:32,1,255.200007788086,0|0,0:2|0:2,0:2:0:0:
64,288,165109,2,0,L|64:160,1,127.600003894043,0|0,0:2|0:2,0:2:0:0:
288,128,165275,2,0,B|160:128|160:128|160:256,1,255.200007788086,0|0,0:2|0:2,0:2:0:0:
416,256,165609,6,0,B|416:128|416:128|288:128,1,255.200007788086,0|0,0:2|0:2,0:2:0:0:
160,352,165942,2,0,L|416:352,1,255.200007788086,0|0,0:2|0:2,0:2:0:0:
288,128,166275,2,0,L|288:256,1,127.600003894043,0|0,0:2|0:2,0:2:0:0:
416,256,166442,2,0,L|416:128,1,127.600003894043,0|0,0:2|0:2,0:2:0:0:
288,0,166609,2,0,B|160:0|160:0|160:128,1,255.200007788086,0|0,0:2|0:2,0:2:0:0:
256,288,166942,6,0,L|384:288,1,127.600003894043,0|0,0:2|0:2,0:2:0:0:
512,192,167109,2,0,L|384:192,1,127.600003894043,0|0,0:2|0:2,0:2:0:0:
256,96,167275,2,0,L|384:96,1,127.600003894043,0|0,0:2|0:2,0:2:0:0:
512,288,167442,6,0,L|384:288,1,127.600003894043,0|0,0:2|0:2,0:2:0:0:
224,288,167775,1,0,0:2:0:0:
512,288,167942,6,0,L|384:288,1,127.600003894043,0|0,0:2|0:2,0:2:0:0:
224,288,168275,1,0,0:2:0:0:
224,128,168442,1,0,0:2:0:0:
224,288,168609,1,0,0:2:0:0:
224,128,168775,6,0,L|96:128,1,127.600003894043,0|0,0:2|0:2,0:2:0:0:
96,288,169108,1,0,0:2:0:0:
224,128,169275,6,0,L|96:128,1,127.600003894043,0|0,0:2|0:2,0:2:0:0:
96,288,169608,1,0,0:2:0:0:
256,288,169775,1,0,0:2:0:0:
96,288,169942,1,0,0:2:0:0:
256,288,170109,6,0,L|256:160,1,127.600003894043,0|0,0:2|0:2,0:2:0:0:
416,288,170442,1,0,0:2:0:0:
256,288,170609,6,0,L|256:160,1,127.600003894043,0|0,0:2|0:2,0:2:0:0:
416,288,170942,1,0,0:2:0:0:
416,128,171109,1,0,0:2:0:0:
416,288,171275,1,0,0:2:0:0:
416,128,171442,6,0,L|416:0,1,127.600003894043,0|0,0:2|0:2,0:2:0:0:
256,0,171775,1,0,0:2:0:0:
416,0,171942,1,0,0:2:0:0:
416,192,172109,5,0,0:2:0:0:
352,192,172192,1,0,0:2:0:0:
288,192,172275,1,0,0:2:0:0:
128,192,172442,6,0,L|128:256,1,63.8000019470215,0|0,0:2|0:2,0:2:0:0:
192,64,172609,2,0,L|192:0,1,63.8000019470215,0|0,0:2|0:2,0:2:0:0:
320,128,172775,6,0,L|64:128,1,255.200007788086,0|0,0:2|0:2,0:2:0:0:
224,224,173109,2,0,L|352:224,1,127.600003894043,0|0,0:2|0:2,0:2:0:0:
416,0,173275,2,0,B|288:0|288:0|288:128,1,255.200007788086,0|0,0:2|0:2,0:2:0:0:
512,224,173609,2,0,B|512:96|512:96|384:96,1,255.200007788086,0|0,0:2|0:2,0:2:0:0:
256,320,173942,6,0,L|512:320,1,255.200007788086,0|0,0:2|0:2,0:2:0:0:
320,224,174275,2,0,B|192:224|192:224|192:96,1,255.200007788086,0|0,0:2|0:2,0:2:0:0:
416,32,174609,2,0,L|416:288,1,255.200007788086,0|0,0:2|0:2,0:2:0:0:
192,288,174942,1,0,0:2:0:0:
192,96,175109,6,0,L|320:96,1,127.600003894043,0|0,0:2|0:2,0:2:0:0:
448,192,175275,2,0,L|320:192,1,127.600003894043,0|0,0:2|0:2,0:2:0:0:
192,288,175442,2,0,B|320:288|320:288|448:288,1,255.200007788086,0|0,0:2|0:2,0:2:0:0:
384,32,175775,2,0,L|384:160,1,127.600003894043,0|0,0:2|0:2,0:2:0:0:
160,192,175942,2,0,B|160:64|160:64|288:64,1,255.200007788086,0|0,0:2|0:2,0:2:0:0:
384,288,176275,2,0,B|256:288|256:288|256:160,1,255.200007788086,0|0,0:2|0:2,0:2:0:0:
480,32,176609,6,0,L|480:288,1,255.200007788086,0|0,0:2|0:2,0:2:0:0:
256,288,176942,2,0,L|128:288,1,127.600003894043,0|0,0:2|0:2,0:2:0:0:
64,160,177109,2,0,L|192:160,1,127.600003894043,0|0,0:2|0:2,0:2:0:0:
320,32,177275,2,0,B|192:32|192:32|192:160,1,255.200007788086,0|0,0:2|0:2,0:2:0:0:
448,288,177609,6,0,L|320:288,1,127.600003894043,0|0,0:2|0:2,0:2:0:0:
192,384,177776,2,0,L|320:384,1,127.600003894043,0|0,0:2|0:2,0:2:0:0:
384,192,177942,2,0,L|256:192,1,127.600003894043,0|0,0:2|0:2,0:2:0:0:
96,288,178109,6,0,L|224:288,1,127.600003894043,0|0,0:2|0:2,0:2:0:0:
256,128,183442,5,0,0:2:0:0:
64,128,183609,1,0,0:2:0:0:
64,352,183775,6,0,B|448:352|448:352|448:224,1,510.400015576172,0|0,0:2|0:2,0:2:0:0:
224,128,184275,2,0,B|224:256|224:256|352:256,1,255.200007788086,0|0,0:2|0:2,0:2:0:0:
448,32,184609,2,0,B|320:32|320:32|192:32,1,255.200007788086,0|0,0:2|0:2,0:2:0:0:
96,160,184942,2,0,L|96:32,1,127.600003894043,0|0,0:2|0:2,0:2:0:0:
192,128,185109,2,0,L|192:256,1,127.600003894043,0|0,0:2|0:2,0:2:0:0:
160,352,185275,6,0,B|288:352|288:352|288:224|288:224|288:96|288:96|416:96,1,510.400015576172,0|0,0:2|0:2,0:2:0:0:
416,352,185775,1,0,0:2:0:0:
160,352,185942,1,0,0:2:0:0:
160,128,186109,1,0,0:2:0:0:
384,128,186275,1,0,0:2:0:0:
384,352,186442,6,0,B|256:352|128:352|128:352|128:96,1,510.400015576172,0|0,0:2|0:2,0:2:0:0:
352,256,186942,2,0,B|224:256|224:256|224:128,1,255.200007788086,0|0,0:2|0:2,0:2:0:0:
448,128,187275,2,0,L|448:384,1,255.200007788086,0|0,0:2|0:2,0:2:0:0:
128,352,187609,2,0,L|128:96,1,255.200007788086,0|0,0:2|0:2,0:2:0:0:
352,0,187942,2,0,B|352:128|352:128|224:128|224:128|224:256|224:256|352:256,1,510.400015576172,0|0,0:2|0:2,0:2:0:0:
480,128,188442,6,0,L|352:128,1,127.600003894043,0|0,0:2|0:2,0:2:0:0:
224,256,188609,2,0,L|352:256,1,127.600003894043,0|0,0:2|0:2,0:2:0:0:
480,32,188775,6,0,L|352:32,1,127.600003894043,0|0,0:2|0:2,0:2:0:0:
192,32,189109,1,0,0:2:0:0:
480,32,189275,6,0,L|352:32,1,127.600003894043,0|0,0:2|0:2,0:2:0:0:
352,192,189609,1,0,0:2:0:0:
192,192,189775,1,0,0:2:0:0:
352,192,189942,1,0,0:2:0:0:
192,192,190109,6,0,L|64:192,1,127.600003894043,0|0,0:2|0:2,0:2:0:0:
64,352,190442,1,0,0:2:0:0:
192,192,190609,6,0,L|64:192,1,127.600003894043,0|0,0:2|0:2,0:2:0:0:
64,352,190942,1,0,0:2:0:0:
224,352,191109,1,0,0:2:0:0:
64,352,191275,1,0,0:2:0:0:
224,352,191442,6,0,L|352:352,1,127.600003894043,0|0,0:2|0:2,0:2:0:0:
352,192,191775,1,0,0:2:0:0:
224,352,191942,6,0,L|352:352,1,127.600003894043,0|0,0:2|0:2,0:2:0:0:
352,192,192275,1,0,0:2:0:0:
192,192,192442,1,0,0:2:0:0:
352,192,192609,1,0,0:2:0:0:
192,192,192775,6,0,L|192:64,1,127.600003894043,0|0,0:2|0:2,0:2:0:0:
352,64,193109,1,0,0:2:0:0:
192,64,193275,1,0,0:2:0:0:
192,192,193442,6,0,L|192:224,2,31.9000009735108,0|0|0,0:2|0:2|0:2,0:2:0:0:
288,192,193609,2,0,L|288:160,2,31.9000009735108,0|0|0,0:2|0:2|0:2,0:2:0:0:
384,256,193775,6,0,L|384:192,1,63.8000019470215,0|0,0:2|0:2,0:2:0:0:
384,32,193942,2,0,L|384:96,1,63.8000019470215,0|0,0:2|0:2,0:2:0:0:
512,192,194109,6,0,B|384:192|384:192|384:320,1,255.200007788086,0|0,0:2|0:2,0:2:0:0:
512,96,194442,2,0,L|384:96,1,127.600003894043,0|0,0:2|0:2,0:2:0:0:
256,192,194609,2,0,L|512:192,1,255.200007788086,0|0,0:2|0:2,0:2:0:0:
256,320,194942,2,0,B|128:320|128:320|128:192,1,255.200007788086,0|0,0:2|0:2,0:2:0:0:
384,64,195275,6,0,B|384:192|384:192|256:192,1,255.200007788086,0|0,0:2|0:2,0:2:0:0:
32,96,195609,2,0,L|288:96,1,255.200007788086,0|0,0:2|0:2,0:2:0:0:
384,320,195942,2,0,L|128:320,1,255.200007788086,0|0,0:2|0:2,0:2:0:0:
128,128,196275,1,0,0:2:0:0:
384,128,196442,6,0,L|256:128,1,127.600003894043,0|0,0:2|0:2,0:2:0:0:
160,224,196609,2,0,L|288:224,1,127.600003894043,0|0,0:2|0:2,0:2:0:0:
480,160,196775,2,0,B|480:32|480:32|352:32,1,255.200007788086,0|0,0:2|0:2,0:2:0:0:
352,256,197109,2,0,L|352:128,1,127.600003894043,0|0,0:2|0:2,0:2:0:0:
256,32,197275,2,0,B|256:160|256:160|256:288,1,255.200007788086,0|0,0:2|0:2,0:2:0:0:
32,160,197609,2,0,B|32:32|32:32|160:32,1,255.200007788086,0|0,0:2|0:2,0:2:0:0:
256,256,197942,6,0,B|128:256|128:256|128:128,1,255.200007788086,0|0,0:2|0:2,0:2:0:0:
352,32,198275,2,0,B|352:160|352:160|224:160,1,255.200007788086,0|0,0:2|0:2,0:2:0:0:
448,32,198609,2,0,L|448:288,2,255.200007788086,0|4|0,0:2|0:2|0:2,0:2:0:0:
224,160,199109,6,0,L|352:160,1,127.600003894043,0|0,0:2|0:2,0:2:0:0:
352,288,199275,2,0,L|224:288,1,127.600003894043,0|0,0:2|0:2,0:2:0:0:
128,320,203442,5,0,0:0:0:0:
128,64,203609,1,0,0:0:0:0:
384,64,203775,5,0,0:0:0:0:
384,320,203942,1,0,0:0:0:0:
128,320,204109,6,0,B|128:64|128:64|384:64|384:64|384:320|384:320|256:320|256:320|256:160,1,1025.20004106369,0|0,0:2|0:2,0:2:0:0:
256,192,204859,12,0,210109,0:0:0:0:
