osu file format v14

[General]
AudioFilename: audio.mp3
AudioLeadIn: 0
PreviewTime: 210202
Countdown: 0
SampleSet: Soft
StackLeniency: 0.7
Mode: 3
LetterboxInBreaks: 0
SpecialStyle: 0
WidescreenStoryboard: 0

[Editor]
Bookmarks: 6566,31293,54566,66202,77838,89475,95293,101111,109838,114202,137475,160747,172384,184020,195656,201475,207293,210202,233475,268384,280020,291656,303287
DistanceSpacing: 2.2
BeatDivisor: 8
GridSize: 4
TimelineZoom: 5.299997

[Metadata]
Title:DYE/Re:flection+
TitleUnicode:DYE/Re:flection+
Artist:AVTechNO!xTreow
ArtistUnicode:AVTechNO!×Treow
Creator:Relae
Version:Colorful Decease
Source:
Tags:Intelligent Dance Music idm glitch breakcore drum and & bass electronic electrocutica vocaloid DYE SYNTHESIS -extended- ダイ・シンセシス エクステンデッド remix instrumental english Megurine Luka 巡音ルカ japanese dnb track 6 six 4K vocal synth mapping contest reflection
BeatmapID:4206374
BeatmapSetID:2019845

[Difficulty]
HPDrainRate:8.1
CircleSize:4
OverallDifficulty:7.9
ApproachRate:5
SliderMultiplier:1.4
SliderTickRate:1

[Events]
//Background and Video events
0,0,"bg.jpg",0,0
//Break Periods
//Storyboard Layer 0 (Background)
//Storyboard Layer 1 (Fail)
//Storyboard Layer 2 (Pass)
//Storyboard Layer 3 (Foreground)
//Storyboard Layer 4 (Overlay)
//Storyboard Sound Samples

[TimingPoints]
6566,363.636363636364,4,2,1,60,1,0
12384,-142.857142857143,4,2,1,60,0,0
12566,-125,4,2,1,60,0,0
12747,-111.111111111111,4,2,1,60,0,0
12929,-100,4,2,1,60,0,0
32566,-111.111111111111,4,2,1,60,0,0
32747,-125,4,2,1,60,0,0
32929,-142.857142857143,4,2,1,60,0,0
33111,-166.666666666667,4,2,1,60,0,0
33475,-142.857142857143,4,2,1,60,0,0
33656,-125,4,2,1,60,0,0
33838,-111.111111111111,4,2,1,60,0,0
34020,-100,4,2,1,60,0,0
35384,-142.857142857143,4,2,1,60,0,0
35838,-125,4,2,1,60,0,0
36020,-111.111111111111,4,2,1,60,0,0
36202,-100,4,2,1,60,0,0
50202,-142.857142857143,4,2,1,60,0,0
50566,-125,4,2,1,60,0,0
50747,-111.111111111111,4,2,1,60,0,0
50929,-100,4,2,1,60,0,0
54566,-133.333333333333,4,2,1,60,0,0
57293,-125,4,2,1,60,0,0
57475,-117.647058823529,4,2,1,60,0,0
60202,-111.111111111111,4,2,1,60,0,0
60384,-105.263157894737,4,2,1,60,0,0
63293,-100,4,2,1,60,0,0
101111,-100,4,2,1,60,0,1
102566,-100,4,2,1,60,0,0
104020,-100,4,2,1,60,0,1
105475,-100,4,2,1,60,0,0
106929,-100,4,2,1,60,0,1
108384,-100,4,2,1,60,0,0
114202,-111.111111111111,4,2,1,60,0,0
120020,-105.263157894737,4,2,1,60,0,0
125838,-111.111111111111,4,2,1,60,0,0
131656,-105.263157894737,4,2,1,60,0,0
136020,-100,4,2,1,60,0,0
137475,-100,4,2,1,60,0,1
160747,-100,4,2,1,60,0,0
172566,-111.111111111111,4,2,1,60,0,0
172656,-125,4,2,1,60,0,0
172747,-133.333333333333,4,2,1,60,0,0
173838,-125,4,2,1,60,0,0
175293,-117.647058823529,4,2,1,60,0,0
176747,-111.111111111111,4,2,1,60,0,0
178202,-105.263157894737,4,2,1,60,0,0
179656,-100,4,2,1,60,0,0
207293,-111.111111111111,4,2,1,60,0,0
207520,-125,4,2,1,60,0,0
207656,-142.857142857143,4,2,1,60,0,0
208747,-125,4,2,1,60,0,0
208929,-111.111111111111,4,2,1,60,0,0
210202,-100,4,2,1,60,0,0
233475,-100,4,2,1,60,0,1
256747,-100,4,2,1,60,0,0
281475,-104.166666666667,4,2,1,60,0,0
282929,-108.695652173913,4,2,1,60,0,0
284384,-113.636363636364,4,2,1,60,0,0
285838,-119.047619047619,4,2,1,60,0,0
287293,-125,4,2,1,60,0,0
291656,-119.047619047619,4,2,1,60,0,0
293111,-113.636363636364,4,2,1,60,0,0
294566,-108.695652173913,4,2,1,60,0,0
296020,-104.166666666667,4,2,1,60,0,0
297475,-100,4,2,1,60,0,0

[HitObjects]
192,192,6566,128,0,6656:0:0:0:0:
320,192,6656,128,0,6747:0:0:0:0:
448,192,6747,128,0,6838:0:0:0:0:
64,192,6838,128,0,6929:0:0:0:0:
192,192,6929,128,0,7020:0:0:0:0:
64,192,7020,128,0,7111:0:0:0:0:
448,192,7111,128,0,7202:0:0:0:0:
64,192,7202,128,0,7293:0:0:0:0:
448,192,7293,128,0,7384:0:0:0:0:
320,192,7384,128,0,7475:0:0:0:0:
448,192,7475,128,0,7566:0:0:0:0:
64,192,7566,128,0,7656:0:0:0:0:
192,192,7656,128,0,7747:0:0:0:0:
320,192,7747,128,0,7838:0:0:0:0:
448,192,7838,128,0,7929:0:0:0:0:
64,192,7929,128,0,8020:0:0:0:0:
320,192,8020,1,0,0:0:0:0:
448,192,8020,128,0,8202:0:0:0:0:
192,192,8202,1,0,0:0:0:0:
320,192,8293,1,0,0:0:0:0:
448,192,8293,128,0,8475:0:0:0:0:
64,192,8475,1,0,0:0:0:0:
320,192,8566,1,0,0:0:0:0:
448,192,8566,1,0,0:0:0:0:
192,192,8656,1,0,0:0:0:0:
64,192,8747,1,0,0:0:0:0:
448,192,8747,1,0,0:0:0:0:
320,192,8747,1,0,0:0:0:0:
320,192,8959,1,0,0:0:0:0:
64,192,9050,1,0,0:0:0:0:
448,192,9141,1,0,0:0:0:0:
320,192,9141,1,0,0:0:0:0:
64,192,9232,1,0,0:0:0:0:
192,192,9323,1,0,0:0:0:0:
320,192,9414,1,0,0:0:0:0:
192,192,9475,128,0,9566:0:0:0:0:
64,192,9566,128,0,9656:0:0:0:0:
320,192,9656,128,0,9747:0:0:0:0:
192,192,9747,128,0,9838:0:0:0:0:
448,192,9838,128,0,9929:0:0:0:0:
320,192,9929,128,0,10020:0:0:0:0:
64,192,10020,128,0,10111:0:0:0:0:
448,192,10111,128,0,10202:0:0:0:0:
320,192,10202,1,0,0:0:0:0:
192,192,10202,1,0,0:0:0:0:
64,192,10202,128,0,10475:0:0:0:0:
448,192,10293,128,0,10384:0:0:0:0:
192,192,10384,128,0,10475:0:0:0:0:
320,192,10475,1,0,0:0:0:0:
448,192,10535,128,0,10596:0:0:0:0:
192,192,10566,128,0,10626:0:0:0:0:
64,192,10596,128,0,10656:0:0:0:0:
320,192,10626,128,0,10747:0:0:0:0:
64,192,10747,1,0,0:0:0:0:
192,192,10747,1,0,0:0:0:0:
448,192,10838,128,0,10929:0:0:0:0:
320,192,10929,1,0,0:0:0:0:
64,192,10929,128,0,11111:0:0:0:0:
320,192,11111,1,0,0:0:0:0:
448,192,11202,1,0,0:0:0:0:
64,192,11202,128,0,11384:0:0:0:0:
192,192,11293,1,0,0:0:0:0:
64,192,11475,1,0,0:0:0:0:
448,192,11475,1,0,0:0:0:0:
448,192,11656,1,0,0:0:0:0:
320,192,11656,1,0,0:0:0:0:
64,192,11656,1,0,0:0:0:0:
192,192,11869,1,0,0:0:0:0:
320,192,11959,1,0,0:0:0:0:
64,192,12020,1,0,0:0:0:0:
192,192,12020,1,0,0:0:0:0:
448,192,12141,1,0,0:0:0:0:
192,192,12232,1,0,0:0:0:0:
448,192,12323,1,0,0:0:0:0:
64,192,12929,1,0,0:0:0:0:
192,192,12929,1,0,0:0:0:0:
320,192,13020,1,0,0:0:0:0:
448,192,13111,1,0,0:0:0:0:
192,192,13111,1,0,0:0:0:0:
64,192,13111,1,0,0:0:0:0:
320,192,13202,1,0,0:0:0:0:
448,192,13247,1,0,0:0:0:0:
192,192,13293,1,0,0:0:0:0:
320,192,13384,1,0,0:0:0:0:
64,192,13475,1,0,0:0:0:0:
192,192,13520,1,0,0:0:0:0:
448,192,13566,1,0,0:0:0:0:
320,192,13611,1,0,0:0:0:0:
64,192,13656,1,0,0:0:0:0:
192,192,13656,1,0,0:0:0:0:
320,192,13747,1,0,0:0:0:0:
64,192,13838,1,0,0:0:0:0:
192,192,13838,128,0,14020:0:0:0:0:
320,192,14020,1,0,0:0:0:0:
64,192,14111,1,0,0:0:0:0:
192,192,14111,128,0,14293:0:0:0:0:
448,192,14202,1,0,0:0:0:0:
64,192,14384,1,0,0:0:0:0:
192,192,14384,1,0,0:0:0:0:
64,192,14566,1,0,0:0:0:0:
320,192,14566,1,0,0:0:0:0:
448,192,14588,1,0,0:0:0:0:
192,192,14747,1,0,0:0:0:0:
64,192,14747,1,0,0:0:0:0:
448,192,14838,1,0,0:0:0:0:
320,192,14869,1,0,0:0:0:0:
64,192,14929,1,0,0:0:0:0:
192,192,15020,1,0,0:0:0:0:
448,192,15111,1,0,0:0:0:0:
320,192,15141,1,0,0:0:0:0:
64,192,15202,1,0,0:0:0:0:
448,192,15293,128,0,15384:0:0:0:0:
192,192,15384,128,0,15475:0:0:0:0:
64,192,15475,128,0,15566:0:0:0:0:
320,192,15566,128,0,15656:0:0:0:0:
448,192,15656,128,0,15747:0:0:0:0:
64,192,15747,128,0,15838:0:0:0:0:
192,192,15838,1,0,0:0:0:0:
448,192,15838,128,0,15929:0:0:0:0:
320,192,15929,128,0,16020:0:0:0:0:
192,192,16020,1,0,0:0:0:0:
64,192,16020,128,0,16111:0:0:0:0:
448,192,16111,128,0,16202:0:0:0:0:
64,192,16202,128,0,16293:0:0:0:0:
192,192,16232,128,0,16293:0:0:0:0:
320,192,16293,128,0,16384:0:0:0:0:
64,192,16384,1,0,0:0:0:0:
448,192,16384,128,0,16475:0:0:0:0:
192,192,16475,128,0,16566:0:0:0:0:
448,192,16566,128,0,16656:0:0:0:0:
64,192,16566,1,0,0:0:0:0:
320,192,16596,128,0,16656:0:0:0:0:
192,192,16656,128,0,16747:0:0:0:0:
448,192,16747,1,0,0:0:0:0:
320,192,16747,128,0,16929:0:0:0:0:
64,192,16838,1,0,0:0:0:0:
192,192,16929,1,0,0:0:0:0:
448,192,17020,1,0,0:0:0:0:
320,192,17020,128,0,17202:0:0:0:0:
64,192,17111,1,0,0:0:0:0:
192,192,17202,1,0,0:0:0:0:
320,192,17293,1,0,0:0:0:0:
448,192,17293,1,0,0:0:0:0:
192,192,17475,1,0,0:0:0:0:
64,192,17475,1,0,0:0:0:0:
448,192,17475,128,0,17793:0:0:0:0:
192,192,17656,1,0,0:0:0:0:
320,192,17656,1,0,0:0:0:0:
64,192,17747,1,0,0:0:0:0:
192,192,17808,128,0,17869:0:0:0:0:
320,192,17838,128,0,17899:0:0:0:0:
448,192,17869,128,0,17929:0:0:0:0:
64,192,17899,128,0,18202:0:0:0:0:
192,192,18020,1,0,0:0:0:0:
448,192,18020,1,0,0:0:0:0:
192,192,18202,128,0,18293:0:0:0:0:
320,192,18293,128,0,18384:0:0:0:0:
192,192,18338,1,0,0:0:0:0:
448,192,18384,1,0,0:0:0:0:
64,192,18384,128,0,18475:0:0:0:0:
320,192,18475,128,0,18566:0:0:0:0:
192,192,18566,1,0,0:0:0:0:
64,192,18566,1,0,0:0:0:0:
448,192,18566,128,0,18656:0:0:0:0:
320,192,18656,128,0,18747:0:0:0:0:
192,192,18702,1,0,0:0:0:0:
64,192,18747,128,0,18838:0:0:0:0:
448,192,18838,1,0,0:0:0:0:
320,192,18838,128,0,18929:0:0:0:0:
64,192,18929,1,0,0:0:0:0:
192,192,18929,128,0,19020:0:0:0:0:
448,192,19020,128,0,19111:0:0:0:0:
320,192,19066,1,0,0:0:0:0:
192,192,19111,128,0,19202:0:0:0:0:
448,192,19202,1,0,0:0:0:0:
320,192,19202,128,0,19293:0:0:0:0:
64,192,19293,128,0,19384:0:0:0:0:
448,192,19338,1,0,0:0:0:0:
192,192,19384,128,0,19475:0:0:0:0:
320,192,19429,1,0,0:0:0:0:
64,192,19475,1,0,0:0:0:0:
448,192,19475,128,0,19566:0:0:0:0:
192,192,19566,1,0,0:0:0:0:
320,192,19566,128,0,19656:0:0:0:0:
448,192,19656,1,0,0:0:0:0:
64,192,19656,128,0,19838:0:0:0:0:
320,192,19747,1,0,0:0:0:0:
192,192,19838,1,0,0:0:0:0:
448,192,19929,1,0,0:0:0:0:
64,192,19929,128,0,20111:0:0:0:0:
320,192,20020,1,0,0:0:0:0:
448,192,20202,1,0,0:0:0:0:
64,192,20202,1,0,0:0:0:0:
192,192,20293,1,0,0:0:0:0:
448,192,20384,1,0,0:0:0:0:
320,192,20384,1,0,0:0:0:0:
64,192,20384,1,0,0:0:0:0:
64,192,20566,1,0,0:0:0:0:
192,192,20566,1,0,0:0:0:0:
320,192,20656,1,0,0:0:0:0:
448,192,20747,1,0,0:0:0:0:
64,192,20747,1,0,0:0:0:0:
192,192,20838,1,0,0:0:0:0:
320,192,20929,1,0,0:0:0:0:
448,192,20929,1,0,0:0:0:0:
192,192,21020,1,0,0:0:0:0:
448,192,21111,128,0,21202:0:0:0:0:
64,192,21202,128,0,21293:0:0:0:0:
192,192,21293,128,0,21384:0:0:0:0:
448,192,21384,128,0,21475:0:0:0:0:
64,192,21475,128,0,21566:0:0:0:0:
448,192,21566,128,0,21656:0:0:0:0:
320,192,21656,1,0,0:0:0:0:
192,192,21656,128,0,21747:0:0:0:0:
64,192,21747,128,0,21838:0:0:0:0:
320,192,21838,1,0,0:0:0:0:
192,192,21838,1,0,0:0:0:0:
448,192,21838,128,0,21929:0:0:0:0:
64,192,21929,128,0,22020:0:0:0:0:
448,192,22020,128,0,22111:0:0:0:0:
192,192,22111,128,0,22202:0:0:0:0:
64,192,22202,128,0,22293:0:0:0:0:
448,192,22225,1,0,0:0:0:0:
320,192,22293,128,0,22384:0:0:0:0:
64,192,22384,1,0,0:0:0:0:
192,192,22384,128,0,22475:0:0:0:0:
448,192,22475,128,0,22566:0:0:0:0:
64,192,22566,128,0,22747:0:0:0:0:
320,192,22566,128,0,22656:0:0:0:0:
192,192,22702,128,0,22793:0:0:0:0:
448,192,22793,128,0,22884:0:0:0:0:
320,192,22838,1,0,0:0:0:0:
64,192,22838,128,0,23020:0:0:0:0:
192,192,22899,128,0,22959:0:0:0:0:
448,192,22959,128,0,23050:0:0:0:0:
192,192,23050,128,0,23141:0:0:0:0:
64,192,23111,1,0,0:0:0:0:
320,192,23141,128,0,23232:0:0:0:0:
448,192,23232,128,0,23323:0:0:0:0:
320,192,23293,1,0,0:0:0:0:
192,192,23293,1,0,0:0:0:0:
64,192,23323,128,0,23414:0:0:0:0:
448,192,23414,128,0,23505:0:0:0:0:
64,192,23475,1,0,0:0:0:0:
192,192,23505,128,0,23596:0:0:0:0:
320,192,23596,128,0,23687:0:0:0:0:
448,192,23656,1,0,0:0:0:0:
64,192,23687,128,0,23778:0:0:0:0:
192,192,23778,128,0,23869:0:0:0:0:
320,192,23869,128,0,23959:0:0:0:0:
64,192,23959,128,0,24020:0:0:0:0:
448,192,24020,128,0,24111:0:0:0:0:
64,192,24111,128,0,24202:0:0:0:0:
192,192,24156,1,0,0:0:0:0:
320,192,24202,128,0,24293:0:0:0:0:
64,192,24293,1,0,0:0:0:0:
192,192,24293,128,0,24384:0:0:0:0:
320,192,24384,128,0,24475:0:0:0:0:
448,192,24414,1,0,0:0:0:0:
64,192,24475,128,0,24566:0:0:0:0:
192,192,24520,1,0,0:0:0:0:
320,192,24566,1,0,0:0:0:0:
448,192,24566,128,0,24656:0:0:0:0:
64,192,24656,128,0,24747:0:0:0:0:
448,192,24747,128,0,24793:0:0:0:0:
320,192,24793,1,0,0:0:0:0:
192,192,24838,128,0,24884:0:0:0:0:
64,192,24884,1,0,0:0:0:0:
448,192,24929,128,0,24975:0:0:0:0:
320,192,24975,1,0,0:0:0:0:
192,192,25020,128,0,25066:0:0:0:0:
448,192,25066,1,0,0:0:0:0:
320,192,25111,128,0,25156:0:0:0:0:
64,192,25156,1,0,0:0:0:0:
192,192,25202,128,0,25247:0:0:0:0:
448,192,25247,1,0,0:0:0:0:
320,192,25293,128,0,25338:0:0:0:0:
192,192,25338,1,0,0:0:0:0:
64,192,25384,128,0,25429:0:0:0:0:
448,192,25429,1,0,0:0:0:0:
320,192,25475,1,0,0:0:0:0:
192,192,25475,128,0,25656:0:0:0:0:
64,192,25566,1,0,0:0:0:0:
448,192,25656,1,0,0:0:0:0:
320,192,25747,1,0,0:0:0:0:
192,192,25747,128,0,25929:0:0:0:0:
64,192,25838,1,0,0:0:0:0:
448,192,25929,1,0,0:0:0:0:
64,192,26020,1,0,0:0:0:0:
320,192,26020,1,0,0:0:0:0:
192,192,26111,1,0,0:0:0:0:
320,192,26202,1,0,0:0:0:0:
64,192,26202,1,0,0:0:0:0:
448,192,26225,1,0,0:0:0:0:
448,192,26384,1,0,0:0:0:0:
320,192,26384,1,0,0:0:0:0:
64,192,26475,1,0,0:0:0:0:
192,192,26505,1,0,0:0:0:0:
320,192,26566,1,0,0:0:0:0:
192,192,26656,1,0,0:0:0:0:
448,192,26747,1,0,0:0:0:0:
320,192,26778,1,0,0:0:0:0:
64,192,26838,1,0,0:0:0:0:
320,192,26929,1,0,0:0:0:0:
64,192,27156,1,0,0:0:0:0:
320,192,27202,1,0,0:0:0:0:
448,192,27293,1,0,0:0:0:0:
64,192,27384,1,0,0:0:0:0:
448,192,27475,1,0,0:0:0:0:
320,192,27475,1,0,0:0:0:0:
192,192,27566,1,0,0:0:0:0:
320,192,27656,1,0,0:0:0:0:
64,192,27656,128,0,27975:0:0:0:0:
448,192,27656,1,0,0:0:0:0:
192,192,27747,1,0,0:0:0:0:
320,192,27778,1,0,0:0:0:0:
320,192,27990,128,0,28050:0:0:0:0:
192,192,28020,128,0,28081:0:0:0:0:
64,192,28050,128,0,28111:0:0:0:0:
448,192,28081,128,0,28384:0:0:0:0:
320,192,28202,1,0,0:0:0:0:
192,192,28202,1,0,0:0:0:0:
192,192,28384,1,0,0:0:0:0:
320,192,28384,128,0,28520:0:0:0:0:
64,192,28520,128,0,28611:0:0:0:0:
192,192,28611,1,0,0:0:0:0:
320,192,28611,128,0,28747:0:0:0:0:
64,192,28747,128,0,28838:0:0:0:0:
192,192,28884,1,0,0:0:0:0:
320,192,28884,128,0,28975:0:0:0:0:
448,192,28975,128,0,29066:0:0:0:0:
64,192,29111,1,0,0:0:0:0:
320,192,29111,1,0,0:0:0:0:
192,192,29111,128,0,29202:0:0:0:0:
448,192,29232,128,0,29293:0:0:0:0:
64,192,29293,1,0,0:0:0:0:
192,192,29293,128,0,29384:0:0:0:0:
320,192,29353,1,0,0:0:0:0:
448,192,29414,1,0,0:0:0:0:
64,192,29475,128,0,29566:0:0:0:0:
320,192,29566,128,0,29656:0:0:0:0:
448,192,29656,1,0,0:0:0:0:
64,192,29656,1,0,0:0:0:0:
192,192,29656,128,0,29747:0:0:0:0:
320,192,29838,1,0,0:0:0:0:
64,192,29929,1,0,0:0:0:0:
192,192,29975,1,0,0:0:0:0:
320,192,30020,1,0,0:0:0:0:
448,192,30020,128,0,30111:0:0:0:0:
64,192,30111,128,0,30202:0:0:0:0:
448,192,30202,1,0,0:0:0:0:
192,192,30202,1,0,0:0:0:0:
320,192,30202,128,0,30293:0:0:0:0:
64,192,30293,1,0,0:0:0:0:
192,192,30338,1,0,0:0:0:0:
448,192,30384,128,0,30475:0:0:0:0:
192,192,30475,1,0,0:0:0:0:
64,192,30475,128,0,30566:0:0:0:0:
320,192,30566,1,0,0:0:0:0:
448,192,30566,128,0,30656:0:0:0:0:
192,192,30747,128,0,30838:0:0:0:0:
64,192,30929,1,0,0:0:0:0:
448,192,30929,1,0,0:0:0:0:
320,192,30929,128,0,31020:0:0:0:0:
64,192,31111,1,0,0:0:0:0:
192,192,31111,1,0,0:0:0:0:
320,192,31202,1,0,0:0:0:0:
448,192,31202,1,0,0:0:0:0:
64,192,31293,1,0,0:0:0:0:
192,192,31293,128,0,31475:0:0:0:0:
320,192,31475,1,0,0:0:0:0:
64,192,31566,1,0,0:0:0:0:
192,192,31566,128,0,31747:0:0:0:0:
320,192,31656,1,0,0:0:0:0:
192,192,31838,1,0,0:0:0:0:
64,192,31838,1,0,0:0:0:0:
448,192,32020,1,0,0:0:0:0:
320,192,32020,1,0,0:0:0:0:
64,192,32020,1,0,0:0:0:0:
192,192,32202,1,0,0:0:0:0:
64,192,32323,1,0,0:0:0:0:
320,192,32384,1,0,0:0:0:0:
448,192,32384,128,0,34020:0:0:0:0:
192,192,33838,128,0,33929:0:0:0:0:
64,192,34020,1,0,0:0:0:0:
320,192,34020,1,0,0:0:0:0:
320,192,34202,1,0,0:0:0:0:
64,192,34202,128,0,34384:0:0:0:0:
448,192,34293,1,0,0:0:0:0:
320,192,34384,1,0,0:0:0:0:
192,192,34475,1,0,0:0:0:0:
64,192,34475,128,0,34656:0:0:0:0:
448,192,34566,1,0,0:0:0:0:
448,192,34702,1,0,0:0:0:0:
64,192,34747,1,0,0:0:0:0:
192,192,34747,1,0,0:0:0:0:
320,192,34838,1,0,0:0:0:0:
448,192,34929,1,0,0:0:0:0:
192,192,34929,1,0,0:0:0:0:
64,192,34929,1,0,0:0:0:0:
320,192,35316,1,0,0:0:0:0:
64,192,36202,1,0,0:0:0:0:
192,192,36202,1,0,0:0:0:0:
448,192,36293,1,0,0:0:0:0:
320,192,36384,1,0,0:0:0:0:
192,192,36384,1,0,0:0:0:0:
64,192,36384,1,0,0:0:0:0:
448,192,36475,1,0,0:0:0:0:
320,192,36520,1,0,0:0:0:0:
192,192,36566,1,0,0:0:0:0:
448,192,36656,1,0,0:0:0:0:
64,192,36747,1,0,0:0:0:0:
192,192,36793,1,0,0:0:0:0:
448,192,36838,1,0,0:0:0:0:
320,192,36884,1,0,0:0:0:0:
192,192,36929,1,0,0:0:0:0:
64,192,36929,1,0,0:0:0:0:
448,192,37020,1,0,0:0:0:0:
64,192,37111,1,0,0:0:0:0:
192,192,37111,128,0,37293:0:0:0:0:
448,192,37293,1,0,0:0:0:0:
64,192,37384,1,0,0:0:0:0:
192,192,37384,128,0,37566:0:0:0:0:
320,192,37475,1,0,0:0:0:0:
64,192,37656,1,0,0:0:0:0:
192,192,37656,128,0,37838:0:0:0:0:
320,192,37838,1,0,0:0:0:0:
64,192,37838,1,0,0:0:0:0:
448,192,37838,128,0,38020:0:0:0:0:
64,192,38020,1,0,0:0:0:0:
192,192,38020,1,0,0:0:0:0:
320,192,38141,1,0,0:0:0:0:
64,192,38202,1,0,0:0:0:0:
192,192,38202,1,0,0:0:0:0:
448,192,38323,1,0,0:0:0:0:
192,192,38384,1,0,0:0:0:0:
320,192,38475,1,0,0:0:0:0:
64,192,39111,1,0,0:0:0:0:
192,192,39111,1,0,0:0:0:0:
448,192,39202,1,0,0:0:0:0:
320,192,39293,1,0,0:0:0:0:
64,192,39293,1,0,0:0:0:0:
192,192,39293,1,0,0:0:0:0:
448,192,39414,1,0,0:0:0:0:
320,192,39656,1,0,0:0:0:0:
320,192,39838,1,0,0:0:0:0:
448,192,39838,1,0,0:0:0:0:
320,192,40020,1,0,0:0:0:0:
448,192,40020,128,0,40202:0:0:0:0:
64,192,40156,1,0,0:0:0:0:
192,192,40202,1,0,0:0:0:0:
320,192,40293,1,0,0:0:0:0:
448,192,40293,128,0,40475:0:0:0:0:
64,192,40384,1,0,0:0:0:0:
320,192,40566,1,0,0:0:0:0:
448,192,40566,1,0,0:0:0:0:
64,192,40747,1,0,0:0:0:0:
192,192,40747,1,0,0:0:0:0:
448,192,40747,1,0,0:0:0:0:
320,192,40929,1,0,0:0:0:0:
448,192,40929,1,0,0:0:0:0:
192,192,41020,1,0,0:0:0:0:
448,192,41111,1,0,0:0:0:0:
64,192,41111,1,0,0:0:0:0:
320,192,41202,1,0,0:0:0:0:
192,192,41293,1,0,0:0:0:0:
64,192,41293,1,0,0:0:0:0:
448,192,41293,1,0,0:0:0:0:
192,192,41414,1,0,0:0:0:0:
64,192,41475,128,0,41566:0:0:0:0:
448,192,41566,128,0,41656:0:0:0:0:
320,192,41611,1,0,0:0:0:0:
64,192,41656,1,0,0:0:0:0:
192,192,41656,128,0,41747:0:0:0:0:
448,192,41793,1,0,0:0:0:0:
64,192,41838,1,0,0:0:0:0:
192,192,41838,1,0,0:0:0:0:
320,192,41838,128,0,41929:0:0:0:0:
448,192,41959,128,0,42050:0:0:0:0:
320,192,42066,1,0,0:0:0:0:
192,192,42111,1,0,0:0:0:0:
64,192,42111,128,0,42202:0:0:0:0:
320,192,42202,128,0,42293:0:0:0:0:
448,192,42202,1,0,0:0:0:0:
192,192,42293,128,0,42384:0:0:0:0:
64,192,42338,1,0,0:0:0:0:
448,192,42384,128,0,42475:0:0:0:0:
320,192,42475,1,0,0:0:0:0:
192,192,42475,1,0,0:0:0:0:
64,192,42475,128,0,42566:0:0:0:0:
448,192,42611,128,0,42702:0:0:0:0:
64,192,42656,1,0,0:0:0:0:
192,192,42702,1,0,0:0:0:0:
448,192,42747,1,0,0:0:0:0:
320,192,42747,128,0,42838:0:0:0:0:
192,192,42838,1,0,0:0:0:0:
64,192,42838,128,0,42929:0:0:0:0:
448,192,42929,1,0,0:0:0:0:
320,192,42929,128,0,43111:0:0:0:0:
192,192,43020,1,0,0:0:0:0:
64,192,43111,1,0,0:0:0:0:
448,192,43202,1,0,0:0:0:0:
320,192,43202,128,0,43384:0:0:0:0:
192,192,43293,1,0,0:0:0:0:
448,192,43475,1,0,0:0:0:0:
320,192,43475,1,0,0:0:0:0:
192,192,43566,1,0,0:0:0:0:
320,192,43656,1,0,0:0:0:0:
448,192,43656,1,0,0:0:0:0:
64,192,43656,1,0,0:0:0:0:
64,192,43838,1,0,0:0:0:0:
192,192,43838,1,0,0:0:0:0:
448,192,43929,1,0,0:0:0:0:
320,192,44020,1,0,0:0:0:0:
64,192,44111,1,0,0:0:0:0:
448,192,44202,1,0,0:0:0:0:
192,192,44293,1,0,0:0:0:0:
64,192,44384,128,0,44475:0:0:0:0:
320,192,44475,128,0,44566:0:0:0:0:
192,192,44566,128,0,44656:0:0:0:0:
320,192,44656,128,0,44747:0:0:0:0:
64,192,44747,128,0,44838:0:0:0:0:
448,192,44838,128,0,44929:0:0:0:0:
192,192,44929,1,0,0:0:0:0:
64,192,44929,128,0,45020:0:0:0:0:
320,192,45020,128,0,45111:0:0:0:0:
64,192,45111,1,0,0:0:0:0:
448,192,45111,1,0,0:0:0:0:
192,192,45111,128,0,45202:0:0:0:0:
320,192,45202,128,0,45293:0:0:0:0:
448,192,45293,128,0,45384:0:0:0:0:
64,192,45384,128,0,45475:0:0:0:0:
448,192,45475,1,0,0:0:0:0:
320,192,45475,128,0,45566:0:0:0:0:
192,192,45566,128,0,45656:0:0:0:0:
64,192,45656,1,0,0:0:0:0:
448,192,45656,1,0,0:0:0:0:
320,192,45747,128,0,45838:0:0:0:0:
64,192,45838,1,0,0:0:0:0:
192,192,45838,128,0,46020:0:0:0:0:
448,192,45929,1,0,0:0:0:0:
320,192,46020,1,0,0:0:0:0:
64,192,46111,1,0,0:0:0:0:
192,192,46111,128,0,46293:0:0:0:0:
448,192,46202,1,0,0:0:0:0:
320,192,46293,1,0,0:0:0:0:
192,192,46384,1,0,0:0:0:0:
64,192,46384,1,0,0:0:0:0:
448,192,46475,1,0,0:0:0:0:
64,192,46566,1,0,0:0:0:0:
192,192,46566,1,0,0:0:0:0:
320,192,46566,1,0,0:0:0:0:
448,192,46747,1,0,0:0:0:0:
320,192,46747,1,0,0:0:0:0:
64,192,46838,1,0,0:0:0:0:
448,192,46929,1,0,0:0:0:0:
192,192,47020,1,0,0:0:0:0:
320,192,47111,1,0,0:0:0:0:
64,192,47202,1,0,0:0:0:0:
448,192,47293,1,0,0:0:0:0:
192,192,47384,1,0,0:0:0:0:
64,192,47429,1,0,0:0:0:0:
448,192,47475,1,0,0:0:0:0:
320,192,47566,1,0,0:0:0:0:
192,192,47656,1,0,0:0:0:0:
64,192,47702,1,0,0:0:0:0:
448,192,47747,1,0,0:0:0:0:
320,192,47793,1,0,0:0:0:0:
192,192,47838,1,0,0:0:0:0:
64,192,47838,1,0,0:0:0:0:
320,192,47929,1,0,0:0:0:0:
448,192,48020,1,0,0:0:0:0:
64,192,48020,1,0,0:0:0:0:
192,192,48020,1,0,0:0:0:0:
320,192,48111,1,0,0:0:0:0:
192,192,48156,1,0,0:0:0:0:
64,192,48202,1,0,0:0:0:0:
192,192,48293,1,0,0:0:0:0:
448,192,48384,1,0,0:0:0:0:
320,192,48429,1,0,0:0:0:0:
64,192,48475,1,0,0:0:0:0:
192,192,48520,1,0,0:0:0:0:
320,192,48566,1,0,0:0:0:0:
448,192,48566,1,0,0:0:0:0:
64,192,48656,1,0,0:0:0:0:
320,192,48747,1,0,0:0:0:0:
448,192,48747,128,0,48929:0:0:0:0:
192,192,48929,1,0,0:0:0:0:
448,192,49020,128,0,49202:0:0:0:0:
320,192,49020,1,0,0:0:0:0:
320,192,49293,1,0,0:0:0:0:
448,192,49293,1,0,0:0:0:0:
64,192,49475,1,0,0:0:0:0:
448,192,49475,1,0,0:0:0:0:
192,192,49475,1,0,0:0:0:0:
192,192,49656,1,0,0:0:0:0:
320,192,49656,1,0,0:0:0:0:
64,192,49747,1,0,0:0:0:0:
320,192,49838,1,0,0:0:0:0:
192,192,49929,1,0,0:0:0:0:
448,192,50020,1,0,0:0:0:0:
320,192,50111,1,0,0:0:0:0:
64,192,50747,1,0,0:0:0:0:
192,192,50747,1,0,0:0:0:0:
320,192,50838,1,0,0:0:0:0:
192,192,50929,1,0,0:0:0:0:
64,192,50929,1,0,0:0:0:0:
448,192,50929,128,0,51293:0:0:0:0:
320,192,51050,1,0,0:0:0:0:
320,192,51293,1,0,0:0:0:0:
192,192,51475,1,0,0:0:0:0:
320,192,51475,1,0,0:0:0:0:
64,192,51535,1,0,0:0:0:0:
320,192,51656,1,0,0:0:0:0:
192,192,51656,128,0,51838:0:0:0:0:
448,192,51747,128,0,51838:0:0:0:0:
64,192,51838,128,0,51929:0:0:0:0:
320,192,51929,1,0,0:0:0:0:
192,192,51929,128,0,52111:0:0:0:0:
64,192,52020,128,0,52111:0:0:0:0:
448,192,52111,128,0,52202:0:0:0:0:
320,192,52202,1,0,0:0:0:0:
192,192,52202,128,0,52293:0:0:0:0:
64,192,52293,128,0,52384:0:0:0:0:
448,192,52384,1,0,0:0:0:0:
192,192,52384,1,0,0:0:0:0:
320,192,52384,128,0,52475:0:0:0:0:
64,192,52475,128,0,52566:0:0:0:0:
192,192,52566,1,0,0:0:0:0:
448,192,52566,128,0,52656:0:0:0:0:
320,192,52656,128,0,52747:0:0:0:0:
192,192,52747,128,0,52838:0:0:0:0:
320,192,52838,128,0,52929:0:0:0:0:
192,192,52929,1,0,0:0:0:0:
448,192,52929,1,0,0:0:0:0:
64,192,52929,128,0,53020:0:0:0:0:
320,192,53020,128,0,53111:0:0:0:0:
448,192,53111,128,0,53202:0:0:0:0:
64,192,53202,128,0,53293:0:0:0:0:
192,192,53247,1,0,0:0:0:0:
320,192,53293,1,0,0:0:0:0:
448,192,53293,128,0,53384:0:0:0:0:
64,192,53384,128,0,53475:0:0:0:0:
192,192,53475,1,0,0:0:0:0:
448,192,53475,1,0,0:0:0:0:
320,192,53475,128,0,53566:0:0:0:0:
192,192,53566,128,0,53656:0:0:0:0:
64,192,53611,1,0,0:0:0:0:
448,192,53656,128,0,53747:0:0:0:0:
64,192,53747,128,0,53838:0:0:0:0:
320,192,53838,1,0,0:0:0:0:
448,192,53838,1,0,0:0:0:0:
192,192,53838,128,0,53929:0:0:0:0:
448,192,53929,128,0,54020:0:0:0:0:
320,192,53975,1,0,0:0:0:0:
192,192,54020,128,0,54111:0:0:0:0:
320,192,54111,1,0,0:0:0:0:
64,192,54111,128,0,54202:0:0:0:0:
192,192,54202,1,0,0:0:0:0:
448,192,54202,128,0,54293:0:0:0:0:
64,192,54293,1,0,0:0:0:0:
320,192,54293,128,0,54384:0:0:0:0:
448,192,54384,128,0,54475:0:0:0:0:
192,192,54475,128,0,54566:0:0:0:0:
320,192,54566,1,0,0:0:0:0:
448,192,54566,1,0,0:0:0:0:
64,192,54566,1,0,0:0:0:0:
192,192,54929,1,0,0:0:0:0:
192,192,55111,1,0,0:0:0:0:
192,192,55475,1,0,0:0:0:0:
192,192,55747,1,0,0:0:0:0:
320,192,55838,1,0,0:0:0:0:
192,192,56020,1,0,0:0:0:0:
192,192,56384,1,0,0:0:0:0:
192,192,56566,1,0,0:0:0:0:
192,192,56838,1,0,0:0:0:0:
192,192,57111,1,0,0:0:0:0:
192,192,57384,1,0,0:0:0:0:
320,192,57475,1,0,0:0:0:0:
192,192,57838,1,0,0:0:0:0:
192,192,58020,1,0,0:0:0:0:
192,192,58384,1,0,0:0:0:0:
192,192,58656,1,0,0:0:0:0:
64,192,58702,1,0,0:0:0:0:
448,192,58747,1,0,0:0:0:0:
192,192,58929,1,0,0:0:0:0:
192,192,59293,1,0,0:0:0:0:
192,192,59475,1,0,0:0:0:0:
192,192,59747,1,0,0:0:0:0:
320,192,59838,1,0,0:0:0:0:
192,192,60020,1,0,0:0:0:0:
192,192,60293,1,0,0:0:0:0:
320,192,60384,1,0,0:0:0:0:
192,192,60566,1,0,0:0:0:0:
320,192,60747,1,0,0:0:0:0:
448,192,60747,1,0,0:0:0:0:
192,192,60929,1,0,0:0:0:0:
64,192,60929,1,0,0:0:0:0:
320,192,61111,128,0,61293:0:0:0:0:
64,192,61293,1,0,0:0:0:0:
192,192,61293,128,0,61384:0:0:0:0:
320,192,61384,128,0,61475:0:0:0:0:
448,192,61475,1,0,0:0:0:0:
64,192,61475,128,0,61566:0:0:0:0:
192,192,61566,128,0,61656:0:0:0:0:
64,192,61656,128,0,61747:0:0:0:0:
448,192,61747,128,0,61838:0:0:0:0:
320,192,61838,1,0,0:0:0:0:
192,192,61838,1,0,0:0:0:0:
192,192,62020,1,0,0:0:0:0:
320,192,62202,1,0,0:0:0:0:
192,192,62202,1,0,0:0:0:0:
448,192,62384,1,0,0:0:0:0:
64,192,62384,1,0,0:0:0:0:
320,192,62475,1,0,0:0:0:0:
64,192,62566,1,0,0:0:0:0:
192,192,62566,1,0,0:0:0:0:
320,192,62656,1,0,0:0:0:0:
192,192,62747,1,0,0:0:0:0:
448,192,62929,1,0,0:0:0:0:
320,192,62929,1,0,0:0:0:0:
64,192,62929,1,0,0:0:0:0:
320,192,63111,1,0,0:0:0:0:
192,192,63202,1,0,0:0:0:0:
448,192,63293,1,0,0:0:0:0:
64,192,63293,1,0,0:0:0:0:
448,192,63475,1,0,0:0:0:0:
64,192,63656,1,0,0:0:0:0:
192,192,63656,1,0,0:0:0:0:
192,192,63838,1,0,0:0:0:0:
64,192,63838,1,0,0:0:0:0:
320,192,64020,1,0,0:0:0:0:
448,192,64202,1,0,0:0:0:0:
320,192,64202,1,0,0:0:0:0:
64,192,64384,1,0,0:0:0:0:
320,192,64475,1,0,0:0:0:0:
192,192,64566,1,0,0:0:0:0:
448,192,64566,1,0,0:0:0:0:
192,192,64747,1,0,0:0:0:0:
448,192,64747,1,0,0:0:0:0:
64,192,64929,1,0,0:0:0:0:
64,192,65111,1,0,0:0:0:0:
192,192,65111,1,0,0:0:0:0:
448,192,65111,1,0,0:0:0:0:
192,192,65293,1,0,0:0:0:0:
64,192,65293,1,0,0:0:0:0:
320,192,65338,1,0,0:0:0:0:
448,192,65384,1,0,0:0:0:0:
64,192,65475,1,0,0:0:0:0:
320,192,65566,1,0,0:0:0:0:
448,192,65566,1,0,0:0:0:0:
64,192,65656,1,0,0:0:0:0:
192,192,65747,1,0,0:0:0:0:
448,192,65838,1,0,0:0:0:0:
64,192,65838,1,0,0:0:0:0:
320,192,65838,1,0,0:0:0:0:
64,192,66202,1,0,0:0:0:0:
448,192,66202,1,0,0:0:0:0:
320,192,66384,1,0,0:0:0:0:
192,192,66384,1,0,0:0:0:0:
64,192,66566,1,0,0:0:0:0:
192,192,66566,1,0,0:0:0:0:
448,192,66566,1,0,0:0:0:0:
448,192,66747,1,0,0:0:0:0:
192,192,66838,1,0,0:0:0:0:
64,192,66838,1,0,0:0:0:0:
320,192,66929,1,0,0:0:0:0:
192,192,67020,1,0,0:0:0:0:
64,192,67020,1,0,0:0:0:0:
448,192,67111,1,0,0:0:0:0:
320,192,67111,1,0,0:0:0:0:
448,192,67293,1,0,0:0:0:0:
64,192,67293,1,0,0:0:0:0:
192,192,67293,1,0,0:0:0:0:
64,192,67475,1,0,0:0:0:0:
192,192,67566,1,0,0:0:0:0:
448,192,67656,1,0,0:0:0:0:
320,192,67656,1,0,0:0:0:0:
448,192,67838,1,0,0:0:0:0:
64,192,67838,1,0,0:0:0:0:
64,192,68020,1,0,0:0:0:0:
192,192,68020,1,0,0:0:0:0:
448,192,68020,1,0,0:0:0:0:
192,192,68202,1,0,0:0:0:0:
320,192,68293,1,0,0:0:0:0:
448,192,68293,1,0,0:0:0:0:
64,192,68384,1,0,0:0:0:0:
320,192,68475,1,0,0:0:0:0:
448,192,68475,1,0,0:0:0:0:
192,192,68566,1,0,0:0:0:0:
64,192,68566,1,0,0:0:0:0:
448,192,68747,1,0,0:0:0:0:
320,192,68747,1,0,0:0:0:0:
192,192,68747,1,0,0:0:0:0:
192,192,68929,1,0,0:0:0:0:
64,192,69020,1,0,0:0:0:0:
448,192,69111,1,0,0:0:0:0:
320,192,69111,1,0,0:0:0:0:
320,192,69293,1,0,0:0:0:0:
448,192,69293,1,0,0:0:0:0:
448,192,69475,1,0,0:0:0:0:
64,192,69475,1,0,0:0:0:0:
192,192,69475,1,0,0:0:0:0:
64,192,69656,1,0,0:0:0:0:
192,192,69747,1,0,0:0:0:0:
320,192,69747,1,0,0:0:0:0:
448,192,69838,1,0,0:0:0:0:
192,192,69929,1,0,0:0:0:0:
64,192,69929,1,0,0:0:0:0:
448,192,70020,1,0,0:0:0:0:
320,192,70020,1,0,0:0:0:0:
64,192,70202,1,0,0:0:0:0:
192,192,70202,1,0,0:0:0:0:
448,192,70202,1,0,0:0:0:0:
320,192,70384,1,0,0:0:0:0:
192,192,70475,1,0,0:0:0:0:
64,192,70566,1,0,0:0:0:0:
448,192,70566,1,0,0:0:0:0:
64,192,70747,1,0,0:0:0:0:
448,192,70747,1,0,0:0:0:0:
192,192,70929,1,0,0:0:0:0:
320,192,70929,1,0,0:0:0:0:
448,192,70929,1,0,0:0:0:0:
64,192,71111,1,0,0:0:0:0:
448,192,71202,1,0,0:0:0:0:
320,192,71202,1,0,0:0:0:0:
192,192,71293,1,0,0:0:0:0:
64,192,71384,1,0,0:0:0:0:
448,192,71384,1,0,0:0:0:0:
320,192,71475,1,0,0:0:0:0:
192,192,71475,1,0,0:0:0:0:
448,192,71596,1,0,0:0:0:0:
64,192,71656,1,0,0:0:0:0:
320,192,71656,1,0,0:0:0:0:
192,192,71656,1,0,0:0:0:0:
448,192,71717,1,0,0:0:0:0:
64,192,71778,1,0,0:0:0:0:
192,192,71838,1,0,0:0:0:0:
320,192,71929,1,0,0:0:0:0:
192,192,72020,1,0,0:0:0:0:
64,192,72020,1,0,0:0:0:0:
320,192,72202,1,0,0:0:0:0:
64,192,72384,1,0,0:0:0:0:
320,192,72384,1,0,0:0:0:0:
448,192,72384,1,0,0:0:0:0:
64,192,72566,1,0,0:0:0:0:
320,192,72656,1,0,0:0:0:0:
448,192,72656,1,0,0:0:0:0:
192,192,72747,1,0,0:0:0:0:
320,192,72838,1,0,0:0:0:0:
448,192,72838,1,0,0:0:0:0:
64,192,72929,1,0,0:0:0:0:
192,192,72929,1,0,0:0:0:0:
64,192,73111,1,0,0:0:0:0:
448,192,73111,1,0,0:0:0:0:
320,192,73111,1,0,0:0:0:0:
448,192,73293,1,0,0:0:0:0:
320,192,73384,1,0,0:0:0:0:
64,192,73475,1,0,0:0:0:0:
192,192,73475,1,0,0:0:0:0:
64,192,73656,1,0,0:0:0:0:
448,192,73656,1,0,0:0:0:0:
448,192,73838,1,0,0:0:0:0:
320,192,73838,1,0,0:0:0:0:
64,192,73838,1,0,0:0:0:0:
320,192,74020,1,0,0:0:0:0:
192,192,74111,1,0,0:0:0:0:
64,192,74111,1,0,0:0:0:0:
448,192,74202,1,0,0:0:0:0:
192,192,74293,1,0,0:0:0:0:
64,192,74293,1,0,0:0:0:0:
320,192,74384,1,0,0:0:0:0:
448,192,74384,1,0,0:0:0:0:
64,192,74566,1,0,0:0:0:0:
192,192,74566,1,0,0:0:0:0:
320,192,74566,1,0,0:0:0:0:
320,192,74747,1,0,0:0:0:0:
448,192,74838,1,0,0:0:0:0:
64,192,74929,1,0,0:0:0:0:
192,192,74929,1,0,0:0:0:0:
192,192,75111,1,0,0:0:0:0:
64,192,75111,1,0,0:0:0:0:
64,192,75293,1,0,0:0:0:0:
448,192,75293,1,0,0:0:0:0:
320,192,75293,1,0,0:0:0:0:
448,192,75475,1,0,0:0:0:0:
320,192,75566,1,0,0:0:0:0:
192,192,75566,1,0,0:0:0:0:
64,192,75656,1,0,0:0:0:0:
320,192,75747,1,0,0:0:0:0:
448,192,75747,1,0,0:0:0:0:
64,192,75838,1,0,0:0:0:0:
192,192,75838,1,0,0:0:0:0:
448,192,76020,1,0,0:0:0:0:
320,192,76020,1,0,0:0:0:0:
64,192,76020,1,0,0:0:0:0:
192,192,76202,1,0,0:0:0:0:
320,192,76293,1,0,0:0:0:0:
448,192,76384,1,0,0:0:0:0:
64,192,76384,1,0,0:0:0:0:
448,192,76566,1,0,0:0:0:0:
64,192,76566,1,0,0:0:0:0:
320,192,76747,1,0,0:0:0:0:
192,192,76747,1,0,0:0:0:0:
64,192,76747,1,0,0:0:0:0:
448,192,76929,1,0,0:0:0:0:
64,192,77020,1,0,0:0:0:0:
192,192,77020,1,0,0:0:0:0:
320,192,77111,1,0,0:0:0:0:
448,192,77202,1,0,0:0:0:0:
64,192,77202,1,0,0:0:0:0:
192,192,77293,1,0,0:0:0:0:
320,192,77293,1,0,0:0:0:0:
64,192,77475,1,0,0:0:0:0:
320,192,77475,1,0,0:0:0:0:
192,192,77475,1,0,0:0:0:0:
448,192,77535,1,0,0:0:0:0:
64,192,77596,1,0,0:0:0:0:
192,192,77656,1,0,0:0:0:0:
320,192,77747,1,0,0:0:0:0:
64,192,77838,1,0,0:0:0:0:
192,192,77838,1,0,0:0:0:0:
192,192,78020,1,0,0:0:0:0:
448,192,78202,1,0,0:0:0:0:
320,192,78202,1,0,0:0:0:0:
64,192,78202,1,0,0:0:0:0:
64,192,78384,1,0,0:0:0:0:
320,192,78475,1,0,0:0:0:0:
448,192,78475,1,0,0:0:0:0:
192,192,78566,1,0,0:0:0:0:
320,192,78656,1,0,0:0:0:0:
448,192,78656,1,0,0:0:0:0:
64,192,78747,1,0,0:0:0:0:
192,192,78747,1,0,0:0:0:0:
64,192,78929,1,0,0:0:0:0:
448,192,78929,1,0,0:0:0:0:
320,192,78929,1,0,0:0:0:0:
448,192,79111,1,0,0:0:0:0:
320,192,79202,1,0,0:0:0:0:
64,192,79293,1,0,0:0:0:0:
192,192,79293,1,0,0:0:0:0:
64,192,79475,1,0,0:0:0:0:
448,192,79475,1,0,0:0:0:0:
320,192,79656,1,0,0:0:0:0:
64,192,79656,1,0,0:0:0:0:
448,192,79656,128,0,79929:0:0:0:0:
320,192,79838,1,0,0:0:0:0:
192,192,79929,1,0,0:0:0:0:
64,192,79929,128,0,80202:0:0:0:0:
320,192,80020,1,0,0:0:0:0:
448,192,80111,1,0,0:0:0:0:
192,192,80202,1,0,0:0:0:0:
320,192,80202,128,0,80384:0:0:0:0:
448,192,80384,1,0,0:0:0:0:
192,192,80384,1,0,0:0:0:0:
64,192,80384,128,0,80566:0:0:0:0:
320,192,80566,1,0,0:0:0:0:
448,192,80656,1,0,0:0:0:0:
64,192,80747,1,0,0:0:0:0:
192,192,80747,1,0,0:0:0:0:
192,192,80929,1,0,0:0:0:0:
64,192,80929,1,0,0:0:0:0:
64,192,81111,1,0,0:0:0:0:
448,192,81111,1,0,0:0:0:0:
320,192,81111,1,0,0:0:0:0:
448,192,81293,1,0,0:0:0:0:
320,192,81384,1,0,0:0:0:0:
192,192,81384,1,0,0:0:0:0:
64,192,81475,1,0,0:0:0:0:
320,192,81566,1,0,0:0:0:0:
448,192,81566,1,0,0:0:0:0:
64,192,81656,1,0,0:0:0:0:
192,192,81656,1,0,0:0:0:0:
448,192,81838,1,0,0:0:0:0:
320,192,81838,1,0,0:0:0:0:
64,192,81838,1,0,0:0:0:0:
192,192,82020,1,0,0:0:0:0:
320,192,82111,1,0,0:0:0:0:
448,192,82202,1,0,0:0:0:0:
64,192,82202,1,0,0:0:0:0:
448,192,82384,1,0,0:0:0:0:
64,192,82384,1,0,0:0:0:0:
320,192,82566,1,0,0:0:0:0:
192,192,82566,1,0,0:0:0:0:
64,192,82566,1,0,0:0:0:0:
448,192,82747,1,0,0:0:0:0:
64,192,82838,1,0,0:0:0:0:
192,192,82838,1,0,0:0:0:0:
320,192,82929,1,0,0:0:0:0:
448,192,83020,1,0,0:0:0:0:
64,192,83020,1,0,0:0:0:0:
192,192,83111,1,0,0:0:0:0:
320,192,83111,1,0,0:0:0:0:
448,192,83293,1,0,0:0:0:0:
192,192,83293,1,0,0:0:0:0:
320,192,83293,1,0,0:0:0:0:
64,192,83353,1,0,0:0:0:0:
448,192,83414,1,0,0:0:0:0:
320,192,83475,1,0,0:0:0:0:
192,192,83566,1,0,0:0:0:0:
320,192,83656,1,0,0:0:0:0:
448,192,83656,1,0,0:0:0:0:
192,192,83838,1,0,0:0:0:0:
448,192,84020,1,0,0:0:0:0:
192,192,84020,1,0,0:0:0:0:
64,192,84020,1,0,0:0:0:0:
448,192,84202,1,0,0:0:0:0:
192,192,84293,1,0,0:0:0:0:
64,192,84293,1,0,0:0:0:0:
320,192,84384,1,0,0:0:0:0:
192,192,84475,1,0,0:0:0:0:
64,192,84475,1,0,0:0:0:0:
448,192,84566,1,0,0:0:0:0:
320,192,84566,1,0,0:0:0:0:
448,192,84747,1,0,0:0:0:0:
64,192,84747,1,0,0:0:0:0:
192,192,84747,1,0,0:0:0:0:
64,192,84929,1,0,0:0:0:0:
192,192,85020,1,0,0:0:0:0:
448,192,85111,1,0,0:0:0:0:
320,192,85111,1,0,0:0:0:0:
448,192,85293,1,0,0:0:0:0:
64,192,85293,1,0,0:0:0:0:
64,192,85475,1,0,0:0:0:0:
192,192,85475,1,0,0:0:0:0:
448,192,85475,1,0,0:0:0:0:
192,192,85656,1,0,0:0:0:0:
320,192,85747,1,0,0:0:0:0:
448,192,85747,1,0,0:0:0:0:
64,192,85838,1,0,0:0:0:0:
320,192,85929,1,0,0:0:0:0:
448,192,85929,1,0,0:0:0:0:
192,192,86020,1,0,0:0:0:0:
64,192,86020,1,0,0:0:0:0:
448,192,86202,1,0,0:0:0:0:
320,192,86202,1,0,0:0:0:0:
192,192,86202,1,0,0:0:0:0:
192,192,86384,1,0,0:0:0:0:
64,192,86475,1,0,0:0:0:0:
448,192,86566,1,0,0:0:0:0:
320,192,86566,1,0,0:0:0:0:
320,192,86747,1,0,0:0:0:0:
448,192,86747,1,0,0:0:0:0:
448,192,86929,1,0,0:0:0:0:
64,192,86929,1,0,0:0:0:0:
192,192,86929,1,0,0:0:0:0:
64,192,87111,1,0,0:0:0:0:
192,192,87202,1,0,0:0:0:0:
320,192,87202,1,0,0:0:0:0:
448,192,87293,1,0,0:0:0:0:
192,192,87384,1,0,0:0:0:0:
64,192,87384,1,0,0:0:0:0:
448,192,87475,1,0,0:0:0:0:
320,192,87475,1,0,0:0:0:0:
64,192,87656,1,0,0:0:0:0:
192,192,87656,1,0,0:0:0:0:
448,192,87656,1,0,0:0:0:0:
320,192,87838,1,0,0:0:0:0:
192,192,87929,1,0,0:0:0:0:
64,192,88020,1,0,0:0:0:0:
448,192,88020,1,0,0:0:0:0:
448,192,88202,1,0,0:0:0:0:
64,192,88202,128,0,88384:0:0:0:0:
192,192,88384,1,0,0:0:0:0:
448,192,88384,1,0,0:0:0:0:
320,192,88384,128,0,88566:0:0:0:0:
64,192,88566,128,0,88747:0:0:0:0:
448,192,88656,1,0,0:0:0:0:
320,192,88656,1,0,0:0:0:0:
192,192,88747,128,0,88929:0:0:0:0:
320,192,88838,1,0,0:0:0:0:
448,192,88838,1,0,0:0:0:0:
64,192,88929,128,0,89111:0:0:0:0:
448,192,89111,1,0,0:0:0:0:
192,192,89111,1,0,0:0:0:0:
320,192,89111,128,0,89293:0:0:0:0:
64,192,89172,1,0,0:0:0:0:
448,192,89232,1,0,0:0:0:0:
192,192,89293,128,0,89475:0:0:0:0:
320,192,89384,1,0,0:0:0:0:
64,192,89475,128,0,89566:0:0:0:0:
448,192,89475,128,0,89566:0:0:0:0:
320,192,89656,1,0,0:0:0:0:
448,192,89838,1,0,0:0:0:0:
192,192,89838,1,0,0:0:0:0:
64,192,89838,1,0,0:0:0:0:
192,192,90020,1,0,0:0:0:0:
64,192,90111,1,0,0:0:0:0:
448,192,90111,1,0,0:0:0:0:
320,192,90202,1,0,0:0:0:0:
64,192,90293,1,0,0:0:0:0:
192,192,90293,1,0,0:0:0:0:
448,192,90384,1,0,0:0:0:0:
192,192,90475,1,0,0:0:0:0:
64,192,90566,1,0,0:0:0:0:
448,192,90566,1,0,0:0:0:0:
320,192,90566,1,0,0:0:0:0:
192,192,90747,1,0,0:0:0:0:
64,192,90838,1,0,0:0:0:0:
320,192,90929,128,0,91020:0:0:0:0:
448,192,90929,128,0,91020:0:0:0:0:
64,192,91111,1,0,0:0:0:0:
448,192,91293,1,0,0:0:0:0:
64,192,91293,1,0,0:0:0:0:
320,192,91293,1,0,0:0:0:0:
192,192,91475,1,0,0:0:0:0:
448,192,91566,1,0,0:0:0:0:
320,192,91566,1,0,0:0:0:0:
64,192,91656,1,0,0:0:0:0:
448,192,91747,1,0,0:0:0:0:
192,192,91838,1,0,0:0:0:0:
320,192,91838,1,0,0:0:0:0:
192,192,92020,1,0,0:0:0:0:
448,192,92020,1,0,0:0:0:0:
64,192,92020,1,0,0:0:0:0:
320,192,92202,1,0,0:0:0:0:
448,192,92293,1,0,0:0:0:0:
192,192,92384,128,0,92475:0:0:0:0:
64,192,92384,128,0,92475:0:0:0:0:
448,192,92566,1,0,0:0:0:0:
192,192,92747,1,0,0:0:0:0:
64,192,92747,1,0,0:0:0:0:
448,192,92747,1,0,0:0:0:0:
192,192,92929,1,0,0:0:0:0:
64,192,93020,1,0,0:0:0:0:
448,192,93020,1,0,0:0:0:0:
320,192,93111,1,0,0:0:0:0:
192,192,93202,1,0,0:0:0:0:
320,192,93293,1,0,0:0:0:0:
448,192,93475,1,0,0:0:0:0:
192,192,93475,1,0,0:0:0:0:
64,192,93475,1,0,0:0:0:0:
320,192,93656,1,0,0:0:0:0:
192,192,93747,1,0,0:0:0:0:
448,192,93838,128,0,93929:0:0:0:0:
64,192,93838,128,0,93929:0:0:0:0:
320,192,94020,1,0,0:0:0:0:
64,192,94202,1,0,0:0:0:0:
448,192,94202,128,0,94293:0:0:0:0:
192,192,94202,128,0,94293:0:0:0:0:
192,192,94384,1,0,0:0:0:0:
448,192,94475,1,0,0:0:0:0:
64,192,94475,1,0,0:0:0:0:
192,192,94566,1,0,0:0:0:0:
320,192,94656,1,0,0:0:0:0:
192,192,94747,1,0,0:0:0:0:
192,192,94929,1,0,0:0:0:0:
320,192,94929,1,0,0:0:0:0:
64,192,94929,1,0,0:0:0:0:
448,192,94990,1,0,0:0:0:0:
64,192,95050,1,0,0:0:0:0:
192,192,95111,1,0,0:0:0:0:
320,192,95202,1,0,0:0:0:0:
192,192,95293,1,0,0:0:0:0:
64,192,95293,128,0,95384:0:0:0:0:
320,192,95475,1,0,0:0:0:0:
448,192,95656,1,0,0:0:0:0:
64,192,95656,1,0,0:0:0:0:
320,192,95656,128,0,95747:0:0:0:0:
64,192,95838,1,0,0:0:0:0:
448,192,95929,1,0,0:0:0:0:
320,192,95929,1,0,0:0:0:0:
64,192,96020,128,0,96111:0:0:0:0:
320,192,96111,1,0,0:0:0:0:
448,192,96202,1,0,0:0:0:0:
192,192,96293,1,0,0:0:0:0:
448,192,96384,1,0,0:0:0:0:
64,192,96384,1,0,0:0:0:0:
320,192,96384,128,0,96475:0:0:0:0:
448,192,96566,1,0,0:0:0:0:
320,192,96656,1,0,0:0:0:0:
192,192,96747,1,0,0:0:0:0:
64,192,96747,128,0,96838:0:0:0:0:
192,192,96929,1,0,0:0:0:0:
64,192,97111,1,0,0:0:0:0:
320,192,97111,1,0,0:0:0:0:
448,192,97111,128,0,97202:0:0:0:0:
320,192,97293,1,0,0:0:0:0:
64,192,97384,1,0,0:0:0:0:
448,192,97475,128,0,97566:0:0:0:0:
64,192,97566,1,0,0:0:0:0:
448,192,97656,1,0,0:0:0:0:
320,192,97656,1,0,0:0:0:0:
320,192,97838,1,0,0:0:0:0:
192,192,97838,1,0,0:0:0:0:
64,192,97838,128,0,97929:0:0:0:0:
192,192,98020,1,0,0:0:0:0:
448,192,98111,1,0,0:0:0:0:
64,192,98202,1,0,0:0:0:0:
192,192,98202,128,0,98293:0:0:0:0:
192,192,98384,1,0,0:0:0:0:
448,192,98566,1,0,0:0:0:0:
64,192,98566,1,0,0:0:0:0:
320,192,98566,128,0,98656:0:0:0:0:
448,192,98747,1,0,0:0:0:0:
192,192,98838,1,0,0:0:0:0:
64,192,98929,128,0,99020:0:0:0:0:
320,192,99020,1,0,0:0:0:0:
192,192,99111,1,0,0:0:0:0:
64,192,99293,1,0,0:0:0:0:
320,192,99293,1,0,0:0:0:0:
448,192,99293,128,0,99384:0:0:0:0:
192,192,99475,1,0,0:0:0:0:
320,192,99566,1,0,0:0:0:0:
448,192,99656,1,0,0:0:0:0:
64,192,99656,128,0,99747:0:0:0:0:
448,192,99838,1,0,0:0:0:0:
64,192,100020,1,0,0:0:0:0:
320,192,100020,1,0,0:0:0:0:
192,192,100020,128,0,100111:0:0:0:0:
448,192,100202,1,0,0:0:0:0:
192,192,100293,1,0,0:0:0:0:
320,192,100384,128,0,100475:0:0:0:0:
448,192,100475,1,0,0:0:0:0:
64,192,100475,128,0,100566:0:0:0:0:
192,192,100566,1,0,0:0:0:0:
320,192,100566,128,0,100656:0:0:0:0:
448,192,100656,1,0,0:0:0:0:
192,192,100747,1,0,0:0:0:0:
64,192,100747,128,0,100838:0:0:0:0:
320,192,100838,128,0,100929:0:0:0:0:
192,192,100929,128,0,101020:0:0:0:0:
320,192,101020,1,0,0:0:0:0:
64,192,101111,1,0,0:0:0:0:
448,192,101111,128,0,101202:0:0:0:0:
320,192,101202,128,0,101293:0:0:0:0:
192,192,101293,128,0,101384:0:0:0:0:
64,192,101384,128,0,101475:0:0:0:0:
448,192,101475,128,0,101566:0:0:0:0:
320,192,101475,128,0,101656:0:0:0:0:
192,192,101475,128,0,101656:0:0:0:0:
64,192,101566,128,0,101747:0:0:0:0:
448,192,101656,128,0,101838:0:0:0:0:
192,192,101747,128,0,101838:0:0:0:0:
64,192,101838,128,0,101929:0:0:0:0:
320,192,101929,128,0,102020:0:0:0:0:
448,192,102020,128,0,102111:0:0:0:0:
192,192,102111,128,0,102202:0:0:0:0:
64,192,102202,128,0,102384:0:0:0:0:
320,192,102202,128,0,102384:0:0:0:0:
448,192,102202,128,0,102293:0:0:0:0:
192,192,102293,128,0,102475:0:0:0:0:
448,192,102384,128,0,102566:0:0:0:0:
64,192,102475,128,0,102566:0:0:0:0:
192,192,102566,1,0,0:0:0:0:
320,192,102566,1,0,0:0:0:0:
64,192,102656,1,0,0:0:0:0:
448,192,102747,1,0,0:0:0:0:
192,192,102838,1,0,0:0:0:0:
320,192,102929,1,0,0:0:0:0:
64,192,102929,1,0,0:0:0:0:
448,192,102929,1,0,0:0:0:0:
192,192,103111,1,0,0:0:0:0:
64,192,103202,1,0,0:0:0:0:
448,192,103293,1,0,0:0:0:0:
320,192,103384,1,0,0:0:0:0:
192,192,103475,1,0,0:0:0:0:
64,192,103475,1,0,0:0:0:0:
448,192,103566,1,0,0:0:0:0:
320,192,103656,1,0,0:0:0:0:
192,192,103656,1,0,0:0:0:0:
64,192,103656,1,0,0:0:0:0:
192,192,103838,1,0,0:0:0:0:
320,192,103929,1,0,0:0:0:0:
64,192,104020,1,0,0:0:0:0:
192,192,104020,128,0,104111:0:0:0:0:
320,192,104111,128,0,104202:0:0:0:0:
448,192,104202,128,0,104293:0:0:0:0:
64,192,104293,128,0,104384:0:0:0:0:
448,192,104384,128,0,104566:0:0:0:0:
320,192,104384,128,0,104566:0:0:0:0:
192,192,104384,128,0,104475:0:0:0:0:
64,192,104475,128,0,104656:0:0:0:0:
192,192,104566,128,0,104747:0:0:0:0:
448,192,104656,128,0,104838:0:0:0:0:
320,192,104747,128,0,104838:0:0:0:0:
64,192,104838,128,0,104929:0:0:0:0:
320,192,104929,128,0,105020:0:0:0:0:
192,192,105020,128,0,105111:0:0:0:0:
320,192,105111,128,0,105293:0:0:0:0:
448,192,105111,128,0,105202:0:0:0:0:
64,192,105111,128,0,105293:0:0:0:0:
192,192,105202,128,0,105384:0:0:0:0:
448,192,105293,128,0,105475:0:0:0:0:
320,192,105384,128,0,105475:0:0:0:0:
64,192,105475,1,0,0:0:0:0:
192,192,105475,1,0,0:0:0:0:
320,192,105566,1,0,0:0:0:0:
448,192,105656,1,0,0:0:0:0:
192,192,105747,1,0,0:0:0:0:
64,192,105838,1,0,0:0:0:0:
320,192,105838,1,0,0:0:0:0:
448,192,105838,1,0,0:0:0:0:
192,192,105929,1,0,0:0:0:0:
448,192,106020,1,0,0:0:0:0:
64,192,106111,1,0,0:0:0:0:
320,192,106202,1,0,0:0:0:0:
448,192,106202,1,0,0:0:0:0:
192,192,106293,1,0,0:0:0:0:
64,192,106384,1,0,0:0:0:0:
448,192,106384,1,0,0:0:0:0:
320,192,106475,1,0,0:0:0:0:
192,192,106566,1,0,0:0:0:0:
64,192,106566,1,0,0:0:0:0:
448,192,106566,1,0,0:0:0:0:
320,192,106626,1,0,0:0:0:0:
192,192,106687,1,0,0:0:0:0:
64,192,106747,1,0,0:0:0:0:
448,192,106838,1,0,0:0:0:0:
64,192,106929,128,0,107020:0:0:0:0:
192,192,106929,1,0,0:0:0:0:
320,192,107020,128,0,107111:0:0:0:0:
448,192,107111,128,0,107202:0:0:0:0:
64,192,107202,128,0,107293:0:0:0:0:
320,192,107293,128,0,107475:0:0:0:0:
192,192,107293,128,0,107475:0:0:0:0:
448,192,107293,128,0,107384:0:0:0:0:
64,192,107384,128,0,107566:0:0:0:0:
448,192,107475,128,0,107656:0:0:0:0:
320,192,107566,128,0,107656:0:0:0:0:
192,192,107656,128,0,107747:0:0:0:0:
64,192,107747,128,0,107838:0:0:0:0:
448,192,107838,128,0,107929:0:0:0:0:
320,192,107929,128,0,108020:0:0:0:0:
192,192,108020,128,0,108202:0:0:0:0:
64,192,108020,128,0,108202:0:0:0:0:
448,192,108020,128,0,108111:0:0:0:0:
320,192,108111,128,0,108293:0:0:0:0:
448,192,108202,128,0,108384:0:0:0:0:
64,192,108293,128,0,108384:0:0:0:0:
192,192,108384,1,0,0:0:0:0:
320,192,108384,1,0,0:0:0:0:
64,192,108475,1,0,0:0:0:0:
448,192,108566,1,0,0:0:0:0:
192,192,108656,1,0,0:0:0:0:
320,192,108747,1,0,0:0:0:0:
64,192,108747,1,0,0:0:0:0:
448,192,108747,1,0,0:0:0:0:
192,192,108838,1,0,0:0:0:0:
448,192,108929,1,0,0:0:0:0:
320,192,109020,1,0,0:0:0:0:
64,192,109111,1,0,0:0:0:0:
192,192,109202,1,0,0:0:0:0:
320,192,109293,1,0,0:0:0:0:
448,192,109293,1,0,0:0:0:0:
64,192,109384,1,0,0:0:0:0:
192,192,109475,1,0,0:0:0:0:
320,192,109475,1,0,0:0:0:0:
448,192,109475,1,0,0:0:0:0:
320,192,109656,1,0,0:0:0:0:
448,192,109747,1,0,0:0:0:0:
192,192,109838,128,0,109929:0:0:0:0:
64,192,109838,128,0,109929:0:0:0:0:
320,192,109929,128,0,110020:0:0:0:0:
448,192,110020,128,0,110111:0:0:0:0:
64,192,110111,1,0,0:0:0:0:
192,192,110202,128,0,110293:0:0:0:0:
320,192,110293,128,0,110384:0:0:0:0:
64,192,110384,1,0,0:0:0:0:
192,192,110475,128,0,110566:0:0:0:0:
64,192,110566,128,0,110656:0:0:0:0:
448,192,110566,1,0,0:0:0:0:
320,192,110656,128,0,110747:0:0:0:0:
192,192,110747,128,0,110838:0:0:0:0:
448,192,110838,128,0,110929:0:0:0:0:
192,192,110929,128,0,111111:0:0:0:0:
320,192,110929,128,0,111020:0:0:0:0:
64,192,110929,128,0,111111:0:0:0:0:
448,192,111020,128,0,111202:0:0:0:0:
320,192,111111,128,0,111293:0:0:0:0:
192,192,111202,128,0,111293:0:0:0:0:
64,192,111293,1,0,0:0:0:0:
192,192,111384,1,0,0:0:0:0:
64,192,111475,1,0,0:0:0:0:
448,192,111566,1,0,0:0:0:0:
320,192,111656,1,0,0:0:0:0:
192,192,111656,1,0,0:0:0:0:
64,192,111656,1,0,0:0:0:0:
448,192,111747,1,0,0:0:0:0:
64,192,111838,1,0,0:0:0:0:
192,192,111929,1,0,0:0:0:0:
320,192,111929,1,0,0:0:0:0:
64,192,112020,128,0,112111:0:0:0:0:
448,192,112111,128,0,112202:0:0:0:0:
192,192,112202,128,0,112293:0:0:0:0:
320,192,112293,128,0,112384:0:0:0:0:
448,192,112384,128,0,112566:0:0:0:0:
64,192,112384,128,0,112475:0:0:0:0:
192,192,112384,128,0,112566:0:0:0:0:
320,192,112475,128,0,112656:0:0:0:0:
64,192,112566,128,0,112747:0:0:0:0:
192,192,112656,128,0,112747:0:0:0:0:
448,192,112747,1,0,0:0:0:0:
320,192,112747,1,0,0:0:0:0:
64,192,112838,1,0,0:0:0:0:
192,192,112929,1,0,0:0:0:0:
448,192,113020,1,0,0:0:0:0:
320,192,113020,1,0,0:0:0:0:
64,192,113111,1,0,0:0:0:0:
192,192,113202,1,0,0:0:0:0:
64,192,113293,1,0,0:0:0:0:
320,192,113384,1,0,0:0:0:0:
192,192,113384,1,0,0:0:0:0:
448,192,113384,1,0,0:0:0:0:
448,192,113656,1,0,0:0:0:0:
320,192,113656,1,0,0:0:0:0:
64,192,113838,1,0,0:0:0:0:
192,192,113838,1,0,0:0:0:0:
448,192,113838,1,0,0:0:0:0:
320,192,113929,1,0,0:0:0:0:
192,192,114020,1,0,0:0:0:0:
64,192,114020,1,0,0:0:0:0:
448,192,114111,1,0,0:0:0:0:
320,192,114111,1,0,0:0:0:0:
64,192,114202,128,0,114293:0:0:0:0:
192,192,114202,128,0,114293:0:0:0:0:
448,192,114384,1,0,0:0:0:0:
192,192,114566,1,0,0:0:0:0:
64,192,114566,1,0,0:0:0:0:
320,192,114747,1,0,0:0:0:0:
448,192,114838,1,0,0:0:0:0:
192,192,114929,1,0,0:0:0:0:
64,192,114929,1,0,0:0:0:0:
448,192,115111,1,0,0:0:0:0:
192,192,115293,1,0,0:0:0:0:
64,192,115293,1,0,0:0:0:0:
448,192,115475,1,0,0:0:0:0:
320,192,115566,1,0,0:0:0:0:
192,192,115656,128,0,115747:0:0:0:0:
64,192,115656,128,0,115747:0:0:0:0:
448,192,115838,1,0,0:0:0:0:
192,192,116020,1,0,0:0:0:0:
64,192,116020,1,0,0:0:0:0:
320,192,116202,1,0,0:0:0:0:
448,192,116293,1,0,0:0:0:0:
64,192,116384,1,0,0:0:0:0:
192,192,116384,128,0,116475:0:0:0:0:
320,192,116475,1,0,0:0:0:0:
448,192,116566,1,0,0:0:0:0:
64,192,116747,1,0,0:0:0:0:
192,192,116747,1,0,0:0:0:0:
320,192,116929,1,0,0:0:0:0:
448,192,117020,1,0,0:0:0:0:
64,192,117111,128,0,117202:0:0:0:0:
192,192,117111,128,0,117202:0:0:0:0:
448,192,117293,1,0,0:0:0:0:
192,192,117475,1,0,0:0:0:0:
64,192,117475,1,0,0:0:0:0:
448,192,117656,1,0,0:0:0:0:
192,192,117747,1,0,0:0:0:0:
64,192,117747,1,0,0:0:0:0:
448,192,117838,1,0,0:0:0:0:
320,192,117838,128,0,117929:0:0:0:0:
192,192,117929,1,0,0:0:0:0:
64,192,118020,1,0,0:0:0:0:
448,192,118020,1,0,0:0:0:0:
64,192,118202,1,0,0:0:0:0:
192,192,118202,1,0,0:0:0:0:
448,192,118384,1,0,0:0:0:0:
320,192,118475,1,0,0:0:0:0:
64,192,118566,128,0,118656:0:0:0:0:
192,192,118566,128,0,118656:0:0:0:0:
320,192,118747,1,0,0:0:0:0:
192,192,118929,1,0,0:0:0:0:
64,192,118929,1,0,0:0:0:0:
320,192,119111,1,0,0:0:0:0:
448,192,119202,1,0,0:0:0:0:
64,192,119202,1,0,0:0:0:0:
192,192,119293,128,0,119384:0:0:0:0:
320,192,119293,1,0,0:0:0:0:
64,192,119384,1,0,0:0:0:0:
448,192,119475,1,0,0:0:0:0:
64,192,119656,1,0,0:0:0:0:
192,192,119656,1,0,0:0:0:0:
320,192,119838,1,0,0:0:0:0:
448,192,119929,1,0,0:0:0:0:
64,192,120020,128,0,120111:0:0:0:0:
192,192,120020,128,0,120111:0:0:0:0:
448,192,120202,1,0,0:0:0:0:
192,192,120384,1,0,0:0:0:0:
64,192,120384,1,0,0:0:0:0:
448,192,120566,1,0,0:0:0:0:
192,192,120656,1,0,0:0:0:0:
64,192,120656,1,0,0:0:0:0:
448,192,120747,1,0,0:0:0:0:
320,192,120747,1,0,0:0:0:0:
192,192,120838,1,0,0:0:0:0:
64,192,120929,1,0,0:0:0:0:
448,192,120929,1,0,0:0:0:0:
64,192,121111,1,0,0:0:0:0:
192,192,121111,1,0,0:0:0:0:
448,192,121293,1,0,0:0:0:0:
320,192,121384,1,0,0:0:0:0:
64,192,121475,128,0,121566:0:0:0:0:
192,192,121475,128,0,121566:0:0:0:0:
320,192,121656,1,0,0:0:0:0:
192,192,121838,1,0,0:0:0:0:
64,192,121838,1,0,0:0:0:0:
320,192,122020,1,0,0:0:0:0:
64,192,122111,1,0,0:0:0:0:
192,192,122111,1,0,0:0:0:0:
448,192,122202,128,0,122293:0:0:0:0:
320,192,122202,1,0,0:0:0:0:
64,192,122293,1,0,0:0:0:0:
192,192,122384,1,0,0:0:0:0:
64,192,122566,1,0,0:0:0:0:
192,192,122566,1,0,0:0:0:0:
320,192,122747,1,0,0:0:0:0:
448,192,122838,1,0,0:0:0:0:
64,192,122929,128,0,123020:0:0:0:0:
192,192,122929,128,0,123020:0:0:0:0:
448,192,123111,1,0,0:0:0:0:
64,192,123293,1,0,0:0:0:0:
192,192,123293,1,0,0:0:0:0:
448,192,123475,1,0,0:0:0:0:
64,192,123566,1,0,0:0:0:0:
192,192,123566,1,0,0:0:0:0:
320,192,123656,128,0,123747:0:0:0:0:
448,192,123656,1,0,0:0:0:0:
192,192,123747,1,0,0:0:0:0:
448,192,123838,1,0,0:0:0:0:
64,192,123838,1,0,0:0:0:0:
192,192,124020,1,0,0:0:0:0:
64,192,124020,1,0,0:0:0:0:
448,192,124202,1,0,0:0:0:0:
320,192,124293,1,0,0:0:0:0:
192,192,124384,128,0,124475:0:0:0:0:
64,192,124384,128,0,124475:0:0:0:0:
320,192,124566,1,0,0:0:0:0:
64,192,124747,1,0,0:0:0:0:
192,192,124747,1,0,0:0:0:0:
448,192,124929,1,0,0:0:0:0:
64,192,125020,1,0,0:0:0:0:
320,192,125020,1,0,0:0:0:0:
192,192,125111,1,0,0:0:0:0:
448,192,125111,128,0,125202:0:0:0:0:
64,192,125202,1,0,0:0:0:0:
320,192,125293,1,0,0:0:0:0:
192,192,125475,1,0,0:0:0:0:
64,192,125475,1,0,0:0:0:0:
320,192,125656,1,0,0:0:0:0:
64,192,125747,1,0,0:0:0:0:
448,192,125838,128,0,125929:0:0:0:0:
320,192,125838,128,0,125929:0:0:0:0:
64,192,126020,1,0,0:0:0:0:
320,192,126202,1,0,0:0:0:0:
448,192,126202,1,0,0:0:0:0:
192,192,126384,1,0,0:0:0:0:
64,192,126475,1,0,0:0:0:0:
320,192,126566,1,0,0:0:0:0:
448,192,126566,1,0,0:0:0:0:
192,192,126656,1,0,0:0:0:0:
64,192,126747,1,0,0:0:0:0:
320,192,126929,1,0,0:0:0:0:
448,192,126929,1,0,0:0:0:0:
64,192,127111,1,0,0:0:0:0:
192,192,127202,1,0,0:0:0:0:
320,192,127293,128,0,127384:0:0:0:0:
448,192,127293,128,0,127384:0:0:0:0:
64,192,127475,1,0,0:0:0:0:
320,192,127656,1,0,0:0:0:0:
448,192,127656,1,0,0:0:0:0:
192,192,127838,1,0,0:0:0:0:
64,192,127929,1,0,0:0:0:0:
448,192,128020,1,0,0:0:0:0:
320,192,128020,128,0,128111:0:0:0:0:
192,192,128111,1,0,0:0:0:0:
64,192,128202,1,0,0:0:0:0:
448,192,128384,1,0,0:0:0:0:
320,192,128384,1,0,0:0:0:0:
192,192,128566,1,0,0:0:0:0:
64,192,128656,1,0,0:0:0:0:
448,192,128747,128,0,128838:0:0:0:0:
320,192,128747,128,0,128838:0:0:0:0:
64,192,128929,1,0,0:0:0:0:
320,192,129111,1,0,0:0:0:0:
448,192,129111,1,0,0:0:0:0:
64,192,129293,1,0,0:0:0:0:
320,192,129384,1,0,0:0:0:0:
448,192,129384,1,0,0:0:0:0:
64,192,129475,1,0,0:0:0:0:
192,192,129475,128,0,129566:0:0:0:0:
320,192,129566,1,0,0:0:0:0:
448,192,129656,1,0,0:0:0:0:
64,192,129656,1,0,0:0:0:0:
448,192,129838,1,0,0:0:0:0:
320,192,129838,1,0,0:0:0:0:
64,192,130020,1,0,0:0:0:0:
192,192,130111,1,0,0:0:0:0:
448,192,130202,128,0,130293:0:0:0:0:
320,192,130202,128,0,130293:0:0:0:0:
192,192,130384,1,0,0:0:0:0:
320,192,130566,1,0,0:0:0:0:
448,192,130566,1,0,0:0:0:0:
192,192,130747,1,0,0:0:0:0:
64,192,130838,1,0,0:0:0:0:
448,192,130838,1,0,0:0:0:0:
320,192,130929,128,0,131020:0:0:0:0:
192,192,130929,1,0,0:0:0:0:
448,192,131020,1,0,0:0:0:0:
64,192,131111,1,0,0:0:0:0:
448,192,131293,1,0,0:0:0:0:
320,192,131293,1,0,0:0:0:0:
192,192,131475,1,0,0:0:0:0:
64,192,131566,1,0,0:0:0:0:
448,192,131656,128,0,131747:0:0:0:0:
320,192,131656,128,0,131747:0:0:0:0:
64,192,131838,1,0,0:0:0:0:
320,192,132020,1,0,0:0:0:0:
448,192,132020,1,0,0:0:0:0:
64,192,132202,128,0,132293:0:0:0:0:
320,192,132293,1,0,0:0:0:0:
448,192,132293,1,0,0:0:0:0:
64,192,132384,1,0,0:0:0:0:
192,192,132384,128,0,132475:0:0:0:0:
320,192,132475,1,0,0:0:0:0:
448,192,132566,1,0,0:0:0:0:
64,192,132566,1,0,0:0:0:0:
448,192,132747,1,0,0:0:0:0:
320,192,132747,1,0,0:0:0:0:
192,192,132838,128,0,132929:0:0:0:0:
64,192,132929,1,0,0:0:0:0:
192,192,133020,1,0,0:0:0:0:
448,192,133111,128,0,133202:0:0:0:0:
320,192,133111,128,0,133202:0:0:0:0:
64,192,133293,128,0,133384:0:0:0:0:
320,192,133475,1,0,0:0:0:0:
448,192,133475,1,0,0:0:0:0:
192,192,133656,1,0,0:0:0:0:
448,192,133747,1,0,0:0:0:0:
320,192,133747,1,0,0:0:0:0:
64,192,133838,128,0,133929:0:0:0:0:
192,192,133838,1,0,0:0:0:0:
448,192,133929,1,0,0:0:0:0:
320,192,134020,1,0,0:0:0:0:
448,192,134202,1,0,0:0:0:0:
320,192,134202,1,0,0:0:0:0:
192,192,134384,1,0,0:0:0:0:
64,192,134475,1,0,0:0:0:0:
448,192,134566,128,0,134656:0:0:0:0:
320,192,134566,128,0,134656:0:0:0:0:
64,192,134747,1,0,0:0:0:0:
320,192,134929,1,0,0:0:0:0:
448,192,134929,128,0,135020:0:0:0:0:
64,192,135111,1,0,0:0:0:0:
448,192,135202,1,0,0:0:0:0:
320,192,135202,1,0,0:0:0:0:
192,192,135293,128,0,135384:0:0:0:0:
64,192,135293,1,0,0:0:0:0:
320,192,135384,1,0,0:0:0:0:
448,192,135475,1,0,0:0:0:0:
64,192,135475,128,0,135566:0:0:0:0:
320,192,135656,1,0,0:0:0:0:
448,192,135656,1,0,0:0:0:0:
64,192,135838,1,0,0:0:0:0:
192,192,135929,1,0,0:0:0:0:
320,192,136020,128,0,136111:0:0:0:0:
448,192,136020,128,0,136111:0:0:0:0:
192,192,136202,1,0,0:0:0:0:
448,192,136384,1,0,0:0:0:0:
320,192,136384,128,0,136475:0:0:0:0:
64,192,136566,1,0,0:0:0:0:
448,192,136656,1,0,0:0:0:0:
320,192,136747,1,0,0:0:0:0:
64,192,136747,128,0,136838:0:0:0:0:
192,192,136838,1,0,0:0:0:0:
448,192,136929,1,0,0:0:0:0:
448,192,137111,1,0,0:0:0:0:
320,192,137111,128,0,137202:0:0:0:0:
192,192,137293,1,0,0:0:0:0:
64,192,137384,1,0,0:0:0:0:
320,192,137475,128,0,137566:0:0:0:0:
448,192,137475,128,0,137566:0:0:0:0:
192,192,137566,1,0,0:0:0:0:
64,192,137656,1,0,0:0:0:0:
320,192,137747,1,0,0:0:0:0:
192,192,137838,1,0,0:0:0:0:
64,192,137838,1,0,0:0:0:0:
448,192,137838,1,0,0:0:0:0:
320,192,137929,1,0,0:0:0:0:
192,192,138020,1,0,0:0:0:0:
448,192,138111,1,0,0:0:0:0:
320,192,138202,1,0,0:0:0:0:
64,192,138293,1,0,0:0:0:0:
448,192,138384,1,0,0:0:0:0:
320,192,138384,1,0,0:0:0:0:
192,192,138475,1,0,0:0:0:0:
64,192,138566,1,0,0:0:0:0:
320,192,138566,1,0,0:0:0:0:
448,192,138566,1,0,0:0:0:0:
192,192,138656,1,0,0:0:0:0:
64,192,138747,1,0,0:0:0:0:
448,192,138838,1,0,0:0:0:0:
64,192,138929,128,0,139020:0:0:0:0:
192,192,138929,128,0,139020:0:0:0:0:
320,192,139020,1,0,0:0:0:0:
448,192,139111,1,0,0:0:0:0:
192,192,139202,1,0,0:0:0:0:
320,192,139293,1,0,0:0:0:0:
64,192,139293,1,0,0:0:0:0:
448,192,139293,1,0,0:0:0:0:
192,192,139384,1,0,0:0:0:0:
448,192,139475,128,0,139566:0:0:0:0:
192,192,139566,1,0,0:0:0:0:
320,192,139656,128,0,139747:0:0:0:0:
448,192,139747,1,0,0:0:0:0:
192,192,139838,1,0,0:0:0:0:
64,192,139838,1,0,0:0:0:0:
320,192,139929,1,0,0:0:0:0:
448,192,140020,1,0,0:0:0:0:
192,192,140020,1,0,0:0:0:0:
64,192,140020,1,0,0:0:0:0:
320,192,140111,1,0,0:0:0:0:
448,192,140202,1,0,0:0:0:0:
192,192,140293,1,0,0:0:0:0:
64,192,140384,128,0,140475:0:0:0:0:
448,192,140384,128,0,140475:0:0:0:0:
320,192,140475,1,0,0:0:0:0:
192,192,140566,1,0,0:0:0:0:
64,192,140656,1,0,0:0:0:0:
448,192,140747,1,0,0:0:0:0:
320,192,140747,1,0,0:0:0:0:
192,192,140747,1,0,0:0:0:0:
64,192,140838,1,0,0:0:0:0:
192,192,140929,1,0,0:0:0:0:
448,192,141020,1,0,0:0:0:0:
320,192,141111,128,0,141202:0:0:0:0:
192,192,141202,1,0,0:0:0:0:
64,192,141293,128,0,141384:0:0:0:0:
448,192,141384,1,0,0:0:0:0:
320,192,141475,1,0,0:0:0:0:
192,192,141475,1,0,0:0:0:0:
64,192,141475,1,0,0:0:0:0:
448,192,141566,1,0,0:0:0:0:
192,192,141656,1,0,0:0:0:0:
320,192,141747,1,0,0:0:0:0:
64,192,141838,128,0,141929:0:0:0:0:
192,192,141838,128,0,141929:0:0:0:0:
448,192,141929,1,0,0:0:0:0:
64,192,142020,1,0,0:0:0:0:
320,192,142111,1,0,0:0:0:0:
192,192,142202,1,0,0:0:0:0:
64,192,142202,1,0,0:0:0:0:
448,192,142202,1,0,0:0:0:0:
320,192,142293,1,0,0:0:0:0:
192,192,142384,128,0,142475:0:0:0:0:
448,192,142475,1,0,0:0:0:0:
64,192,142566,128,0,142656:0:0:0:0:
320,192,142656,1,0,0:0:0:0:
192,192,142747,1,0,0:0:0:0:
64,192,142747,1,0,0:0:0:0:
320,192,142838,1,0,0:0:0:0:
448,192,142929,1,0,0:0:0:0:
64,192,142929,1,0,0:0:0:0:
192,192,142929,1,0,0:0:0:0:
320,192,143020,1,0,0:0:0:0:
448,192,143111,1,0,0:0:0:0:
64,192,143202,1,0,0:0:0:0:
320,192,143293,128,0,143384:0:0:0:0:
192,192,143293,128,0,143384:0:0:0:0:
448,192,143384,1,0,0:0:0:0:
192,192,143475,1,0,0:0:0:0:
320,192,143566,1,0,0:0:0:0:
64,192,143656,1,0,0:0:0:0:
192,192,143656,1,0,0:0:0:0:
448,192,143656,1,0,0:0:0:0:
320,192,143747,1,0,0:0:0:0:
192,192,143838,1,0,0:0:0:0:
64,192,143929,128,0,144020:0:0:0:0:
448,192,144020,1,0,0:0:0:0:
320,192,144111,128,0,144202:0:0:0:0:
64,192,144202,128,0,144293:0:0:0:0:
320,192,144293,128,0,144384:0:0:0:0:
192,192,144384,1,0,0:0:0:0:
64,192,144384,1,0,0:0:0:0:
448,192,144384,1,0,0:0:0:0:
320,192,144475,128,0,144566:0:0:0:0:
64,192,144566,128,0,144656:0:0:0:0:
448,192,144656,1,0,0:0:0:0:
192,192,144747,128,0,144838:0:0:0:0:
320,192,144747,128,0,144838:0:0:0:0:
64,192,144838,1,0,0:0:0:0:
448,192,144929,1,0,0:0:0:0:
320,192,145020,1,0,0:0:0:0:
448,192,145111,1,0,0:0:0:0:
64,192,145111,1,0,0:0:0:0:
192,192,145111,1,0,0:0:0:0:
320,192,145202,1,0,0:0:0:0:
448,192,145293,1,0,0:0:0:0:
64,192,145384,1,0,0:0:0:0:
192,192,145475,128,0,145566:0:0:0:0:
320,192,145566,1,0,0:0:0:0:
192,192,145656,1,0,0:0:0:0:
64,192,145656,1,0,0:0:0:0:
320,192,145747,1,0,0:0:0:0:
64,192,145838,1,0,0:0:0:0:
448,192,145838,1,0,0:0:0:0:
192,192,145838,1,0,0:0:0:0:
320,192,145929,1,0,0:0:0:0:
64,192,146020,1,0,0:0:0:0:
192,192,146111,1,0,0:0:0:0:
320,192,146202,128,0,146293:0:0:0:0:
448,192,146202,128,0,146293:0:0:0:0:
64,192,146293,1,0,0:0:0:0:
192,192,146384,1,0,0:0:0:0:
448,192,146475,1,0,0:0:0:0:
64,192,146566,1,0,0:0:0:0:
192,192,146566,1,0,0:0:0:0:
320,192,146566,1,0,0:0:0:0:
448,192,146656,1,0,0:0:0:0:
192,192,146747,1,0,0:0:0:0:
64,192,146838,1,0,0:0:0:0:
320,192,146929,128,0,147020:0:0:0:0:
448,192,146929,1,0,0:0:0:0:
192,192,147020,1,0,0:0:0:0:
64,192,147020,1,0,0:0:0:0:
448,192,147111,1,0,0:0:0:0:
320,192,147111,1,0,0:0:0:0:
192,192,147202,1,0,0:0:0:0:
64,192,147293,1,0,0:0:0:0:
448,192,147293,1,0,0:0:0:0:
320,192,147293,1,0,0:0:0:0:
192,192,147384,1,0,0:0:0:0:
320,192,147475,1,0,0:0:0:0:
64,192,147566,1,0,0:0:0:0:
320,192,147656,128,0,147747:0:0:0:0:
448,192,147656,128,0,147747:0:0:0:0:
64,192,147747,1,0,0:0:0:0:
320,192,147838,1,0,0:0:0:0:
192,192,147929,1,0,0:0:0:0:
448,192,148020,1,0,0:0:0:0:
320,192,148020,1,0,0:0:0:0:
64,192,148020,1,0,0:0:0:0:
192,192,148111,1,0,0:0:0:0:
64,192,148202,1,0,0:0:0:0:
320,192,148293,1,0,0:0:0:0:
192,192,148384,128,0,148475:0:0:0:0:
448,192,148475,1,0,0:0:0:0:
192,192,148566,1,0,0:0:0:0:
64,192,148566,1,0,0:0:0:0:
448,192,148656,1,0,0:0:0:0:
64,192,148747,1,0,0:0:0:0:
320,192,148747,1,0,0:0:0:0:
192,192,148747,1,0,0:0:0:0:
448,192,148838,1,0,0:0:0:0:
64,192,148929,1,0,0:0:0:0:
448,192,149020,1,0,0:0:0:0:
192,192,149111,1,0,0:0:0:0:
320,192,149111,128,0,149202:0:0:0:0:
448,192,149202,128,0,149293:0:0:0:0:
192,192,149293,128,0,149384:0:0:0:0:
64,192,149384,128,0,149475:0:0:0:0:
320,192,149475,1,0,0:0:0:0:
192,192,149475,1,0,0:0:0:0:
448,192,149475,128,0,149566:0:0:0:0:
64,192,149566,128,0,149656:0:0:0:0:
192,192,149656,128,0,149747:0:0:0:0:
320,192,149747,128,0,149838:0:0:0:0:
448,192,149838,128,0,149929:0:0:0:0:
64,192,149929,128,0,150020:0:0:0:0:
192,192,150020,128,0,150111:0:0:0:0:
320,192,150111,128,0,150202:0:0:0:0:
448,192,150202,1,0,0:0:0:0:
64,192,150202,1,0,0:0:0:0:
192,192,150202,1,0,0:0:0:0:
320,192,150293,1,0,0:0:0:0:
64,192,150384,128,0,150475:0:0:0:0:
448,192,150475,128,0,150566:0:0:0:0:
320,192,150566,128,0,150656:0:0:0:0:
192,192,150566,128,0,150656:0:0:0:0:
64,192,150656,128,0,150747:0:0:0:0:
448,192,150747,128,0,150838:0:0:0:0:
192,192,150838,128,0,150929:0:0:0:0:
320,192,150929,1,0,0:0:0:0:
448,192,150929,1,0,0:0:0:0:
64,192,150929,128,0,151020:0:0:0:0:
192,192,151020,128,0,151111:0:0:0:0:
448,192,151111,128,0,151202:0:0:0:0:
64,192,151202,128,0,151293:0:0:0:0:
320,192,151293,128,0,151384:0:0:0:0:
448,192,151384,128,0,151475:0:0:0:0:
64,192,151475,128,0,151566:0:0:0:0:
320,192,151475,1,0,0:0:0:0:
192,192,151566,128,0,151656:0:0:0:0:
64,192,151656,1,0,0:0:0:0:
320,192,151656,1,0,0:0:0:0:
448,192,151656,128,0,151747:0:0:0:0:
192,192,151747,128,0,151838:0:0:0:0:
64,192,151838,128,0,151929:0:0:0:0:
448,192,151929,128,0,152020:0:0:0:0:
320,192,151929,1,0,0:0:0:0:
64,192,152020,128,0,152111:0:0:0:0:
192,192,152020,128,0,152111:0:0:0:0:
320,192,152111,128,0,152202:0:0:0:0:
448,192,152202,128,0,152293:0:0:0:0:
192,192,152293,128,0,152384:0:0:0:0:
448,192,152384,1,0,0:0:0:0:
320,192,152384,1,0,0:0:0:0:
64,192,152384,128,0,152475:0:0:0:0:
192,192,152475,128,0,152566:0:0:0:0:
448,192,152566,128,0,152656:0:0:0:0:
320,192,152656,128,0,152747:0:0:0:0:
192,192,152747,128,0,152838:0:0:0:0:
64,192,152838,128,0,152929:0:0:0:0:
448,192,152929,128,0,153020:0:0:0:0:
320,192,153020,128,0,153111:0:0:0:0:
448,192,153111,1,0,0:0:0:0:
192,192,153111,1,0,0:0:0:0:
64,192,153111,128,0,153202:0:0:0:0:
320,192,153202,128,0,153293:0:0:0:0:
448,192,153293,128,0,153384:0:0:0:0:
64,192,153384,128,0,153475:0:0:0:0:
320,192,153475,128,0,153566:0:0:0:0:
192,192,153475,128,0,153566:0:0:0:0:
448,192,153566,128,0,153656:0:0:0:0:
64,192,153656,128,0,153747:0:0:0:0:
192,192,153747,128,0,153838:0:0:0:0:
64,192,153838,1,0,0:0:0:0:
448,192,153838,1,0,0:0:0:0:
320,192,153838,128,0,153929:0:0:0:0:
192,192,153929,128,0,154020:0:0:0:0:
448,192,154020,128,0,154111:0:0:0:0:
64,192,154111,128,0,154202:0:0:0:0:
448,192,154202,128,0,154293:0:0:0:0:
320,192,154293,128,0,154384:0:0:0:0:
192,192,154384,1,0,0:0:0:0:
64,192,154384,128,0,154475:0:0:0:0:
448,192,154475,128,0,154566:0:0:0:0:
192,192,154566,1,0,0:0:0:0:
320,192,154566,1,0,0:0:0:0:
64,192,154566,128,0,154656:0:0:0:0:
448,192,154656,128,0,154747:0:0:0:0:
192,192,154747,128,0,154838:0:0:0:0:
64,192,154838,128,0,154929:0:0:0:0:
320,192,154929,128,0,155020:0:0:0:0:
192,192,154929,128,0,155020:0:0:0:0:
448,192,155020,1,0,0:0:0:0:
192,192,155111,1,0,0:0:0:0:
320,192,155202,1,0,0:0:0:0:
64,192,155293,1,0,0:0:0:0:
192,192,155293,1,0,0:0:0:0:
448,192,155293,1,0,0:0:0:0:
320,192,155384,1,0,0:0:0:0:
64,192,155475,1,0,0:0:0:0:
192,192,155566,128,0,155656:0:0:0:0:
448,192,155656,1,0,0:0:0:0:
64,192,155747,128,0,155838:0:0:0:0:
320,192,155838,128,0,155929:0:0:0:0:
448,192,155929,128,0,156020:0:0:0:0:
320,192,156020,1,0,0:0:0:0:
64,192,156020,1,0,0:0:0:0:
192,192,156020,128,0,156111:0:0:0:0:
448,192,156111,128,0,156202:0:0:0:0:
64,192,156202,128,0,156293:0:0:0:0:
448,192,156293,1,0,0:0:0:0:
320,192,156384,128,0,156475:0:0:0:0:
192,192,156384,128,0,156475:0:0:0:0:
64,192,156475,1,0,0:0:0:0:
320,192,156566,1,0,0:0:0:0:
192,192,156656,1,0,0:0:0:0:
448,192,156747,1,0,0:0:0:0:
320,192,156747,1,0,0:0:0:0:
64,192,156747,1,0,0:0:0:0:
192,192,156838,1,0,0:0:0:0:
64,192,156929,1,0,0:0:0:0:
448,192,157020,1,0,0:0:0:0:
64,192,157111,128,0,157202:0:0:0:0:
192,192,157202,1,0,0:0:0:0:
320,192,157293,1,0,0:0:0:0:
448,192,157293,1,0,0:0:0:0:
64,192,157384,1,0,0:0:0:0:
320,192,157475,1,0,0:0:0:0:
448,192,157475,1,0,0:0:0:0:
192,192,157475,1,0,0:0:0:0:
64,192,157566,1,0,0:0:0:0:
192,192,157656,1,0,0:0:0:0:
320,192,157747,1,0,0:0:0:0:
192,192,157838,128,0,157929:0:0:0:0:
64,192,157838,128,0,157929:0:0:0:0:
448,192,157929,1,0,0:0:0:0:
64,192,158020,1,0,0:0:0:0:
192,192,158111,1,0,0:0:0:0:
64,192,158202,1,0,0:0:0:0:
320,192,158202,1,0,0:0:0:0:
448,192,158202,128,0,158293:0:0:0:0:
192,192,158293,1,0,0:0:0:0:
448,192,158384,1,0,0:0:0:0:
192,192,158475,1,0,0:0:0:0:
64,192,158475,1,0,0:0:0:0:
320,192,158566,1,0,0:0:0:0:
192,192,158656,1,0,0:0:0:0:
64,192,158656,1,0,0:0:0:0:
448,192,158747,128,0,158838:0:0:0:0:
320,192,158838,1,0,0:0:0:0:
448,192,158929,1,0,0:0:0:0:
64,192,158929,128,0,159020:0:0:0:0:
192,192,158929,128,0,159020:0:0:0:0:
320,192,159020,1,0,0:0:0:0:
192,192,159111,1,0,0:0:0:0:
64,192,159202,128,0,159293:0:0:0:0:
320,192,159293,128,0,159384:0:0:0:0:
448,192,159293,1,0,0:0:0:0:
192,192,159384,1,0,0:0:0:0:
64,192,159429,1,0,0:0:0:0:
448,192,159475,1,0,0:0:0:0:
192,192,159566,1,0,0:0:0:0:
64,192,159611,1,0,0:0:0:0:
448,192,159656,1,0,0:0:0:0:
320,192,159656,1,0,0:0:0:0:
192,192,159747,1,0,0:0:0:0:
64,192,159793,1,0,0:0:0:0:
448,192,159838,1,0,0:0:0:0:
320,192,159929,1,0,0:0:0:0:
64,192,160020,1,0,0:0:0:0:
192,192,160066,1,0,0:0:0:0:
320,192,160111,1,0,0:0:0:0:
64,192,160202,1,0,0:0:0:0:
448,192,160202,1,0,0:0:0:0:
320,192,160293,1,0,0:0:0:0:
448,192,160338,1,0,0:0:0:0:
192,192,160384,1,0,0:0:0:0:
64,192,160384,1,0,0:0:0:0:
320,192,160475,1,0,0:0:0:0:
192,192,160520,1,0,0:0:0:0:
64,192,160566,128,0,160747:0:0:0:0:
448,192,160747,128,0,160838:0:0:0:0:
320,192,160747,1,0,0:0:0:0:
448,192,160929,128,0,161020:0:0:0:0:
448,192,161111,128,0,161202:0:0:0:0:
320,192,161111,1,0,0:0:0:0:
448,192,161293,128,0,161384:0:0:0:0:
320,192,161475,1,0,0:0:0:0:
64,192,161475,128,0,161566:0:0:0:0:
64,192,161656,128,0,161747:0:0:0:0:
64,192,161838,128,0,161929:0:0:0:0:
192,192,161838,1,0,0:0:0:0:
64,192,162020,128,0,162111:0:0:0:0:
320,192,162020,1,0,0:0:0:0:
192,192,162111,1,0,0:0:0:0:
320,192,162202,1,0,0:0:0:0:
448,192,162202,128,0,162293:0:0:0:0:
64,192,162384,128,0,162475:0:0:0:0:
192,192,162384,1,0,0:0:0:0:
448,192,162566,128,0,162656:0:0:0:0:
320,192,162566,1,0,0:0:0:0:
64,192,162747,128,0,162838:0:0:0:0:
448,192,162929,128,0,163020:0:0:0:0:
192,192,162929,1,0,0:0:0:0:
64,192,163111,128,0,163202:0:0:0:0:
320,192,163111,1,0,0:0:0:0:
192,192,163202,1,0,0:0:0:0:
448,192,163293,128,0,163384:0:0:0:0:
320,192,163293,1,0,0:0:0:0:
64,192,163475,128,0,163566:0:0:0:0:
192,192,163475,1,0,0:0:0:0:
448,192,163656,1,0,0:0:0:0:
320,192,163656,128,0,163838:0:0:0:0:
320,192,164020,128,0,164202:0:0:0:0:
448,192,164247,1,0,0:0:0:0:
64,192,164384,1,0,0:0:0:0:
192,192,164429,1,0,0:0:0:0:
64,192,164747,1,0,0:0:0:0:
192,192,164747,1,0,0:0:0:0:
320,192,164929,1,0,0:0:0:0:
448,192,164975,1,0,0:0:0:0:
64,192,165020,1,0,0:0:0:0:
320,192,165111,1,0,0:0:0:0:
448,192,165156,1,0,0:0:0:0:
192,192,165293,1,0,0:0:0:0:
64,192,165384,1,0,0:0:0:0:
320,192,165475,1,0,0:0:0:0:
448,192,165475,1,0,0:0:0:0:
320,192,165656,1,0,0:0:0:0:
192,192,165838,1,0,0:0:0:0:
64,192,165884,1,0,0:0:0:0:
320,192,166020,1,0,0:0:0:0:
192,192,166111,1,0,0:0:0:0:
320,192,166202,1,0,0:0:0:0:
448,192,166202,1,0,0:0:0:0:
64,192,166384,1,0,0:0:0:0:
448,192,166566,1,0,0:0:0:0:
64,192,166566,128,0,167293:0:0:0:0:
192,192,166566,1,0,0:0:0:0:
320,192,166747,1,0,0:0:0:0:
192,192,166929,1,0,0:0:0:0:
448,192,166975,1,0,0:0:0:0:
320,192,167111,1,0,0:0:0:0:
448,192,167293,1,0,0:0:0:0:
192,192,167293,1,0,0:0:0:0:
320,192,167293,1,0,0:0:0:0:
64,192,167656,1,0,0:0:0:0:
192,192,167656,1,0,0:0:0:0:
448,192,167656,128,0,168747:0:0:0:0:
192,192,167838,1,0,0:0:0:0:
64,192,167929,1,0,0:0:0:0:
320,192,168020,1,0,0:0:0:0:
192,192,168066,1,0,0:0:0:0:
64,192,168202,1,0,0:0:0:0:
320,192,168247,1,0,0:0:0:0:
192,192,168384,1,0,0:0:0:0:
64,192,168429,1,0,0:0:0:0:
64,192,168747,1,0,0:0:0:0:
192,192,168747,1,0,0:0:0:0:
320,192,168747,1,0,0:0:0:0:
448,192,168929,1,0,0:0:0:0:
320,192,169020,1,0,0:0:0:0:
64,192,169111,1,0,0:0:0:0:
192,192,169156,1,0,0:0:0:0:
448,192,169338,128,0,170566:0:0:0:0:
320,192,169338,128,0,169838:0:0:0:0:
64,192,169475,1,0,0:0:0:0:
64,192,169747,1,0,0:0:0:0:
192,192,169838,1,0,0:0:0:0:
320,192,169884,1,0,0:0:0:0:
64,192,170020,1,0,0:0:0:0:
320,192,170202,1,0,0:0:0:0:
192,192,170247,1,0,0:0:0:0:
64,192,170566,1,0,0:0:0:0:
192,192,170566,1,0,0:0:0:0:
320,192,170566,1,0,0:0:0:0:
448,192,170747,1,0,0:0:0:0:
192,192,170838,1,0,0:0:0:0:
64,192,170929,1,0,0:0:0:0:
320,192,170929,128,0,171020:0:0:0:0:
448,192,170929,128,0,171020:0:0:0:0:
64,192,171111,1,0,0:0:0:0:
192,192,171111,1,0,0:0:0:0:
448,192,171202,1,0,0:0:0:0:
320,192,171202,1,0,0:0:0:0:
64,192,171293,128,0,171384:0:0:0:0:
192,192,171293,128,0,171384:0:0:0:0:
448,192,171475,1,0,0:0:0:0:
64,192,171475,1,0,0:0:0:0:
64,192,171656,128,0,171702:0:0:0:0:
192,192,171656,128,0,171702:0:0:0:0:
192,192,171838,128,0,171929:0:0:0:0:
64,192,171838,128,0,171929:0:0:0:0:
320,192,172020,128,0,172111:0:0:0:0:
448,192,172020,128,0,172111:0:0:0:0:
320,192,172202,128,0,172293:0:0:0:0:
448,192,172202,128,0,172293:0:0:0:0:
64,192,172384,128,0,172566:0:0:0:0:
192,192,172384,128,0,172566:0:0:0:0:
448,192,172384,128,0,172747:0:0:0:0:
64,192,173111,128,0,173293:0:0:0:0:
320,192,173838,128,0,174020:0:0:0:0:
192,192,174202,1,0,0:0:0:0:
192,192,174384,1,0,0:0:0:0:
320,192,174566,128,0,174747:0:0:0:0:
448,192,174929,1,0,0:0:0:0:
448,192,175202,1,0,0:0:0:0:
64,192,175293,128,0,175475:0:0:0:0:
320,192,175293,1,0,0:0:0:0:
192,192,175656,1,0,0:0:0:0:
192,192,175838,1,0,0:0:0:0:
64,192,176020,128,0,176202:0:0:0:0:
448,192,176202,1,0,0:0:0:0:
320,192,176475,1,0,0:0:0:0:
448,192,176566,1,0,0:0:0:0:
320,192,176747,128,0,176929:0:0:0:0:
192,192,176747,1,0,0:0:0:0:
192,192,177111,1,0,0:0:0:0:
192,192,177293,1,0,0:0:0:0:
320,192,177475,128,0,177656:0:0:0:0:
448,192,177566,1,0,0:0:0:0:
64,192,177656,1,0,0:0:0:0:
192,192,177838,1,0,0:0:0:0:
320,192,177838,1,0,0:0:0:0:
192,192,178020,1,0,0:0:0:0:
320,192,178111,1,0,0:0:0:0:
64,192,178202,128,0,178384:0:0:0:0:
448,192,178202,1,0,0:0:0:0:
448,192,178384,1,0,0:0:0:0:
192,192,178566,1,0,0:0:0:0:
320,192,178566,1,0,0:0:0:0:
192,192,178747,1,0,0:0:0:0:
320,192,178747,1,0,0:0:0:0:
64,192,178929,128,0,179111:0:0:0:0:
448,192,178929,1,0,0:0:0:0:
320,192,179111,1,0,0:0:0:0:
192,192,179111,1,0,0:0:0:0:
64,192,179293,1,0,0:0:0:0:
192,192,179384,1,0,0:0:0:0:
64,192,179475,1,0,0:0:0:0:
320,192,179656,128,0,179838:0:0:0:0:
448,192,179656,1,0,0:0:0:0:
192,192,179838,1,0,0:0:0:0:
64,192,180020,1,0,0:0:0:0:
448,192,180020,1,0,0:0:0:0:
64,192,180202,1,0,0:0:0:0:
448,192,180202,1,0,0:0:0:0:
320,192,180384,128,0,180566:0:0:0:0:
192,192,180384,1,0,0:0:0:0:
64,192,180475,1,0,0:0:0:0:
448,192,180566,1,0,0:0:0:0:
64,192,180747,1,0,0:0:0:0:
192,192,180747,1,0,0:0:0:0:
448,192,180929,1,0,0:0:0:0:
320,192,180929,1,0,0:0:0:0:
192,192,181020,1,0,0:0:0:0:
64,192,181111,128,0,181293:0:0:0:0:
448,192,181111,1,0,0:0:0:0:
320,192,181293,1,0,0:0:0:0:
192,192,181475,1,0,0:0:0:0:
64,192,181475,1,0,0:0:0:0:
320,192,181656,1,0,0:0:0:0:
448,192,181656,1,0,0:0:0:0:
64,192,181838,128,0,182020:0:0:0:0:
192,192,181838,1,0,0:0:0:0:
320,192,182020,1,0,0:0:0:0:
448,192,182020,1,0,0:0:0:0:
192,192,182202,1,0,0:0:0:0:
64,192,182293,1,0,0:0:0:0:
448,192,182384,1,0,0:0:0:0:
320,192,182566,128,0,182747:0:0:0:0:
192,192,182566,1,0,0:0:0:0:
64,192,182747,1,0,0:0:0:0:
448,192,182929,1,0,0:0:0:0:
320,192,182929,1,0,0:0:0:0:
192,192,183111,1,0,0:0:0:0:
64,192,183111,1,0,0:0:0:0:
320,192,183293,128,0,183475:0:0:0:0:
448,192,183293,1,0,0:0:0:0:
192,192,183384,1,0,0:0:0:0:
64,192,183475,1,0,0:0:0:0:
448,192,183656,1,0,0:0:0:0:
320,192,183656,1,0,0:0:0:0:
64,192,184020,1,0,0:0:0:0:
192,192,184020,128,0,184202:0:0:0:0:
320,192,184202,1,0,0:0:0:0:
448,192,184384,1,0,0:0:0:0:
192,192,184384,1,0,0:0:0:0:
64,192,184384,1,0,0:0:0:0:
320,192,184566,1,0,0:0:0:0:
192,192,184656,1,0,0:0:0:0:
64,192,184656,1,0,0:0:0:0:
448,192,184747,128,0,184929:0:0:0:0:
320,192,184929,1,0,0:0:0:0:
192,192,184929,1,0,0:0:0:0:
64,192,185111,1,0,0:0:0:0:
192,192,185111,1,0,0:0:0:0:
448,192,185111,1,0,0:0:0:0:
320,192,185293,1,0,0:0:0:0:
448,192,185384,1,0,0:0:0:0:
64,192,185475,1,0,0:0:0:0:
192,192,185475,128,0,185656:0:0:0:0:
448,192,185656,1,0,0:0:0:0:
64,192,185656,1,0,0:0:0:0:
320,192,185838,1,0,0:0:0:0:
448,192,185838,1,0,0:0:0:0:
192,192,185838,1,0,0:0:0:0:
192,192,186020,1,0,0:0:0:0:
64,192,186111,1,0,0:0:0:0:
320,192,186202,128,0,186384:0:0:0:0:
64,192,186293,1,0,0:0:0:0:
192,192,186384,1,0,0:0:0:0:
448,192,186384,1,0,0:0:0:0:
64,192,186566,1,0,0:0:0:0:
192,192,186566,1,0,0:0:0:0:
448,192,186566,1,0,0:0:0:0:
192,192,186747,1,0,0:0:0:0:
448,192,186838,1,0,0:0:0:0:
320,192,186838,1,0,0:0:0:0:
64,192,186929,1,0,0:0:0:0:
192,192,186929,128,0,187111:0:0:0:0:
320,192,187111,1,0,0:0:0:0:
448,192,187293,1,0,0:0:0:0:
320,192,187293,1,0,0:0:0:0:
64,192,187293,1,0,0:0:0:0:
192,192,187475,1,0,0:0:0:0:
320,192,187566,1,0,0:0:0:0:
64,192,187566,1,0,0:0:0:0:
448,192,187656,128,0,187838:0:0:0:0:
192,192,187838,1,0,0:0:0:0:
64,192,187838,1,0,0:0:0:0:
64,192,188020,1,0,0:0:0:0:
320,192,188020,1,0,0:0:0:0:
448,192,188020,1,0,0:0:0:0:
192,192,188202,1,0,0:0:0:0:
64,192,188293,1,0,0:0:0:0:
448,192,188384,1,0,0:0:0:0:
320,192,188384,128,0,188566:0:0:0:0:
64,192,188566,1,0,0:0:0:0:
448,192,188566,1,0,0:0:0:0:
192,192,188747,1,0,0:0:0:0:
448,192,188747,1,0,0:0:0:0:
64,192,188747,1,0,0:0:0:0:
320,192,188929,1,0,0:0:0:0:
192,192,189020,1,0,0:0:0:0:
448,192,189111,128,0,189293:0:0:0:0:
320,192,189202,1,0,0:0:0:0:
192,192,189293,1,0,0:0:0:0:
64,192,189293,1,0,0:0:0:0:
64,192,189475,1,0,0:0:0:0:
320,192,189475,1,0,0:0:0:0:
448,192,189475,1,0,0:0:0:0:
192,192,189656,1,0,0:0:0:0:
448,192,189747,1,0,0:0:0:0:
320,192,189747,1,0,0:0:0:0:
192,192,189838,128,0,190020:0:0:0:0:
64,192,189838,1,0,0:0:0:0:
320,192,190020,1,0,0:0:0:0:
64,192,190202,1,0,0:0:0:0:
192,192,190202,1,0,0:0:0:0:
448,192,190202,1,0,0:0:0:0:
320,192,190384,1,0,0:0:0:0:
64,192,190475,1,0,0:0:0:0:
192,192,190475,1,0,0:0:0:0:
448,192,190566,128,0,190747:0:0:0:0:
192,192,190747,1,0,0:0:0:0:
320,192,190747,1,0,0:0:0:0:
448,192,190929,1,0,0:0:0:0:
192,192,190929,1,0,0:0:0:0:
64,192,190929,1,0,0:0:0:0:
320,192,191111,1,0,0:0:0:0:
448,192,191202,1,0,0:0:0:0:
64,192,191293,128,0,191475:0:0:0:0:
192,192,191293,1,0,0:0:0:0:
192,192,191475,1,0,0:0:0:0:
448,192,191475,1,0,0:0:0:0:
64,192,191656,1,0,0:0:0:0:
448,192,191656,1,0,0:0:0:0:
320,192,191656,1,0,0:0:0:0:
192,192,191838,1,0,0:0:0:0:
448,192,191929,1,0,0:0:0:0:
64,192,192020,128,0,192202:0:0:0:0:
320,192,192111,1,0,0:0:0:0:
448,192,192202,1,0,0:0:0:0:
192,192,192202,1,0,0:0:0:0:
448,192,192384,1,0,0:0:0:0:
192,192,192384,1,0,0:0:0:0:
64,192,192384,1,0,0:0:0:0:
320,192,192566,1,0,0:0:0:0:
192,192,192656,1,0,0:0:0:0:
64,192,192656,1,0,0:0:0:0:
320,192,192747,128,0,192929:0:0:0:0:
448,192,192747,1,0,0:0:0:0:
64,192,192929,1,0,0:0:0:0:
448,192,193111,1,0,0:0:0:0:
192,192,193111,1,0,0:0:0:0:
64,192,193111,1,0,0:0:0:0:
320,192,193293,1,0,0:0:0:0:
192,192,193384,1,0,0:0:0:0:
64,192,193384,1,0,0:0:0:0:
448,192,193475,128,0,193656:0:0:0:0:
320,192,193656,1,0,0:0:0:0:
192,192,193656,1,0,0:0:0:0:
64,192,193838,1,0,0:0:0:0:
192,192,193838,1,0,0:0:0:0:
448,192,193838,1,0,0:0:0:0:
320,192,194020,1,0,0:0:0:0:
64,192,194111,1,0,0:0:0:0:
448,192,194202,128,0,194384:0:0:0:0:
320,192,194202,1,0,0:0:0:0:
64,192,194384,1,0,0:0:0:0:
192,192,194384,1,0,0:0:0:0:
320,192,194566,1,0,0:0:0:0:
448,192,194566,1,0,0:0:0:0:
64,192,194566,1,0,0:0:0:0:
320,192,194747,1,0,0:0:0:0:
192,192,194838,1,0,0:0:0:0:
64,192,194929,128,0,195111:0:0:0:0:
192,192,195020,1,0,0:0:0:0:
320,192,195111,1,0,0:0:0:0:
448,192,195111,128,0,195202:0:0:0:0:
192,192,195293,1,0,0:0:0:0:
320,192,195293,1,0,0:0:0:0:
64,192,195293,128,0,195384:0:0:0:0:
448,192,195475,128,0,195566:0:0:0:0:
320,192,195566,1,0,0:0:0:0:
64,192,195656,1,0,0:0:0:0:
192,192,195656,1,0,0:0:0:0:
320,192,195838,128,0,195929:0:0:0:0:
64,192,196020,1,0,0:0:0:0:
448,192,196020,1,0,0:0:0:0:
192,192,196020,128,0,196111:0:0:0:0:
64,192,196202,128,0,196293:0:0:0:0:
320,192,196293,1,0,0:0:0:0:
192,192,196384,1,0,0:0:0:0:
320,192,196566,128,0,196656:0:0:0:0:
192,192,196747,128,0,196838:0:0:0:0:
64,192,196747,1,0,0:0:0:0:
448,192,196747,1,0,0:0:0:0:
448,192,196929,128,0,197020:0:0:0:0:
320,192,197020,1,0,0:0:0:0:
192,192,197111,1,0,0:0:0:0:
64,192,197111,1,0,0:0:0:0:
64,192,197293,128,0,197384:0:0:0:0:
448,192,197475,1,0,0:0:0:0:
320,192,197475,1,0,0:0:0:0:
192,192,197475,1,0,0:0:0:0:
64,192,197656,128,0,197747:0:0:0:0:
320,192,197747,1,0,0:0:0:0:
192,192,197838,128,0,197929:0:0:0:0:
448,192,197929,1,0,0:0:0:0:
64,192,198020,1,0,0:0:0:0:
192,192,198020,128,0,198111:0:0:0:0:
448,192,198202,1,0,0:0:0:0:
64,192,198202,1,0,0:0:0:0:
320,192,198202,128,0,198293:0:0:0:0:
192,192,198384,128,0,198475:0:0:0:0:
320,192,198475,128,0,198566:0:0:0:0:
64,192,198566,128,0,198656:0:0:0:0:
448,192,198566,1,0,0:0:0:0:
448,192,198747,1,0,0:0:0:0:
64,192,198929,1,0,0:0:0:0:
192,192,198929,1,0,0:0:0:0:
320,192,198929,1,0,0:0:0:0:
448,192,199111,128,0,199202:0:0:0:0:
192,192,199202,1,0,0:0:0:0:
64,192,199293,128,0,199384:0:0:0:0:
320,192,199475,128,0,199566:0:0:0:0:
448,192,199475,1,0,0:0:0:0:
192,192,199566,128,0,199656:0:0:0:0:
64,192,199656,1,0,0:0:0:0:
320,192,199656,1,0,0:0:0:0:
448,192,199656,128,0,199747:0:0:0:0:
192,192,199747,1,0,0:0:0:0:
64,192,199838,128,0,199929:0:0:0:0:
448,192,199929,128,0,200020:0:0:0:0:
320,192,200020,128,0,200111:0:0:0:0:
192,192,200020,1,0,0:0:0:0:
64,192,200202,1,0,0:0:0:0:
448,192,200384,1,0,0:0:0:0:
320,192,200384,1,0,0:0:0:0:
64,192,200384,1,0,0:0:0:0:
64,192,200566,128,0,200656:0:0:0:0:
192,192,200656,1,0,0:0:0:0:
448,192,200747,128,0,200838:0:0:0:0:
320,192,200747,1,0,0:0:0:0:
64,192,200838,1,0,0:0:0:0:
320,192,200929,1,0,0:0:0:0:
192,192,200929,128,0,201020:0:0:0:0:
192,192,201111,1,0,0:0:0:0:
448,192,201111,1,0,0:0:0:0:
64,192,201111,128,0,201202:0:0:0:0:
320,192,201293,128,0,201384:0:0:0:0:
192,192,201384,1,0,0:0:0:0:
448,192,201475,1,0,0:0:0:0:
320,192,201475,1,0,0:0:0:0:
192,192,201566,1,0,0:0:0:0:
64,192,201656,128,0,201747:0:0:0:0:
448,192,201747,1,0,0:0:0:0:
320,192,201838,128,0,201929:0:0:0:0:
192,192,201838,1,0,0:0:0:0:
64,192,201929,1,0,0:0:0:0:
320,192,202020,128,0,202111:0:0:0:0:
192,192,202111,1,0,0:0:0:0:
64,192,202202,1,0,0:0:0:0:
448,192,202293,1,0,0:0:0:0:
320,192,202384,1,0,0:0:0:0:
192,192,202384,128,0,202475:0:0:0:0:
448,192,202475,1,0,0:0:0:0:
320,192,202566,1,0,0:0:0:0:
64,192,202566,1,0,0:0:0:0:
192,192,202566,1,0,0:0:0:0:
448,192,202656,1,0,0:0:0:0:
64,192,202747,128,0,202838:0:0:0:0:
192,192,202838,1,0,0:0:0:0:
448,192,202929,1,0,0:0:0:0:
320,192,202929,1,0,0:0:0:0:
64,192,203020,1,0,0:0:0:0:
192,192,203111,128,0,203202:0:0:0:0:
320,192,203202,1,0,0:0:0:0:
448,192,203293,1,0,0:0:0:0:
64,192,203293,1,0,0:0:0:0:
192,192,203293,1,0,0:0:0:0:
320,192,203384,1,0,0:0:0:0:
64,192,203475,128,0,203566:0:0:0:0:
192,192,203566,1,0,0:0:0:0:
448,192,203656,1,0,0:0:0:0:
64,192,203747,128,0,203838:0:0:0:0:
192,192,203838,1,0,0:0:0:0:
320,192,203838,1,0,0:0:0:0:
448,192,203929,1,0,0:0:0:0:
320,192,204020,1,0,0:0:0:0:
192,192,204020,1,0,0:0:0:0:
64,192,204020,128,0,204111:0:0:0:0:
448,192,204111,1,0,0:0:0:0:
192,192,204202,1,0,0:0:0:0:
448,192,204293,1,0,0:0:0:0:
64,192,204293,1,0,0:0:0:0:
320,192,204384,1,0,0:0:0:0:
192,192,204384,128,0,204475:0:0:0:0:
64,192,204475,128,0,204566:0:0:0:0:
448,192,204566,128,0,204656:0:0:0:0:
192,192,204656,128,0,204747:0:0:0:0:
64,192,204747,1,0,0:0:0:0:
320,192,204747,128,0,204838:0:0:0:0:
448,192,204838,128,0,204929:0:0:0:0:
64,192,204929,128,0,205020:0:0:0:0:
192,192,205020,128,0,205111:0:0:0:0:
64,192,205111,128,0,205202:0:0:0:0:
448,192,205202,128,0,205293:0:0:0:0:
320,192,205293,128,0,205384:0:0:0:0:
192,192,205293,1,0,0:0:0:0:
64,192,205384,1,0,0:0:0:0:
192,192,205475,128,0,205566:0:0:0:0:
320,192,205475,128,0,205566:0:0:0:0:
448,192,205475,1,0,0:0:0:0:
64,192,205566,1,0,0:0:0:0:
192,192,205656,128,0,205747:0:0:0:0:
320,192,205747,1,0,0:0:0:0:
448,192,205838,128,0,205929:0:0:0:0:
64,192,205838,128,0,205929:0:0:0:0:
192,192,205929,5,0,0:0:0:0:
320,192,206020,128,0,206111:0:0:0:0:
448,192,206111,1,0,0:0:0:0:
320,192,206202,1,0,0:0:0:0:
64,192,206202,128,0,206293:0:0:0:0:
192,192,206202,128,0,206293:0:0:0:0:
448,192,206293,1,0,0:0:0:0:
320,192,206384,1,0,0:0:0:0:
192,192,206475,1,0,0:0:0:0:
64,192,206475,1,0,0:0:0:0:
320,192,206566,128,0,206656:0:0:0:0:
448,192,206566,1,0,0:0:0:0:
64,192,206656,1,0,0:0:0:0:
320,192,206747,1,0,0:0:0:0:
448,192,206747,128,0,206838:0:0:0:0:
64,192,206838,1,0,0:0:0:0:
448,192,206929,1,0,0:0:0:0:
320,192,206929,1,0,0:0:0:0:
192,192,206929,1,0,0:0:0:0:
64,192,207020,1,0,0:0:0:0:
320,192,207111,1,0,0:0:0:0:
192,192,207202,1,0,0:0:0:0:
448,192,207293,1,0,0:0:0:0:
192,192,207520,1,0,0:0:0:0:
64,192,207702,1,0,0:0:0:0:
448,192,207884,1,0,0:0:0:0:
192,192,208247,1,0,0:0:0:0:
64,192,208429,1,0,0:0:0:0:
448,192,208611,1,0,0:0:0:0:
64,192,208747,5,0,0:0:0:0:
192,192,208747,1,0,0:0:0:0:
448,192,208838,1,0,0:0:0:0:
320,192,208929,1,0,0:0:0:0:
192,192,209020,1,0,0:0:0:0:
64,192,209020,1,0,0:0:0:0:
448,192,209111,1,0,0:0:0:0:
320,192,209202,1,0,0:0:0:0:
192,192,209293,1,0,0:0:0:0:
64,192,209384,1,0,0:0:0:0:
320,192,209384,1,0,0:0:0:0:
448,192,209384,1,0,0:0:0:0:
64,192,209656,1,0,0:0:0:0:
192,192,209656,1,0,0:0:0:0:
448,192,209838,1,0,0:0:0:0:
320,192,209838,1,0,0:0:0:0:
64,192,209838,1,0,0:0:0:0:
192,192,209929,1,0,0:0:0:0:
320,192,209975,1,0,0:0:0:0:
448,192,210020,1,0,0:0:0:0:
64,192,210066,1,0,0:0:0:0:
192,192,210111,1,0,0:0:0:0:
448,192,210202,1,0,0:0:0:0:
320,192,210202,128,0,210384:0:0:0:0:
448,192,210475,1,0,0:0:0:0:
320,192,210475,128,0,210656:0:0:0:0:
64,192,210566,1,0,0:0:0:0:
320,192,210747,1,0,0:0:0:0:
448,192,210747,1,0,0:0:0:0:
64,192,210929,1,0,0:0:0:0:
192,192,210929,1,0,0:0:0:0:
448,192,210929,1,0,0:0:0:0:
320,192,211111,128,0,211202:0:0:0:0:
64,192,211202,128,0,211293:0:0:0:0:
448,192,211293,128,0,211384:0:0:0:0:
192,192,211384,1,0,0:0:0:0:
320,192,211475,128,0,211566:0:0:0:0:
64,192,211566,128,0,211656:0:0:0:0:
320,192,211656,128,0,212384:0:0:0:0:
64,192,212384,1,0,0:0:0:0:
192,192,212384,1,0,0:0:0:0:
448,192,212384,1,0,0:0:0:0:
320,192,212566,128,0,212747:0:0:0:0:
64,192,212747,128,0,212929:0:0:0:0:
320,192,212929,1,0,0:0:0:0:
192,192,212929,1,0,0:0:0:0:
64,192,213111,128,0,213293:0:0:0:0:
448,192,213111,128,0,213202:0:0:0:0:
192,192,213202,128,0,213293:0:0:0:0:
320,192,213293,128,0,213384:0:0:0:0:
64,192,213384,128,0,213566:0:0:0:0:
448,192,213384,128,0,213475:0:0:0:0:
192,192,213475,128,0,213566:0:0:0:0:
320,192,213566,128,0,213656:0:0:0:0:
64,192,213656,1,0,0:0:0:0:
448,192,213656,128,0,213747:0:0:0:0:
192,192,213747,128,0,213838:0:0:0:0:
64,192,213838,1,0,0:0:0:0:
448,192,213838,1,0,0:0:0:0:
320,192,213838,128,0,213929:0:0:0:0:
192,192,213929,128,0,214020:0:0:0:0:
64,192,214020,128,0,214111:0:0:0:0:
448,192,214111,128,0,214202:0:0:0:0:
192,192,214202,128,0,214293:0:0:0:0:
320,192,214293,128,0,214384:0:0:0:0:
64,192,214384,128,0,214475:0:0:0:0:
448,192,214475,128,0,214566:0:0:0:0:
192,192,214566,128,0,215111:0:0:0:0:
64,192,215111,1,0,0:0:0:0:
448,192,215111,1,0,0:0:0:0:
320,192,215202,1,0,0:0:0:0:
448,192,215293,1,0,0:0:0:0:
64,192,215293,1,0,0:0:0:0:
192,192,215293,1,0,0:0:0:0:
192,192,215520,1,0,0:0:0:0:
64,192,215566,1,0,0:0:0:0:
448,192,215656,1,0,0:0:0:0:
320,192,215702,1,0,0:0:0:0:
192,192,215747,1,0,0:0:0:0:
64,192,215793,1,0,0:0:0:0:
448,192,215838,1,0,0:0:0:0:
320,192,215838,1,0,0:0:0:0:
64,192,215929,1,0,0:0:0:0:
192,192,216020,1,0,0:0:0:0:
320,192,216020,128,0,216202:0:0:0:0:
448,192,216111,1,0,0:0:0:0:
192,192,216293,1,0,0:0:0:0:
320,192,216293,128,0,216475:0:0:0:0:
64,192,216384,1,0,0:0:0:0:
320,192,216566,1,0,0:0:0:0:
192,192,216566,1,0,0:0:0:0:
448,192,216747,1,0,0:0:0:0:
320,192,216747,1,0,0:0:0:0:
64,192,216747,1,0,0:0:0:0:
64,192,216929,1,0,0:0:0:0:
192,192,216929,1,0,0:0:0:0:
448,192,217020,128,0,217111:0:0:0:0:
192,192,217111,128,0,217202:0:0:0:0:
320,192,217202,1,0,0:0:0:0:
64,192,217293,128,0,217384:0:0:0:0:
320,192,217384,128,0,217475:0:0:0:0:
192,192,217656,128,0,218020:0:0:0:0:
320,192,218020,1,0,0:0:0:0:
448,192,218020,1,0,0:0:0:0:
64,192,218202,1,0,0:0:0:0:
192,192,218202,1,0,0:0:0:0:
448,192,218202,1,0,0:0:0:0:
192,192,218566,1,0,0:0:0:0:
320,192,218747,1,0,0:0:0:0:
448,192,218747,1,0,0:0:0:0:
320,192,218929,1,0,0:0:0:0:
448,192,218929,128,0,219111:0:0:0:0:
64,192,219020,128,0,219111:0:0:0:0:
192,192,219111,128,0,219202:0:0:0:0:
448,192,219202,128,0,219384:0:0:0:0:
320,192,219202,1,0,0:0:0:0:
64,192,219293,128,0,219384:0:0:0:0:
192,192,219384,128,0,219475:0:0:0:0:
448,192,219475,128,0,219566:0:0:0:0:
320,192,219475,1,0,0:0:0:0:
64,192,219566,128,0,219656:0:0:0:0:
192,192,219656,1,0,0:0:0:0:
320,192,219656,1,0,0:0:0:0:
448,192,219656,1,0,0:0:0:0:
64,192,219838,1,0,0:0:0:0:
192,192,219838,1,0,0:0:0:0:
448,192,219929,128,0,220020:0:0:0:0:
64,192,220020,128,0,220111:0:0:0:0:
320,192,220111,1,0,0:0:0:0:
192,192,220202,128,0,220293:0:0:0:0:
448,192,220293,128,0,220384:0:0:0:0:
64,192,220384,1,0,0:0:0:0:
320,192,220475,1,0,0:0:0:0:
448,192,220520,1,0,0:0:0:0:
64,192,220566,1,0,0:0:0:0:
192,192,220566,128,0,220656:0:0:0:0:
448,192,220656,128,0,220747:0:0:0:0:
64,192,220747,128,0,220838:0:0:0:0:
320,192,220838,128,0,220929:0:0:0:0:
192,192,220929,128,0,221020:0:0:0:0:
448,192,221020,128,0,221111:0:0:0:0:
192,192,221111,1,0,0:0:0:0:
320,192,221111,1,0,0:0:0:0:
64,192,221111,128,0,221232:0:0:0:0:
448,192,221232,1,0,0:0:0:0:
320,192,221293,128,0,221384:0:0:0:0:
192,192,221384,1,0,0:0:0:0:
64,192,221384,1,0,0:0:0:0:
448,192,221384,1,0,0:0:0:0:
320,192,221520,1,0,0:0:0:0:
192,192,221566,1,0,0:0:0:0:
64,192,221611,1,0,0:0:0:0:
448,192,221656,1,0,0:0:0:0:
320,192,221656,1,0,0:0:0:0:
64,192,221747,1,0,0:0:0:0:
192,192,221747,1,0,0:0:0:0:
320,192,221838,1,0,0:0:0:0:
448,192,221838,128,0,222020:0:0:0:0:
64,192,222020,1,0,0:0:0:0:
320,192,222111,1,0,0:0:0:0:
448,192,222111,128,0,222293:0:0:0:0:
64,192,222202,1,0,0:0:0:0:
320,192,222384,1,0,0:0:0:0:
448,192,222384,1,0,0:0:0:0:
64,192,222566,1,0,0:0:0:0:
192,192,222566,1,0,0:0:0:0:
448,192,222566,1,0,0:0:0:0:
192,192,222747,128,0,222838:0:0:0:0:
448,192,222838,128,0,222929:0:0:0:0:
64,192,222929,128,0,223020:0:0:0:0:
320,192,223020,1,0,0:0:0:0:
192,192,223111,128,0,223202:0:0:0:0:
448,192,223202,128,0,223293:0:0:0:0:
64,192,223293,128,0,223838:0:0:0:0:
448,192,223566,1,0,0:0:0:0:
192,192,223656,1,0,0:0:0:0:
320,192,223747,1,0,0:0:0:0:
192,192,223838,1,0,0:0:0:0:
448,192,223838,1,0,0:0:0:0:
320,192,223929,1,0,0:0:0:0:
64,192,224020,1,0,0:0:0:0:
448,192,224020,1,0,0:0:0:0:
192,192,224020,1,0,0:0:0:0:
192,192,224202,1,0,0:0:0:0:
448,192,224384,1,0,0:0:0:0:
64,192,224429,1,0,0:0:0:0:
192,192,224566,1,0,0:0:0:0:
320,192,224566,1,0,0:0:0:0:
448,192,224747,128,0,224929:0:0:0:0:
64,192,224747,128,0,224838:0:0:0:0:
320,192,224838,128,0,224929:0:0:0:0:
192,192,224929,128,0,225020:0:0:0:0:
448,192,225020,128,0,225202:0:0:0:0:
64,192,225020,128,0,225111:0:0:0:0:
320,192,225111,128,0,225202:0:0:0:0:
192,192,225202,128,0,225293:0:0:0:0:
448,192,225293,1,0,0:0:0:0:
64,192,225293,128,0,225384:0:0:0:0:
320,192,225384,128,0,225475:0:0:0:0:
448,192,225475,1,0,0:0:0:0:
64,192,225475,1,0,0:0:0:0:
192,192,225475,128,0,225566:0:0:0:0:
320,192,225566,128,0,225656:0:0:0:0:
448,192,225656,128,0,225747:0:0:0:0:
64,192,225656,1,0,0:0:0:0:
192,192,225747,128,0,225838:0:0:0:0:
320,192,225838,128,0,225929:0:0:0:0:
64,192,225929,128,0,226020:0:0:0:0:
448,192,226020,128,0,226111:0:0:0:0:
192,192,226111,128,0,226202:0:0:0:0:
320,192,226202,1,0,0:0:0:0:
64,192,226293,1,0,0:0:0:0:
448,192,226338,1,0,0:0:0:0:
320,192,226384,1,0,0:0:0:0:
64,192,226475,1,0,0:0:0:0:
192,192,226566,1,0,0:0:0:0:
64,192,226596,1,0,0:0:0:0:
448,192,226656,1,0,0:0:0:0:
320,192,226702,1,0,0:0:0:0:
64,192,226747,1,0,0:0:0:0:
192,192,226747,1,0,0:0:0:0:
320,192,226838,1,0,0:0:0:0:
64,192,226929,1,0,0:0:0:0:
192,192,226929,1,0,0:0:0:0:
448,192,226929,128,0,227156:0:0:0:0:
192,192,227156,1,0,0:0:0:0:
64,192,227202,1,0,0:0:0:0:
448,192,227293,1,0,0:0:0:0:
320,192,227338,1,0,0:0:0:0:
192,192,227384,1,0,0:0:0:0:
64,192,227429,1,0,0:0:0:0:
448,192,227475,1,0,0:0:0:0:
320,192,227475,1,0,0:0:0:0:
64,192,227566,1,0,0:0:0:0:
192,192,227656,1,0,0:0:0:0:
320,192,227656,128,0,227838:0:0:0:0:
448,192,227747,1,0,0:0:0:0:
192,192,227929,1,0,0:0:0:0:
320,192,227929,128,0,228111:0:0:0:0:
64,192,228020,1,0,0:0:0:0:
320,192,228202,1,0,0:0:0:0:
192,192,228202,1,0,0:0:0:0:
448,192,228384,1,0,0:0:0:0:
320,192,228384,1,0,0:0:0:0:
64,192,228384,1,0,0:0:0:0:
64,192,228566,1,0,0:0:0:0:
192,192,228566,1,0,0:0:0:0:
448,192,228656,128,0,228747:0:0:0:0:
192,192,228747,128,0,228838:0:0:0:0:
320,192,228838,1,0,0:0:0:0:
64,192,228929,128,0,229020:0:0:0:0:
448,192,229020,128,0,229111:0:0:0:0:
192,192,229111,128,0,229475:0:0:0:0:
64,192,229384,1,0,0:0:0:0:
320,192,229475,1,0,0:0:0:0:
192,192,229566,1,0,0:0:0:0:
320,192,229656,1,0,0:0:0:0:
448,192,229656,1,0,0:0:0:0:
64,192,229838,1,0,0:0:0:0:
192,192,229838,1,0,0:0:0:0:
448,192,229838,1,0,0:0:0:0:
320,192,230020,128,0,230384:0:0:0:0:
448,192,230202,1,0,0:0:0:0:
192,192,230384,1,0,0:0:0:0:
448,192,230384,1,0,0:0:0:0:
192,192,230566,1,0,0:0:0:0:
64,192,230566,128,0,230747:0:0:0:0:
448,192,230656,128,0,230747:0:0:0:0:
320,192,230747,128,0,230838:0:0:0:0:
64,192,230838,128,0,231020:0:0:0:0:
192,192,230838,1,0,0:0:0:0:
448,192,230929,128,0,231020:0:0:0:0:
320,192,231020,128,0,231111:0:0:0:0:
64,192,231111,128,0,231202:0:0:0:0:
192,192,231111,1,0,0:0:0:0:
448,192,231202,128,0,231293:0:0:0:0:
320,192,231293,1,0,0:0:0:0:
192,192,231293,1,0,0:0:0:0:
64,192,231293,1,0,0:0:0:0:
448,192,231475,1,0,0:0:0:0:
320,192,231475,1,0,0:0:0:0:
64,192,231566,128,0,231656:0:0:0:0:
448,192,231656,128,0,231747:0:0:0:0:
192,192,231747,1,0,0:0:0:0:
320,192,231838,128,0,231929:0:0:0:0:
64,192,231929,128,0,232020:0:0:0:0:
448,192,232020,1,0,0:0:0:0:
320,192,232111,1,0,0:0:0:0:
448,192,232156,1,0,0:0:0:0:
64,192,232202,1,0,0:0:0:0:
192,192,232202,128,0,232293:0:0:0:0:
448,192,232293,128,0,232384:0:0:0:0:
64,192,232384,128,0,232475:0:0:0:0:
320,192,232475,128,0,232566:0:0:0:0:
192,192,232566,128,0,232656:0:0:0:0:
448,192,232656,128,0,232747:0:0:0:0:
192,192,232747,1,0,0:0:0:0:
320,192,232747,1,0,0:0:0:0:
64,192,232747,128,0,232869:0:0:0:0:
448,192,232869,1,0,0:0:0:0:
320,192,232929,128,0,233020:0:0:0:0:
192,192,233020,1,0,0:0:0:0:
64,192,233020,1,0,0:0:0:0:
448,192,233020,1,0,0:0:0:0:
320,192,233156,1,0,0:0:0:0:
192,192,233202,1,0,0:0:0:0:
64,192,233247,1,0,0:0:0:0:
448,192,233293,1,0,0:0:0:0:
320,192,233293,1,0,0:0:0:0:
64,192,233384,1,0,0:0:0:0:
192,192,233429,1,0,0:0:0:0:
448,192,233475,128,0,234929:0:0:0:0:
320,192,233475,128,0,233656:0:0:0:0:
64,192,233656,1,0,0:0:0:0:
64,192,233838,1,0,0:0:0:0:
192,192,233838,1,0,0:0:0:0:
320,192,233838,1,0,0:0:0:0:
192,192,234020,1,0,0:0:0:0:
64,192,234111,1,0,0:0:0:0:
320,192,234202,1,0,0:0:0:0:
64,192,234293,1,0,0:0:0:0:
192,192,234384,1,0,0:0:0:0:
320,192,234384,1,0,0:0:0:0:
64,192,234566,1,0,0:0:0:0:
192,192,234566,1,0,0:0:0:0:
320,192,234566,1,0,0:0:0:0:
64,192,234747,1,0,0:0:0:0:
192,192,234929,128,0,235111:0:0:0:0:
320,192,234929,128,0,235111:0:0:0:0:
448,192,235111,1,0,0:0:0:0:
64,192,235293,128,0,236020:0:0:0:0:
448,192,235293,1,0,0:0:0:0:
320,192,235293,1,0,0:0:0:0:
192,192,235293,128,0,235475:0:0:0:0:
448,192,235475,1,0,0:0:0:0:
192,192,235566,1,0,0:0:0:0:
320,192,235656,1,0,0:0:0:0:
192,192,235747,1,0,0:0:0:0:
320,192,235838,1,0,0:0:0:0:
448,192,235838,1,0,0:0:0:0:
448,192,236020,128,0,236384:0:0:0:0:
192,192,236020,1,0,0:0:0:0:
320,192,236020,128,0,236202:0:0:0:0:
64,192,236202,1,0,0:0:0:0:
320,192,236293,1,0,0:0:0:0:
192,192,236384,128,0,237838:0:0:0:0:
64,192,236384,128,0,236566:0:0:0:0:
320,192,236566,1,0,0:0:0:0:
448,192,236747,1,0,0:0:0:0:
64,192,236747,1,0,0:0:0:0:
320,192,236747,1,0,0:0:0:0:
320,192,236929,1,0,0:0:0:0:
64,192,237020,1,0,0:0:0:0:
448,192,237111,1,0,0:0:0:0:
64,192,237202,128,0,237293:0:0:0:0:
448,192,237293,1,0,0:0:0:0:
320,192,237293,128,0,237384:0:0:0:0:
64,192,237475,1,0,0:0:0:0:
320,192,237475,1,0,0:0:0:0:
448,192,237475,128,0,237566:0:0:0:0:
64,192,237656,1,0,0:0:0:0:
320,192,237747,1,0,0:0:0:0:
64,192,237838,128,0,238020:0:0:0:0:
448,192,237838,128,0,238020:0:0:0:0:
192,192,238020,1,0,0:0:0:0:
192,192,238202,1,0,0:0:0:0:
320,192,238202,1,0,0:0:0:0:
448,192,238202,1,0,0:0:0:0:
64,192,238384,1,0,0:0:0:0:
448,192,238475,1,0,0:0:0:0:
64,192,238566,128,0,238747:0:0:0:0:
448,192,238656,1,0,0:0:0:0:
320,192,238747,128,0,239293:0:0:0:0:
192,192,238747,1,0,0:0:0:0:
64,192,238929,1,0,0:0:0:0:
192,192,238929,1,0,0:0:0:0:
448,192,238929,1,0,0:0:0:0:
192,192,239111,1,0,0:0:0:0:
448,192,239202,1,0,0:0:0:0:
64,192,239293,128,0,240747:0:0:0:0:
192,192,239293,128,0,239475:0:0:0:0:
320,192,239475,1,0,0:0:0:0:
192,192,239656,1,0,0:0:0:0:
320,192,239656,1,0,0:0:0:0:
448,192,239656,1,0,0:0:0:0:
320,192,239838,1,0,0:0:0:0:
192,192,239929,1,0,0:0:0:0:
320,192,240020,1,0,0:0:0:0:
448,192,240111,1,0,0:0:0:0:
192,192,240202,1,0,0:0:0:0:
320,192,240384,1,0,0:0:0:0:
192,192,240384,1,0,0:0:0:0:
448,192,240384,1,0,0:0:0:0:
320,192,240566,1,0,0:0:0:0:
192,192,240747,128,0,240929:0:0:0:0:
448,192,240747,128,0,240929:0:0:0:0:
320,192,240929,1,0,0:0:0:0:
64,192,241111,1,0,0:0:0:0:
320,192,241111,1,0,0:0:0:0:
448,192,241111,1,0,0:0:0:0:
192,192,241293,1,0,0:0:0:0:
64,192,241384,1,0,0:0:0:0:
448,192,241475,128,0,242202:0:0:0:0:
320,192,241566,1,0,0:0:0:0:
192,192,241656,1,0,0:0:0:0:
64,192,241656,1,0,0:0:0:0:
320,192,241838,1,0,0:0:0:0:
192,192,241838,1,0,0:0:0:0:
64,192,241838,1,0,0:0:0:0:
320,192,242020,1,0,0:0:0:0:
64,192,242111,1,0,0:0:0:0:
320,192,242202,128,0,243656:0:0:0:0:
192,192,242202,128,0,242384:0:0:0:0:
448,192,242384,1,0,0:0:0:0:
64,192,242566,1,0,0:0:0:0:
192,192,242566,1,0,0:0:0:0:
448,192,242566,1,0,0:0:0:0:
64,192,242747,128,0,242929:0:0:0:0:
192,192,242838,1,0,0:0:0:0:
448,192,242929,1,0,0:0:0:0:
192,192,243020,1,0,0:0:0:0:
64,192,243111,1,0,0:0:0:0:
448,192,243293,1,0,0:0:0:0:
192,192,243293,1,0,0:0:0:0:
64,192,243293,1,0,0:0:0:0:
64,192,243475,1,0,0:0:0:0:
192,192,243566,1,0,0:0:0:0:
64,192,243656,128,0,244202:0:0:0:0:
448,192,243656,1,0,0:0:0:0:
192,192,243838,1,0,0:0:0:0:
448,192,244020,128,0,244566:0:0:0:0:
320,192,244020,1,0,0:0:0:0:
192,192,244020,1,0,0:0:0:0:
320,192,244202,1,0,0:0:0:0:
64,192,244293,1,0,0:0:0:0:
192,192,244384,128,0,244929:0:0:0:0:
320,192,244475,1,0,0:0:0:0:
64,192,244566,1,0,0:0:0:0:
64,192,244747,128,0,245111:0:0:0:0:
448,192,244747,1,0,0:0:0:0:
320,192,244747,1,0,0:0:0:0:
320,192,244929,1,0,0:0:0:0:
192,192,245020,1,0,0:0:0:0:
448,192,245111,128,0,245384:0:0:0:0:
320,192,245111,128,0,245384:0:0:0:0:
192,192,245293,128,0,245566:0:0:0:0:
64,192,245475,128,0,245838:0:0:0:0:
448,192,245475,128,0,245747:0:0:0:0:
320,192,245475,128,0,245656:0:0:0:0:
192,192,245656,128,0,245929:0:0:0:0:
320,192,245747,128,0,246111:0:0:0:0:
448,192,245838,128,0,246111:0:0:0:0:
64,192,245929,128,0,246111:0:0:0:0:
192,192,246020,128,0,246293:0:0:0:0:
320,192,246202,128,0,246384:0:0:0:0:
448,192,246202,128,0,246475:0:0:0:0:
64,192,246202,128,0,246475:0:0:0:0:
192,192,246384,128,0,246838:0:0:0:0:
320,192,246475,128,0,246656:0:0:0:0:
448,192,246566,128,0,246838:0:0:0:0:
64,192,246566,128,0,246838:0:0:0:0:
320,192,246747,128,0,247020:0:0:0:0:
64,192,246929,128,0,247202:0:0:0:0:
192,192,246929,128,0,247111:0:0:0:0:
448,192,246929,128,0,247293:0:0:0:0:
320,192,247111,128,0,247384:0:0:0:0:
192,192,247202,128,0,247566:0:0:0:0:
64,192,247293,128,0,247566:0:0:0:0:
448,192,247384,128,0,247566:0:0:0:0:
320,192,247475,128,0,247838:0:0:0:0:
64,192,247656,128,0,247838:0:0:0:0:
448,192,247656,128,0,247838:0:0:0:0:
192,192,247656,128,0,247747:0:0:0:0:
192,192,247838,1,0,0:0:0:0:
320,192,247929,1,0,0:0:0:0:
448,192,248020,1,0,0:0:0:0:
64,192,248020,1,0,0:0:0:0:
448,192,248202,1,0,0:0:0:0:
64,192,248384,1,0,0:0:0:0:
192,192,248384,1,0,0:0:0:0:
320,192,248384,1,0,0:0:0:0:
448,192,248566,1,0,0:0:0:0:
64,192,248656,1,0,0:0:0:0:
320,192,248747,128,0,249656:0:0:0:0:
192,192,248838,1,0,0:0:0:0:
64,192,248929,1,0,0:0:0:0:
448,192,249111,1,0,0:0:0:0:
192,192,249111,1,0,0:0:0:0:
64,192,249111,1,0,0:0:0:0:
192,192,249293,1,0,0:0:0:0:
64,192,249475,128,0,250020:0:0:0:0:
448,192,249475,1,0,0:0:0:0:
192,192,249656,1,0,0:0:0:0:
448,192,249838,128,0,250293:0:0:0:0:
192,192,249838,1,0,0:0:0:0:
320,192,249838,1,0,0:0:0:0:
192,192,250020,1,0,0:0:0:0:
320,192,250066,1,0,0:0:0:0:
64,192,250111,1,0,0:0:0:0:
192,192,250202,128,0,250747:0:0:0:0:
320,192,250202,1,0,0:0:0:0:
64,192,250293,1,0,0:0:0:0:
448,192,250384,1,0,0:0:0:0:
320,192,250384,1,0,0:0:0:0:
320,192,250566,128,0,250929:0:0:0:0:
448,192,250566,1,0,0:0:0:0:
64,192,250566,1,0,0:0:0:0:
64,192,250747,1,0,0:0:0:0:
448,192,250838,1,0,0:0:0:0:
64,192,250929,128,0,251202:0:0:0:0:
192,192,250929,128,0,251202:0:0:0:0:
448,192,251111,128,0,251384:0:0:0:0:
320,192,251293,128,0,251475:0:0:0:0:
192,192,251293,128,0,251566:0:0:0:0:
64,192,251293,128,0,251656:0:0:0:0:
448,192,251475,128,0,251747:0:0:0:0:
320,192,251566,128,0,251929:0:0:0:0:
192,192,251656,128,0,251929:0:0:0:0:
64,192,251747,128,0,251929:0:0:0:0:
448,192,251838,128,0,252020:0:0:0:0:
64,192,252020,1,0,0:0:0:0:
320,192,252020,1,0,0:0:0:0:
192,192,252020,1,0,0:0:0:0:
448,192,252111,1,0,0:0:0:0:
192,192,252202,1,0,0:0:0:0:
64,192,252293,1,0,0:0:0:0:
448,192,252384,128,0,252656:0:0:0:0:
320,192,252384,128,0,252656:0:0:0:0:
64,192,252566,128,0,252838:0:0:0:0:
192,192,252747,128,0,252929:0:0:0:0:
320,192,252747,128,0,253020:0:0:0:0:
448,192,252747,128,0,253111:0:0:0:0:
64,192,252929,128,0,253202:0:0:0:0:
192,192,253020,128,0,253384:0:0:0:0:
320,192,253111,128,0,253384:0:0:0:0:
448,192,253202,128,0,253384:0:0:0:0:
64,192,253293,128,0,253475:0:0:0:0:
448,192,253475,1,0,0:0:0:0:
320,192,253475,1,0,0:0:0:0:
192,192,253475,1,0,0:0:0:0:
64,192,253566,1,0,0:0:0:0:
320,192,253656,1,0,0:0:0:0:
192,192,253747,1,0,0:0:0:0:
448,192,253838,128,0,254020:0:0:0:0:
64,192,253838,128,0,254111:0:0:0:0:
192,192,253929,128,0,254111:0:0:0:0:
320,192,254020,128,0,254111:0:0:0:0:
448,192,254111,128,0,254202:0:0:0:0:
64,192,254202,128,0,254384:0:0:0:0:
320,192,254202,128,0,254293:0:0:0:0:
192,192,254202,128,0,254475:0:0:0:0:
448,192,254293,128,0,254566:0:0:0:0:
320,192,254384,128,0,254656:0:0:0:0:
64,192,254475,128,0,254747:0:0:0:0:
192,192,254566,128,0,254838:0:0:0:0:
448,192,254656,128,0,254838:0:0:0:0:
320,192,254747,128,0,254838:0:0:0:0:
64,192,254838,128,0,254929:0:0:0:0:
448,192,254929,1,0,0:0:0:0:
320,192,254929,1,0,0:0:0:0:
192,192,254929,128,0,255111:0:0:0:0:
64,192,255020,128,0,255202:0:0:0:0:
448,192,255111,128,0,255293:0:0:0:0:
320,192,255202,128,0,255384:0:0:0:0:
64,192,255293,1,0,0:0:0:0:
192,192,255293,128,0,255475:0:0:0:0:
448,192,255384,128,0,255566:0:0:0:0:
320,192,255475,1,0,0:0:0:0:
64,192,255475,128,0,255656:0:0:0:0:
192,192,255566,128,0,255747:0:0:0:0:
448,192,255656,1,0,0:0:0:0:
320,192,255656,128,0,255838:0:0:0:0:
64,192,255747,128,0,255929:0:0:0:0:
448,192,255838,128,0,256020:0:0:0:0:
192,192,255929,128,0,256111:0:0:0:0:
320,192,256020,1,0,0:0:0:0:
64,192,256020,128,0,256293:0:0:0:0:
448,192,256111,128,0,256384:0:0:0:0:
320,192,256202,128,0,256384:0:0:0:0:
192,192,256293,128,0,256384:0:0:0:0:
64,192,256384,128,0,256505:0:0:0:0:
448,192,256444,128,0,256566:0:0:0:0:
192,192,256505,128,0,256626:0:0:0:0:
320,192,256566,128,0,256687:0:0:0:0:
448,192,256626,128,0,256747:0:0:0:0:
192,192,256687,1,0,0:0:0:0:
64,192,256747,128,0,256838:0:0:0:0:
320,192,256747,1,0,0:0:0:0:
448,192,256838,128,0,256929:0:0:0:0:
64,192,256929,128,0,257020:0:0:0:0:
448,192,257020,128,0,257111:0:0:0:0:
192,192,257111,128,0,257202:0:0:0:0:
64,192,257111,1,0,0:0:0:0:
320,192,257202,128,0,257293:0:0:0:0:
192,192,257293,128,0,257384:0:0:0:0:
320,192,257384,128,0,257475:0:0:0:0:
64,192,257475,128,0,257566:0:0:0:0:
192,192,257475,1,0,0:0:0:0:
448,192,257566,128,0,257656:0:0:0:0:
64,192,257656,128,0,257747:0:0:0:0:
448,192,257747,128,0,257838:0:0:0:0:
192,192,257838,128,0,257929:0:0:0:0:
64,192,257838,1,0,0:0:0:0:
320,192,257929,128,0,258020:0:0:0:0:
192,192,258020,128,0,258111:0:0:0:0:
320,192,258111,128,0,258202:0:0:0:0:
448,192,258202,1,0,0:0:0:0:
64,192,258202,128,0,258293:0:0:0:0:
192,192,258384,1,0,0:0:0:0:
320,192,258475,1,0,0:0:0:0:
192,192,258566,1,0,0:0:0:0:
64,192,258566,1,0,0:0:0:0:
448,192,258566,1,0,0:0:0:0:
192,192,258747,128,0,258838:0:0:0:0:
320,192,258838,1,0,0:0:0:0:
448,192,258838,1,0,0:0:0:0:
64,192,258929,1,0,0:0:0:0:
192,192,258929,1,0,0:0:0:0:
320,192,259020,1,0,0:0:0:0:
64,192,259111,1,0,0:0:0:0:
448,192,259111,1,0,0:0:0:0:
192,192,259202,1,0,0:0:0:0:
320,192,259293,1,0,0:0:0:0:
448,192,259293,1,0,0:0:0:0:
64,192,259293,1,0,0:0:0:0:
320,192,259475,128,0,259566:0:0:0:0:
192,192,259566,1,0,0:0:0:0:
320,192,259656,1,0,0:0:0:0:
448,192,259656,1,0,0:0:0:0:
64,192,259838,1,0,0:0:0:0:
320,192,259929,1,0,0:0:0:0:
192,192,260020,1,0,0:0:0:0:
64,192,260020,1,0,0:0:0:0:
448,192,260020,1,0,0:0:0:0:
320,192,260202,1,0,0:0:0:0:
192,192,260293,1,0,0:0:0:0:
64,192,260293,1,0,0:0:0:0:
320,192,260384,1,0,0:0:0:0:
448,192,260384,1,0,0:0:0:0:
64,192,260475,1,0,0:0:0:0:
448,192,260566,1,0,0:0:0:0:
320,192,260566,1,0,0:0:0:0:
192,192,260656,1,0,0:0:0:0:
320,192,260747,1,0,0:0:0:0:
448,192,260747,1,0,0:0:0:0:
64,192,260747,1,0,0:0:0:0:
64,192,260929,1,0,0:0:0:0:
192,192,261020,1,0,0:0:0:0:
448,192,261111,1,0,0:0:0:0:
64,192,261111,128,0,261202:0:0:0:0:
192,192,261293,1,0,0:0:0:0:
64,192,261384,1,0,0:0:0:0:
320,192,261475,1,0,0:0:0:0:
448,192,261475,1,0,0:0:0:0:
192,192,261475,1,0,0:0:0:0:
320,192,261656,128,0,261747:0:0:0:0:
192,192,261747,1,0,0:0:0:0:
64,192,261747,1,0,0:0:0:0:
320,192,261838,1,0,0:0:0:0:
448,192,261838,1,0,0:0:0:0:
64,192,261929,1,0,0:0:0:0:
448,192,262020,1,0,0:0:0:0:
192,192,262020,1,0,0:0:0:0:
320,192,262111,1,0,0:0:0:0:
192,192,262202,1,0,0:0:0:0:
64,192,262202,1,0,0:0:0:0:
448,192,262202,1,0,0:0:0:0:
64,192,262384,128,0,262475:0:0:0:0:
192,192,262475,1,0,0:0:0:0:
320,192,262566,1,0,0:0:0:0:
448,192,262566,1,0,0:0:0:0:
448,192,262747,1,0,0:0:0:0:
192,192,262838,1,0,0:0:0:0:
64,192,262929,1,0,0:0:0:0:
448,192,262929,1,0,0:0:0:0:
320,192,262929,1,0,0:0:0:0:
192,192,263111,1,0,0:0:0:0:
448,192,263202,1,0,0:0:0:0:
64,192,263202,1,0,0:0:0:0:
320,192,263293,1,0,0:0:0:0:
192,192,263293,1,0,0:0:0:0:
64,192,263384,1,0,0:0:0:0:
448,192,263475,1,0,0:0:0:0:
320,192,263475,1,0,0:0:0:0:
192,192,263566,1,0,0:0:0:0:
320,192,263656,1,0,0:0:0:0:
64,192,263656,1,0,0:0:0:0:
448,192,263656,1,0,0:0:0:0:
320,192,263838,1,0,0:0:0:0:
192,192,263929,1,0,0:0:0:0:
320,192,264020,1,0,0:0:0:0:
448,192,264020,128,0,264111:0:0:0:0:
192,192,264202,1,0,0:0:0:0:
448,192,264293,1,0,0:0:0:0:
192,192,264384,1,0,0:0:0:0:
64,192,264384,1,0,0:0:0:0:
320,192,264384,128,0,264475:0:0:0:0:
192,192,264566,128,0,264656:0:0:0:0:
320,192,264656,1,0,0:0:0:0:
64,192,264656,1,0,0:0:0:0:
192,192,264747,1,0,0:0:0:0:
448,192,264747,128,0,264838:0:0:0:0:
64,192,264838,1,0,0:0:0:0:
320,192,264929,128,0,265020:0:0:0:0:
448,192,264929,1,0,0:0:0:0:
192,192,265020,1,0,0:0:0:0:
320,192,265111,1,0,0:0:0:0:
448,192,265111,1,0,0:0:0:0:
64,192,265111,128,0,265202:0:0:0:0:
320,192,265293,128,0,265384:0:0:0:0:
192,192,265384,1,0,0:0:0:0:
64,192,265475,1,0,0:0:0:0:
448,192,265475,128,0,265566:0:0:0:0:
192,192,265656,1,0,0:0:0:0:
320,192,265747,1,0,0:0:0:0:
64,192,265838,1,0,0:0:0:0:
448,192,265838,1,0,0:0:0:0:
192,192,265838,1,0,0:0:0:0:
320,192,266020,1,0,0:0:0:0:
192,192,266111,1,0,0:0:0:0:
64,192,266111,1,0,0:0:0:0:
320,192,266202,1,0,0:0:0:0:
448,192,266202,1,0,0:0:0:0:
64,192,266293,1,0,0:0:0:0:
448,192,266384,1,0,0:0:0:0:
192,192,266384,1,0,0:0:0:0:
320,192,266475,1,0,0:0:0:0:
192,192,266566,1,0,0:0:0:0:
64,192,266566,1,0,0:0:0:0:
448,192,266566,1,0,0:0:0:0:
64,192,266747,1,0,0:0:0:0:
320,192,266838,1,0,0:0:0:0:
192,192,266929,128,0,267111:0:0:0:0:
448,192,266929,128,0,267020:0:0:0:0:
320,192,267111,128,0,267202:0:0:0:0:
192,192,267202,128,0,267293:0:0:0:0:
320,192,267293,1,0,0:0:0:0:
448,192,267293,128,0,267475:0:0:0:0:
64,192,267293,128,0,267384:0:0:0:0:
320,192,267475,128,0,267566:0:0:0:0:
64,192,267566,1,0,0:0:0:0:
192,192,267566,128,0,267656:0:0:0:0:
320,192,267656,128,0,267838:0:0:0:0:
448,192,267656,128,0,267747:0:0:0:0:
64,192,267747,128,0,267838:0:0:0:0:
448,192,267838,128,0,267929:0:0:0:0:
192,192,267929,128,0,268020:0:0:0:0:
448,192,268020,1,0,0:0:0:0:
64,192,268020,128,0,268202:0:0:0:0:
320,192,268020,128,0,268111:0:0:0:0:
448,192,268202,128,0,268293:0:0:0:0:
192,192,268293,128,0,268384:0:0:0:0:
64,192,268293,1,0,0:0:0:0:
320,192,268384,1,0,0:0:0:0:
448,192,268384,128,0,268475:0:0:0:0:
192,192,268566,1,0,0:0:0:0:
320,192,268656,1,0,0:0:0:0:
192,192,268747,1,0,0:0:0:0:
64,192,268747,1,0,0:0:0:0:
448,192,268747,1,0,0:0:0:0:
320,192,268929,1,0,0:0:0:0:
192,192,269020,1,0,0:0:0:0:
64,192,269020,1,0,0:0:0:0:
320,192,269111,1,0,0:0:0:0:
448,192,269111,1,0,0:0:0:0:
64,192,269202,1,0,0:0:0:0:
192,192,269293,1,0,0:0:0:0:
448,192,269293,1,0,0:0:0:0:
320,192,269384,128,0,269475:0:0:0:0:
448,192,269475,1,0,0:0:0:0:
192,192,269475,1,0,0:0:0:0:
64,192,269475,128,0,269566:0:0:0:0:
320,192,269656,128,0,269747:0:0:0:0:
192,192,269747,128,0,269838:0:0:0:0:
64,192,269838,1,0,0:0:0:0:
448,192,269838,128,0,269929:0:0:0:0:
320,192,270020,1,0,0:0:0:0:
192,192,270111,1,0,0:0:0:0:
64,192,270202,1,0,0:0:0:0:
448,192,270202,1,0,0:0:0:0:
320,192,270202,1,0,0:0:0:0:
192,192,270384,128,0,270475:0:0:0:0:
320,192,270475,1,0,0:0:0:0:
448,192,270475,1,0,0:0:0:0:
192,192,270566,1,0,0:0:0:0:
64,192,270566,1,0,0:0:0:0:
448,192,270656,1,0,0:0:0:0:
192,192,270747,1,0,0:0:0:0:
64,192,270747,1,0,0:0:0:0:
320,192,270838,1,0,0:0:0:0:
192,192,270929,1,0,0:0:0:0:
64,192,270929,1,0,0:0:0:0:
448,192,270929,1,0,0:0:0:0:
64,192,271111,128,0,271202:0:0:0:0:
448,192,271202,1,0,0:0:0:0:
320,192,271202,1,0,0:0:0:0:
192,192,271293,1,0,0:0:0:0:
64,192,271293,1,0,0:0:0:0:
64,192,271475,1,0,0:0:0:0:
192,192,271566,1,0,0:0:0:0:
64,192,271656,1,0,0:0:0:0:
448,192,271656,1,0,0:0:0:0:
320,192,271656,1,0,0:0:0:0:
64,192,271838,1,0,0:0:0:0:
448,192,271929,1,0,0:0:0:0:
320,192,271929,1,0,0:0:0:0:
64,192,272020,1,0,0:0:0:0:
192,192,272020,1,0,0:0:0:0:
320,192,272111,1,0,0:0:0:0:
448,192,272202,128,0,272293:0:0:0:0:
192,192,272202,1,0,0:0:0:0:
64,192,272293,128,0,272384:0:0:0:0:
320,192,272384,1,0,0:0:0:0:
192,192,272384,1,0,0:0:0:0:
448,192,272384,128,0,272475:0:0:0:0:
64,192,272566,128,0,272656:0:0:0:0:
192,192,272656,128,0,272747:0:0:0:0:
320,192,272747,1,0,0:0:0:0:
448,192,272747,1,0,0:0:0:0:
64,192,272929,1,0,0:0:0:0:
320,192,273020,1,0,0:0:0:0:
192,192,273111,1,0,0:0:0:0:
448,192,273111,1,0,0:0:0:0:
64,192,273111,1,0,0:0:0:0:
448,192,273293,1,0,0:0:0:0:
192,192,273384,1,0,0:0:0:0:
64,192,273384,1,0,0:0:0:0:
320,192,273475,1,0,0:0:0:0:
448,192,273475,1,0,0:0:0:0:
64,192,273566,1,0,0:0:0:0:
320,192,273656,1,0,0:0:0:0:
448,192,273656,1,0,0:0:0:0:
192,192,273747,1,0,0:0:0:0:
64,192,273838,1,0,0:0:0:0:
320,192,273838,1,0,0:0:0:0:
448,192,273838,1,0,0:0:0:0:
192,192,274020,1,0,0:0:0:0:
448,192,274111,1,0,0:0:0:0:
320,192,274111,1,0,0:0:0:0:
192,192,274202,1,0,0:0:0:0:
64,192,274202,1,0,0:0:0:0:
192,192,274384,1,0,0:0:0:0:
320,192,274475,1,0,0:0:0:0:
448,192,274566,1,0,0:0:0:0:
64,192,274566,1,0,0:0:0:0:
192,192,274566,1,0,0:0:0:0:
448,192,274747,1,0,0:0:0:0:
192,192,274838,1,0,0:0:0:0:
320,192,274838,1,0,0:0:0:0:
64,192,274929,1,0,0:0:0:0:
448,192,274929,1,0,0:0:0:0:
320,192,275020,1,0,0:0:0:0:
64,192,275111,128,0,275202:0:0:0:0:
192,192,275111,1,0,0:0:0:0:
320,192,275202,128,0,275293:0:0:0:0:
192,192,275293,1,0,0:0:0:0:
64,192,275293,1,0,0:0:0:0:
448,192,275293,128,0,275384:0:0:0:0:
192,192,275475,128,0,275566:0:0:0:0:
320,192,275566,128,0,275656:0:0:0:0:
64,192,275656,1,0,0:0:0:0:
448,192,275656,1,0,0:0:0:0:
320,192,275838,1,0,0:0:0:0:
192,192,275929,1,0,0:0:0:0:
320,192,276020,1,0,0:0:0:0:
448,192,276020,1,0,0:0:0:0:
64,192,276020,1,0,0:0:0:0:
320,192,276202,1,0,0:0:0:0:
64,192,276293,1,0,0:0:0:0:
192,192,276293,1,0,0:0:0:0:
448,192,276384,1,0,0:0:0:0:
320,192,276384,1,0,0:0:0:0:
192,192,276475,1,0,0:0:0:0:
320,192,276566,1,0,0:0:0:0:
64,192,276566,1,0,0:0:0:0:
448,192,276656,1,0,0:0:0:0:
64,192,276747,1,0,0:0:0:0:
192,192,276747,1,0,0:0:0:0:
320,192,276747,1,0,0:0:0:0:
448,192,276929,1,0,0:0:0:0:
192,192,277020,1,0,0:0:0:0:
64,192,277020,1,0,0:0:0:0:
320,192,277111,1,0,0:0:0:0:
448,192,277111,1,0,0:0:0:0:
64,192,277202,128,0,277293:0:0:0:0:
448,192,277293,1,0,0:0:0:0:
320,192,277384,1,0,0:0:0:0:
192,192,277475,1,0,0:0:0:0:
64,192,277475,1,0,0:0:0:0:
448,192,277475,1,0,0:0:0:0:
192,192,277656,128,0,277747:0:0:0:0:
320,192,277747,128,0,277838:0:0:0:0:
448,192,277747,1,0,0:0:0:0:
192,192,277838,1,0,0:0:0:0:
64,192,277838,1,0,0:0:0:0:
448,192,277929,1,0,0:0:0:0:
64,192,278020,1,0,0:0:0:0:
320,192,278020,1,0,0:0:0:0:
192,192,278111,128,0,278202:0:0:0:0:
320,192,278202,1,0,0:0:0:0:
64,192,278202,1,0,0:0:0:0:
448,192,278202,128,0,278293:0:0:0:0:
192,192,278384,128,0,278475:0:0:0:0:
320,192,278475,128,0,278566:0:0:0:0:
448,192,278566,1,0,0:0:0:0:
192,192,278566,1,0,0:0:0:0:
64,192,278656,1,0,0:0:0:0:
320,192,278747,128,0,278838:0:0:0:0:
64,192,278838,128,0,278929:0:0:0:0:
192,192,278929,1,0,0:0:0:0:
320,192,278929,1,0,0:0:0:0:
448,192,278929,128,0,279020:0:0:0:0:
64,192,279020,128,0,279111:0:0:0:0:
320,192,279111,128,0,279202:0:0:0:0:
64,192,279202,128,0,279293:0:0:0:0:
320,192,279293,5,0,0:0:0:0:
448,192,279293,128,0,279384:0:0:0:0:
192,192,279384,1,0,0:0:0:0:
448,192,279475,128,0,279566:0:0:0:0:
320,192,279475,128,0,279566:0:0:0:0:
192,192,279656,1,0,0:0:0:0:
64,192,279702,1,0,0:0:0:0:
320,192,279747,1,0,0:0:0:0:
448,192,279793,1,0,0:0:0:0:
192,192,279838,1,0,0:0:0:0:
64,192,279884,1,0,0:0:0:0:
320,192,279929,1,0,0:0:0:0:
192,192,279975,1,0,0:0:0:0:
64,192,280020,5,0,0:0:0:0:
320,192,280020,1,0,0:0:0:0:
448,192,280020,1,0,0:0:0:0:
320,192,280202,1,0,0:0:0:0:
64,192,280384,1,0,0:0:0:0:
64,192,280566,1,0,0:0:0:0:
320,192,280656,1,0,0:0:0:0:
64,192,280929,1,0,0:0:0:0:
192,192,280929,1,0,0:0:0:0:
448,192,281111,1,0,0:0:0:0:
320,192,281111,1,0,0:0:0:0:
192,192,281293,1,0,0:0:0:0:
192,192,281475,1,0,0:0:0:0:
320,192,281475,128,0,281838:0:0:0:0:
192,192,281838,1,0,0:0:0:0:
448,192,281838,1,0,0:0:0:0:
64,192,281838,128,0,282202:0:0:0:0:
320,192,282020,1,0,0:0:0:0:
192,192,282111,1,0,0:0:0:0:
448,192,282202,128,0,282566:0:0:0:0:
64,192,282293,1,0,0:0:0:0:
192,192,282384,1,0,0:0:0:0:
320,192,282384,1,0,0:0:0:0:
64,192,282566,1,0,0:0:0:0:
320,192,282566,1,0,0:0:0:0:
192,192,282566,128,0,282929:0:0:0:0:
320,192,282838,1,0,0:0:0:0:
448,192,282929,1,0,0:0:0:0:
64,192,282929,128,0,283020:0:0:0:0:
192,192,283020,128,0,283111:0:0:0:0:
320,192,283111,128,0,283202:0:0:0:0:
192,192,283202,128,0,283293:0:0:0:0:
64,192,283293,1,0,0:0:0:0:
448,192,283293,128,0,283384:0:0:0:0:
320,192,283384,128,0,283475:0:0:0:0:
192,192,283475,128,0,283566:0:0:0:0:
448,192,283566,1,0,0:0:0:0:
192,192,283656,128,0,283747:0:0:0:0:
64,192,283747,128,0,283838:0:0:0:0:
448,192,283838,1,0,0:0:0:0:
320,192,283929,128,0,284020:0:0:0:0:
192,192,284020,1,0,0:0:0:0:
64,192,284020,128,0,284111:0:0:0:0:
448,192,284111,128,0,284202:0:0:0:0:
320,192,284202,1,0,0:0:0:0:
192,192,284293,128,0,284384:0:0:0:0:
64,192,284384,1,0,0:0:0:0:
448,192,284384,128,0,284929:0:0:0:0:
192,192,284747,1,0,0:0:0:0:
64,192,284747,1,0,0:0:0:0:
320,192,284838,1,0,0:0:0:0:
64,192,284929,128,0,285111:0:0:0:0:
320,192,285111,128,0,285475:0:0:0:0:
192,192,285202,1,0,0:0:0:0:
448,192,285293,1,0,0:0:0:0:
192,192,285475,1,0,0:0:0:0:
64,192,285475,128,0,285838:0:0:0:0:
192,192,285747,1,0,0:0:0:0:
448,192,285838,1,0,0:0:0:0:
320,192,285838,128,0,285929:0:0:0:0:
192,192,285929,128,0,286020:0:0:0:0:
448,192,286020,128,0,286111:0:0:0:0:
320,192,286111,128,0,286202:0:0:0:0:
448,192,286202,1,0,0:0:0:0:
64,192,286202,128,0,286293:0:0:0:0:
192,192,286293,128,0,286384:0:0:0:0:
448,192,286384,128,0,286475:0:0:0:0:
192,192,286475,1,0,0:0:0:0:
64,192,286566,128,0,286656:0:0:0:0:
448,192,286656,128,0,286747:0:0:0:0:
192,192,286747,1,0,0:0:0:0:
64,192,286838,128,0,286929:0:0:0:0:
320,192,286929,1,0,0:0:0:0:
448,192,286929,128,0,287020:0:0:0:0:
192,192,287020,128,0,287111:0:0:0:0:
64,192,287111,1,0,0:0:0:0:
320,192,287202,128,0,287293:0:0:0:0:
448,192,287293,128,0,287838:0:0:0:0:
192,192,287293,1,0,0:0:0:0:
64,192,287475,1,0,0:0:0:0:
320,192,287656,1,0,0:0:0:0:
64,192,287838,128,0,288384:0:0:0:0:
192,192,287929,1,0,0:0:0:0:
320,192,288020,1,0,0:0:0:0:
448,192,288111,1,0,0:0:0:0:
192,192,288202,1,0,0:0:0:0:
192,192,288384,128,0,288747:0:0:0:0:
448,192,288444,1,0,0:0:0:0:
64,192,288505,1,0,0:0:0:0:
320,192,288626,1,0,0:0:0:0:
64,192,288747,1,0,0:0:0:0:
448,192,288747,1,0,0:0:0:0:
320,192,288838,128,0,288929:0:0:0:0:
192,192,288929,128,0,289020:0:0:0:0:
320,192,289020,128,0,289111:0:0:0:0:
64,192,289111,1,0,0:0:0:0:
448,192,289202,128,0,289293:0:0:0:0:
320,192,289293,128,0,289384:0:0:0:0:
64,192,289384,1,0,0:0:0:0:
192,192,289475,128,0,289566:0:0:0:0:
448,192,289566,128,0,289656:0:0:0:0:
64,192,289656,1,0,0:0:0:0:
192,192,289747,128,0,289838:0:0:0:0:
448,192,289838,1,0,0:0:0:0:
320,192,289929,128,0,290020:0:0:0:0:
64,192,290020,1,0,0:0:0:0:
192,192,290066,1,0,0:0:0:0:
448,192,290111,128,0,290202:0:0:0:0:
320,192,290202,1,0,0:0:0:0:
64,192,290202,128,0,290566:0:0:0:0:
448,192,290566,128,0,290929:0:0:0:0:
192,192,290656,1,0,0:0:0:0:
320,192,290747,1,0,0:0:0:0:
64,192,290838,1,0,0:0:0:0:
192,192,290929,128,0,291293:0:0:0:0:
320,192,291020,1,0,0:0:0:0:
64,192,291111,1,0,0:0:0:0:
448,192,291293,128,0,291656:0:0:0:0:
320,192,291293,1,0,0:0:0:0:
64,192,291566,1,0,0:0:0:0:
320,192,291656,128,0,291838:0:0:0:0:
64,192,291747,128,0,291838:0:0:0:0:
448,192,291838,128,0,291929:0:0:0:0:
320,192,291929,128,0,292202:0:0:0:0:
64,192,292020,128,0,292111:0:0:0:0:
192,192,292111,128,0,292202:0:0:0:0:
448,192,292202,128,0,292293:0:0:0:0:
320,192,292293,128,0,292384:0:0:0:0:
64,192,292384,1,0,0:0:0:0:
192,192,292475,128,0,292566:0:0:0:0:
448,192,292566,1,0,0:0:0:0:
192,192,292656,128,0,292747:0:0:0:0:
320,192,292747,1,0,0:0:0:0:
64,192,292747,128,0,292838:0:0:0:0:
448,192,292838,1,0,0:0:0:0:
192,192,292929,128,0,293020:0:0:0:0:
320,192,293020,128,0,293111:0:0:0:0:
192,192,293111,1,0,0:0:0:0:
448,192,293111,128,0,293475:0:0:0:0:
64,192,293475,128,0,293838:0:0:0:0:
320,192,293475,1,0,0:0:0:0:
192,192,293838,128,0,294202:0:0:0:0:
448,192,293838,1,0,0:0:0:0:
448,192,294202,128,0,294566:0:0:0:0:
320,192,294270,1,0,0:0:0:0:
192,192,294353,1,0,0:0:0:0:
64,192,294414,1,0,0:0:0:0:
320,192,294566,128,0,294747:0:0:0:0:
192,192,294656,128,0,294747:0:0:0:0:
64,192,294747,128,0,294838:0:0:0:0:
320,192,294838,128,0,295111:0:0:0:0:
448,192,294929,128,0,295020:0:0:0:0:
192,192,295020,128,0,295111:0:0:0:0:
64,192,295111,128,0,295202:0:0:0:0:
448,192,295202,128,0,295293:0:0:0:0:
320,192,295293,128,0,295384:0:0:0:0:
192,192,295384,128,0,295475:0:0:0:0:
64,192,295475,128,0,295566:0:0:0:0:
320,192,295566,128,0,295656:0:0:0:0:
448,192,295656,128,0,295747:0:0:0:0:
64,192,295747,128,0,295838:0:0:0:0:
192,192,295838,1,0,0:0:0:0:
448,192,295929,128,0,296020:0:0:0:0:
320,192,296020,1,0,0:0:0:0:
64,192,296020,128,0,296566:0:0:0:0:
320,192,296384,1,0,0:0:0:0:
448,192,296475,1,0,0:0:0:0:
192,192,296566,1,0,0:0:0:0:
320,192,296566,128,0,297475:0:0:0:0:
192,192,296747,1,0,0:0:0:0:
448,192,296929,1,0,0:0:0:0:
448,192,297111,1,0,0:0:0:0:
64,192,297475,128,0,297656:0:0:0:0:
448,192,297566,128,0,297656:0:0:0:0:
320,192,297656,128,0,297747:0:0:0:0:
64,192,297747,128,0,298020:0:0:0:0:
192,192,297838,128,0,297929:0:0:0:0:
448,192,297929,128,0,298020:0:0:0:0:
320,192,298020,128,0,298111:0:0:0:0:
192,192,298111,128,0,298202:0:0:0:0:
64,192,298202,1,0,0:0:0:0:
448,192,298293,128,0,298384:0:0:0:0:
192,192,298384,1,0,0:0:0:0:
64,192,298475,128,0,298566:0:0:0:0:
320,192,298566,1,0,0:0:0:0:
448,192,298566,128,0,298656:0:0:0:0:
192,192,298656,1,0,0:0:0:0:
448,192,298747,128,0,298838:0:0:0:0:
64,192,298838,128,0,298929:0:0:0:0:
320,192,298929,1,0,0:0:0:0:
320,192,299293,1,0,0:0:0:0:
320,192,299656,1,0,0:0:0:0:
320,192,300020,1,0,0:0:0:0:
192,192,300088,1,0,0:0:0:0:
64,192,300172,1,0,0:0:0:0:
448,192,300232,1,0,0:0:0:0:
192,192,300384,1,0,0:0:0:0:
320,192,300475,128,0,300566:0:0:0:0:
448,192,300566,128,0,300656:0:0:0:0:
192,192,300656,128,0,300747:0:0:0:0:
64,192,300747,1,0,0:0:0:0:
320,192,300838,128,0,300975:0:0:0:0:
192,192,300929,128,0,301066:0:0:0:0:
64,192,301020,128,0,301111:0:0:0:0:
320,192,301111,1,0,0:0:0:0:
448,192,301202,128,0,301384:0:0:0:0:
320,192,301293,128,0,301475:0:0:0:0:
64,192,301384,128,0,301475:0:0:0:0:
448,192,301475,1,0,0:0:0:0:
192,192,301566,128,0,301793:0:0:0:0:
64,192,301656,128,0,301838:0:0:0:0:
448,192,301747,128,0,301838:0:0:0:0:
320,192,301838,1,0,0:0:0:0:
192,192,301929,128,0,302111:0:0:0:0:
64,192,301959,128,0,302111:0:0:0:0:
320,192,302020,128,0,302202:0:0:0:0:
448,192,302050,128,0,302202:0:0:0:0:
64,192,302202,128,0,302293:0:0:0:0:
448,192,302293,128,0,302475:0:0:0:0:
320,192,302323,128,0,302475:0:0:0:0:
64,192,302384,128,0,302566:0:0:0:0:
192,192,302414,128,0,302566:0:0:0:0:
448,192,302566,128,0,302929:0:0:0:0:
320,192,302656,128,0,302838:0:0:0:0:
64,192,302747,128,0,303202:0:0:0:0:
192,192,302838,128,0,303020:0:0:0:0:
320,192,302929,128,0,303111:0:0:0:0:
448,192,303020,128,0,303293:0:0:0:0:
192,192,303111,128,0,303293:0:0:0:0:
320,192,303202,128,0,303293:0:0:0:0:
64,192,303293,5,0,0:0:0:0:
