osu file format v14

[General]
AudioFilename: audio.mp3
AudioLeadIn: 0
PreviewTime: 209835
Countdown: 0
SampleSet: Normal
StackLeniency: 0.7
Mode: 1
LetterboxInBreaks: 0
WidescreenStoryboard: 0

[Editor]
Bookmarks: 8017,31290,54563,66200,89472,101109,114200,137472,160745,172381,178200,184018,195654,207290,210200,233472,256745,280018,303290
DistanceSpacing: 1
BeatDivisor: 8
GridSize: 32
TimelineZoom: 1

[Metadata]
Title:DYE/Re:flection+
TitleUnicode:DYE/Re:flection+
Artist:AVTechNO!xTreow
ArtistUnicode:AVTechNO!×Treow
Creator:Alchyr
Version:Stained
Source:
Tags:idm glitch breakcore drum and bass electronic electrocutica vocaloid megurine luka treow reminixe
BeatmapID:1910102
BeatmapSetID:914521

[Difficulty]
HPDrainRate:5
CircleSize:2
OverallDifficulty:6
ApproachRate:10
SliderMultiplier:1.4
SliderTickRate:1

[Events]
//Background and Video events
0,0,"bg.jpg",0,75
//Break Periods
//Storyboard Layer 0 (Background)
//Storyboard Layer 1 (Fail)
//Storyboard Layer 2 (Pass)
//Storyboard Layer 3 (Foreground)
//Storyboard Layer 4 (Overlay)
//Storyboard Sound Samples

[TimingPoints]
745,363.636363636364,4,1,0,5,1,0
745,-400,4,1,0,5,0,0
1472,-400,4,1,0,6,0,0
1835,-400,4,1,0,7,0,0
2199,-303.030303030303,4,1,0,8,0,0
2563,-303.030303030303,4,1,0,9,0,0
2745,-303.030303030303,4,1,0,12,0,0
2926,-303.030303030303,4,1,0,15,0,0
3290,-303.030303030303,4,1,0,17,0,0
3654,-200,4,1,0,19,0,0
4017,-200,4,1,0,21,0,0
4381,-200,4,1,0,24,0,0
4926,-100,4,1,0,65,0,0
6563,-100,4,1,0,90,0,0
16017,-105.263157894737,4,1,0,90,0,0
16199,-111.111111111111,4,1,0,90,0,0
16381,-117.647058823529,4,1,0,90,0,0
16563,-125,4,1,0,90,0,0
16745,-100,4,1,0,90,0,0
24835,-99.009900990099,4,1,0,90,0,0
24926,-98.0392156862745,4,1,0,90,0,0
25017,-97.0873786407767,4,1,0,90,0,0
25108,-96.1538461538461,4,1,0,90,0,0
25199,-95.2380952380952,4,1,0,90,0,0
25290,-94.3396226415094,4,1,0,90,0,0
25381,-93.4579439252336,4,1,0,90,0,0
25472,-92.5925925925926,4,1,0,90,0,0
25745,-100,4,1,0,90,0,0
32290,-105.263157894737,4,1,0,90,0,0
32381,-111.111111111111,4,1,0,90,0,0
32745,-133.333333333333,4,1,0,90,0,0
33835,-100,4,1,0,90,0,0
35290,-117.647058823529,4,1,0,90,0,0
36199,-100,4,1,0,90,0,0
38654,-105.263157894737,4,1,0,90,0,0
39290,-83.3333333333333,4,1,0,90,0,0
39835,-100,4,1,0,90,0,0
50290,-105.263157894737,4,1,0,90,0,0
50926,-83.3333333333333,4,1,0,90,0,0
51472,-100,4,1,0,90,0,0
54926,-120.481927710843,4,1,0,90,0,0
55472,-118.842144441248,4,1,0,90,0,0
55745,-118.02225280645,4,1,0,90,0,0
55835,-117.751958860913,4,1,0,90,0,0
56017,-117.205364437714,4,1,0,90,0,0
56381,-116.112175591317,4,1,0,90,0,0
56563,-115.565581168119,4,1,0,90,0,0
56835,-114.748692799383,4,1,0,90,0,0
56926,-114.475395587784,4,1,0,90,0,0
57108,-113.928801164585,4,1,0,90,0,0
57381,-113.108909529788,4,1,0,90,0,0
57472,-112.835612318188,4,1,0,90,0,0
57835,-111.745426737853,4,1,0,90,0,0
58017,-111.198832314655,4,1,0,90,0,0
58381,-110.105643468258,4,1,0,90,0,0
58654,-109.28575183346,4,1,0,90,0,0
58745,-109.012454621861,4,1,0,90,0,0
58926,-108.468863464724,4,1,0,90,0,0
59290,-107.375674618327,4,1,0,90,0,0
59472,-106.829080195129,4,1,0,90,0,0
59745,-106.009188560331,4,1,0,90,0,0
59835,-105.738894614793,4,1,0,90,0,0
60017,-105.192300191595,4,1,0,90,0,0
60290,-104.372408556797,4,1,0,90,0,0
60381,-104.099111345198,4,1,0,90,0,0
60745,-103.005922498801,4,1,0,90,0,0
60926,-102.462331341664,4,1,0,90,0,0
61199,-101.642439706867,4,1,0,90,0,0
61290,-101.369142495267,4,1,0,90,0,0
61472,-100.822548072069,4,1,0,90,0,0
61563,-100.54925086047,4,1,0,90,0,0
61654,-100.27595364887,4,1,0,90,0,0
61745,-100.002656437271,4,1,0,90,0,0
61835,-99.7323624917335,4,1,0,90,0,0
62199,-98.6391736453366,4,1,0,90,0,0
62381,-98.0925792221382,4,1,0,90,0,0
62563,-97.5459847989398,4,1,0,90,0,0
62654,-97.2726875873406,4,1,0,90,0,0
62745,-96.9993903757413,4,1,0,90,0,0
62926,-96.4557992186044,4,1,0,90,0,0
63199,-95.6359075838068,4,1,0,90,0,0
63290,-95.3626103722076,4,1,0,90,0,0
63472,-94.8160159490091,4,1,0,90,0,0
63654,-94.2694215258107,4,1,0,90,0,0
63835,-93.7258303686738,4,1,0,90,0,0
64017,-93.1792359454753,4,1,0,90,0,0
64199,-92.6326415222769,4,1,0,90,0,0
64381,-92.0860470990785,4,1,0,90,0,0
64472,-91.8127498874793,4,1,0,90,0,0
64563,-91.53945267588,4,1,0,90,0,0
64745,-90.9928582526816,4,1,0,90,0,0
64926,-90.4492670955447,4,1,0,90,0,0
65108,-89.9026726723463,4,1,0,90,0,0
65290,-89.3560782491478,4,1,0,90,0,0
65381,-89.0827810375486,4,1,0,90,0,0
65472,-88.8094838259494,4,1,0,90,0,0
65563,-88.5361866143502,4,1,0,90,0,0
65654,-88.2628894027509,4,1,0,90,0,0
65835,-87.719298245614,4,1,0,90,0,0
66199,-100,4,1,0,90,0,0
89472,-109.89010989011,4,1,0,70,0,0
95290,-120.481927710843,4,1,0,50,0,0
100290,-119.047619047619,4,1,0,50,0,0
100381,-117.647058823529,4,1,0,50,0,0
100472,-115.606936416185,4,1,0,50,0,0
100563,-113.636363636364,4,1,0,50,0,0
100654,-111.111111111111,4,1,0,50,0,0
100745,-108.695652173913,4,1,0,50,0,0
100835,-106.382978723404,4,1,0,50,0,0
100926,-104.166666666667,4,1,0,50,0,0
101017,-102.040816326531,4,1,0,50,0,0
101108,-100,4,1,0,90,0,0
113017,-96.1538461538461,4,1,0,90,0,0
113290,-92.5925925925926,4,1,0,90,0,0
113381,-90.9090909090909,4,1,0,90,0,0
113654,-97.0873786407767,4,1,0,90,0,0
113835,-94.3396226415094,4,1,0,90,0,0
113926,-92.5925925925926,4,1,0,90,0,0
114017,-90.9090909090909,4,1,0,90,0,0
114108,-89.2857142857143,4,1,0,90,0,0
114199,-87.719298245614,4,1,0,90,0,0
135835,-87.719298245614,4,1,0,90,0,0
136017,-87.0797872536675,4,1,0,90,0,0
136108,-86.7600317576942,4,1,0,90,0,0
136199,-86.4402762617209,4,1,0,90,0,0
136381,-85.8007652697744,4,1,0,90,0,0
136563,-85.1612542778278,4,1,0,90,0,0
136654,-84.8414987818546,4,1,0,90,0,0
136745,-84.5217432858813,4,1,0,90,0,0
136926,-83.8857460905938,4,1,0,90,0,0
137108,-83.2462350986472,4,1,0,90,0,0
137290,-82.6067241067007,4,1,0,90,0,0
137472,-81.9672131147541,4,1,0,90,0,0
137835,-87.719298245614,4,1,0,90,0,0
159835,-92.5925925925926,4,1,0,90,0,0
160017,-98.0392156862745,4,1,0,90,0,0
160199,-102.040816326531,4,1,0,90,0,0
160290,-105.263157894737,4,1,0,90,0,0
160381,-108.695652173913,4,1,0,90,0,0
160563,-113.636363636364,4,1,0,90,0,0
160745,-120.481927710843,4,1,0,90,0,0
173108,-151.515151515152,4,1,0,90,0,0
173835,-147.117314863629,4,1,0,90,0,0
174199,-144.915371890928,4,1,0,90,0,0
174381,-143.814400404577,4,1,0,90,0,0
174563,-142.713428918226,4,1,0,90,0,0
174926,-140.517535239405,4,1,0,90,0,0
175199,-138.866078009879,4,1,0,90,0,0
175290,-138.315592266704,4,1,0,90,0,0
175654,-136.113649294002,4,1,0,90,0,0
175835,-135.018727101532,4,1,0,90,0,0
176017,-133.917755615181,4,1,0,90,0,0
176199,-132.816784128831,4,1,0,90,0,0
176472,-131.165326899304,4,1,0,90,0,0
176563,-130.614841156129,4,1,0,90,0,0
176745,-129.513869669778,4,1,0,90,0,0
177108,-127.317975990958,4,1,0,90,0,0
177290,-126.217004504607,4,1,0,90,0,0
177563,-124.56554727508,4,1,0,90,0,0
177654,-124.015061531905,4,1,0,90,0,0
177835,-122.920139339435,4,1,0,90,0,0
178108,-121.268682109909,4,1,0,90,0,0
178199,-120.718196366734,4,1,0,90,0,0
178381,-119.617224880383,4,1,0,90,0,0
178563,-118.516253394032,4,1,0,90,0,0
178745,-117.415281907681,4,1,0,90,0,0
178926,-116.320359715211,4,1,0,90,0,0
179108,-115.219388228861,4,1,0,90,0,0
179290,-114.11841674251,4,1,0,90,0,0
179381,-113.567930999334,4,1,0,90,0,0
179472,-113.017445256159,4,1,0,90,0,0
179654,-111.916473769808,4,1,0,90,0,0
179835,-110.821551577338,4,1,0,90,0,0
180017,-109.720580090987,4,1,0,90,0,0
180199,-108.619608604637,4,1,0,90,0,0
180381,-107.518637118286,4,1,0,90,0,0
180472,-106.96815137511,4,1,0,90,0,0
180563,-106.417665631935,4,1,0,90,0,0
180745,-105.316694145584,4,1,0,90,0,0
180926,-104.221771953114,4,1,0,90,0,0
181017,-103.671286209939,4,1,0,90,0,0
181108,-103.120800466764,4,1,0,90,0,0
181290,-102.019828980413,4,1,0,90,0,0
181472,-100.918857494062,4,1,0,90,0,0
181654,-99.817886007711,4,1,0,90,0,0
181835,-98.7229638152413,4,1,0,90,0,0
182017,-97.6219923288904,4,1,0,90,0,0
182199,-96.5210208425396,4,1,0,90,0,0
182290,-95.9705350993642,4,1,0,90,0,0
182381,-95.4200493561888,4,1,0,90,0,0
182563,-94.319077869838,4,1,0,90,0,0
182745,-93.2181063834871,4,1,0,90,0,0
182926,-92.1231841910173,4,1,0,90,0,0
183108,-91.0222127046665,4,1,0,90,0,0
183290,-89.9212412183157,4,1,0,90,0,0
183381,-89.3707554751403,4,1,0,90,0,0
183472,-88.8202697319649,4,1,0,90,0,0
183654,-87.719298245614,4,1,0,90,0,0
184017,-100,4,1,0,90,0,0
196017,-93.4579439252336,4,1,0,90,0,0
207290,-102.040816326531,4,1,0,65,0,0
207381,-111.111111111111,4,1,0,40,0,0
208017,-133.333333333333,4,1,0,25,0,0
208745,-100,4,1,0,90,0,0
209017,-96.1538461538461,4,1,0,90,0,0
209290,-92.5925925925926,4,1,0,90,0,0
209381,-90.9090909090909,4,1,0,90,0,0
209654,-97.0873786407767,4,1,0,90,0,0
209835,-103.092783505155,4,1,0,90,0,0
210017,-108.695652173913,4,1,0,90,0,0
210108,-113.636363636364,4,1,0,90,0,0
210199,-120.481927710843,4,1,0,90,0,0
232017,-116.279069767442,4,1,0,90,0,0
232199,-111.111111111111,4,1,0,90,0,0
232381,-107.52688172043,4,1,0,90,0,0
232654,-102.040816326531,4,1,0,90,0,0
232745,-100,4,1,0,90,0,0
233017,-95.2380952380952,4,1,0,90,0,0
233290,-90.9090909090909,4,1,0,90,0,0
233381,-89.2857142857143,4,1,0,90,0,0
233472,-87.719298245614,4,1,0,90,0,1
255472,-86.2068965517241,4,1,0,90,0,1
255563,-85.4700854700855,4,1,0,90,0,1
255654,-84.7457627118644,4,1,0,90,0,1
255835,-83.3333333333333,4,1,0,90,0,1
256017,-81.9672131147541,4,1,0,90,0,1
256108,-81.3008130081301,4,1,0,90,0,1
256199,-80.6451612903226,4,1,0,90,0,1
256381,-79.3650793650794,4,1,0,90,0,1
256563,-78.125,4,1,0,90,0,1
256745,-76.9230769230769,4,1,0,90,0,1
257108,-87.719298245614,4,1,0,70,0,1
280017,-87.719298245614,4,1,0,80,0,0
280199,-90.9090909090909,4,1,0,75,0,0
280654,-91.3444311327026,4,1,0,75,0,0
280745,-91.4895445405731,4,1,0,75,0,0
280926,-91.7781767034805,4,1,0,75,0,0
281108,-92.0684035192216,4,1,0,75,0,0
281290,-92.3586303349627,4,1,0,75,0,0
281472,-92.6488571507038,4,1,0,75,0,0
281835,-93.2277161293523,4,1,0,75,0,0
282017,-93.5179429450934,4,1,0,75,0,0
282108,-93.663056352964,4,1,0,75,0,0
282199,-93.8081697608346,4,1,0,75,0,0
282290,-93.9532831687051,4,1,0,75,0,0
282381,-94.0983965765757,4,1,0,75,0,0
282563,-94.3886233923168,4,1,0,75,0,0
282835,-94.8223689630947,4,1,0,75,0,0
282926,-94.9674823709653,4,1,0,70,0,0
283290,-95.5479360024475,4,1,0,70,0,0
283563,-95.9832762260592,4,1,0,70,0,0
283835,-96.4170217968371,4,1,0,70,0,0
284017,-96.7072486125782,4,1,0,70,0,0
284199,-96.9974754283193,4,1,0,70,0,0
284381,-97.2877022440604,4,1,0,70,0,0
284745,-97.8681558755427,4,1,0,70,0,0
285017,-98.3019014463206,4,1,0,70,0,0
285108,-98.4470148541912,4,1,0,70,0,0
285199,-98.5921282620617,4,1,0,70,0,0
285290,-98.7372416699323,4,1,0,70,0,0
285472,-99.0274684856734,4,1,0,70,0,0
285745,-99.462808709285,4,1,0,70,0,0
285835,-99.6063274643219,4,1,0,65,0,0
286199,-100.186781095804,4,1,0,65,0,0
286472,-100.622121319416,4,1,0,65,0,0
286745,-101.057461543027,4,1,0,65,0,0
286926,-101.346093705935,4,1,0,65,0,0
287108,-101.636320521676,4,1,0,65,0,0
287290,-101.926547337417,4,1,0,65,0,0
287654,-102.507000968899,4,1,0,65,0,0
287926,-102.940746539677,4,1,0,65,0,0
288017,-103.085859947548,4,1,0,65,0,0
288108,-103.230973355418,4,1,0,65,0,0
288199,-103.376086763289,4,1,0,65,0,0
288381,-103.66631357903,4,1,0,65,0,0
288654,-104.101653802642,4,1,0,65,0,0
288745,-104.246767210512,4,1,0,60,0,0
289108,-104.825626189161,4,1,0,60,0,0
289381,-105.260966412772,4,1,0,60,0,0
289654,-105.696306636384,4,1,0,60,0,0
289835,-105.984938799291,4,1,0,60,0,0
290017,-106.275165615033,4,1,0,60,0,0
290199,-106.565392430774,4,1,0,60,0,0
290563,-107.145846062256,4,1,0,60,0,0
290835,-107.579591633034,4,1,0,60,0,0
290926,-107.724705040904,4,1,0,60,0,0
291017,-107.869818448775,4,1,0,60,0,0
291108,-108.014931856645,4,1,0,60,0,0
291290,-108.305158672387,4,1,0,60,0,0
291563,-108.740498895998,4,1,0,60,0,0
291654,-108.885612303869,4,1,0,53,0,0
292017,-109.464471282517,4,1,0,51,0,0
292290,-109.899811506129,4,1,0,49,0,0
292563,-110.335151729741,4,1,0,47,0,0
292745,-110.625378545482,4,1,0,47,0,0
292926,-110.914010708389,4,1,0,47,0,0
293108,-111.20423752413,4,1,0,47,0,0
293472,-111.784691155612,4,1,0,47,0,0
293745,-112.220031379224,4,1,0,47,0,0
293835,-112.363550134261,4,1,0,47,0,0
294017,-112.653776950002,4,1,0,47,0,0
294199,-112.944003765743,4,1,0,47,0,0
294563,-113.524457397225,4,1,0,45,0,0
294835,-113.958202968003,4,1,0,45,0,0
295108,-114.393543191615,4,1,0,45,0,0
295290,-114.683770007356,4,1,0,45,0,0
295472,-114.973996823097,4,1,0,45,0,0
295654,-115.264223638838,4,1,0,45,0,0
295835,-115.552855801746,4,1,0,45,0,0
296017,-115.843082617487,4,1,0,45,0,0
296381,-116.423536248969,4,1,0,45,0,0
296472,-116.56864965684,4,1,0,45,0,0
296563,-116.71376306471,4,1,0,45,0,0
296745,-117.003989880451,4,1,0,45,0,0
296926,-117.292622043359,4,1,0,45,0,0
297108,-117.5828488591,4,1,0,45,0,0
297472,-118.163302490582,4,1,0,45,0,0
297745,-118.598642714194,4,1,0,45,0,0
298017,-119.032388284972,4,1,0,45,0,0
298199,-119.322615100713,4,1,0,45,0,0
298563,-119.903068732195,4,1,0,45,0,0
298926,-120.481927710843,4,1,0,45,0,0
300381,-111.111111111111,4,1,0,50,0,0
300654,-107.52688172043,4,1,0,53,0,0
300926,-104.166666666667,4,1,0,56,0,0
301108,-102.040816326531,4,1,0,60,0,0
301381,-99.009900990099,4,1,0,60,0,0
301654,-96.1538461538461,4,1,0,60,0,0
301835,-94.3396226415094,4,1,0,65,0,0
302108,-90.9090909090909,4,1,0,68,0,0
302381,-87.719298245614,4,1,0,71,0,0
302563,-85.4700854700855,4,1,0,75,0,0
302835,-81.9672131147541,4,1,0,75,0,0
303017,-79.3650793650794,4,1,0,75,0,0
303108,-78.125,4,1,0,75,0,0
303199,-76.9230769230769,4,1,0,75,0,0

[HitObjects]
256,192,1108,12,0,4744,0:0:0:0:
320,64,5108,5,8,0:0:0:0:
320,64,5381,1,8,0:0:0:0:
64,64,5654,1,0,0:0:0:0:
320,64,5835,1,8,0:0:0:0:
64,64,8017,1,0,0:0:0:0:
64,64,8290,1,0,0:0:0:0:
64,64,8563,1,0,0:0:0:0:
320,64,8745,1,8,0:0:0:0:
64,64,8926,1,0,0:0:0:0:
320,64,9017,1,8,0:0:0:0:
64,64,9108,1,0,0:0:0:0:
64,64,9199,1,0,0:0:0:0:
320,64,9290,1,8,0:0:0:0:
64,64,9381,1,0,0:0:0:0:
320,64,10199,1,8,0:0:0:0:
64,64,10745,1,0,0:0:0:0:
64,64,10926,1,0,0:0:0:0:
64,64,11199,1,0,0:0:0:0:
64,64,11472,1,0,0:0:0:0:
320,64,11654,1,8,0:0:0:0:
64,64,11835,1,0,0:0:0:0:
320,64,11926,1,8,0:0:0:0:
320,64,12017,1,8,0:0:0:0:
64,64,12108,1,0,0:0:0:0:
320,64,12199,1,8,0:0:0:0:
64,64,12290,1,0,0:0:0:0:
64,64,12926,1,0,0:0:0:0:
320,64,13108,1,8,0:0:0:0:
64,64,13290,1,0,0:0:0:0:
320,64,13381,1,8,0:0:0:0:
320,64,13472,1,8,0:0:0:0:
64,64,13563,1,0,0:0:0:0:
320,64,13654,1,8,0:0:0:0:
320,64,13745,1,8,0:0:0:0:
64,64,13835,1,0,0:0:0:0:
64,64,14108,1,0,0:0:0:0:
64,64,14381,1,0,0:0:0:0:
320,64,14563,1,8,0:0:0:0:
64,64,14745,1,0,0:0:0:0:
320,64,14835,1,8,0:0:0:0:
64,64,14926,1,0,0:0:0:0:
320,64,15017,1,8,0:0:0:0:
320,64,15108,1,8,0:0:0:0:
64,64,15199,1,0,0:0:0:0:
320,64,15835,1,8,0:0:0:0:
64,64,16017,1,0,0:0:0:0:
320,64,16199,1,8,0:0:0:0:
64,64,16381,1,0,0:0:0:0:
320,64,16563,1,8,0:0:0:0:
64,64,16745,1,0,0:0:0:0:
64,64,17017,1,0,0:0:0:0:
64,64,17290,1,0,0:0:0:0:
320,64,17472,1,8,0:0:0:0:
64,64,17654,1,0,0:0:0:0:
320,64,17745,1,8,0:0:0:0:
64,64,17835,1,0,0:0:0:0:
64,64,17926,1,0,0:0:0:0:
320,64,18017,1,8,0:0:0:0:
64,64,18381,1,0,0:0:0:0:
320,64,18563,1,8,0:0:0:0:
64,64,18835,1,0,0:0:0:0:
320,64,18926,1,8,0:0:0:0:
320,64,19199,1,8,0:0:0:0:
64,64,19472,1,0,0:0:0:0:
320,64,19563,1,8,0:0:0:0:
64,64,19654,1,0,0:0:0:0:
64,64,19926,1,0,0:0:0:0:
64,64,20199,1,0,0:0:0:0:
320,64,20381,1,8,0:0:0:0:
64,64,20563,1,0,0:0:0:0:
320,64,20654,1,8,0:0:0:0:
64,64,20745,1,0,0:0:0:0:
64,64,20835,1,0,0:0:0:0:
320,64,20926,1,8,0:0:0:0:
64,64,21017,1,0,0:0:0:0:
64,64,21654,1,0,0:0:0:0:
320,64,21835,1,8,0:0:0:0:
64,64,22381,1,0,0:0:0:0:
64,64,22563,1,0,0:0:0:0:
64,64,22835,1,0,0:0:0:0:
64,64,23108,1,0,0:0:0:0:
320,64,23290,1,8,0:0:0:0:
64,64,23472,1,0,0:0:0:0:
320,64,23563,1,8,0:0:0:0:
320,64,23654,1,8,0:0:0:0:
64,64,23745,1,0,0:0:0:0:
320,64,23835,1,8,0:0:0:0:
64,64,23926,1,0,0:0:0:0:
64,64,24563,1,0,0:0:0:0:
320,64,24745,1,8,0:0:0:0:
320,64,24835,1,8,0:0:0:0:
320,64,24926,1,8,0:0:0:0:
320,64,25017,1,8,0:0:0:0:
320,64,25108,1,8,0:0:0:0:
320,64,25199,1,8,0:0:0:0:
320,64,25290,1,8,0:0:0:0:
320,64,25381,1,8,0:0:0:0:
64,64,25472,1,0,0:0:0:0:
64,64,25745,1,0,0:0:0:0:
64,64,26017,1,0,0:0:0:0:
320,64,26199,1,8,0:0:0:0:
64,64,26381,1,0,0:0:0:0:
320,64,26472,1,8,0:0:0:0:
64,64,26563,1,0,0:0:0:0:
320,64,26654,1,8,0:0:0:0:
320,64,26745,1,8,0:0:0:0:
64,64,26835,1,0,0:0:0:0:
64,64,27472,1,0,0:0:0:0:
320,64,27654,1,8,0:0:0:0:
64,64,28199,1,0,0:0:0:0:
64,64,28381,1,0,0:0:0:0:
64,64,28623,1,0,0:0:0:0:
64,64,28866,1,0,0:0:0:0:
320,64,29108,1,8,0:0:0:0:
64,64,29290,1,0,0:0:0:0:
320,64,29381,1,8,0:0:0:0:
64,64,29472,1,0,0:0:0:0:
64,64,29563,1,0,0:0:0:0:
320,64,29654,1,8,0:0:0:0:
64,64,30017,1,0,0:0:0:0:
320,64,30199,1,8,0:0:0:0:
64,64,30472,1,0,0:0:0:0:
320,64,30563,1,8,0:0:0:0:
320,64,30926,1,8,0:0:0:0:
64,64,31108,1,0,0:0:0:0:
320,64,31199,1,8,0:0:0:0:
64,64,31290,1,0,0:0:0:0:
64,64,31563,1,0,0:0:0:0:
64,64,31835,1,0,0:0:0:0:
320,64,32017,1,8,0:0:0:0:
64,64,32199,1,0,0:0:0:0:
320,64,32290,1,8,0:0:0:0:
64,64,32381,1,0,0:0:0:0:
64,64,34017,1,0,0:0:0:0:
64,64,34199,1,0,0:0:0:0:
64,64,34472,1,0,0:0:0:0:
64,64,34745,1,0,0:0:0:0:
320,64,34926,1,8,0:0:0:0:
320,64,35290,1,8,0:0:0:0:
64,64,36199,1,0,0:0:0:0:
320,64,36381,1,8,0:0:0:0:
64,64,36472,1,0,0:0:0:0:
320,64,36563,1,8,0:0:0:0:
320,64,36654,1,8,0:0:0:0:
64,64,36745,1,0,0:0:0:0:
64,64,36835,1,0,0:0:0:0:
320,64,36926,1,8,0:0:0:0:
320,64,37017,1,8,0:0:0:0:
64,64,37108,1,0,0:0:0:0:
64,64,37381,1,0,0:0:0:0:
64,64,37654,1,0,0:0:0:0:
320,64,37835,1,8,0:0:0:0:
64,64,38017,1,0,0:0:0:0:
320,64,38108,1,8,0:0:0:0:
64,64,38199,1,0,0:0:0:0:
64,64,38290,1,0,0:0:0:0:
320,64,38381,1,8,0:0:0:0:
64,64,38472,1,0,0:0:0:0:
64,64,39108,1,0,0:0:0:0:
320,64,39290,1,8,0:0:0:0:
64,64,39835,1,0,0:0:0:0:
64,64,40017,1,0,0:0:0:0:
64,64,40290,1,0,0:0:0:0:
64,64,40563,1,0,0:0:0:0:
320,64,40745,1,8,0:0:0:0:
64,64,40926,1,0,0:0:0:0:
320,64,41017,1,8,0:0:0:0:
64,64,41108,1,0,0:0:0:0:
64,64,41199,1,0,0:0:0:0:
320,64,41290,1,8,0:0:0:0:
64,64,41654,1,0,0:0:0:0:
320,64,41835,1,8,0:0:0:0:
64,64,42108,1,0,0:0:0:0:
320,64,42199,1,8,0:0:0:0:
320,64,42472,1,8,0:0:0:0:
64,64,42745,1,0,0:0:0:0:
320,64,42835,1,8,0:0:0:0:
64,64,42926,1,0,0:0:0:0:
64,64,43199,1,0,0:0:0:0:
64,64,43472,1,0,0:0:0:0:
320,64,43654,1,8,0:0:0:0:
64,64,43835,1,0,0:0:0:0:
320,64,43926,1,8,0:0:0:0:
64,64,44017,1,0,0:0:0:0:
64,64,44108,1,0,0:0:0:0:
320,64,44199,1,8,0:0:0:0:
64,64,44290,1,0,0:0:0:0:
64,64,44926,1,0,0:0:0:0:
320,64,45108,1,8,0:0:0:0:
64,64,45654,1,0,0:0:0:0:
64,64,45835,1,0,0:0:0:0:
64,64,46108,1,0,0:0:0:0:
64,64,46381,1,0,0:0:0:0:
320,64,46563,1,8,0:0:0:0:
64,64,46745,1,0,0:0:0:0:
320,64,46835,1,8,0:0:0:0:
320,64,46926,1,8,0:0:0:0:
64,64,47017,1,0,0:0:0:0:
320,64,47108,1,8,0:0:0:0:
64,64,47199,1,0,0:0:0:0:
320,64,47381,1,8,0:0:0:0:
64,64,47472,1,0,0:0:0:0:
320,64,47563,1,8,0:0:0:0:
64,64,47654,1,0,0:0:0:0:
64,64,47745,1,0,0:0:0:0:
320,64,47835,1,8,0:0:0:0:
320,64,47926,1,8,0:0:0:0:
64,64,48017,1,0,0:0:0:0:
320,64,48108,1,8,0:0:0:0:
64,64,48199,1,0,0:0:0:0:
320,64,48290,1,8,0:0:0:0:
64,64,48381,1,0,0:0:0:0:
64,64,48472,1,0,0:0:0:0:
320,64,48563,1,8,0:0:0:0:
320,64,48654,1,8,0:0:0:0:
64,64,48745,1,0,0:0:0:0:
64,64,49017,1,0,0:0:0:0:
64,64,49290,1,0,0:0:0:0:
320,64,49472,1,8,0:0:0:0:
64,64,49654,1,0,0:0:0:0:
320,64,49745,1,8,0:0:0:0:
64,64,49835,1,0,0:0:0:0:
64,64,49926,1,0,0:0:0:0:
320,64,50017,1,8,0:0:0:0:
64,64,50108,1,0,0:0:0:0:
64,64,50745,1,0,0:0:0:0:
320,64,50926,1,8,0:0:0:0:
64,64,51472,1,0,0:0:0:0:
64,64,51654,1,0,0:0:0:0:
64,64,51926,1,0,0:0:0:0:
64,64,52199,1,0,0:0:0:0:
320,64,52381,1,8,0:0:0:0:
64,64,52563,1,0,0:0:0:0:
320,64,52654,1,8,0:0:0:0:
64,64,52745,1,0,0:0:0:0:
64,64,52835,1,0,0:0:0:0:
320,64,52926,1,8,0:0:0:0:
64,64,53290,1,0,0:0:0:0:
320,64,53472,1,8,0:0:0:0:
64,64,53745,1,0,0:0:0:0:
320,64,53835,1,8,0:0:0:0:
64,64,54108,1,0,0:0:0:0:
320,64,54199,1,8,0:0:0:0:
320,64,54260,1,8,0:0:0:0:
320,64,54320,1,8,0:0:0:0:
64,64,54381,1,0,0:0:0:0:
320,64,54472,1,8,0:0:0:0:
64,64,54563,1,0,0:0:0:0:
320,64,54926,1,8,0:0:0:0:
320,64,55472,1,8,0:0:0:0:
64,64,55745,1,0,0:0:0:0:
320,64,55835,1,8,0:0:0:0:
64,64,56017,1,0,0:0:0:0:
320,64,56381,1,8,0:0:0:0:
320,64,56563,1,8,0:0:0:0:
64,64,56835,1,0,0:0:0:0:
64,64,56926,1,0,0:0:0:0:
320,64,57108,1,8,0:0:0:0:
320,64,57381,1,8,0:0:0:0:
64,64,57472,1,0,0:0:0:0:
320,64,57835,1,8,0:0:0:0:
320,64,58017,1,8,0:0:0:0:
320,64,58381,1,8,0:0:0:0:
64,64,58654,1,0,0:0:0:0:
320,64,58745,1,8,0:0:0:0:
64,64,58926,1,0,0:0:0:0:
320,64,59290,1,8,0:0:0:0:
320,64,59472,1,8,0:0:0:0:
320,64,59745,1,8,0:0:0:0:
64,64,59835,1,0,0:0:0:0:
320,64,60017,1,8,0:0:0:0:
320,64,60290,1,8,0:0:0:0:
64,64,60381,1,0,0:0:0:0:
320,64,60745,1,8,0:0:0:0:
320,64,60926,1,8,0:0:0:0:
320,64,61199,1,8,0:0:0:0:
64,64,61290,1,0,0:0:0:0:
320,64,61472,1,8,0:0:0:0:
320,64,61563,1,8,0:0:0:0:
64,64,61654,1,0,0:0:0:0:
64,64,61745,1,0,0:0:0:0:
320,64,61835,1,8,0:0:0:0:
320,64,62199,1,8,0:0:0:0:
320,64,62381,1,8,0:0:0:0:
64,64,62563,1,0,0:0:0:0:
320,64,62654,1,8,0:0:0:0:
64,64,62745,1,0,0:0:0:0:
320,64,62926,1,8,0:0:0:0:
320,64,63199,1,8,0:0:0:0:
64,64,63290,1,0,0:0:0:0:
64,64,63472,1,0,0:0:0:0:
320,64,63654,1,8,0:0:0:0:
320,64,63835,1,8,0:0:0:0:
64,64,64017,1,0,0:0:0:0:
320,64,64199,1,8,0:0:0:0:
64,64,64381,1,0,0:0:0:0:
64,64,64472,1,0,0:0:0:0:
64,64,64563,1,0,0:0:0:0:
320,64,64745,1,8,0:0:0:0:
320,64,64926,1,8,0:0:0:0:
64,64,65108,1,0,0:0:0:0:
320,64,65290,1,8,0:0:0:0:
64,64,65381,1,0,0:0:0:0:
320,64,65472,1,8,0:0:0:0:
320,64,65563,1,8,0:0:0:0:
64,64,65654,1,0,0:0:0:0:
320,64,65835,1,8,0:0:0:0:
64,64,66199,1,0,0:0:0:0:
64,64,66381,1,0,0:0:0:0:
320,64,66563,1,8,0:0:0:0:
64,64,66745,1,0,0:0:0:0:
64,64,66835,1,0,0:0:0:0:
320,64,66926,1,8,0:0:0:0:
320,64,67017,1,8,0:0:0:0:
64,64,67108,1,0,0:0:0:0:
320,64,67290,1,8,0:0:0:0:
320,64,67472,1,8,0:0:0:0:
320,64,67563,1,8,0:0:0:0:
64,64,67654,1,0,0:0:0:0:
64,64,67835,1,0,0:0:0:0:
320,64,68017,1,8,0:0:0:0:
320,64,68290,1,8,0:0:0:0:
64,64,68381,1,0,0:0:0:0:
64,64,68472,1,0,0:0:0:0:
64,64,68563,1,0,0:0:0:0:
320,64,68745,1,8,0:0:0:0:
64,64,68926,1,0,0:0:0:0:
320,64,69017,1,8,0:0:0:0:
64,64,69108,1,0,0:0:0:0:
64,64,69290,1,0,0:0:0:0:
320,64,69472,1,8,0:0:0:0:
64,64,69654,1,0,0:0:0:0:
320,64,69745,1,8,0:0:0:0:
64,64,69835,1,0,0:0:0:0:
320,64,69926,1,8,0:0:0:0:
64,64,70017,1,0,0:0:0:0:
320,64,70199,1,8,0:0:0:0:
64,64,70381,1,0,0:0:0:0:
64,64,70472,1,0,0:0:0:0:
64,64,70563,1,0,0:0:0:0:
64,64,70745,1,0,0:0:0:0:
320,64,70926,1,8,0:0:0:0:
64,64,71108,1,0,0:0:0:0:
320,64,71199,1,8,0:0:0:0:
320,64,71290,1,8,0:0:0:0:
320,64,71381,1,8,0:0:0:0:
64,64,71472,1,0,0:0:0:0:
320,64,71654,1,8,0:0:0:0:
64,64,72017,1,0,0:0:0:0:
64,64,72199,1,0,0:0:0:0:
320,64,72381,1,8,0:0:0:0:
64,64,72563,1,0,0:0:0:0:
64,64,72654,1,0,0:0:0:0:
320,64,72745,1,8,0:0:0:0:
320,64,72835,1,8,0:0:0:0:
64,64,72926,1,0,0:0:0:0:
320,64,73108,1,8,0:0:0:0:
320,64,73290,1,8,0:0:0:0:
320,64,73381,1,8,0:0:0:0:
64,64,73472,1,0,0:0:0:0:
64,64,73654,1,0,0:0:0:0:
320,64,73835,1,8,0:0:0:0:
64,64,74017,1,0,0:0:0:0:
320,64,74108,1,8,0:0:0:0:
320,64,74290,1,8,0:0:0:0:
64,64,74381,1,0,0:0:0:0:
320,64,74563,1,8,0:0:0:0:
64,64,74745,1,0,0:0:0:0:
320,64,74835,1,8,0:0:0:0:
64,64,74926,1,0,0:0:0:0:
64,64,75108,1,0,0:0:0:0:
320,64,75290,1,8,0:0:0:0:
64,64,75472,1,0,0:0:0:0:
320,64,75563,1,8,0:0:0:0:
64,64,75654,1,0,0:0:0:0:
320,64,75745,1,8,0:0:0:0:
64,64,75835,1,0,0:0:0:0:
320,64,76017,1,8,0:0:0:0:
64,64,76199,1,0,0:0:0:0:
320,64,76290,1,8,0:0:0:0:
64,64,76381,1,0,0:0:0:0:
64,64,76563,1,0,0:0:0:0:
320,64,76745,1,8,0:0:0:0:
64,64,76926,1,0,0:0:0:0:
64,64,77017,1,0,0:0:0:0:
320,64,77108,1,8,0:0:0:0:
320,64,77199,1,8,0:0:0:0:
64,64,77290,1,0,0:0:0:0:
320,64,77472,1,8,0:0:0:0:
64,64,77835,1,0,0:0:0:0:
64,64,78017,1,0,0:0:0:0:
320,64,78199,1,8,0:0:0:0:
320,64,78381,1,8,0:0:0:0:
320,64,78472,1,8,0:0:0:0:
64,64,78563,1,0,0:0:0:0:
320,64,78654,1,8,0:0:0:0:
64,64,78745,1,0,0:0:0:0:
320,64,78926,1,8,0:0:0:0:
320,64,79108,1,8,0:0:0:0:
320,64,79199,1,8,0:0:0:0:
64,64,79290,1,0,0:0:0:0:
64,64,79472,1,0,0:0:0:0:
64,64,79563,1,0,0:0:0:0:
320,64,79654,1,8,0:0:0:0:
64,64,79835,1,0,0:0:0:0:
64,64,79926,1,0,0:0:0:0:
320,64,80017,1,8,0:0:0:0:
320,64,80108,1,8,0:0:0:0:
64,64,80199,1,0,0:0:0:0:
320,64,80381,1,8,0:0:0:0:
64,64,80563,1,0,0:0:0:0:
320,64,80654,1,8,0:0:0:0:
64,64,80745,1,0,0:0:0:0:
64,64,80926,1,0,0:0:0:0:
320,64,81108,1,8,0:0:0:0:
64,64,81290,1,0,0:0:0:0:
64,64,81381,1,0,0:0:0:0:
320,64,81472,1,8,0:0:0:0:
64,64,81563,1,0,0:0:0:0:
320,64,81654,1,8,0:0:0:0:
320,64,81835,1,8,0:0:0:0:
320,64,82017,1,8,0:0:0:0:
320,64,82108,1,8,0:0:0:0:
64,64,82199,1,0,0:0:0:0:
64,64,82381,1,0,0:0:0:0:
320,64,82563,1,8,0:0:0:0:
64,64,82745,1,0,0:0:0:0:
320,64,82835,1,8,0:0:0:0:
64,64,82926,1,0,0:0:0:0:
320,64,83017,1,8,0:0:0:0:
64,64,83108,1,0,0:0:0:0:
320,64,83290,1,8,0:0:0:0:
64,64,83654,1,0,0:0:0:0:
64,64,83835,1,0,0:0:0:0:
320,64,84017,1,8,0:0:0:0:
64,64,84199,1,0,0:0:0:0:
64,64,84290,1,0,0:0:0:0:
320,64,84381,1,8,0:0:0:0:
320,64,84472,1,8,0:0:0:0:
64,64,84563,1,0,0:0:0:0:
320,64,84745,1,8,0:0:0:0:
320,64,84926,1,8,0:0:0:0:
320,64,85017,1,8,0:0:0:0:
64,64,85108,1,0,0:0:0:0:
64,64,85290,1,0,0:0:0:0:
320,64,85472,1,8,0:0:0:0:
320,64,85654,1,8,0:0:0:0:
320,64,85745,1,8,0:0:0:0:
64,64,85835,1,0,0:0:0:0:
320,64,85926,1,8,0:0:0:0:
64,64,86017,1,0,0:0:0:0:
320,64,86199,1,8,0:0:0:0:
64,64,86381,1,0,0:0:0:0:
64,64,86472,1,0,0:0:0:0:
320,64,86563,1,8,0:0:0:0:
64,64,86745,1,0,0:0:0:0:
320,64,86926,1,8,0:0:0:0:
64,64,87108,1,0,0:0:0:0:
320,64,87199,1,8,0:0:0:0:
64,64,87290,1,0,0:0:0:0:
64,64,87381,1,0,0:0:0:0:
320,64,87472,1,8,0:0:0:0:
320,64,87654,1,8,0:0:0:0:
320,64,87835,1,8,0:0:0:0:
320,64,87926,1,8,0:0:0:0:
64,64,88017,1,0,0:0:0:0:
64,64,88199,1,0,0:0:0:0:
320,64,88381,1,8,0:0:0:0:
320,64,88563,1,8,0:0:0:0:
64,64,88654,1,0,0:0:0:0:
320,64,88745,1,8,0:0:0:0:
320,64,88835,1,8,0:0:0:0:
64,64,88926,1,0,0:0:0:0:
320,64,89108,1,8,0:0:0:0:
64,64,89472,1,0,0:0:0:0:
64,64,89654,1,0,0:0:0:0:
320,64,89835,1,8,0:0:0:0:
64,64,90017,1,0,0:0:0:0:
320,64,90108,1,8,0:0:0:0:
64,64,90199,1,0,0:0:0:0:
320,64,90290,1,8,0:0:0:0:
64,64,90381,1,0,0:0:0:0:
320,64,90563,1,8,0:0:0:0:
320,64,90745,1,8,0:0:0:0:
320,64,90835,1,8,0:0:0:0:
64,64,90926,1,0,0:0:0:0:
64,64,91108,1,0,0:0:0:0:
320,64,91290,1,8,0:0:0:0:
64,64,91472,1,0,0:0:0:0:
320,64,91563,1,8,0:0:0:0:
64,64,91654,1,0,0:0:0:0:
320,64,91745,1,8,0:0:0:0:
64,64,91835,1,0,0:0:0:0:
320,64,92017,1,8,0:0:0:0:
320,64,92199,1,8,0:0:0:0:
320,64,92290,1,8,0:0:0:0:
64,64,92381,1,0,0:0:0:0:
64,64,92563,1,0,0:0:0:0:
320,64,92745,1,8,0:0:0:0:
64,64,92926,1,0,0:0:0:0:
320,64,93017,1,8,0:0:0:0:
64,64,93108,1,0,0:0:0:0:
320,64,93199,1,8,0:0:0:0:
64,64,93290,1,0,0:0:0:0:
320,64,93472,1,8,0:0:0:0:
320,64,93654,1,8,0:0:0:0:
320,64,93745,1,8,0:0:0:0:
64,64,93835,1,0,0:0:0:0:
64,64,94017,1,0,0:0:0:0:
320,64,94199,1,8,0:0:0:0:
64,64,94381,1,0,0:0:0:0:
320,64,94472,1,8,0:0:0:0:
64,64,94563,1,0,0:0:0:0:
64,64,94745,1,0,0:0:0:0:
320,64,94926,1,8,0:0:0:0:
64,64,95290,1,0,0:0:0:0:
64,64,95472,1,0,0:0:0:0:
320,64,95654,1,8,0:0:0:0:
64,64,95835,1,0,0:0:0:0:
64,64,95926,1,0,0:0:0:0:
320,64,96017,1,8,0:0:0:0:
320,64,96108,1,8,0:0:0:0:
64,64,96199,1,0,0:0:0:0:
320,64,96381,1,8,0:0:0:0:
64,64,96563,1,0,0:0:0:0:
320,64,96654,1,8,0:0:0:0:
64,64,96745,1,0,0:0:0:0:
64,64,96926,1,0,0:0:0:0:
320,64,97108,1,8,0:0:0:0:
64,64,97290,1,0,0:0:0:0:
64,64,97381,1,0,0:0:0:0:
320,64,97472,1,8,0:0:0:0:
320,64,97563,1,8,0:0:0:0:
64,64,97654,1,0,0:0:0:0:
320,64,97835,1,8,0:0:0:0:
64,64,98017,1,0,0:0:0:0:
320,64,98108,1,8,0:0:0:0:
64,64,98199,1,0,0:0:0:0:
64,64,98381,1,0,0:0:0:0:
320,64,98563,1,8,0:0:0:0:
64,64,98745,1,0,0:0:0:0:
64,64,98835,1,0,0:0:0:0:
320,64,98926,1,8,0:0:0:0:
320,64,99017,1,8,0:0:0:0:
64,64,99108,1,0,0:0:0:0:
320,64,99290,1,8,0:0:0:0:
64,64,99472,1,0,0:0:0:0:
320,64,99563,1,8,0:0:0:0:
64,64,99654,1,0,0:0:0:0:
64,64,99835,1,0,0:0:0:0:
320,64,100017,1,8,0:0:0:0:
64,64,100199,1,0,0:0:0:0:
64,64,100290,1,0,0:0:0:0:
320,64,100381,1,8,0:0:0:0:
320,64,100472,1,8,0:0:0:0:
64,64,100563,1,0,0:0:0:0:
320,64,100654,1,8,0:0:0:0:
64,64,100745,1,0,0:0:0:0:
320,64,100835,1,8,0:0:0:0:
320,64,100926,1,8,0:0:0:0:
320,64,101017,1,8,0:0:0:0:
64,64,101108,1,0,0:0:0:0:
64,64,101290,1,0,0:0:0:0:
320,64,101472,1,8,0:0:0:0:
64,64,101654,1,0,0:0:0:0:
320,64,101745,1,8,0:0:0:0:
320,64,101926,1,8,0:0:0:0:
64,64,102017,1,0,0:0:0:0:
320,64,102199,1,8,0:0:0:0:
64,64,102381,1,0,0:0:0:0:
64,64,102472,1,0,0:0:0:0:
64,64,102563,1,0,0:0:0:0:
64,64,102745,1,0,0:0:0:0:
320,64,102926,1,8,0:0:0:0:
64,64,103108,1,0,0:0:0:0:
320,64,103199,1,8,0:0:0:0:
64,64,103290,1,0,0:0:0:0:
64,64,103472,1,0,0:0:0:0:
320,64,103654,1,8,0:0:0:0:
64,64,103835,1,0,0:0:0:0:
64,64,103926,1,0,0:0:0:0:
320,64,104017,1,8,0:0:0:0:
64,64,104199,1,0,0:0:0:0:
320,64,104381,1,8,0:0:0:0:
64,64,104654,1,0,0:0:0:0:
320,64,104745,1,8,0:0:0:0:
320,64,104835,1,8,0:0:0:0:
64,64,104926,1,0,0:0:0:0:
320,64,105108,1,8,0:0:0:0:
64,64,105290,1,0,0:0:0:0:
64,64,105381,1,0,0:0:0:0:
320,64,105472,1,8,0:0:0:0:
64,64,105654,1,0,0:0:0:0:
64,64,105835,1,0,0:0:0:0:
320,64,106017,1,8,0:0:0:0:
320,64,106108,1,8,0:0:0:0:
64,64,106199,1,0,0:0:0:0:
320,64,106290,1,8,0:0:0:0:
64,64,106381,1,0,0:0:0:0:
320,64,106563,1,8,0:0:0:0:
320,64,106745,1,8,0:0:0:0:
320,64,106835,1,8,0:0:0:0:
64,64,106926,1,0,0:0:0:0:
64,64,107108,1,0,0:0:0:0:
320,64,107290,1,8,0:0:0:0:
64,64,107472,1,0,0:0:0:0:
320,64,107563,1,8,0:0:0:0:
320,64,107654,1,8,0:0:0:0:
320,64,107745,1,8,0:0:0:0:
64,64,107835,1,0,0:0:0:0:
320,64,108017,1,8,0:0:0:0:
64,64,108199,1,0,0:0:0:0:
320,64,108290,1,8,0:0:0:0:
64,64,108381,1,0,0:0:0:0:
320,64,108563,1,8,0:0:0:0:
64,64,108745,1,0,0:0:0:0:
320,64,108926,1,8,0:0:0:0:
320,64,109017,1,8,0:0:0:0:
64,64,109108,1,0,0:0:0:0:
320,64,109199,1,8,0:0:0:0:
64,64,109290,1,0,0:0:0:0:
320,64,109472,1,8,0:0:0:0:
320,64,109654,1,8,0:0:0:0:
320,64,109745,1,8,0:0:0:0:
64,64,109835,1,0,0:0:0:0:
64,64,110017,1,0,0:0:0:0:
64,64,110108,1,0,0:0:0:0:
320,64,110199,1,8,0:0:0:0:
64,64,110290,1,0,0:0:0:0:
320,64,110381,1,8,0:0:0:0:
64,64,110563,1,0,0:0:0:0:
64,64,110745,1,0,0:0:0:0:
64,64,110835,1,0,0:0:0:0:
320,64,110926,1,8,0:0:0:0:
64,64,111108,1,0,0:0:0:0:
64,64,111290,1,0,0:0:0:0:
64,64,111472,1,0,0:0:0:0:
320,64,111654,1,8,0:0:0:0:
64,64,111835,1,0,0:0:0:0:
64,64,111926,1,0,0:0:0:0:
64,64,112017,1,0,0:0:0:0:
64,64,112199,1,0,0:0:0:0:
320,64,112381,1,8,0:0:0:0:
64,64,112745,1,0,0:0:0:0:
64,64,113017,1,0,0:0:0:0:
64,64,113290,1,0,0:0:0:0:
320,64,113381,1,8,0:0:0:0:
64,64,113654,1,0,0:0:0:0:
320,64,113835,1,8,0:0:0:0:
320,64,113926,1,8,0:0:0:0:
320,64,114017,1,8,0:0:0:0:
320,64,114108,1,8,0:0:0:0:
64,64,114199,1,0,0:0:0:0:
320,64,114563,1,8,0:0:0:0:
64,64,114745,1,0,0:0:0:0:
64,64,114835,1,0,0:0:0:0:
320,64,114926,1,8,0:0:0:0:
320,64,115108,1,8,0:0:0:0:
64,64,115290,1,0,0:0:0:0:
320,64,115472,1,8,0:0:0:0:
64,64,115654,1,0,0:0:0:0:
320,64,116017,1,8,0:0:0:0:
64,64,116199,1,0,0:0:0:0:
320,64,116290,1,8,0:0:0:0:
64,64,116381,1,0,0:0:0:0:
64,64,116563,1,0,0:0:0:0:
320,64,116745,1,8,0:0:0:0:
320,64,116926,1,8,0:0:0:0:
320,64,117017,1,8,0:0:0:0:
64,64,117108,1,0,0:0:0:0:
64,64,117290,1,0,0:0:0:0:
64,64,117472,1,0,0:0:0:0:
320,64,117563,1,8,0:0:0:0:
64,64,117654,1,0,0:0:0:0:
64,64,117745,1,0,0:0:0:0:
320,64,117835,1,8,0:0:0:0:
64,64,118017,1,0,0:0:0:0:
320,64,118199,1,8,0:0:0:0:
64,64,118290,1,0,0:0:0:0:
320,64,118381,1,8,0:0:0:0:
320,64,118563,1,8,0:0:0:0:
64,64,118745,1,0,0:0:0:0:
320,64,118835,1,8,0:0:0:0:
64,64,118926,1,0,0:0:0:0:
64,64,119108,1,0,0:0:0:0:
64,64,119199,1,0,0:0:0:0:
320,64,119290,1,8,0:0:0:0:
320,64,119381,1,8,0:0:0:0:
64,64,119472,1,0,0:0:0:0:
320,64,119654,1,8,0:0:0:0:
320,64,119835,1,8,0:0:0:0:
320,64,119926,1,8,0:0:0:0:
64,64,120017,1,0,0:0:0:0:
320,64,120199,1,8,0:0:0:0:
64,64,120381,1,0,0:0:0:0:
64,64,120563,1,0,0:0:0:0:
64,64,120654,1,0,0:0:0:0:
320,64,120745,1,8,0:0:0:0:
64,64,120926,1,0,0:0:0:0:
64,64,121108,1,0,0:0:0:0:
320,64,121290,1,8,0:0:0:0:
64,64,121472,1,0,0:0:0:0:
320,64,121835,1,8,0:0:0:0:
320,64,122017,1,8,0:0:0:0:
320,64,122108,1,8,0:0:0:0:
64,64,122199,1,0,0:0:0:0:
64,64,122381,1,0,0:0:0:0:
320,64,122563,1,8,0:0:0:0:
320,64,122745,1,8,0:0:0:0:
64,64,122926,1,0,0:0:0:0:
320,64,123290,1,8,0:0:0:0:
64,64,123472,1,0,0:0:0:0:
320,64,123563,1,8,0:0:0:0:
64,64,123654,1,0,0:0:0:0:
64,64,123835,1,0,0:0:0:0:
320,64,124017,1,8,0:0:0:0:
320,64,124199,1,8,0:0:0:0:
64,64,124381,1,0,0:0:0:0:
320,64,124563,1,8,0:0:0:0:
64,64,124654,1,0,0:0:0:0:
320,64,124745,1,8,0:0:0:0:
320,64,124926,1,8,0:0:0:0:
320,64,125017,1,8,0:0:0:0:
64,64,125108,1,0,0:0:0:0:
320,64,125199,1,8,0:0:0:0:
64,64,125290,1,0,0:0:0:0:
64,64,125472,1,0,0:0:0:0:
320,64,125654,1,8,0:0:0:0:
64,64,125835,1,0,0:0:0:0:
320,64,126199,1,8,0:0:0:0:
64,64,126381,1,0,0:0:0:0:
320,64,126472,1,8,0:0:0:0:
64,64,126563,1,0,0:0:0:0:
64,64,126745,1,0,0:0:0:0:
64,64,126926,1,0,0:0:0:0:
64,64,127017,1,0,0:0:0:0:
320,64,127108,1,8,0:0:0:0:
320,64,127199,1,8,0:0:0:0:
64,64,127290,1,0,0:0:0:0:
64,64,127472,1,0,0:0:0:0:
320,64,127654,1,8,0:0:0:0:
64,64,127835,1,0,0:0:0:0:
64,64,127926,1,0,0:0:0:0:
320,64,128017,1,8,0:0:0:0:
64,64,128108,1,0,0:0:0:0:
320,64,128199,1,8,0:0:0:0:
64,64,128381,1,0,0:0:0:0:
64,64,128563,1,0,0:0:0:0:
320,64,128745,1,8,0:0:0:0:
64,64,128926,1,0,0:0:0:0:
64,64,129017,1,0,0:0:0:0:
320,64,129108,1,8,0:0:0:0:
64,64,129290,1,0,0:0:0:0:
320,64,129381,1,8,0:0:0:0:
64,64,129472,1,0,0:0:0:0:
64,64,129563,1,0,0:0:0:0:
320,64,129654,1,8,0:0:0:0:
320,64,129835,1,8,0:0:0:0:
64,64,130017,1,0,0:0:0:0:
320,64,130108,1,8,0:0:0:0:
64,64,130199,1,0,0:0:0:0:
64,64,130381,1,0,0:0:0:0:
320,64,130563,1,8,0:0:0:0:
64,64,130745,1,0,0:0:0:0:
64,64,130835,1,0,0:0:0:0:
320,64,130926,1,8,0:0:0:0:
320,64,131017,1,8,0:0:0:0:
64,64,131108,1,0,0:0:0:0:
320,64,131290,1,8,0:0:0:0:
320,64,131472,1,8,0:0:0:0:
320,64,131563,1,8,0:0:0:0:
64,64,131654,1,0,0:0:0:0:
64,64,131835,1,0,0:0:0:0:
320,64,132017,1,8,0:0:0:0:
64,64,132199,1,0,0:0:0:0:
320,64,132290,1,8,0:0:0:0:
64,64,132381,1,0,0:0:0:0:
64,64,132472,1,0,0:0:0:0:
320,64,132563,1,8,0:0:0:0:
64,64,132745,1,0,0:0:0:0:
320,64,132926,1,8,0:0:0:0:
64,64,133108,1,0,0:0:0:0:
320,64,133472,1,8,0:0:0:0:
320,64,133654,1,8,0:0:0:0:
320,64,133745,1,8,0:0:0:0:
64,64,133835,1,0,0:0:0:0:
320,64,133926,1,8,0:0:0:0:
64,64,134017,1,0,0:0:0:0:
320,64,134199,1,8,0:0:0:0:
320,64,134381,1,8,0:0:0:0:
64,64,134563,1,0,0:0:0:0:
320,64,134745,1,8,0:0:0:0:
320,64,134926,1,8,0:0:0:0:
64,64,135108,1,0,0:0:0:0:
64,64,135199,1,0,0:0:0:0:
320,64,135290,1,8,0:0:0:0:
320,64,135381,1,8,0:0:0:0:
64,64,135472,1,0,0:0:0:0:
320,64,135654,1,8,0:0:0:0:
64,64,135835,1,0,0:0:0:0:
320,64,136017,1,8,0:0:0:0:
320,64,136108,1,8,0:0:0:0:
64,64,136199,1,0,0:0:0:0:
320,64,136381,1,8,0:0:0:0:
64,64,136563,1,0,0:0:0:0:
320,64,136654,1,8,0:0:0:0:
64,64,136745,1,0,0:0:0:0:
64,64,136926,1,0,0:0:0:0:
320,64,137108,1,8,0:0:0:0:
320,64,137290,1,8,0:0:0:0:
64,64,137472,1,0,0:0:0:0:
320,64,137835,1,8,0:0:0:0:
64,64,138017,1,0,0:0:0:0:
64,64,138108,1,0,0:0:0:0:
320,64,138199,1,8,0:0:0:0:
64,64,138381,1,0,0:0:0:0:
320,64,138563,1,8,0:0:0:0:
64,64,138654,1,0,0:0:0:0:
320,64,138745,1,8,0:0:0:0:
320,64,138835,1,8,0:0:0:0:
64,64,138926,1,0,0:0:0:0:
64,64,139290,1,0,0:0:0:0:
64,64,139472,1,0,0:0:0:0:
320,64,139563,1,8,0:0:0:0:
64,64,139654,1,0,0:0:0:0:
64,64,139835,1,0,0:0:0:0:
320,64,140017,1,8,0:0:0:0:
320,64,140199,1,8,0:0:0:0:
320,64,140290,1,8,0:0:0:0:
64,64,140381,1,0,0:0:0:0:
320,64,140563,1,8,0:0:0:0:
320,64,140745,1,8,0:0:0:0:
64,64,140926,1,0,0:0:0:0:
64,64,141017,1,0,0:0:0:0:
320,64,141108,1,8,0:0:0:0:
64,64,141199,1,0,0:0:0:0:
320,64,141290,1,8,0:0:0:0:
320,64,141381,1,8,0:0:0:0:
64,64,141472,1,0,0:0:0:0:
64,64,141654,1,0,0:0:0:0:
64,64,141745,1,0,0:0:0:0:
320,64,141835,1,8,0:0:0:0:
64,64,142017,1,0,0:0:0:0:
320,64,142199,1,8,0:0:0:0:
320,64,142381,1,8,0:0:0:0:
320,64,142472,1,8,0:0:0:0:
64,64,142563,1,0,0:0:0:0:
64,64,142745,1,0,0:0:0:0:
64,64,142835,1,0,0:0:0:0:
320,64,142926,1,8,0:0:0:0:
64,64,143017,1,0,0:0:0:0:
320,64,143108,1,8,0:0:0:0:
64,64,143290,1,0,0:0:0:0:
320,64,143472,1,8,0:0:0:0:
64,64,143654,1,0,0:0:0:0:
64,64,143835,1,0,0:0:0:0:
320,64,143926,1,8,0:0:0:0:
64,64,144017,1,0,0:0:0:0:
320,64,144199,1,8,0:0:0:0:
320,64,144290,1,8,0:0:0:0:
64,64,144381,1,0,0:0:0:0:
64,64,144472,1,0,0:0:0:0:
320,64,144563,1,8,0:0:0:0:
64,64,144745,1,0,0:0:0:0:
320,64,144926,1,8,0:0:0:0:
64,64,145108,1,0,0:0:0:0:
64,64,145199,1,0,0:0:0:0:
320,64,145290,1,8,0:0:0:0:
320,64,145472,1,8,0:0:0:0:
64,64,145654,1,0,0:0:0:0:
320,64,145745,1,8,0:0:0:0:
64,64,145835,1,0,0:0:0:0:
64,64,145926,1,0,0:0:0:0:
320,64,146017,1,8,0:0:0:0:
64,64,146199,1,0,0:0:0:0:
320,64,146381,1,8,0:0:0:0:
64,64,146472,1,0,0:0:0:0:
320,64,146563,1,8,0:0:0:0:
320,64,146745,1,8,0:0:0:0:
320,64,146836,1,8,0:0:0:0:
64,64,146926,1,0,0:0:0:0:
320,64,147017,1,8,0:0:0:0:
64,64,147108,1,0,0:0:0:0:
320,64,147290,1,8,0:0:0:0:
320,64,147472,1,8,0:0:0:0:
320,64,147563,1,8,0:0:0:0:
64,64,147654,1,0,0:0:0:0:
320,64,147835,1,8,0:0:0:0:
320,64,148017,1,8,0:0:0:0:
64,64,148199,1,0,0:0:0:0:
64,64,148290,1,0,0:0:0:0:
320,64,148381,1,8,0:0:0:0:
320,64,148472,1,8,0:0:0:0:
64,64,148563,1,0,0:0:0:0:
64,64,148654,1,0,0:0:0:0:
320,64,148745,1,8,0:0:0:0:
320,64,148926,1,8,0:0:0:0:
64,64,149108,1,0,0:0:0:0:
320,64,149472,1,8,0:0:0:0:
64,64,149654,1,0,0:0:0:0:
64,64,149745,1,0,0:0:0:0:
320,64,149835,1,8,0:0:0:0:
64,64,150017,1,0,0:0:0:0:
64,64,150108,1,0,0:0:0:0:
320,64,150199,1,8,0:0:0:0:
64,64,150290,1,0,0:0:0:0:
320,64,150381,1,8,0:0:0:0:
64,64,150563,1,0,0:0:0:0:
64,64,150745,1,0,0:0:0:0:
64,64,150835,1,0,0:0:0:0:
320,64,150926,1,8,0:0:0:0:
64,64,151108,1,0,0:0:0:0:
320,64,151199,1,8,0:0:0:0:
64,64,151290,1,0,0:0:0:0:
64,64,151381,1,0,0:0:0:0:
320,64,151472,1,8,0:0:0:0:
320,64,151654,1,8,0:0:0:0:
320,64,151835,1,8,0:0:0:0:
320,64,151926,1,8,0:0:0:0:
64,64,152017,1,0,0:0:0:0:
320,64,152199,1,8,0:0:0:0:
64,64,152381,1,0,0:0:0:0:
64,64,152472,1,0,0:0:0:0:
320,64,152563,1,8,0:0:0:0:
64,64,152654,1,0,0:0:0:0:
320,64,152745,1,8,0:0:0:0:
64,64,152926,1,0,0:0:0:0:
64,64,153017,1,0,0:0:0:0:
320,64,153108,1,8,0:0:0:0:
320,64,153290,1,8,0:0:0:0:
64,64,153472,1,0,0:0:0:0:
320,64,153654,1,8,0:0:0:0:
64,64,153745,1,0,0:0:0:0:
320,64,153835,1,8,0:0:0:0:
320,64,154017,1,8,0:0:0:0:
320,64,154108,1,8,0:0:0:0:
64,64,154199,1,0,0:0:0:0:
64,64,154290,1,0,0:0:0:0:
320,64,154381,1,8,0:0:0:0:
64,64,154472,1,0,0:0:0:0:
320,64,154563,1,8,0:0:0:0:
320,64,154745,1,8,0:0:0:0:
64,64,154926,1,0,0:0:0:0:
320,64,155108,1,8,0:0:0:0:
320,64,155199,1,8,0:0:0:0:
64,64,155290,1,0,0:0:0:0:
64,64,155472,1,0,0:0:0:0:
64,64,155563,1,0,0:0:0:0:
320,64,155654,1,8,0:0:0:0:
320,64,155745,1,8,0:0:0:0:
64,64,155835,1,0,0:0:0:0:
320,64,156017,1,8,0:0:0:0:
320,64,156199,1,8,0:0:0:0:
64,64,156381,1,0,0:0:0:0:
320,64,156563,1,8,0:0:0:0:
320,64,156654,1,8,0:0:0:0:
64,64,156745,1,0,0:0:0:0:
320,64,156926,1,8,0:0:0:0:
64,64,157017,1,0,0:0:0:0:
320,64,157108,1,8,0:0:0:0:
64,64,157290,1,0,0:0:0:0:
64,64,157381,1,0,0:0:0:0:
320,64,157472,1,8,0:0:0:0:
64,64,157563,1,0,0:0:0:0:
320,64,157654,1,8,0:0:0:0:
64,64,157835,1,0,0:0:0:0:
64,64,158017,1,0,0:0:0:0:
64,64,158108,1,0,0:0:0:0:
320,64,158199,1,8,0:0:0:0:
64,64,158381,1,0,0:0:0:0:
64,64,158472,1,0,0:0:0:0:
320,64,158563,1,8,0:0:0:0:
320,64,158654,1,8,0:0:0:0:
64,64,158745,1,0,0:0:0:0:
64,64,158835,1,0,0:0:0:0:
320,64,158926,1,8,0:0:0:0:
320,64,159108,1,8,0:0:0:0:
64,64,159290,1,0,0:0:0:0:
320,64,159654,1,8,0:0:0:0:
320,64,159835,1,8,0:0:0:0:
320,64,160017,1,8,0:0:0:0:
64,64,160199,1,0,0:0:0:0:
64,64,160290,1,0,0:0:0:0:
320,64,160381,1,8,0:0:0:0:
320,64,160563,1,8,0:0:0:0:
64,64,160745,1,0,0:0:0:0:
64,64,161108,1,0,0:0:0:0:
64,64,161290,1,0,0:0:0:0:
320,64,161472,1,8,0:0:0:0:
64,64,161835,1,0,0:0:0:0:
320,64,162017,1,8,0:0:0:0:
64,64,162108,1,0,0:0:0:0:
320,64,162199,1,8,0:0:0:0:
320,64,162381,1,8,0:0:0:0:
64,64,162563,1,0,0:0:0:0:
320,64,162926,1,8,0:0:0:0:
64,64,163108,1,0,0:0:0:0:
320,64,163199,1,8,0:0:0:0:
320,64,163290,1,8,0:0:0:0:
64,64,163472,1,0,0:0:0:0:
320,64,163654,1,8,0:0:0:0:
64,64,164017,1,0,0:0:0:0:
320,64,164381,1,8,0:0:0:0:
64,64,164745,1,0,0:0:0:0:
320,64,164926,1,8,0:0:0:0:
64,64,165108,1,0,0:0:0:0:
320,64,165290,1,8,0:0:0:0:
64,64,165472,1,0,0:0:0:0:
320,64,165835,1,8,0:0:0:0:
64,64,166017,1,0,0:0:0:0:
320,64,166108,1,8,0:0:0:0:
64,64,166199,1,0,0:0:0:0:
64,64,166381,1,0,0:0:0:0:
64,64,166563,1,0,0:0:0:0:
64,64,166926,1,0,0:0:0:0:
320,64,167290,1,8,0:0:0:0:
64,64,167654,1,0,0:0:0:0:
320,64,167835,1,8,0:0:0:0:
64,64,167926,1,0,0:0:0:0:
320,64,168017,1,8,0:0:0:0:
320,64,168199,1,8,0:0:0:0:
64,64,168381,1,0,0:0:0:0:
320,64,168745,1,8,0:0:0:0:
64,64,168926,1,0,0:0:0:0:
320,64,169017,1,8,0:0:0:0:
320,64,169108,1,8,0:0:0:0:
64,64,169290,1,0,0:0:0:0:
320,64,169472,1,8,0:0:0:0:
64,64,169835,1,0,0:0:0:0:
320,64,170199,1,8,0:0:0:0:
64,64,170563,1,0,0:0:0:0:
64,64,170745,1,0,0:0:0:0:
64,64,170835,1,0,0:0:0:0:
320,64,170926,1,8,0:0:0:0:
320,64,171108,1,8,0:0:0:0:
64,64,171199,1,0,0:0:0:0:
320,64,171290,1,8,0:0:0:0:
64,64,171472,1,0,0:0:0:0:
320,64,171654,1,8,0:0:0:0:
64,64,171835,1,0,0:0:0:0:
64,64,172017,1,0,0:0:0:0:
64,64,172199,1,0,0:0:0:0:
320,64,172381,1,8,0:0:0:0:
320,64,173108,1,8,0:0:0:0:
64,64,173835,1,0,0:0:0:0:
320,64,174199,1,8,0:0:0:0:
320,64,174381,1,8,0:0:0:0:
64,64,174563,1,0,0:0:0:0:
320,64,174926,1,8,0:0:0:0:
320,64,175199,1,8,0:0:0:0:
64,64,175290,1,0,0:0:0:0:
320,64,175654,1,8,0:0:0:0:
320,64,175835,1,8,0:0:0:0:
64,64,176017,1,0,0:0:0:0:
320,64,176199,1,8,0:0:0:0:
320,64,176472,1,8,0:0:0:0:
320,64,176563,1,8,0:0:0:0:
64,64,176745,1,0,0:0:0:0:
320,64,177108,1,8,0:0:0:0:
64,64,177290,1,0,0:0:0:0:
320,64,177563,1,8,0:0:0:0:
64,64,177654,1,0,0:0:0:0:
320,64,177835,1,8,0:0:0:0:
320,64,178108,1,8,0:0:0:0:
64,64,178199,1,0,0:0:0:0:
64,64,178381,1,0,0:0:0:0:
320,64,178563,1,8,0:0:0:0:
320,64,178745,1,8,0:0:0:0:
64,64,178926,1,0,0:0:0:0:
320,64,179108,1,8,0:0:0:0:
64,64,179290,1,0,0:0:0:0:
64,64,179381,1,0,0:0:0:0:
320,64,179472,1,8,0:0:0:0:
64,64,179654,1,0,0:0:0:0:
64,64,179835,1,0,0:0:0:0:
320,64,180017,1,8,0:0:0:0:
320,64,180199,1,8,0:0:0:0:
64,64,180381,1,0,0:0:0:0:
320,64,180472,1,8,0:0:0:0:
320,64,180563,1,8,0:0:0:0:
320,64,180745,1,8,0:0:0:0:
64,64,180926,1,0,0:0:0:0:
320,64,181017,1,8,0:0:0:0:
64,64,181108,1,0,0:0:0:0:
64,64,181290,1,0,0:0:0:0:
320,64,181472,1,8,0:0:0:0:
320,64,181654,1,8,0:0:0:0:
64,64,181835,1,0,0:0:0:0:
320,64,182017,1,8,0:0:0:0:
64,64,182199,1,0,0:0:0:0:
320,64,182290,1,8,0:0:0:0:
320,64,182381,1,8,0:0:0:0:
64,64,182563,1,0,0:0:0:0:
64,64,182745,1,0,0:0:0:0:
320,64,182926,1,8,0:0:0:0:
320,64,183108,1,8,0:0:0:0:
64,64,183290,1,0,0:0:0:0:
320,64,183381,1,8,0:0:0:0:
64,64,183472,1,0,0:0:0:0:
320,64,183654,1,8,0:0:0:0:
64,64,184017,1,0,0:0:0:0:
320,64,184381,1,8,0:0:0:0:
64,64,184563,1,0,0:0:0:0:
320,64,184654,1,8,0:0:0:0:
64,64,184745,1,0,0:0:0:0:
64,64,184926,1,0,0:0:0:0:
320,64,185108,1,8,0:0:0:0:
320,64,185290,1,8,0:0:0:0:
320,64,185381,1,8,0:0:0:0:
64,64,185472,1,0,0:0:0:0:
64,64,185654,1,0,0:0:0:0:
320,64,185835,1,8,0:0:0:0:
64,64,186017,1,0,0:0:0:0:
64,64,186108,1,0,0:0:0:0:
320,64,186199,1,8,0:0:0:0:
320,64,186290,1,8,0:0:0:0:
64,64,186381,1,0,0:0:0:0:
320,64,186563,1,8,0:0:0:0:
64,64,186745,1,0,0:0:0:0:
320,64,186835,1,8,0:0:0:0:
64,64,186926,1,0,0:0:0:0:
64,64,187108,1,0,0:0:0:0:
320,64,187290,1,8,0:0:0:0:
320,64,187472,1,8,0:0:0:0:
320,64,187563,1,8,0:0:0:0:
64,64,187654,1,0,0:0:0:0:
64,64,187835,1,0,0:0:0:0:
320,64,188017,1,8,0:0:0:0:
320,64,188199,1,8,0:0:0:0:
320,64,188290,1,8,0:0:0:0:
64,64,188381,1,0,0:0:0:0:
320,64,188563,1,8,0:0:0:0:
64,64,188745,1,0,0:0:0:0:
320,64,188926,1,8,0:0:0:0:
64,64,189017,1,0,0:0:0:0:
320,64,189108,1,8,0:0:0:0:
320,64,189199,1,8,0:0:0:0:
64,64,189290,1,0,0:0:0:0:
320,64,189472,1,8,0:0:0:0:
64,64,189654,1,0,0:0:0:0:
320,64,189745,1,8,0:0:0:0:
64,64,189835,1,0,0:0:0:0:
64,64,190017,1,0,0:0:0:0:
320,64,190199,1,8,0:0:0:0:
64,64,190381,1,0,0:0:0:0:
320,64,190472,1,8,0:0:0:0:
320,64,190563,1,8,0:0:0:0:
64,64,190654,1,0,0:0:0:0:
320,64,190745,1,8,0:0:0:0:
64,64,190926,1,0,0:0:0:0:
320,64,191108,1,8,0:0:0:0:
64,64,191290,1,0,0:0:0:0:
320,64,191472,1,8,0:0:0:0:
320,64,191563,1,8,0:0:0:0:
64,64,191654,1,0,0:0:0:0:
64,64,191835,1,0,0:0:0:0:
320,64,191926,1,8,0:0:0:0:
64,64,192017,1,0,0:0:0:0:
64,64,192108,1,0,0:0:0:0:
320,64,192199,1,8,0:0:0:0:
64,64,192381,1,0,0:0:0:0:
64,64,192563,1,0,0:0:0:0:
320,64,192654,1,8,0:0:0:0:
64,64,192745,1,0,0:0:0:0:
64,64,192926,1,0,0:0:0:0:
320,64,193108,1,8,0:0:0:0:
64,64,193290,1,0,0:0:0:0:
64,64,193381,1,0,0:0:0:0:
320,64,193472,1,8,0:0:0:0:
64,64,193654,1,0,0:0:0:0:
320,64,193835,1,8,0:0:0:0:
64,64,194017,1,0,0:0:0:0:
320,64,194108,1,8,0:0:0:0:
320,64,194199,1,8,0:0:0:0:
64,64,194381,1,0,0:0:0:0:
320,64,194563,1,8,0:0:0:0:
64,64,194745,1,0,0:0:0:0:
320,64,194835,1,8,0:0:0:0:
64,64,194926,1,0,0:0:0:0:
64,64,195108,1,0,0:0:0:0:
320,64,195290,1,8,0:0:0:0:
320,64,195472,1,8,0:0:0:0:
320,64,195563,1,8,0:0:0:0:
64,64,195654,1,0,0:0:0:0:
320,64,196017,1,8,0:0:0:0:
64,64,196199,1,0,0:0:0:0:
64,64,196290,1,0,0:0:0:0:
320,64,196381,1,8,0:0:0:0:
64,64,196563,1,0,0:0:0:0:
320,64,196745,1,8,0:0:0:0:
320,64,196926,1,8,0:0:0:0:
320,64,197017,1,8,0:0:0:0:
64,64,197108,1,0,0:0:0:0:
320,64,197290,1,8,0:0:0:0:
64,64,197472,1,0,0:0:0:0:
320,64,197654,1,8,0:0:0:0:
320,64,197745,1,8,0:0:0:0:
64,64,197835,1,0,0:0:0:0:
320,64,197926,1,8,0:0:0:0:
64,64,198017,1,0,0:0:0:0:
320,64,198199,1,8,0:0:0:0:
320,64,198381,1,8,0:0:0:0:
320,64,198472,1,8,0:0:0:0:
64,64,198563,1,0,0:0:0:0:
64,64,198745,1,0,0:0:0:0:
320,64,198926,1,8,0:0:0:0:
64,64,199108,1,0,0:0:0:0:
64,64,199199,1,0,0:0:0:0:
320,64,199290,1,8,0:0:0:0:
64,64,199472,1,0,0:0:0:0:
320,64,199563,1,8,0:0:0:0:
64,64,199654,1,0,0:0:0:0:
320,64,199745,1,0,0:0:0:0:
320,64,199835,1,8,0:0:0:0:
64,64,200017,1,0,0:0:0:0:
320,64,200199,1,8,0:0:0:0:
64,64,200290,1,0,0:0:0:0:
320,64,200381,1,8,0:0:0:0:
64,64,200563,1,0,0:0:0:0:
64,64,200654,1,0,0:0:0:0:
320,64,200745,1,8,0:0:0:0:
64,64,200835,1,0,0:0:0:0:
320,64,200926,1,8,0:0:0:0:
320,64,201108,1,8,0:0:0:0:
320,64,201290,1,8,0:0:0:0:
64,64,201472,1,0,0:0:0:0:
320,64,201835,1,8,0:0:0:0:
320,64,202017,1,8,0:0:0:0:
64,64,202108,1,0,0:0:0:0:
320,64,202199,1,8,0:0:0:0:
64,64,202381,1,0,0:0:0:0:
320,64,202563,1,8,0:0:0:0:
320,64,202745,1,8,0:0:0:0:
320,64,202835,1,8,0:0:0:0:
64,64,202926,1,0,0:0:0:0:
64,64,203108,1,0,0:0:0:0:
320,64,203290,1,8,0:0:0:0:
64,64,203472,1,0,0:0:0:0:
64,64,203563,1,0,0:0:0:0:
320,64,203654,1,8,0:0:0:0:
64,64,203835,1,0,0:0:0:0:
320,64,204017,1,8,0:0:0:0:
64,64,204199,1,0,0:0:0:0:
320,64,204290,1,8,0:0:0:0:
64,64,204381,1,0,0:0:0:0:
64,64,204563,1,0,0:0:0:0:
320,64,204745,1,8,0:0:0:0:
320,64,204926,1,8,0:0:0:0:
320,64,205017,1,8,0:0:0:0:
64,64,205108,1,0,0:0:0:0:
64,64,205290,1,0,0:0:0:0:
320,64,205381,1,8,0:0:0:0:
64,64,205472,1,0,0:0:0:0:
64,64,205563,1,0,0:0:0:0:
320,64,205654,1,8,0:0:0:0:
64,64,205835,1,0,0:0:0:0:
64,64,206017,1,0,0:0:0:0:
320,64,206199,1,8,0:0:0:0:
64,64,206381,1,0,0:0:0:0:
320,64,206472,1,8,0:0:0:0:
64,64,206563,1,0,0:0:0:0:
64,64,206745,1,0,0:0:0:0:
320,64,206926,1,8,0:0:0:0:
64,64,207108,1,0,0:0:0:0:
64,64,208745,1,0,0:0:0:0:
64,64,209017,1,0,0:0:0:0:
64,64,209290,1,0,0:0:0:0:
320,64,209381,1,8,0:0:0:0:
64,64,209654,1,0,0:0:0:0:
320,64,209835,1,8,0:0:0:0:
64,64,210017,1,0,0:0:0:0:
320,64,210108,1,8,0:0:0:0:
64,64,210199,1,0,0:0:0:0:
64,64,210472,1,0,0:0:0:0:
64,64,210745,1,0,0:0:0:0:
320,64,210926,1,8,0:0:0:0:
64,64,211108,1,0,0:0:0:0:
320,64,211199,1,8,0:0:0:0:
64,64,211290,1,0,0:0:0:0:
64,64,211381,1,0,0:0:0:0:
320,64,211472,1,8,0:0:0:0:
64,64,211563,1,0,0:0:0:0:
320,64,212381,1,8,0:0:0:0:
64,64,212926,1,0,0:0:0:0:
64,64,213108,1,0,0:0:0:0:
64,64,213381,1,0,0:0:0:0:
64,64,213654,1,0,0:0:0:0:
320,64,213835,1,8,0:0:0:0:
64,64,214017,1,0,0:0:0:0:
320,64,214108,1,8,0:0:0:0:
320,64,214199,1,8,0:0:0:0:
64,64,214290,1,0,0:0:0:0:
320,64,214381,1,8,0:0:0:0:
64,64,214472,1,0,0:0:0:0:
64,64,215108,1,0,0:0:0:0:
320,64,215290,1,8,0:0:0:0:
64,64,215472,1,0,0:0:0:0:
320,64,215563,1,8,0:0:0:0:
320,64,215654,1,8,0:0:0:0:
64,64,215745,1,0,0:0:0:0:
320,64,215835,1,8,0:0:0:0:
320,64,215926,1,8,0:0:0:0:
64,64,216017,1,0,0:0:0:0:
64,64,216290,1,0,0:0:0:0:
64,64,216563,1,0,0:0:0:0:
320,64,216745,1,8,0:0:0:0:
64,64,216926,1,0,0:0:0:0:
320,64,217017,1,8,0:0:0:0:
64,64,217108,1,0,0:0:0:0:
320,64,217199,1,8,0:0:0:0:
320,64,217290,1,8,0:0:0:0:
64,64,217381,1,0,0:0:0:0:
64,64,218017,1,0,0:0:0:0:
320,64,218199,1,8,0:0:0:0:
64,64,218745,1,0,0:0:0:0:
64,64,218926,1,0,0:0:0:0:
64,64,219199,1,0,0:0:0:0:
64,64,219472,1,0,0:0:0:0:
320,64,219654,1,8,0:0:0:0:
64,64,219835,1,0,0:0:0:0:
320,64,219926,1,8,0:0:0:0:
64,64,220017,1,0,0:0:0:0:
64,64,220108,1,0,0:0:0:0:
320,64,220199,1,8,0:0:0:0:
64,64,220563,1,0,0:0:0:0:
320,64,221108,1,8,0:0:0:0:
64,64,221290,1,0,0:0:0:0:
320,64,221381,1,8,0:0:0:0:
64,64,221654,1,0,0:0:0:0:
320,64,221745,1,8,0:0:0:0:
64,64,221835,1,0,0:0:0:0:
64,64,222108,1,0,0:0:0:0:
64,64,222381,1,0,0:0:0:0:
320,64,222563,1,8,0:0:0:0:
64,64,222745,1,0,0:0:0:0:
320,64,222835,1,8,0:0:0:0:
64,64,222926,1,0,0:0:0:0:
64,64,223017,1,0,0:0:0:0:
320,64,223108,1,8,0:0:0:0:
64,64,223199,1,0,0:0:0:0:
64,64,223835,1,0,0:0:0:0:
320,64,224017,1,8,0:0:0:0:
64,64,224563,1,0,0:0:0:0:
64,64,224745,1,0,0:0:0:0:
64,64,225017,1,0,0:0:0:0:
64,64,225290,1,0,0:0:0:0:
320,64,225472,1,8,0:0:0:0:
64,64,225654,1,0,0:0:0:0:
320,64,225745,1,8,0:0:0:0:
320,64,225835,1,8,0:0:0:0:
64,64,225926,1,0,0:0:0:0:
320,64,226017,1,8,0:0:0:0:
64,64,226108,1,0,0:0:0:0:
64,64,226745,1,0,0:0:0:0:
320,64,226926,1,8,0:0:0:0:
64,64,227472,1,0,0:0:0:0:
64,64,227654,1,0,0:0:0:0:
64,64,227926,1,0,0:0:0:0:
64,64,228199,1,0,0:0:0:0:
320,64,228381,1,8,0:0:0:0:
64,64,228563,1,0,0:0:0:0:
320,64,228654,1,8,0:0:0:0:
64,64,228745,1,0,0:0:0:0:
320,64,228835,1,8,0:0:0:0:
320,64,228926,1,8,0:0:0:0:
64,64,229017,1,0,0:0:0:0:
64,64,229654,1,0,0:0:0:0:
320,64,229835,1,8,0:0:0:0:
64,64,230381,1,0,0:0:0:0:
64,64,230563,1,0,0:0:0:0:
64,64,230835,1,0,0:0:0:0:
64,64,231108,1,0,0:0:0:0:
320,64,231290,1,8,0:0:0:0:
64,64,231472,1,0,0:0:0:0:
320,64,231563,1,8,0:0:0:0:
64,64,231654,1,0,0:0:0:0:
64,64,231745,1,0,0:0:0:0:
320,64,231835,1,8,0:0:0:0:
64,64,232199,1,0,0:0:0:0:
320,64,232381,1,8,0:0:0:0:
64,64,232654,1,0,0:0:0:0:
320,64,232745,1,8,0:0:0:0:
320,64,233017,1,8,0:0:0:0:
64,64,233290,1,0,0:0:0:0:
320,64,233381,1,8,0:0:0:0:
64,64,233472,1,0,0:0:0:0:
320,64,233835,1,8,0:0:0:0:
64,64,234017,1,0,0:0:0:0:
320,64,234108,1,8,0:0:0:0:
64,64,234199,1,0,0:0:0:0:
320,64,234290,1,8,0:0:0:0:
64,64,234381,1,0,0:0:0:0:
320,64,234563,1,8,0:0:0:0:
320,64,234745,1,8,0:0:0:0:
320,64,234835,1,8,0:0:0:0:
64,64,234926,1,0,0:0:0:0:
64,64,235108,1,0,0:0:0:0:
320,64,235290,1,8,0:0:0:0:
64,64,235472,1,0,0:0:0:0:
64,64,235563,1,0,0:0:0:0:
320,64,235654,1,8,0:0:0:0:
320,64,235745,1,8,0:0:0:0:
64,64,235835,1,0,0:0:0:0:
320,64,236017,1,8,0:0:0:0:
64,64,236199,1,0,0:0:0:0:
320,64,236290,1,8,0:0:0:0:
64,64,236381,1,0,0:0:0:0:
64,64,236563,1,0,0:0:0:0:
320,64,236745,1,8,0:0:0:0:
320,64,236926,1,8,0:0:0:0:
320,64,237017,1,8,0:0:0:0:
64,64,237108,1,0,0:0:0:0:
320,64,237199,1,8,0:0:0:0:
64,64,237290,1,0,0:0:0:0:
320,64,237472,1,8,0:0:0:0:
64,64,237654,1,0,0:0:0:0:
64,64,237745,1,0,0:0:0:0:
64,64,237835,1,0,0:0:0:0:
64,64,238017,1,0,0:0:0:0:
320,64,238199,1,8,0:0:0:0:
320,64,238381,1,8,0:0:0:0:
64,64,238472,1,0,0:0:0:0:
320,64,238563,1,8,0:0:0:0:
320,64,238654,1,8,0:0:0:0:
64,64,238745,1,0,0:0:0:0:
320,64,238926,1,8,0:0:0:0:
64,64,239108,1,0,0:0:0:0:
320,64,239199,1,8,0:0:0:0:
64,64,239290,1,0,0:0:0:0:
64,64,239472,1,0,0:0:0:0:
320,64,239654,1,8,0:0:0:0:
64,64,239835,1,0,0:0:0:0:
320,64,239926,1,8,0:0:0:0:
64,64,240017,1,0,0:0:0:0:
320,64,240108,1,8,0:0:0:0:
64,64,240199,1,0,0:0:0:0:
320,64,240381,1,8,0:0:0:0:
64,64,240563,1,0,0:0:0:0:
64,64,240654,1,0,0:0:0:0:
320,64,240745,1,8,0:0:0:0:
64,64,240926,1,0,0:0:0:0:
320,64,241108,1,8,0:0:0:0:
320,64,241290,1,8,0:0:0:0:
320,64,241381,1,8,0:0:0:0:
64,64,241472,1,0,0:0:0:0:
64,64,241654,1,0,0:0:0:0:
320,64,241835,1,8,0:0:0:0:
320,64,242017,1,8,0:0:0:0:
64,64,242108,1,0,0:0:0:0:
320,64,242199,1,8,0:0:0:0:
64,64,242381,1,0,0:0:0:0:
320,64,242563,1,8,0:0:0:0:
64,64,242745,1,0,0:0:0:0:
320,64,242835,1,8,0:0:0:0:
320,64,242926,1,8,0:0:0:0:
320,64,243017,1,8,0:0:0:0:
64,64,243108,1,0,0:0:0:0:
320,64,243290,1,8,0:0:0:0:
320,64,243472,1,8,0:0:0:0:
64,64,243654,1,0,0:0:0:0:
64,64,243835,1,0,0:0:0:0:
64,64,243926,1,0,0:0:0:0:
320,64,244017,1,8,0:0:0:0:
64,64,244199,1,0,0:0:0:0:
320,64,244381,1,8,0:0:0:0:
320,64,244472,1,8,0:0:0:0:
64,64,244563,1,0,0:0:0:0:
320,64,244745,1,8,0:0:0:0:
320,64,244926,1,8,0:0:0:0:
64,64,245108,1,0,0:0:0:0:
64,64,245290,1,0,0:0:0:0:
320,64,245472,1,8,0:0:0:0:
64,64,245654,1,0,0:0:0:0:
320,64,245745,1,8,0:0:0:0:
64,64,245835,1,0,0:0:0:0:
320,64,245926,1,8,0:0:0:0:
64,64,246017,1,0,0:0:0:0:
320,64,246199,1,8,0:0:0:0:
320,64,246381,1,8,0:0:0:0:
320,64,246472,1,8,0:0:0:0:
64,64,246563,1,0,0:0:0:0:
64,64,246745,1,0,0:0:0:0:
320,64,246926,1,8,0:0:0:0:
64,64,247108,1,0,0:0:0:0:
64,64,247199,1,0,0:0:0:0:
320,64,247290,1,8,0:0:0:0:
320,64,247381,1,8,0:0:0:0:
64,64,247472,1,0,0:0:0:0:
320,64,247654,1,8,0:0:0:0:
64,64,247835,1,0,0:0:0:0:
320,64,247926,1,8,0:0:0:0:
64,64,248017,1,0,0:0:0:0:
64,64,248199,1,0,0:0:0:0:
320,64,248381,1,8,0:0:0:0:
320,64,248563,1,8,0:0:0:0:
320,64,248654,1,8,0:0:0:0:
64,64,248745,1,0,0:0:0:0:
320,64,248835,1,8,0:0:0:0:
64,64,248926,1,0,0:0:0:0:
320,64,249108,1,8,0:0:0:0:
64,64,249290,1,0,0:0:0:0:
64,64,249381,1,0,0:0:0:0:
320,64,249472,1,8,0:0:0:0:
64,64,249654,1,0,0:0:0:0:
320,64,249835,1,8,0:0:0:0:
320,64,250017,1,8,0:0:0:0:
64,64,250108,1,0,0:0:0:0:
320,64,250199,1,8,0:0:0:0:
320,64,250290,1,8,0:0:0:0:
64,64,250381,1,0,0:0:0:0:
320,64,250563,1,8,0:0:0:0:
64,64,250745,1,0,0:0:0:0:
320,64,250835,1,8,0:0:0:0:
64,64,250926,1,0,0:0:0:0:
64,64,251108,1,0,0:0:0:0:
320,64,251290,1,8,0:0:0:0:
64,64,251472,1,0,0:0:0:0:
320,64,251563,1,8,0:0:0:0:
64,64,251654,1,0,0:0:0:0:
320,64,251745,1,8,0:0:0:0:
64,64,251835,1,0,0:0:0:0:
320,64,252017,1,8,0:0:0:0:
64,64,252199,1,0,0:0:0:0:
64,64,252290,1,0,0:0:0:0:
320,64,252381,1,8,0:0:0:0:
64,64,252563,1,0,0:0:0:0:
320,64,252745,1,8,0:0:0:0:
320,64,252926,1,8,0:0:0:0:
320,64,253017,1,8,0:0:0:0:
64,64,253108,1,0,0:0:0:0:
64,64,253290,1,0,0:0:0:0:
320,64,253472,1,8,0:0:0:0:
64,64,253654,1,0,0:0:0:0:
64,64,253745,1,0,0:0:0:0:
320,64,253835,1,8,0:0:0:0:
64,64,254017,1,0,0:0:0:0:
320,64,254199,1,8,0:0:0:0:
64,64,254381,1,0,0:0:0:0:
320,64,254472,1,8,0:0:0:0:
64,64,254563,1,0,0:0:0:0:
64,64,254654,1,0,0:0:0:0:
320,64,254745,1,8,0:0:0:0:
64,64,254926,1,0,0:0:0:0:
320,64,255108,1,8,0:0:0:0:
64,64,255290,1,0,0:0:0:0:
320,64,255472,1,8,0:0:0:0:
320,64,255563,1,8,0:0:0:0:
64,64,255654,1,0,0:0:0:0:
64,64,255835,1,0,0:0:0:0:
320,64,256017,1,8,0:0:0:0:
64,64,256108,1,0,0:0:0:0:
320,64,256199,1,8,0:0:0:0:
320,64,256381,1,8,0:0:0:0:
320,64,256563,1,8,0:0:0:0:
64,64,256745,1,0,0:0:0:0:
320,64,257108,1,8,0:0:0:0:
64,64,257290,1,0,0:0:0:0:
320,64,257381,1,8,0:0:0:0:
64,64,257472,1,0,0:0:0:0:
320,64,257563,1,8,0:0:0:0:
64,64,257654,1,0,0:0:0:0:
320,64,257835,1,8,0:0:0:0:
64,64,258017,1,0,0:0:0:0:
64,64,258108,1,0,0:0:0:0:
320,64,258199,1,8,0:0:0:0:
64,64,258381,1,0,0:0:0:0:
320,64,258563,1,8,0:0:0:0:
320,64,258745,1,8,0:0:0:0:
320,64,258835,1,8,0:0:0:0:
64,64,258926,1,0,0:0:0:0:
320,64,259017,1,8,0:0:0:0:
64,64,259108,1,0,0:0:0:0:
320,64,259290,1,8,0:0:0:0:
64,64,259472,1,0,0:0:0:0:
64,64,259563,1,0,0:0:0:0:
64,64,259654,1,0,0:0:0:0:
64,64,259835,1,0,0:0:0:0:
320,64,260017,1,8,0:0:0:0:
64,64,260199,1,0,0:0:0:0:
64,64,260290,1,0,0:0:0:0:
320,64,260381,1,8,0:0:0:0:
320,64,260472,1,8,0:0:0:0:
64,64,260563,1,0,0:0:0:0:
320,64,260745,1,8,0:0:0:0:
64,64,260926,1,0,0:0:0:0:
64,64,261017,1,0,0:0:0:0:
320,64,261108,1,8,0:0:0:0:
64,64,261290,1,0,0:0:0:0:
320,64,261472,1,8,0:0:0:0:
64,64,261654,1,0,0:0:0:0:
320,64,261745,1,8,0:0:0:0:
64,64,261835,1,0,0:0:0:0:
64,64,261926,1,0,0:0:0:0:
320,64,262017,1,8,0:0:0:0:
320,64,262199,1,8,0:0:0:0:
64,64,262381,1,0,0:0:0:0:
320,64,262472,1,8,0:0:0:0:
64,64,262563,1,0,0:0:0:0:
64,64,262745,1,0,0:0:0:0:
320,64,262926,1,8,0:0:0:0:
64,64,263108,1,0,0:0:0:0:
320,64,263199,1,8,0:0:0:0:
64,64,263290,1,0,0:0:0:0:
320,64,263381,1,8,0:0:0:0:
64,64,263472,1,0,0:0:0:0:
320,64,263653,1,8,0:0:0:0:
64,64,263835,1,0,0:0:0:0:
64,64,263926,1,0,0:0:0:0:
320,64,264017,1,8,0:0:0:0:
64,64,264199,1,0,0:0:0:0:
320,64,264381,1,8,0:0:0:0:
320,64,264563,1,8,0:0:0:0:
320,64,264653,1,8,0:0:0:0:
64,64,264744,1,0,0:0:0:0:
320,64,264835,1,8,0:0:0:0:
64,64,264926,1,0,0:0:0:0:
320,64,265108,1,8,0:0:0:0:
64,64,265290,1,0,0:0:0:0:
64,64,265381,1,0,0:0:0:0:
64,64,265472,1,0,0:0:0:0:
64,64,265653,1,0,0:0:0:0:
320,64,265835,1,8,0:0:0:0:
64,64,266017,1,0,0:0:0:0:
64,64,266108,1,0,0:0:0:0:
320,64,266199,1,8,0:0:0:0:
320,64,266290,1,8,0:0:0:0:
64,64,266381,1,0,0:0:0:0:
320,64,266563,1,8,0:0:0:0:
320,64,266744,1,8,0:0:0:0:
320,64,266835,1,8,0:0:0:0:
64,64,266926,1,0,0:0:0:0:
64,64,267108,1,0,0:0:0:0:
320,64,267290,1,8,0:0:0:0:
320,64,267472,1,8,0:0:0:0:
64,64,267563,1,0,0:0:0:0:
320,64,267653,1,8,0:0:0:0:
320,64,267744,1,8,0:0:0:0:
64,64,267835,1,0,0:0:0:0:
320,64,268017,1,8,0:0:0:0:
64,64,268199,1,0,0:0:0:0:
320,64,268290,1,8,0:0:0:0:
64,64,268381,1,0,0:0:0:0:
64,64,268563,1,0,0:0:0:0:
320,64,268745,1,8,0:0:0:0:
64,64,268927,1,0,0:0:0:0:
320,64,269018,1,8,0:0:0:0:
64,64,269109,1,0,0:0:0:0:
64,64,269290,1,0,0:0:0:0:
64,64,269381,1,0,0:0:0:0:
320,64,269472,1,8,0:0:0:0:
64,64,269563,1,0,0:0:0:0:
320,64,269654,1,8,0:0:0:0:
320,64,269745,1,8,0:0:0:0:
64,64,269835,1,0,0:0:0:0:
64,64,270018,1,0,0:0:0:0:
320,64,270200,1,8,0:0:0:0:
320,64,270382,1,8,0:0:0:0:
320,64,270472,1,8,0:0:0:0:
64,64,270563,1,0,0:0:0:0:
320,64,270654,1,8,0:0:0:0:
64,64,270745,1,0,0:0:0:0:
320,64,270927,1,8,0:0:0:0:
64,64,271109,1,0,0:0:0:0:
64,64,271200,1,0,0:0:0:0:
64,64,271291,1,0,0:0:0:0:
64,64,271472,1,0,0:0:0:0:
320,64,271654,1,8,0:0:0:0:
320,64,271836,1,8,0:0:0:0:
320,64,271927,1,8,0:0:0:0:
64,64,272018,1,0,0:0:0:0:
320,64,272199,1,8,0:0:0:0:
320,64,272290,1,8,0:0:0:0:
64,64,272381,1,0,0:0:0:0:
320,64,272472,1,8,0:0:0:0:
64,64,272563,1,0,0:0:0:0:
64,64,272654,1,0,0:0:0:0:
320,64,272745,1,8,0:0:0:0:
64,64,272927,1,0,0:0:0:0:
320,64,273109,1,8,0:0:0:0:
320,64,273291,1,8,0:0:0:0:
64,64,273382,1,0,0:0:0:0:
320,64,273472,1,8,0:0:0:0:
320,64,273563,1,8,0:0:0:0:
64,64,273654,1,0,0:0:0:0:
320,64,273836,1,8,0:0:0:0:
64,64,274018,1,0,0:0:0:0:
320,64,274109,1,8,0:0:0:0:
64,64,274200,1,0,0:0:0:0:
64,64,274382,1,0,0:0:0:0:
320,64,274563,1,8,0:0:0:0:
64,64,274745,1,0,0:0:0:0:
320,64,274836,1,8,0:0:0:0:
64,64,274927,1,0,0:0:0:0:
64,64,275109,1,0,0:0:0:0:
320,64,275199,1,8,0:0:0:0:
64,64,275290,1,0,0:0:0:0:
64,64,275381,1,0,0:0:0:0:
320,64,275472,1,8,0:0:0:0:
320,64,275563,1,8,0:0:0:0:
64,64,275654,1,0,0:0:0:0:
64,64,275836,1,0,0:0:0:0:
320,64,276018,1,8,0:0:0:0:
320,64,276200,1,8,0:0:0:0:
320,64,276290,1,8,0:0:0:0:
64,64,276381,1,0,0:0:0:0:
320,64,276472,1,8,0:0:0:0:
64,64,276563,1,0,0:0:0:0:
320,64,276745,1,8,0:0:0:0:
64,64,276927,1,0,0:0:0:0:
64,64,277018,1,0,0:0:0:0:
64,64,277109,1,0,0:0:0:0:
64,64,277290,1,0,0:0:0:0:
320,64,277472,1,8,0:0:0:0:
64,64,277654,1,0,0:0:0:0:
320,64,277745,1,8,0:0:0:0:
64,64,277836,1,0,0:0:0:0:
320,64,277927,1,8,0:0:0:0:
64,64,278018,1,0,0:0:0:0:
64,64,278108,1,0,0:0:0:0:
320,64,278200,1,8,0:0:0:0:
320,64,278381,1,8,0:0:0:0:
320,64,278472,1,8,0:0:0:0:
64,64,278563,1,0,0:0:0:0:
64,64,278745,1,0,0:0:0:0:
320,64,278927,1,8,0:0:0:0:
320,64,279109,1,8,0:0:0:0:
64,64,279200,1,0,0:0:0:0:
320,64,279290,1,8,0:0:0:0:
64,64,279381,1,0,0:0:0:0:
64,64,279472,1,0,0:0:0:0:
64,64,279563,1,0,0:0:0:0:
320,64,279654,1,8,0:0:0:0:
320,64,279745,1,8,0:0:0:0:
320,64,279835,1,8,0:0:0:0:
320,64,279926,1,8,0:0:0:0:
64,64,280017,1,0,0:0:0:0:
320,64,280381,1,8,0:0:0:0:
320,64,280654,1,8,0:0:0:0:
64,64,280745,1,0,0:0:0:0:
64,64,280926,1,0,0:0:0:0:
320,64,281108,1,8,0:0:0:0:
320,64,281290,1,8,0:0:0:0:
64,64,281472,1,0,0:0:0:0:
320,64,281835,1,8,0:0:0:0:
64,64,282017,1,0,0:0:0:0:
64,64,282108,1,0,0:0:0:0:
320,64,282199,1,8,0:0:0:0:
320,64,282290,1,8,0:0:0:0:
64,64,282381,1,0,0:0:0:0:
320,64,282563,1,8,0:0:0:0:
320,64,282835,1,8,0:0:0:0:
64,64,282926,1,0,0:0:0:0:
320,64,283290,1,8,0:0:0:0:
64,64,283563,1,0,0:0:0:0:
64,64,283835,1,0,0:0:0:0:
320,64,284017,1,8,0:0:0:0:
320,64,284199,1,8,0:0:0:0:
64,64,284381,1,0,0:0:0:0:
320,64,284745,1,8,0:0:0:0:
320,64,285017,1,8,0:0:0:0:
64,64,285108,1,0,0:0:0:0:
320,64,285199,1,8,0:0:0:0:
64,64,285290,1,0,0:0:0:0:
320,64,285472,1,8,0:0:0:0:
320,64,285745,1,8,0:0:0:0:
64,64,285835,1,0,0:0:0:0:
320,64,286199,1,8,0:0:0:0:
320,64,286472,1,8,0:0:0:0:
64,64,286745,1,0,0:0:0:0:
320,64,286926,1,8,0:0:0:0:
320,64,287108,1,8,0:0:0:0:
64,64,287290,1,0,0:0:0:0:
320,64,287654,1,8,0:0:0:0:
64,64,287926,1,0,0:0:0:0:
320,64,288017,1,8,0:0:0:0:
320,64,288108,1,8,0:0:0:0:
64,64,288199,1,0,0:0:0:0:
320,64,288381,1,8,0:0:0:0:
320,64,288654,1,8,0:0:0:0:
64,64,288745,1,0,0:0:0:0:
320,64,289108,1,8,0:0:0:0:
64,64,289381,1,0,0:0:0:0:
64,64,289654,1,0,0:0:0:0:
320,64,289835,1,8,0:0:0:0:
320,64,290017,1,8,0:0:0:0:
64,64,290199,1,0,0:0:0:0:
320,64,290563,1,8,0:0:0:0:
320,64,290835,1,8,0:0:0:0:
64,64,290926,1,0,0:0:0:0:
64,64,291017,1,0,0:0:0:0:
64,64,291108,1,0,0:0:0:0:
320,64,291290,1,8,0:0:0:0:
320,64,291563,1,8,0:0:0:0:
64,64,291654,1,0,0:0:0:0:
320,64,292017,1,8,0:0:0:0:
320,64,292290,1,8,0:0:0:0:
64,64,292563,1,0,0:0:0:0:
320,64,292745,1,8,0:0:0:0:
320,64,292926,1,8,0:0:0:0:
64,64,293108,1,0,0:0:0:0:
320,64,293472,1,8,0:0:0:0:
320,64,293745,1,8,0:0:0:0:
64,64,293835,1,0,0:0:0:0:
64,64,294017,1,0,0:0:0:0:
320,64,294199,1,8,0:0:0:0:
64,64,294563,1,0,0:0:0:0:
64,64,294835,1,0,0:0:0:0:
64,64,295108,1,0,0:0:0:0:
320,64,295290,1,8,0:0:0:0:
64,64,295472,1,0,0:0:0:0:
320,64,295654,1,8,0:0:0:0:
320,64,295835,1,8,0:0:0:0:
64,64,296017,1,0,0:0:0:0:
320,64,296381,1,8,0:0:0:0:
320,64,296472,1,8,0:0:0:0:
320,64,296563,1,8,0:0:0:0:
64,64,296745,1,0,0:0:0:0:
64,64,296926,1,0,0:0:0:0:
320,64,297108,1,8,0:0:0:0:
64,64,297472,1,0,0:0:0:0:
64,64,297745,1,0,0:0:0:0:
64,64,298017,1,0,0:0:0:0:
320,64,298199,1,8,0:0:0:0:
320,64,298563,1,8,0:0:0:0:
64,64,298926,1,0,0:0:0:0:
320,64,299290,1,8,0:0:0:0:
320,64,299654,1,8,0:0:0:0:
64,64,300381,1,0,0:0:0:0:
64,64,300654,1,0,0:0:0:0:
64,64,300926,1,0,0:0:0:0:
64,64,301108,1,0,0:0:0:0:
320,64,301381,1,8,0:0:0:0:
64,64,301654,1,0,0:0:0:0:
320,64,301835,1,8,0:0:0:0:
320,64,302108,1,8,0:0:0:0:
320,64,302381,1,8,0:0:0:0:
64,64,302563,1,0,0:0:0:0:
320,64,302835,1,8,0:0:0:0:
64,64,303017,1,0,0:0:0:0:
320,64,303108,1,8,0:0:0:0:
320,64,303199,1,8,0:0:0:0:
