osu file format v14

[General]
AudioFilename: audio.mp3
AudioLeadIn: 0
PreviewTime: 64424
Countdown: 1
SampleSet: Normal
StackLeniency: 0.2
Mode: 0
LetterboxInBreaks: 0
WidescreenStoryboard: 0

[Editor]
Bookmarks: 31170,62836,66408,74582,85058,97995,145693,176170,196487,206963,219344,262519,269979
DistanceSpacing: 1
BeatDivisor: 8
GridSize: 16
TimelineZoom: 2.1

[Metadata]
Title:17K
TitleUnicode:17K
Artist:AVTechNO! feat. Megurine Luka
ArtistUnicode:AVTechNO! feat. 巡音ルカ
Creator:Zweib
Version:End
Source:
Tags:vocaloid japanese electronic dnb drum and & bass -Disorder Shift Remeariness
BeatmapID:1024697
BeatmapSetID:479929

[Difficulty]
HPDrainRate:6
CircleSize:4
OverallDifficulty:8.8
ApproachRate:9.7
SliderMultiplier:2.8
SliderTickRate:1

[Events]
//Background and Video events
0,0,"64958PICnew_1024.jpg",0,0
//Break Periods
2,176369,195992
//Storyboard Layer 0 (Background)
//Storyboard Layer 1 (Fail)
//Storyboard Layer 2 (Pass)
//Storyboard Layer 3 (Foreground)
//Storyboard Layer 4 (Overlay)
//Storyboard Sound Samples

[TimingPoints]
932,317.460317460317,4,2,1,70,1,0
3471,-100,4,1,1,70,0,1
5693,-83.3333333333333,4,1,1,70,0,1
6011,-100,4,1,1,70,0,1
22519,-83.3333333333333,4,1,1,70,0,1
23789,-90.9090909090909,4,3,1,70,0,0
33947,-90.9090909090909,4,1,2,70,0,0
36487,-90.9090909090909,4,3,1,70,0,0
39027,-90.9090909090909,4,1,2,70,0,0
41566,-90.9090909090909,4,3,1,70,0,0
43312,-300,4,2,1,70,0,0
44106,-90.9090909090909,4,3,1,70,0,0
63630,-100,4,1,1,70,0,0
64424,-200,4,2,0,70,0,0
74582,-133.333333333333,4,1,2,55,0,0
75852,-100,4,1,2,55,0,0
77122,-80,4,1,2,55,0,0
78392,-66.6666666666667,4,1,2,55,0,0
79662,-57.1428571428571,4,1,2,55,0,0
80931,-50,4,1,2,55,0,0
84741,-100,4,1,1,70,0,1
125376,-100,4,3,1,70,0,0
145693,-200,4,1,1,70,0,0
155376,-300,4,1,1,70,0,0
158392,-200,4,1,1,70,0,0
160931,-300,4,1,1,70,0,0
163471,-200,4,1,1,70,0,0
166011,-300,4,1,1,70,0,0
168551,-200,4,1,1,70,0,0
171090,-300,4,1,1,70,0,0
173630,-200,4,1,1,70,0,0
176328,-200,4,1,1,15,0,0
176487,-200,4,2,1,70,0,0
200217,-83.3333333333333,4,1,1,70,0,0
200376,-83.3333333333333,4,1,1,20,0,0
200455,-83.3333333333333,4,1,1,70,0,0
200535,-83.3333333333333,4,1,1,20,0,0
200614,-83.3333333333333,4,1,1,70,0,0
200693,-83.3333333333333,4,1,1,20,0,0
200773,-83.3333333333333,4,1,1,70,0,0
200852,-83.3333333333333,4,1,1,20,0,0
200931,-83.3333333333333,4,1,1,70,0,0
201011,-83.3333333333333,4,1,1,20,0,0
201090,-83.3333333333333,4,1,1,70,0,0
201170,-83.3333333333333,4,1,1,20,0,0
201249,-83.3333333333333,4,1,1,70,0,0
201566,-100,4,1,1,70,0,1
203789,-83.3333333333333,4,1,1,70,0,1
204106,-100,4,1,1,70,0,1
224106,-83.3333333333333,4,1,1,70,0,1
224424,-100,4,1,1,70,0,1
238471,-100,4,1,1,20,0,0
238551,-200,4,1,1,70,0,1
238630,-200,4,1,1,20,0,0
238709,-200,4,1,1,70,0,1
238789,-200,4,1,1,20,0,0
238868,-200,4,1,1,70,0,1
238947,-200,4,1,1,20,0,0
239027,-200,4,1,1,70,0,1
239106,-200,4,1,1,20,0,0
239185,-200,4,1,1,70,0,1
239265,-200,4,1,1,20,0,0
239344,-200,4,1,1,70,0,1
239424,-200,4,1,1,20,0,0
239503,-200,4,1,1,70,0,1
239582,-200,4,1,1,20,0,0
239662,-133.333333333333,4,1,1,70,0,1
240773,-100,4,1,1,70,0,1
242201,-111.111111111111,4,1,1,60,0,0
251725,-100,4,1,1,60,0,0
252043,-90.9090909090909,4,1,1,60,0,0
252360,-100,4,1,1,60,0,0
262519,-66.6666666666667,4,2,1,70,0,0
272043,3809.52380952381,4,1,1,70,1,0
272043,-200,4,1,1,20,0,0
272122,-200,4,1,1,20,0,0
272677,317.460317460317,4,1,1,70,1,0
272677,-62.5,4,2,2,90,0,0
275217,-58.8235294117647,4,2,2,90,0,0
277757,-55.5555555555556,4,2,2,90,0,0
280297,-52.6315789473684,4,2,2,90,0,0
281566,-50,4,1,1,75,0,0

[Colours]
Combo1 : 142,85,126
Combo2 : 186,20,20
Combo3 : 239,231,254

[HitObjects]
227,106,932,6,0,P|265:120|324:130,1,70
82,204,1090,2,0,P|44:195|4:191,1,70
198,234,1249,2,0,P|199:293|227:359,1,70
105,81,1408,2,0,P|102:42|92:3,1,70
158,158,1566,5,0,0:0:0:0:
173,162,1646,1,0,0:0:0:0:
188,164,1725,1,0,0:0:0:0:
205,164,1805,1,0,0:0:0:0:
219,161,1884,2,0,P|257:146|295:114,1,70
361,80,2043,2,0,P|380:116|418:162,1,70
309,301,2201,6,0,P|298:260|268:232,1,70
391,266,2360,2,0,P|422:240|456:219,1,70
207,295,2519,2,0,L|134:263,1,70
341,189,2678,2,0,P|340:147|332:109,1,70
234,126,2836,2,0,P|233:93|242:36,1,70
340,10,2995,6,0,P|429:43|423:164,1,210
161,197,3312,2,0,L|185:288,1,70
190,301,3471,6,0,B|256:264|256:264|409:300,1,210
494,375,3789,2,0,P|519:328|486:225,1,140,8|0,0:0|0:0,0:0:0:0:
64,342,4106,2,0,P|77:217|102:203,1,140
399,114,4424,2,0,P|437:101|458:76,1,70,8|0,0:0|0:0,0:0:0:0:
190,93,4582,2,0,P|168:52|157:16,1,70
292,153,4741,6,0,B|274:204|274:204|295:243|295:243|272:291|294:353,1,210
394,215,5058,1,8,0:0:0:0:
194,308,5217,2,0,B|178:289|178:289|147:308|147:308|126:302|126:302|-12:316,1,210
239,213,5535,1,0,0:0:0:0:
396,324,5693,6,0,B|514:304|514:304|434:279,1,167.999994873047,8|0,0:0|0:0,0:0:0:0:
35,187,6011,6,0,B|135:198|135:198|177:193|177:193|191:206|191:206|245:213,1,210
344,82,6328,1,8,0:0:0:0:
298,293,6487,2,0,L|298:372,1,70
166,173,6647,1,0,0:0:0:0:
462,259,6805,2,0,P|488:195|477:126,1,140,0|8,0:0|0:0,0:0:0:0:
235,35,7122,2,0,L|225:121,1,70
136,346,7281,6,0,B|86:330|86:330|-20:344,1,140
68,125,7598,2,0,L|80:195,1,70,8|0,0:0|0:0,0:0:0:0:
284,275,7757,2,0,B|330:144|330:144|258:195,1,210
176,255,8074,1,0,0:0:0:0:
431,305,8233,2,0,L|443:374,1,70,8|0,0:0|0:0,0:0:0:0:
512,106,8392,1,0,0:0:0:0:
449,210,8551,6,0,P|381:288|276:268,1,210
195,62,8868,2,0,L|188:145,1,70,8|0,0:0|0:0,0:0:0:0:
155,271,9027,1,0,0:0:0:0:
92,96,9185,1,0,0:0:0:0:
252,223,9344,2,0,L|247:302,1,70
73,208,9503,2,0,B|-4:230|-4:230|31:178,1,140,8|0,0:0|0:0,0:0:0:0:
195,62,9741,1,0,0:0:0:0:
278,123,9820,6,0,B|361:154|426:87|426:87|362:87,1,210
500,38,10138,2,0,B|521:61|521:61|516:185,1,140,8|0,0:0|0:0,0:0:0:0:
195,62,10455,1,0,0:0:0:0:
77,348,10614,2,0,B|62:296|62:296|72:194,1,140,0|8,0:0|0:0,0:0:0:0:
0,89,10931,1,0,0:0:0:0:
0,89,11011,1,0,0:0:0:0:
0,89,11090,6,0,P|75:122|134:117,1,140
480,47,11408,2,0,P|404:29|337:59,1,140,8|0,0:0|0:0,0:0:0:0:
393,267,11725,2,0,P|398:199|349:152,2,140,0|0|8,0:0|0:0|0:0,0:0:0:0:
94,336,12201,1,0,0:0:0:0:
137,311,12281,1,0,0:0:0:0:
182,284,12360,6,0,L|193:355,1,70
307,317,12519,2,0,L|479:301,1,140,0|8,0:0|0:0,0:0:0:0:
9,207,12836,2,0,L|256:188,1,210
308,107,13154,2,0,L|272:48,1,70
443,72,13312,2,0,L|512:64,1,70,8|0,0:0|0:0,0:0:0:0:
400,210,13471,6,0,P|416:289|403:359,2,140
194,27,13947,1,8,0:0:0:0:
101,198,14106,2,0,P|37:167|127:140,1,210
323,175,14424,2,0,L|479:190,1,140,0|8,0:0|0:0,0:0:0:0:
172,384,14741,6,0,L|193:236,1,140
300,286,15058,2,0,L|292:373,1,70
73,269,15217,2,0,L|82:193,1,70,8|0,0:0|0:0,0:0:0:0:
119,38,15376,2,0,P|164:128|260:103,1,210
435,101,15693,6,0,P|438:61|443:29,1,70
317,200,15852,2,0,P|306:228|299:268,1,70,8|0,0:0|0:0,0:0:0:0:
469,264,16011,2,0,P|482:300|490:329,1,70
215,308,16170,6,0,B|155:313|155:313|110:304|110:304|98:315|98:315|1:323,1,210
195,209,16487,1,8,0:0:0:0:
360,370,16646,2,0,L|349:150,1,210
213,63,16963,2,0,L|224:237,1,140,0|8,0:0|0:0,0:0:0:0:
512,204,17281,6,0,P|470:132|408:161,1,140
250,281,17598,2,0,L|239:368,1,70
91,120,17757,2,0,L|100:36,1,70,8|0,0:0|0:0,0:0:0:0:
2,183,17916,2,0,L|241:147,1,210
307,74,18233,6,0,P|313:109|315:144,1,70
226,252,18392,2,0,P|225:285|227:321,1,70,8|0,0:0|0:0,0:0:0:0:
411,184,18551,2,0,P|418:218|432:288,1,70
129,224,18709,6,0,P|197:154|308:210,1,210
355,301,19027,2,0,P|356:330|350:382,1,70,8|0,0:0|0:0,0:0:0:0:
511,299,19185,2,0,L|512:215,1,70
141,73,19344,6,0,P|149:115|177:153,1,70
267,283,19503,2,0,P|278:244|298:195,1,70
333,35,19662,2,0,P|329:79|309:136,1,70,8|0,0:0|0:0,0:0:0:0:
120,276,19820,2,0,P|139:309|156:345,1,70
456,301,19979,6,0,B|497:267|497:267|504:98,1,210
460,19,20297,1,8,0:0:0:0:
353,248,20455,2,0,L|123:223,1,210
46,68,20773,1,0,0:0:0:0:
168,365,20931,1,8,0:0:0:0:
353,141,21090,1,0,0:0:0:0:
144,225,21249,6,0,B|95:163|95:163|231:195,1,210
485,211,21566,2,0,B|525:167|514:116|514:116|470:129,2,140,8|0|0,0:0|0:0|0:0,0:0:0:0:
96,166,22043,1,0,0:0:0:0:
257,28,22201,1,8,0:0:0:0:
364,276,22360,2,0,L|353:348,1,70
302,150,22519,5,0,0:0:0:0:
82,363,22678,2,0,L|-10:383,1,83.9999974365235,8|0,0:0|0:0,0:0:0:0:
96,166,22836,2,0,P|80:124|81:67,1,83.9999974365235,8|0,0:0|0:0,0:0:0:0:
236,302,22995,1,0,0:0:0:0:
330,162,23154,6,0,L|413:168,1,83.9999974365235,8|0,0:0|0:0,0:0:0:0:
128,282,23312,2,0,L|41:267,1,83.9999974365235
365,298,23471,6,0,P|369:340|353:400,1,83.9999974365235,8|0,0:0|0:0,0:0:0:0:
192,204,23630,1,0,0:0:0:0:
265,114,23789,6,0,L|358:124,1,77.0000023498536
410,196,23947,2,0,L|501:206,3,77.0000023498536,0|0|8|0,0:0|0:0|0:0|0:0,0:0:0:0:
365,298,24265,2,0,L|272:304,1,77.0000023498536
203,358,24424,2,0,L|91:368,3,77.0000023498536,0|0|8|0,0:0|0:0|0:0|0:0,0:0:0:0:
0,185,24741,2,0,L|100:174,1,77.0000023498536
123,253,24900,2,0,L|208:258,1,77.0000023498536,8|0,0:0|0:0,0:0:0:0:
248,183,25058,6,0,L|353:167,1,77.0000023498536
379,245,25217,2,0,L|462:254,3,77.0000023498536,0|0|8|0,0:0|0:0|0:0|0:0,0:0:0:0:
512,96,25535,2,0,L|407:111,1,77.0000023498536,8|0,0:0|0:0,0:0:0:0:
387,10,25693,2,0,L|277:6,1,77.0000023498536
324,171,25852,2,0,L|248:178,1,77.0000023498536,8|0,0:0|0:0,0:0:0:0:
115,31,26011,1,0,0:0:0:0:
99,29,26090,1,0,0:0:0:0:
85,36,26170,1,8,0:0:0:0:
73,46,26249,1,0,0:0:0:0:
68,60,26328,6,0,L|74:145,1,77.0000023498536
124,229,26487,2,0,L|117:308,3,77.0000023498536,0|0|8|0,0:0|0:0|0:0|0:0,0:0:0:0:
358,24,26805,2,0,L|348:118,1,77.0000023498536
397,190,26963,2,0,L|413:288,3,77.0000023498536,0|0|8|0,0:0|0:0|0:0|0:0,0:0:0:0:
232,121,27281,2,0,L|246:210,1,77.0000023498536
209,355,27439,5,8,0:0:0:0:
245,319,27519,1,0,0:0:0:0:
296,309,27598,1,0,0:0:0:0:
342,308,27678,1,0,0:0:0:0:
314,353,27757,5,0,0:0:0:0:
366,356,27836,1,0,0:0:0:0:
410,361,27916,1,8,0:0:0:0:
86,210,28074,5,0,0:0:0:0:
134,190,28154,1,0,0:0:0:0:
187,207,28233,1,0,0:0:0:0:
239,204,28312,1,0,0:0:0:0:
293,217,28392,1,8,0:0:0:0:
512,61,28551,5,0,0:0:0:0:
459,71,28630,1,0,0:0:0:0:
406,80,28709,1,0,0:0:0:0:
259,33,28868,5,0,0:0:0:0:
387,188,29027,1,0,0:0:0:0:
242,139,29185,5,8,0:0:0:0:
97,323,29344,1,0,0:0:0:0:
263,235,29503,5,0,0:0:0:0:
353,360,29662,1,8,0:0:0:0:
375,355,29741,1,0,0:0:0:0:
397,349,29820,1,0,0:0:0:0:
419,344,29900,1,0,0:0:0:0:
441,337,29979,1,8,0:0:0:0:
101,285,30138,5,0,0:0:0:0:
85,241,30217,1,0,0:0:0:0:
89,194,30297,1,0,0:0:0:0:
115,156,30376,1,8,0:0:0:0:
155,126,30455,2,0,L|238:121,1,77.0000023498536,0|8,0:0|0:0,0:0:0:0:
270,258,30614,5,0,0:0:0:0:
296,273,30693,1,0,0:0:0:0:
326,277,30773,1,0,0:0:0:0:
356,273,30852,1,8,0:0:0:0:
380,255,30931,1,0,0:0:0:0:
403,235,31011,1,0,0:0:0:0:
432,225,31090,1,0,0:0:0:0:
460,237,31170,1,0,0:0:0:0:
479,260,31249,2,0,L|488:336,1,77.0000023498536,8|0,0:0|0:0,0:0:0:0:
323,184,31408,6,0,L|308:80,1,77.0000023498536
395,50,31566,2,0,L|495:36,3,77.0000023498536,0|0|8|0,0:0|0:0|0:0|0:0,0:0:0:0:
182,5,31884,2,0,L|195:96,1,77.0000023498536
106,124,32043,2,0,L|-4:141,3,77.0000023498536,0|0|8|0,0:0|0:0|0:0|0:0,0:0:0:0:
195,252,32360,2,0,L|214:357,1,77.0000023498536
288,216,32519,2,0,L|383:221,1,77.0000023498536,8|0,0:0|0:0,0:0:0:0:
453,131,32678,5,0,0:0:0:0:
482,180,32757,1,0,0:0:0:0:
458,224,32836,1,0,0:0:0:0:
474,244,32916,1,0,0:0:0:0:
469,289,32995,2,0,L|470:380,1,77.0000023498536,8|0,0:0|0:0,0:0:0:0:
188,154,33154,5,0,0:0:0:0:
164,200,33233,1,0,0:0:0:0:
182,234,33312,1,0,0:0:0:0:
187,250,33392,1,0,0:0:0:0:
170,294,33471,2,0,L|81:286,1,77.0000023498536,8|0,0:0|0:0,0:0:0:0:
18,102,33630,6,0,B|6:65,6,25.6666674499512
221,50,33947,6,0,P|258:42|335:49,1,77.0000023498536
386,114,34106,2,0,P|394:151|387:228,1,77.0000023498536
315,265,34265,2,0,P|278:273|201:266,1,77.0000023498536,8|0,0:0|0:0,0:0:0:0:
157,206,34424,2,0,P|149:169|156:92,1,77.0000023498536
308,188,34582,2,0,P|312:222|314:285,1,77.0000023498536
182,350,34741,6,0,B|243:329|243:329|290:348|290:348|434:337,1,231.000007049561,8|0,0:0|0:0,0:0:0:0:
430,175,35058,2,0,P|428:134|439:78,1,77.0000023498536,8|0,0:0|0:0,0:0:0:0:
249,186,35217,6,0,P|214:197|171:195,1,77.0000023498536
113,291,35376,2,0,P|95:318|87:363,1,77.0000023498536
363,262,35535,2,0,P|378:285|388:334,1,77.0000023498536,8|0,0:0|0:0,0:0:0:0:
17,227,35693,2,0,P|11:190|-7:136,1,77.0000023498536
175,17,35852,2,0,P|182:57|195:99,1,77.0000023498536
140,185,36011,6,0,B|285:195|285:195|294:189|294:189|312:195|312:195|384:200,1,231.000007049561,8|0,0:0|0:0,0:0:0:0:
396,75,36328,2,0,P|405:31|405:-22,1,77.0000023498536,8|0,0:0|0:0,0:0:0:0:
282,295,36487,6,0,B|268:291|268:291|260:302|260:302|253:286|253:286|242:295|242:295|206:295,1,77.0000023498536
91,141,36646,2,0,B|77:145|77:145|67:136|67:136|64:153|64:153|56:147|56:147|30:151,1,77.0000023498536
281,57,36805,6,0,B|267:61|267:61|254:52|254:52|247:67|247:67|238:60|238:60|212:59,1,77.0000023498536,8|0,0:0|0:0,0:0:0:0:
231,195,36964,2,0,B|217:191|217:191|204:199|204:199|197:185|197:185|188:192|188:192|162:193,1,77.0000023498536
411,332,37122,6,0,B|397:328|397:328|389:339|389:339|382:323|382:323|367:329|367:329|342:330,1,77.0000023498536
116,295,37281,2,0,B|102:299|102:299|91:294|91:294|89:307|89:307|81:301|81:301|50:304,1,77.0000023498536,8|0,0:0|0:0,0:0:0:0:
472,70,37440,6,0,B|458:74|458:74|445:63|445:63|437:79|437:79|429:73|429:73|403:72,1,77.0000023498536
328,204,37599,2,0,B|314:200|314:200|301:211|301:211|294:194|294:194|283:200|283:200|259:202,1,77.0000023498536,8|0,0:0|0:0,0:0:0:0:
254,355,37757,6,0,B|229:358|229:358|221:369|221:369|211:356|211:356|203:362|203:362|174:360,1,77.0000023498536
106,117,37916,2,0,B|92:121|92:121|82:112|82:112|80:127|80:127|71:123|71:123|42:126,1,77.0000023498536
477,174,38074,6,0,B|463:178|463:178|450:167|450:167|443:184|443:184|434:177|434:177|408:176,1,77.0000023498536,8|0,0:0|0:0,0:0:0:0:
408,290,38234,2,0,B|394:286|394:286|381:297|381:297|375:282|375:282|365:287|365:287|339:288,1,77.0000023498536
68,264,38392,5,0,0:0:0:0:
68,264,38471,1,0,0:0:0:0:
68,264,38551,2,0,L|72:348,1,77.0000023498536,8|0,0:0|0:0,0:0:0:0:
262,86,38709,1,0,0:0:0:0:
262,86,38789,1,0,0:0:0:0:
262,86,38868,2,0,L|252:189,1,77.0000023498536,8|0,0:0|0:0,0:0:0:0:
176,238,39027,6,0,L|182:331,1,77.0000023498536
326,212,39185,2,0,L|322:297,1,77.0000023498536
77,149,39344,2,0,L|83:240,1,77.0000023498536,8|0,0:0|0:0,0:0:0:0:
421,170,39503,2,0,L|419:262,1,77.0000023498536
245,59,39662,2,0,L|253:151,1,77.0000023498536
236,346,39820,2,0,P|341:358|329:259,1,231.000007049561,8|0,0:0|0:0,0:0:0:0:
178,263,40138,2,0,P|144:280|92:291,1,77.0000023498536,8|0,0:0|0:0,0:0:0:0:
334,263,40297,6,0,P|367:280|424:291,1,77.0000023498536
472,193,40455,2,0,P|469:138|462:85,1,77.0000023498536
256,79,40614,2,0,L|256:175,1,77.0000023498536,8|0,0:0|0:0,0:0:0:0:
178,263,40773,2,0,P|144:280|93:300,1,77.0000023498536
41,192,40931,6,0,P|43:137|51:84,1,77.0000023498536
364,141,41090,6,0,L|354:35,1,77.0000023498536,8|0,0:0|0:0,0:0:0:0:
147,142,41249,6,0,L|155:35,1,77.0000023498536
472,193,41408,6,0,P|469:138|462:85,1,77.0000023498536
255,268,41566,5,0,0:0:0:0:
269,232,41646,1,0,0:0:0:0:
304,218,41725,1,0,0:0:0:0:
341,226,41805,1,0,0:0:0:0:
367,254,41884,2,0,L|452:264,1,77.0000023498536,8|0,0:0|0:0,0:0:0:0:
44,328,42043,5,0,0:0:0:0:
63,360,42122,1,0,0:0:0:0:
97,375,42201,1,0,0:0:0:0:
135,369,42281,1,0,0:0:0:0:
171,357,42360,2,0,L|247:345,1,77.0000023498536,8|0,0:0|0:0,0:0:0:0:
270,184,42519,5,0,0:0:0:0:
225,153,42598,1,0,0:0:0:0:
183,122,42678,2,0,L|195:40,1,77.0000023498536,8|0,0:0|0:0,0:0:0:0:
417,55,42836,5,0,0:0:0:0:
468,104,42916,1,0,0:0:0:0:
476,174,42995,1,0,0:0:0:0:
459,243,43074,1,0,0:0:0:0:
408,295,43154,1,8,0:0:0:0:
339,315,43233,1,0,0:0:0:0:
266,310,43312,6,0,L|195:294,1,70
187,301,43630,5,0,0:0:0:0:
177,307,43709,1,0,0:0:0:0:
167,313,43789,1,0,0:0:0:0:
157,318,43868,1,0,0:0:0:0:
147,324,43947,1,0,0:0:0:0:
136,330,44027,1,0,0:0:0:0:
128,337,44106,6,0,L|153:180,1,154.000004699707
443,75,44424,1,8,0:0:0:0:
394,321,44582,6,0,L|369:164,1,154.000004699707
69,75,44900,1,8,0:0:0:0:
120,305,45058,6,0,L|145:148,1,154.000004699707
467,91,45376,1,0,0:0:0:0:
392,278,45535,6,0,L|367:121,1,154.000004699707,0|8,0:0|0:0,0:0:0:0:
42,104,45853,1,0,0:0:0:0:
236,245,46011,1,0,0:0:0:0:
246,225,46090,1,0,0:0:0:0:
256,204,46170,2,0,L|242:79,1,77.0000023498536,8|0,0:0|0:0,0:0:0:0:
336,73,46328,2,0,L|418:63,1,77.0000023498536
185,30,46487,2,0,L|86:38,1,77.0000023498536,8|0,0:0|0:0,0:0:0:0:
44,332,46646,5,0,0:0:0:0:
109,312,46725,1,0,0:0:0:0:
136,247,46805,1,0,0:0:0:0:
112,182,46884,1,0,0:0:0:0:
47,156,46963,5,8,0:0:0:0:
39,167,47043,1,0,0:0:0:0:
33,180,47122,2,0,L|202:176,2,154.000004699707,0|0|8,0:0|0:0|0:0,0:0:0:0:
317,131,47598,5,0,0:0:0:0:
370,119,47678,1,0,0:0:0:0:
414,148,47757,1,8,0:0:0:0:
429,199,47836,1,0,0:0:0:0:
401,239,47916,5,0,0:0:0:0:
386,239,47995,1,0,0:0:0:0:
377,253,48074,1,0,0:0:0:0:
359,251,48154,1,0,0:0:0:0:
345,262,48233,1,8,0:0:0:0:
331,258,48312,1,0,0:0:0:0:
320,270,48392,1,0,0:0:0:0:
320,270,48550,6,0,L|216:251,1,77.0000023498536
24,70,48709,1,8,0:0:0:0:
26,82,48788,1,0,0:0:0:0:
28,95,48867,1,0,0:0:0:0:
30,107,48947,1,0,0:0:0:0:
32,120,49026,1,8,0:0:0:0:
34,133,49105,1,0,0:0:0:0:
36,145,49185,6,0,L|192:126,1,154.000004699707
387,46,49503,1,8,0:0:0:0:
86,148,49662,6,0,L|257:164,1,154.000004699707
336,313,49979,1,8,0:0:0:0:
138,168,50139,6,0,L|297:152,1,154.000004699707,0|8,0:0|0:0,0:0:0:0:
259,0,50455,1,0,0:0:0:0:
182,196,50615,6,0,L|334:220,1,154.000004699707,0|8,0:0|0:0,0:0:0:0:
178,353,50931,1,0,0:0:0:0:
475,226,51090,6,0,L|466:149,1,77.0000023498536
410,291,51249,2,0,L|333:297,1,77.0000023498536,8|0,0:0|0:0,0:0:0:0:
398,83,51408,2,0,L|321:88,1,77.0000023498536
260,237,51566,2,0,L|254:160,1,77.0000023498536,8|0,0:0|0:0,0:0:0:0:
184,89,51725,6,0,L|99:85,1,77.0000023498536
47,221,51884,2,0,L|145:203,3,77.0000023498536,0|0|8|0,0:0|0:0|0:0|0:0,0:0:0:0:
260,237,52201,2,0,L|352:226,1,77.0000023498536
429,342,52360,2,0,L|352:334,3,77.0000023498536,0|0|8|0,0:0|0:0|0:0|0:0,0:0:0:0:
53,381,52678,2,0,P|46:338|60:310,1,77.0000023498536
234,300,52836,2,0,P|234:251|202:191,1,77.0000023498536,8|0,0:0|0:0,0:0:0:0:
43,49,52995,5,0,0:0:0:0:
85,53,53074,1,0,0:0:0:0:
127,58,53153,1,0,0:0:0:0:
169,63,53233,1,0,0:0:0:0:
212,68,53312,1,8,0:0:0:0:
254,73,53391,1,0,0:0:0:0:
296,78,53471,6,0,L|65:118,1,231.000007049561
175,198,53789,5,8,0:0:0:0:
178,214,53868,1,0,0:0:0:0:
175,230,53947,1,8,0:0:0:0:
180,249,54027,1,0,0:0:0:0:
175,268,54106,1,0,0:0:0:0:
181,282,54185,1,0,0:0:0:0:
176,304,54265,6,0,P|254:299|336:304,1,154.000004699707
69,117,54583,5,8,0:0:0:0:
368,256,54741,2,0,P|290:258|208:256,1,154.000004699707
445,91,55059,1,8,0:0:0:0:
144,224,55218,6,0,P|225:223|304:224,1,154.000004699707,0|8,0:0|0:0,0:0:0:0:
45,62,55535,1,0,0:0:0:0:
368,256,55694,6,0,P|299:253|208:256,1,154.000004699707,0|8,0:0|0:0,0:0:0:0:
463,38,56012,1,0,0:0:0:0:
510,229,56170,1,0,0:0:0:0:
490,260,56249,1,0,0:0:0:0:
473,291,56329,2,0,L|450:184,1,77.0000023498536,8|0,0:0|0:0,0:0:0:0:
355,149,56487,2,0,L|270:131,1,77.0000023498536
267,327,56646,2,0,L|342:312,1,77.0000023498536
121,76,56805,5,0,0:0:0:0:
78,89,56884,1,0,0:0:0:0:
34,101,56964,1,0,0:0:0:0:
70,129,57043,1,0,0:0:0:0:
102,161,57122,1,8,0:0:0:0:
59,174,57201,1,0,0:0:0:0:
15,186,57281,2,0,L|-1:355,2,154.000004699707,0|0|8,0:0|0:0|0:0,0:0:0:0:
280,42,57757,5,0,0:0:0:0:
341,36,57837,1,0,0:0:0:0:
393,68,57916,1,8,0:0:0:0:
419,123,57995,1,0,0:0:0:0:
328,146,58074,5,0,0:0:0:0:
314,148,58154,1,0,0:0:0:0:
304,140,58233,1,0,0:0:0:0:
304,127,58312,1,0,0:0:0:0:
314,119,58392,1,8,0:0:0:0:
328,122,58471,1,0,0:0:0:0:
332,134,58551,1,0,0:0:0:0:
366,277,58709,6,0,L|361:353,1,77.0000023498536
53,157,58868,1,8,0:0:0:0:
51,144,58947,1,0,0:0:0:0:
50,131,59026,1,0,0:0:0:0:
49,118,59106,1,0,0:0:0:0:
48,105,59185,1,8,0:0:0:0:
47,93,59264,1,0,0:0:0:0:
45,78,59344,6,0,L|217:60,1,154.000004699707
242,192,59662,1,8,0:0:0:0:
157,301,59821,6,0,L|-2:319,1,154.000004699707
242,192,60138,1,8,0:0:0:0:
337,94,60298,6,0,L|489:120,1,154.000004699707,0|8,0:0|0:0,0:0:0:0:
242,192,60614,1,0,0:0:0:0:
432,358,60774,6,0,L|259:324,1,154.000004699707,0|8,0:0|0:0,0:0:0:0:
512,247,61090,1,0,0:0:0:0:
165,355,61249,6,0,P|159:316|164:275,1,77.0000023498536
183,149,61408,2,0,P|191:98|184:38,1,77.0000023498536,8|0,0:0|0:0,0:0:0:0:
45,54,61567,2,0,P|38:94|55:160,1,77.0000023498536
19,238,61725,2,0,P|15:282|-8:344,1,77.0000023498536,8|0,0:0|0:0,0:0:0:0:
104,202,61884,5,0,0:0:0:0:
140,229,61963,1,0,0:0:0:0:
185,238,62043,1,0,0:0:0:0:
229,224,62122,1,0,0:0:0:0:
274,215,62201,2,0,P|286:249|297:292,1,77.0000023498536,8|0,0:0|0:0,0:0:0:0:
481,123,62360,5,0,0:0:0:0:
436,132,62439,1,0,0:0:0:0:
392,116,62519,1,0,0:0:0:0:
347,103,62598,1,0,0:0:0:0:
301,111,62678,2,0,L|290:26,1,77.0000023498536,8|0,0:0|0:0,0:0:0:0:
363,275,62837,2,0,L|354:198,1,77.0000023498536
191,314,62995,2,0,L|184:236,1,77.0000023498536,8|0,0:0|0:0,0:0:0:0:
71,159,63154,5,0,0:0:0:0:
59,163,63233,1,0,0:0:0:0:
47,167,63312,1,0,0:0:0:0:
35,171,63392,1,0,0:0:0:0:
23,175,63471,1,8,0:0:0:0:
11,180,63550,1,0,0:0:0:0:
0,184,63630,6,0,B|223:51|253:389|536:241,1,560
110,283,64424,6,0,P|105:318|102:353,1,70
390,344,64741,1,8,0:0:0:0:
376,169,64900,2,0,P|373:118|366:71,2,70,0|0|8,0:0|0:0|0:0,0:0:0:0:
265,277,65376,1,0,0:0:0:0:
100,244,65534,1,8,0:0:0:0:
172,151,65693,6,0,P|175:117|181:81,1,70
255,313,66010,1,8,0:0:0:0:
337,120,66170,2,0,P|333:80|328:51,2,70,0|0|8,0:0|0:0|0:0,0:0:0:0:
404,237,66646,1,0,0:0:0:0:
267,340,66805,1,0,0:0:0:0:
109,319,66963,5,0,0:0:0:0:
109,319,67122,2,0,L|39:325,1,70,0|8,0:0|0:0,0:0:0:0:
321,242,67439,2,0,L|340:321,2,70,0|0|8,0:0|0:0|0:0,0:0:0:0:
413,112,67916,1,0,0:0:0:0:
184,200,68074,5,8,0:0:0:0:
116,177,68154,1,0,0:0:0:0:
49,155,68233,1,0,0:0:0:0:
285,40,68392,2,0,L|279:109,1,70,0|8,0:0|0:0,0:0:0:0:
130,320,68709,2,0,L|44:332,2,70,0|0|8,0:0|0:0|0:0,0:0:0:0:
295,209,69185,1,0,0:0:0:0:
386,68,69344,6,0,L|416:-27,1,70,8|0,0:0|0:0,0:0:0:0:
447,287,69662,2,0,L|488:379,1,70,0|8,0:0|0:0,0:0:0:0:
110,84,69979,2,0,L|19:72,1,70
124,308,70297,2,0,L|91:377,1,70,8|0,0:0|0:0,0:0:0:0:
295,108,70614,5,8,0:0:0:0:
282,75,70694,1,0,0:0:0:0:
268,42,70773,1,0,0:0:0:0:
300,325,70931,2,0,L|375:385,1,70,0|8,0:0|0:0,0:0:0:0:
497,175,71249,2,0,L|517:85,1,70
94,202,71566,1,8,0:0:0:0:
269,268,71725,1,0,0:0:0:0:
405,129,71884,1,8,0:0:0:0:
227,66,72043,5,0,0:0:0:0:
412,254,72201,2,0,L|449:347,1,70,0|8,0:0|0:0,0:0:0:0:
132,383,72519,2,0,L|143:287,1,70
78,27,72836,2,0,L|103:104,1,70,8|0,0:0|0:0,0:0:0:0:
392,65,73154,5,8,0:0:0:0:
402,61,73233,1,0,0:0:0:0:
414,56,73312,1,0,0:0:0:0:
80,213,73471,2,0,L|-15:203,1,70,0|8,0:0|0:0,0:0:0:0:
226,305,73789,2,0,L|239:385,1,70
326,216,74106,1,8,0:0:0:0:
339,201,74185,1,0,0:0:0:0:
352,185,74265,2,0,L|429:169,1,70
240,117,74582,6,0,L|127:132,1,105.000004005432
25,295,74900,2,0,L|150:276,1,105.000004005432,8|0,0:0|0:0,0:0:0:0:
441,84,75217,2,0,L|322:66,1,105.000004005432,0|8,0:0|0:0,0:0:0:0:
350,296,75535,2,0,L|453:312,1,105.000004005432,0|8,0:0|0:0,0:0:0:0:
136,160,75852,6,0,L|0:192,1,140
0,336,76170,2,0,L|136:304,1,140,0|8,0:0|0:0,0:0:0:0:
512,192,76487,2,0,L|376:160,1,140,0|8,0:0|0:0,0:0:0:0:
376,304,76805,2,0,L|512:336,1,140,0|8,0:0|0:0,0:0:0:0:
249,32,77122,6,0,P|167:15|63:55,1,175
394,189,77439,2,0,P|456:135|479:30,1,175,8|0,0:0|0:0,0:0:0:0:
188,201,77757,2,0,L|201:375,1,175,0|8,0:0|0:0,0:0:0:0:
345,75,78074,2,0,L|336:249,1,175,0|8,0:0|0:0,0:0:0:0:
7,88,78392,6,0,L|213:50,1,210.000008010865
157,384,78709,2,0,B|116:333|116:333|131:165,1,210.000008010865,0|8,0:0|0:0,0:0:0:0:
375,35,79027,2,0,L|358:250,1,210.000008010865,0|8,0:0|0:0,0:0:0:0:
51,59,79344,2,0,P|168:27|251:89,1,210.000008010865,0|8,0:0|0:0,0:0:0:0:
238,376,79662,6,0,P|186:248|225:144,1,245.000002336502
482,357,79979,2,0,L|238:375,1,245.000002336502,8|0,0:0|0:0,0:0:0:0:
461,134,80297,2,0,P|514:241|482:357,1,245.000002336502,0|8,0:0|0:0,0:0:0:0:
218,152,80614,2,0,L|462:134,1,245.000002336502,0|8,0:0|0:0,0:0:0:0:
277,340,80931,6,0,P|140:269|14:317,1,280
28,306,81248,2,0,L|2:17,1,280,0|8,0:0|0:0,0:0:0:0:
195,347,81566,2,0,L|168:68,1,280,0|8,0:0|0:0,0:0:0:0:
360,306,81884,2,0,L|330:27,1,280,0|8,0:0|0:0,0:0:0:0:
488,152,82201,5,0,0:0:0:0:
24,232,82360,1,0,0:0:0:0:
488,232,82519,1,8,0:0:0:0:
24,152,82678,1,0,0:0:0:0:
440,88,82836,5,0,0:0:0:0:
72,296,82995,1,8,0:0:0:0:
440,296,83154,1,0,0:0:0:0:
72,88,83312,1,8,0:0:0:0:
424,16,83471,5,0,0:0:0:0:
88,368,83630,1,0,0:0:0:0:
424,368,83789,5,0,0:0:0:0:
88,16,83947,1,0,0:0:0:0:
512,160,84106,5,0,0:0:0:0:
0,224,84265,1,0,0:0:0:0:
254,94,84582,5,0,0:0:0:0:
318,249,84741,6,0,L|112:285,1,210
0,225,85058,2,0,B|34:179|34:179|141:203,1,140,8|0,0:0|0:0,0:0:0:0:
256,352,85297,1,0,0:0:0:0:
256,352,85376,1,0,0:0:0:0:
384,286,85535,2,0,L|220:258,1,140,0|8,0:0|0:0,0:0:0:0:
512,225,85773,6,0,B|478:179|478:179|371:203,1,140
384,286,86011,6,0,L|177:250,1,210
66,304,86328,1,8,0:0:0:0:
6,100,86487,2,0,P|127:146|212:119,1,210
283,52,86805,1,0,0:0:0:0:
177,250,86963,2,0,L|191:318,1,70,8|0,0:0|0:0,0:0:0:0:
458,223,87122,1,0,0:0:0:0:
475,185,87201,1,0,0:0:0:0:
493,145,87281,6,0,B|532:37|532:37|429:117,1,210
359,205,87598,1,8,0:0:0:0:
312,83,87757,1,0,0:0:0:0:
312,83,87836,1,0,0:0:0:0:
312,83,87916,2,0,L|222:74,1,70
84,188,88074,1,0,0:0:0:0:
192,283,88233,1,8,0:0:0:0:
144,93,88392,6,0,P|52:80|-11:131,1,140
249,145,88709,2,0,L|238:41,1,70
364,19,88868,1,8,0:0:0:0:
316,217,89027,6,0,B|213:164|207:262|109:216,1,210
0,183,89344,1,0,0:0:0:0:
316,216,89503,2,0,P|313:258|299:310,1,70,8|0,0:0|0:0,0:0:0:0:
171,309,89662,2,0,P|173:338|182:377,1,70
115,219,89820,6,0,B|217:164|225:262|322:214,1,210
218,31,90138,2,0,P|165:95|202:119,1,140,8|0,0:0|0:0,0:0:0:0:
487,257,90455,1,0,0:0:0:0:
487,257,90535,1,0,0:0:0:0:
487,257,90614,2,0,L|496:184,1,70
383,319,90773,2,0,L|407:384,1,70,8|0,0:0|0:0,0:0:0:0:
257,319,90931,6,0,P|179:352|115:328,1,140
179,151,91249,2,0,P|179:185|189:228,1,70
360,194,91408,1,8,0:0:0:0:
449,112,91566,6,0,P|443:75|422:26,1,70
279,88,91725,2,0,P|281:49|291:19,1,70
470,222,91884,2,0,P|465:257|455:290,1,70
262,262,92043,2,0,P|266:296|284:333,1,70,8|0,0:0|0:0,0:0:0:0:
360,194,92201,1,0,0:0:0:0:
82,61,92360,5,0,0:0:0:0:
98,258,92519,2,0,P|89:295|87:329,1,70
217,135,92678,1,8,0:0:0:0:
470,222,92836,2,0,P|483:140|385:150,1,210
311,283,93154,1,0,0:0:0:0:
475,251,93312,2,0,L|490:338,1,70,8|0,0:0|0:0,0:0:0:0:
311,283,93471,2,0,L|220:293,1,70
240,148,93630,6,0,L|211:81,1,70
22,163,93789,2,0,L|-2:256,1,70
148,268,93947,1,8,0:0:0:0:
190,133,94106,2,0,B|38:88|38:88|64:153,1,210
148,268,94424,1,0,0:0:0:0:
301,168,94582,2,0,L|307:98,1,70,8|0,0:0|0:0,0:0:0:0:
125,13,94741,1,0,0:0:0:0:
375,283,94900,6,0,B|544:256|544:256|468:230,1,210
407,178,95217,1,8,0:0:0:0:
261,263,95376,1,0,0:0:0:0:
271,306,95455,1,0,0:0:0:0:
284,346,95535,1,0,0:0:0:0:
122,255,95693,2,0,L|281:265,1,140,0|8,0:0|0:0,0:0:0:0:
120,298,95931,6,0,B|83:251|83:251|-7:245,1,140
284,346,96170,6,0,L|53:331,1,210
384,285,96487,1,8,0:0:0:0:
493,350,96646,2,0,L|514:129,1,210
373,45,96963,1,0,0:0:0:0:
384,285,97122,1,8,0:0:0:0:
126,173,97281,1,0,0:0:0:0:
126,173,97360,1,0,0:0:0:0:
126,173,97439,6,0,B|212:121|212:121|333:138,1,210
228,229,97757,2,0,B|217:324|217:324|235:377,2,140,8|0|0,0:0|0:0|0:0,0:0:0:0:
16,126,98233,1,0,0:0:0:0:
37,177,98312,1,0,0:0:0:0:
5,223,98392,1,8,0:0:0:0:
43,263,98471,1,0,0:0:0:0:
18,311,98551,2,0,L|5:386,1,70
145,282,98709,6,0,L|413:291,1,210
475,308,99027,1,8,0:0:0:0:
487,115,99185,2,0,B|411:168|411:168|271:158,1,210
463,193,99503,2,0,B|472:214|472:214|464:264,1,70
365,84,99662,2,0,B|357:68|357:68|363:5,1,70,8|0,0:0|0:0,0:0:0:0:
508,58,99820,1,0,0:0:0:0:
127,19,99979,6,0,L|149:245,1,210
0,156,100297,1,8,0:0:0:0:
255,216,100455,1,0,0:0:0:0:
255,216,100535,1,0,0:0:0:0:
255,216,100614,2,0,L|242:309,1,70
332,97,100773,2,0,L|246:117,1,70
0,156,100931,1,8,0:0:0:0:
131,37,101090,1,0,0:0:0:0:
69,240,101249,6,0,B|61:337|61:337|91:378,1,140
144,145,101566,1,8,0:0:0:0:
471,261,101725,2,0,B|488:188|488:188|433:44,1,210
328,103,102043,2,0,L|231:106,1,70
236,243,102201,2,0,L|308:240,1,70,8|0,0:0|0:0,0:0:0:0:
144,145,102360,6,0,P|68:142|15:74,1,140
83,264,102678,1,0,0:0:0:0:
83,264,102757,1,0,0:0:0:0:
83,264,102836,2,0,L|68:348,1,70,8|0,0:0|0:0,0:0:0:0:
259,209,102995,2,0,B|277:90|277:90|195:18,1,210
144,145,103312,1,0,0:0:0:0:
358,181,103471,2,0,L|462:159,1,70,8|0,0:0|0:0,0:0:0:0:
202,313,103630,1,0,0:0:0:0:
334,285,103789,6,0,P|357:314|369:367,1,70
149,118,103947,2,0,P|136:85|138:11,1,70,8|0,0:0|0:0,0:0:0:0:
47,187,104106,2,0,P|11:216|-7:263,1,70,8|0,0:0|0:0,0:0:0:0:
202,313,104265,1,0,0:0:0:0:
335,169,104424,2,0,P|372:143|399:92,1,70,8|0,0:0|0:0,0:0:0:0:
47,80,104582,5,0,0:0:0:0:
77,304,104741,2,0,L|70:379,1,70,8|0,0:0|0:0,0:0:0:0:
237,197,104900,2,0,P|249:163|250:128,1,70,8|0,0:0|0:0,0:0:0:0:
298,347,105058,6,0,P|369:369|462:268,1,210
502,62,105376,2,0,L|514:217,1,140,8|0,0:0|0:0,0:0:0:0:
357,6,105693,1,0,0:0:0:0:
233,160,105852,2,0,P|168:181|73:165,1,140,0|8,0:0|0:0,0:0:0:0:
304,246,106090,1,0,0:0:0:0:
348,236,106170,2,0,L|338:324,1,70
210,368,106328,6,0,L|232:159,1,210
336,111,106646,1,8,0:0:0:0:
512,278,106805,2,0,L|304:246,1,210
231,159,107122,2,0,P|214:119|186:83,1,70
97,278,107281,2,0,P|80:298|50:364,1,70,8|0,0:0|0:0,0:0:0:0:
258,323,107439,1,0,0:0:0:0:
271,175,107598,6,0,L|63:200,1,210
32,106,107916,1,8,0:0:0:0:
188,228,108074,2,0,L|177:367,1,140
399,193,108392,6,0,L|424:273,1,70
472,49,108551,2,0,L|497:141,1,70,8|0,0:0|0:0,0:0:0:0:
437,217,108709,2,0,L|462:303,1,70
433,75,108868,6,0,L|293:82,1,140
100,102,109106,1,0,0:0:0:0:
86,28,109185,1,8,0:0:0:0:
279,180,109344,2,0,L|50:198,1,210
190,282,109662,2,0,L|201:371,1,70
390,232,109820,2,0,L|377:141,1,70,8|0,0:0|0:0,0:0:0:0:
303,321,109979,1,0,0:0:0:0:
491,314,110138,6,0,B|502:275|502:275|483:84,1,210
261,37,110455,2,0,L|278:191,1,140,8|0,0:0|0:0,0:0:0:0:
406,13,110773,1,0,0:0:0:0:
157,188,110931,2,0,L|50:168,1,70
16,102,111090,1,8,0:0:0:0:
90,345,111249,1,0,0:0:0:0:
150,290,111328,1,0,0:0:0:0:
230,314,111408,6,0,L|480:295,1,210
512,184,111725,1,8,0:0:0:0:
304,216,111884,2,0,L|71:189,1,210
8,126,112201,2,0,P|6:88|0:55,1,70
228,311,112360,2,0,P|225:348|235:386,1,70,8|0,0:0|0:0,0:0:0:0:
13,270,112519,2,0,P|11:301|-7:357,1,70
127,271,112678,6,0,L|131:126,1,140
116,30,112916,1,0,0:0:0:0:
116,30,112995,1,8,0:0:0:0:
312,76,113154,1,0,0:0:0:0:
312,76,113233,2,0,L|306:231,1,140
274,310,113471,2,0,P|270:338|251:376,1,70
376,290,113630,2,0,P|389:320|400:364,1,70,8|0,0:0|0:0,0:0:0:0:
422,186,113789,2,0,P|450:213|470:243,1,70
181,252,113947,5,0,0:0:0:0:
153,276,114027,1,0,0:0:0:0:
116,280,114106,1,0,0:0:0:0:
81,268,114185,1,0,0:0:0:0:
51,245,114265,1,8,0:0:0:0:
41,210,114344,1,0,0:0:0:0:
45,172,114424,1,0,0:0:0:0:
63,141,114503,1,0,0:0:0:0:
95,122,114582,5,0,0:0:0:0:
139,105,114662,1,0,0:0:0:0:
188,131,114741,1,0,0:0:0:0:
243,122,114820,1,0,0:0:0:0:
296,138,114900,1,8,0:0:0:0:
350,128,114979,1,0,0:0:0:0:
402,146,115058,1,0,0:0:0:0:
457,136,115138,1,0,0:0:0:0:
509,117,115217,6,0,L|483:273,1,140
188,43,115535,2,0,L|204:182,1,140,8|0,0:0|0:0,0:0:0:0:
425,4,115852,1,0,0:0:0:0:
314,367,116011,2,0,P|292:312|306:201,1,140,0|8,0:0|0:0,0:0:0:0:
408,121,116328,2,0,L|396:210,1,70
477,295,116487,5,0,0:0:0:0:
140,360,116646,2,0,L|162:293,1,70
119,147,116805,1,8,0:0:0:0:
294,232,116963,2,0,P|292:76|229:31,1,210
168,224,117281,2,0,P|161:295|164:313,1,70
426,254,117439,2,0,P|415:220|398:190,1,70,8|0,0:0|0:0,0:0:0:0:
244,354,117598,6,0,L|394:334,1,140
38,189,117836,1,0,0:0:0:0:
26,226,117916,2,0,L|38:375,1,140,0|8,0:0|0:0,0:0:0:0:
181,68,118154,1,0,0:0:0:0:
152,51,118233,2,0,L|-7:66,1,140
143,185,118471,1,0,0:0:0:0:
177,202,118551,2,0,L|315:183,1,140,0|8,0:0|0:0,0:0:0:0:
276,304,118868,2,0,P|283:367|317:431,1,70
489,321,119027,6,0,B|515:289|515:289|510:79,1,210
385,253,119344,1,8,0:0:0:0:
212,182,119503,2,0,B|45:192|45:192|106:216,1,210
173,312,119820,1,0,0:0:0:0:
347,220,119979,2,0,L|337:138,1,70,8|0,0:0|0:0,0:0:0:0:
306,356,120138,1,0,0:0:0:0:
129,197,120297,6,0,P|142:122|140:5,1,140
39,364,120614,1,8,0:0:0:0:
370,230,120773,2,0,P|341:159|348:76,1,140
473,364,121090,5,0,0:0:0:0:
39,364,121249,1,8,0:0:0:0:
256,352,121408,1,0,0:0:0:0:
167,161,121566,6,0,P|101:141|32:147,1,140
256,352,121883,1,8,0:0:0:0:
346,216,122043,2,0,P|396:129|502:144,1,210
403,322,122360,1,0,0:0:0:0:
151,266,122519,2,0,L|138:165,1,70,8|0,0:0|0:0,0:0:0:0:
251,45,122678,1,0,0:0:0:0:
57,149,122836,6,0,L|198:135,1,140
345,294,123154,1,8,0:0:0:0:
472,125,123312,2,0,P|429:4|305:55,1,280
177,189,123789,1,8,0:0:0:0:
435,258,123947,2,0,P|438:304|429:349,1,70
320,156,124106,5,0,0:0:0:0:
136,384,124265,2,0,P|139:346|166:283,1,70,8|0,0:0|0:0,0:0:0:0:
77,209,124424,2,0,L|-6:221,1,70,8|0,0:0|0:0,0:0:0:0:
324,317,124582,1,0,0:0:0:0:
324,86,124741,6,0,L|318:186,1,70,8|0,0:0|0:0,0:0:0:0:
252,272,124900,1,0,0:0:0:0:
109,45,125058,2,0,L|115:114,1,70,8|0,0:0|0:0,0:0:0:0:
183,227,125217,1,8,0:0:0:0:
256,192,125297,1,0,0:0:0:0:
324,234,125376,6,0,L|463:230,1,140
188,150,125693,2,0,L|49:154,1,140
336,247,126011,6,0,L|474:230,1,140
176,137,126328,2,0,L|37:153,1,140
351,263,126646,6,0,L|509:222,1,140
161,121,126963,2,0,L|3:162,1,140
371,277,127281,6,0,L|521:218,1,140
141,107,127598,2,0,L|-9:166,1,140
215,292,127916,5,0,0:0:0:0:
259,35,128074,1,0,0:0:0:0:
466,209,128233,2,0,L|306:219,1,140
45,173,128551,6,0,L|204:163,1,140,4|0,0:0|0:0,0:0:0:0:
466,209,128868,2,0,L|306:219,1,140
55,161,129185,6,0,L|214:156,1,140
456,221,129502,2,0,L|301:226,1,140
66,148,129820,6,0,L|267:148,1,140
445,234,130137,2,0,L|276:233,1,140
81,135,130455,6,0,L|246:140,1,140
430,247,130772,2,0,L|265:242,1,140
70,122,131089,6,0,L|235:131,1,140
441,260,131408,2,0,L|279:250,1,140
58,111,131725,6,0,L|248:129,1,140
453,270,132042,2,0,L|263:253,1,140
70,122,132359,6,0,L|225:129,1,140
441,260,132678,2,0,L|278:252,1,140
81,135,132995,6,0,L|241:140,1,140
430,247,133312,2,0,L|265:242,1,140
66,148,133629,6,0,L|239:147,1,140
445,234,133946,2,0,L|275:234,1,140
55,161,134265,6,0,L|214:156,1,140
456,221,134582,2,0,L|297:226,1,140
45,173,134900,6,0,L|204:163,1,140
7,314,135217,6,0,P|156:260|238:297,1,210
342,317,135535,1,0,0:0:0:0:
151,88,135693,1,2,0:0:0:0:
508,229,135852,2,0,L|345:242,1,140,0|2,0:0|0:0,0:0:0:0:
316,96,136170,1,0,0:0:0:0:
233,333,136328,2,0,L|371:349,1,140,2|0,0:0|0:0,0:0:0:0:
38,92,136646,1,2,0:0:0:0:
112,375,136805,6,0,L|126:235,1,140,0|2,0:0|0:0,0:0:0:0:
392,26,137122,1,0,0:0:0:0:
264,214,137280,2,0,L|118:236,1,140,2|0,0:0|0:0,0:0:0:0:
0,255,137598,1,2,0:0:0:0:
263,95,137757,2,0,L|401:115,1,140,0|2,0:0|0:0,0:0:0:0:
151,6,138074,1,0,0:0:0:0:
157,235,138233,6,0,L|162:396,1,140,2|0,0:0|0:0,0:0:0:0:
16,78,138550,1,2,0:0:0:0:
321,266,138709,2,0,L|461:252,1,140,0|2,0:0|0:0,0:0:0:0:
512,87,139027,1,0,0:0:0:0:
426,368,139185,1,2,0:0:0:0:
185,44,139344,5,0,0:0:0:0:
245,190,139503,1,2,0:0:0:0:
200,209,139582,1,0,0:0:0:0:
150,205,139662,1,0,0:0:0:0:
107,181,139741,1,0,0:0:0:0:
58,182,139820,1,2,0:0:0:0:
20,214,139900,1,0,0:0:0:0:
8,261,139979,5,0,0:0:0:0:
14,273,140058,1,0,0:0:0:0:
19,285,140138,1,2,0:0:0:0:
220,304,140297,1,0,0:0:0:0:
218,318,140376,1,0,0:0:0:0:
217,332,140455,1,2,0:0:0:0:
216,347,140535,1,0,0:0:0:0:
215,361,140614,5,0,0:0:0:0:
0,16,140931,1,0,0:0:0:0:
512,96,141249,1,0,0:0:0:0:
0,288,141566,1,0,0:0:0:0:
512,368,141884,5,0,0:0:0:0:
277,16,142201,1,0,0:0:0:0:
256,192,142360,1,0,0:0:0:0:
256,192,142519,1,0,0:0:0:0:
469,135,142678,1,0,0:0:0:0:
256,192,142836,1,0,0:0:0:0:
256,192,142995,1,0,0:0:0:0:
0,136,143154,5,0,0:0:0:0:
512,248,143471,1,0,0:0:0:0:
8,168,143789,1,0,0:0:0:0:
504,216,144106,1,0,0:0:0:0:
300,323,144265,1,0,0:0:0:0:
386,235,144424,5,0,0:0:0:0:
389,211,144503,1,0,0:0:0:0:
390,188,144582,1,2,0:0:0:0:
386,165,144662,1,0,0:0:0:0:
380,143,144741,1,0,0:0:0:0:
370,122,144820,1,0,0:0:0:0:
357,102,144900,1,2,0:0:0:0:
132,68,145058,1,0,0:0:0:0:
241,191,145217,2,0,L|273:188,21,17.5
154,233,145693,6,0,L|170:315,1,70
484,52,146011,1,0,0:0:0:0:
130,251,146328,6,0,L|162:329,1,70
484,52,146646,1,0,0:0:0:0:
108,281,146963,6,0,L|148:338,1,70
484,52,147281,1,0,0:0:0:0:
96,309,147598,2,0,L|158:363,1,70
484,52,147916,1,0,0:0:0:0:
87,337,148233,6,0,L|161:368,1,70
254,117,148551,1,0,0:0:0:0:
370,364,148709,1,0,0:0:0:0:
370,364,148789,1,0,0:0:0:0:
370,364,148868,1,0,0:0:0:0:
53,236,149027,1,0,0:0:0:0:
496,166,149185,1,0,0:0:0:0:
250,280,149344,5,0,0:0:0:0:
250,280,149424,1,0,0:0:0:0:
250,280,149503,1,0,0:0:0:0:
329,4,149662,1,0,0:0:0:0:
446,299,149820,1,0,0:0:0:0:
207,123,149979,5,0,0:0:0:0:
207,123,150058,1,0,0:0:0:0:
207,123,150138,1,0,0:0:0:0:
207,123,150217,1,0,0:0:0:0:
207,123,150297,1,0,0:0:0:0:
121,360,150455,1,0,0:0:0:0:
121,360,150535,1,0,0:0:0:0:
121,360,150614,1,0,0:0:0:0:
358,233,150773,6,0,L|342:315,1,70
28,52,151091,1,0,0:0:0:0:
382,251,151408,6,0,L|350:329,1,70
28,52,151726,1,0,0:0:0:0:
404,281,152043,6,0,L|364:338,1,70
28,52,152361,1,0,0:0:0:0:
416,309,152678,2,0,L|354:363,1,70
28,52,152996,5,0,0:0:0:0:
425,337,153313,6,0,L|351:368,1,70
109,367,153630,1,0,0:0:0:0:
261,52,153789,1,0,0:0:0:0:
261,52,153868,1,0,0:0:0:0:
261,52,153947,1,0,0:0:0:0:
261,52,154027,1,0,0:0:0:0:
261,52,154106,1,0,0:0:0:0:
282,286,154265,1,0,0:0:0:0:
282,286,154344,1,0,0:0:0:0:
282,286,154424,1,0,0:0:0:0:
144,210,154582,5,0,0:0:0:0:
381,141,154741,1,0,0:0:0:0:
0,252,154900,1,0,0:0:0:0:
424,297,155058,1,0,0:0:0:0:
424,297,155138,1,0,0:0:0:0:
424,297,155217,1,0,0:0:0:0:
424,297,155297,1,0,0:0:0:0:
424,297,155376,6,0,B|449:282|449:282|431:352,1,93.3333333333333
125,347,155852,6,0,L|136:282,1,46.6666666666667
237,142,156170,2,0,L|251:244,1,93.3333333333333
97,202,156646,2,0,L|34:193,1,46.6666666666667
240,313,156963,2,0,L|345:304,1,93.3333333333333
428,196,157439,2,0,L|327:204,1,93.3333333333333
199,234,157916,1,0,0:0:0:0:
256,160,158074,2,0,L|259:94,1,46.6666666666667
73,27,158392,6,0,L|82:115,1,70
254,267,158710,1,0,0:0:0:0:
370,20,158868,1,0,0:0:0:0:
370,20,158948,1,0,0:0:0:0:
370,20,159027,1,0,0:0:0:0:
53,148,159186,1,0,0:0:0:0:
496,218,159344,1,0,0:0:0:0:
250,104,159503,5,0,0:0:0:0:
250,104,159583,1,0,0:0:0:0:
250,104,159662,1,0,0:0:0:0:
329,380,159821,1,0,0:0:0:0:
446,85,159979,1,0,0:0:0:0:
305,261,160138,5,0,0:0:0:0:
305,261,160217,1,0,0:0:0:0:
305,261,160297,1,0,0:0:0:0:
305,261,160376,1,0,0:0:0:0:
305,261,160456,1,0,0:0:0:0:
121,24,160614,1,0,0:0:0:0:
121,24,160694,1,0,0:0:0:0:
121,24,160773,1,0,0:0:0:0:
403,248,160931,6,0,L|395:294,1,46.6666666666667
484,175,161249,2,0,L|498:277,1,93.3333333333333
371,161,161725,2,0,L|308:152,1,46.6666666666667
201,234,162042,2,0,L|295:229,1,93.3333333333333
236,57,162518,2,0,L|247:159,1,93.3333333333333
371,161,162995,1,0,0:0:0:0:
481,151,163153,2,0,L|472:198,1,46.6666666666667
423,54,163472,6,0,L|349:23,1,70
109,17,163789,1,0,0:0:0:0:
261,332,163948,1,0,0:0:0:0:
261,332,164027,1,0,0:0:0:0:
261,332,164106,1,0,0:0:0:0:
261,332,164186,1,0,0:0:0:0:
261,332,164265,1,0,0:0:0:0:
282,98,164424,1,0,0:0:0:0:
282,98,164503,1,0,0:0:0:0:
282,98,164583,1,0,0:0:0:0:
144,174,164741,5,0,0:0:0:0:
381,243,164900,1,0,0:0:0:0:
0,132,165059,1,0,0:0:0:0:
399,82,165217,1,0,0:0:0:0:
399,82,165297,1,0,0:0:0:0:
399,82,165376,1,0,0:0:0:0:
399,82,165456,1,0,0:0:0:0:
399,82,165535,1,0,0:0:0:0:
160,61,165693,1,0,0:0:0:0:
467,164,165852,1,0,0:0:0:0:
160,336,166011,6,0,L|208:336,1,46.6666666666667
288,336,166329,2,0,L|288:240,1,93.3333333333333
208,208,166805,2,0,L|144:208,1,46.6666666666667
288,160,167122,2,0,L|393:163,1,93.3333333333333
478,165,167598,2,0,L|478:277,1,93.3333333333333
384,240,168075,1,0,0:0:0:0:
368,320,168233,2,0,L|368:384,1,46.6666666666667
254,286,168551,6,0,L|268:218,1,70
174,84,168868,1,0,0:0:0:0:
365,153,169027,1,0,0:0:0:0:
365,153,169106,1,0,0:0:0:0:
365,153,169185,1,0,0:0:0:0:
145,274,169344,1,0,0:0:0:0:
303,33,169503,1,0,0:0:0:0:
366,369,169662,1,0,0:0:0:0:
72,175,169820,5,0,0:0:0:0:
465,204,169979,1,0,0:0:0:0:
169,366,170138,1,0,0:0:0:0:
357,146,170297,1,0,0:0:0:0:
357,146,170376,1,0,0:0:0:0:
357,146,170455,1,0,0:0:0:0:
357,146,170535,1,0,0:0:0:0:
357,146,170614,1,0,0:0:0:0:
181,241,170773,1,0,0:0:0:0:
181,241,170852,1,0,0:0:0:0:
181,241,170931,1,0,0:0:0:0:
78,131,171090,6,0,L|89:66,1,46.6666666666667
168,148,171408,2,0,L|182:250,1,93.3333333333333
71,216,171884,2,0,L|8:207,1,46.6666666666667
269,149,172201,2,0,L|374:152,1,93.3333333333333
283,242,172677,2,0,L|265:340,1,93.3333333333333
161,366,173154,1,0,0:0:0:0:
167,272,173312,2,0,L|162:208,1,46.6666666666667
255,40,173630,6,0,L|268:120,1,70
83,158,173947,1,0,0:0:0:0:
396,257,174106,1,0,0:0:0:0:
396,257,174185,1,0,0:0:0:0:
396,257,174265,1,0,0:0:0:0:
396,257,174344,1,0,0:0:0:0:
396,257,174424,2,0,L|397:282,4,17.5
413,98,174741,6,0,L|418:84,8,8.75
263,320,175058,1,0,0:0:0:0:
23,120,175217,1,0,0:0:0:0:
274,185,175376,1,0,0:0:0:0:
73,206,175535,1,0,0:0:0:0:
64,228,175614,1,0,0:0:0:0:
61,252,175693,1,0,0:0:0:0:
66,275,175773,1,0,0:0:0:0:
76,296,175852,1,0,0:0:0:0:
92,314,175931,1,0,0:0:0:0:
114,325,176011,6,0,L|203:318,1,70
256,192,196487,12,0,200138,0:0:0:0:
22,196,200297,6,0,L|138:209,1,83.9999974365235
99,211,200455,6,0,L|202:191,1,83.9999974365235
177,188,200614,6,0,L|287:206,1,83.9999974365235
256,209,200773,6,0,L|358:191,1,83.9999974365235
334,184,200931,6,0,L|426:210,1,83.9999974365235
410,212,201090,6,0,L|508:188,1,83.9999974365235
245,80,201408,1,0,0:0:0:0:
232,292,201566,6,0,B|294:378|294:378|331:250,1,210
45,182,201884,2,0,P|23:246|60:304,1,140,8|0,0:0|0:0,0:0:0:0:
502,246,202201,2,0,P|517:174|472:111,1,140
167,114,202519,2,0,L|172:197,1,70,8|0,0:0|0:0,0:0:0:0:
368,83,202677,2,0,P|373:45|364:8,1,70
300,179,202836,6,0,B|305:241|305:241|328:277|328:277|293:326|314:396,1,210
433,336,203153,1,8,0:0:0:0:
204,291,203312,2,0,L|192:81,1,210
112,353,203630,1,0,0:0:0:0:
76,123,203789,6,0,P|21:90|28:180,1,167.999994873047,8|0,0:0|0:0,0:0:0:0:
315,244,204106,5,0,0:0:0:0:
370,144,204265,2,0,L|355:44,1,70
464,38,204424,2,0,L|476:137,1,70,8|0,0:0|0:0,0:0:0:0:
512,238,204582,2,0,L|506:318,1,70
402,335,204741,2,0,L|412:246,1,70
315,244,204900,2,0,P|247:210|168:244,1,140,0|8,0:0|0:0,0:0:0:0:
15,66,205217,2,0,L|93:78,1,70
234,7,205376,6,0,L|210:164,1,140
18,321,205693,2,0,L|33:246,1,70,8|0,0:0|0:0,0:0:0:0:
242,253,205852,2,0,B|312:294|312:294|152:308,1,210
128,198,206169,1,0,0:0:0:0:
372,147,206328,2,0,L|365:76,1,70,8|0,0:0|0:0,0:0:0:0:
389,312,206487,1,0,0:0:0:0:
497,256,206646,6,0,P|438:198|274:243,1,210
150,346,206963,2,0,L|155:276,1,70,8|0,0:0|0:0,0:0:0:0:
170,136,207122,1,0,0:0:0:0:
32,373,207280,1,0,0:0:0:0:
287,310,207439,2,0,L|282:379,1,70
139,235,207598,2,0,L|-18:223,1,140,8|0,0:0|0:0,0:0:0:0:
298,73,207836,1,0,0:0:0:0:
378,116,207916,6,0,L|365:268,1,140
496,12,208233,2,0,B|517:35|517:35|506:159,1,140,8|0,0:0|0:0,0:0:0:0:
177,51,208550,1,0,0:0:0:0:
366,255,208709,1,0,0:0:0:0:
160,294,208868,1,8,0:0:0:0:
380,115,209026,1,0,0:0:0:0:
380,115,209106,1,0,0:0:0:0:
380,115,209185,5,0,0:0:0:0:
45,241,209344,1,0,0:0:0:0:
45,241,209503,2,0,L|34:81,1,140,8|0,0:0|0:0,0:0:0:0:
160,294,209820,1,0,0:0:0:0:
242,183,209979,2,0,L|246:252,1,70
55,377,210138,1,8,0:0:0:0:
257,356,210296,1,0,0:0:0:0:
299,368,210376,1,0,0:0:0:0:
341,384,210455,6,0,L|335:293,1,70
428,222,210614,2,0,P|431:153|383:105,1,140,0|8,0:0|0:0,0:0:0:0:
25,155,210931,2,0,B|206:137|206:137|183:175,1,210
105,274,211249,2,0,L|101:367,1,70
109,260,211407,2,0,L|117:329,1,70,8|0,0:0|0:0,0:0:0:0:
231,275,211566,6,0,P|327:296|379:263,2,140
161,27,212042,1,8,0:0:0:0:
432,134,212201,2,0,P|496:103|406:76,1,210
310,194,212519,2,0,L|336:348,1,140,0|8,0:0|0:0,0:0:0:0:
0,384,212836,6,0,L|15:234,1,140
166,66,213153,2,0,P|155:102|157:150,1,70
168,370,213312,2,0,P|137:350|118:322,1,70,8|0,0:0|0:0,0:0:0:0:
0,107,213471,2,0,P|69:119|132:254,1,210
51,341,213789,6,0,P|83:329|130:322,1,70
439,293,213947,2,0,P|395:289|351:281,1,70,8|0,0:0|0:0,0:0:0:0:
209,155,214106,2,0,P|197:102|197:66,1,70
275,310,214265,5,0,0:0:0:0:
165,370,214424,2,0,L|172:300,1,70
388,375,214582,2,0,B|389:327|389:327|366:212|366:212|370:153,1,210,8|0,0:0|0:0,0:0:0:0:
407,88,214900,1,0,0:0:0:0:
226,33,215058,2,0,L|238:180,1,140,0|8,0:0|0:0,0:0:0:0:
505,330,215376,6,0,P|434:266|362:256,1,140
199,289,215693,2,0,P|191:324|175:355,1,70
66,266,215852,2,0,P|37:247|18:219,1,70,8|0,0:0|0:0,0:0:0:0:
149,162,216011,2,0,P|181:141|243:145,1,70
389,175,216170,2,0,P|360:190|325:201,1,70
130,162,216328,6,0,P|155:130|202:110,1,70
412,168,216487,2,0,P|386:192|357:211,1,70,8|0,0:0|0:0,0:0:0:0:
199,290,216646,2,0,P|196:255|208:220,1,70
392,68,216804,6,0,P|397:67|506:212,1,210
390,315,217122,2,0,P|391:344|402:397,1,70,8|0,0:0|0:0,0:0:0:0:
500,290,217281,2,0,L|276:269,1,210
220,173,217598,2,0,P|210:139|205:104,1,70
211,324,217757,2,0,P|176:336|117:335,1,70,8|0,0:0|0:0,0:0:0:0:
364,168,217915,1,0,0:0:0:0:
364,168,217995,1,0,0:0:0:0:
364,168,218074,6,0,B|369:201|353:230|353:230|371:238|371:238|373:303|343:306|360:366,1,210
466,119,218392,1,8,0:0:0:0:
219,176,218550,2,0,B|59:160|59:160|125:142,1,210
274,95,218868,1,0,0:0:0:0:
219,291,219026,1,8,0:0:0:0:
139,47,219185,1,0,0:0:0:0:
82,239,219344,6,0,L|92:381,1,140
176,370,219582,1,0,0:0:0:0:
260,364,219662,1,8,0:0:0:0:
512,220,219820,2,0,B|432:248|432:248|304:212,1,210
219,186,220138,1,0,0:0:0:0:
427,285,220297,2,0,L|428:354,1,70,8|0,0:0|0:0,0:0:0:0:
445,79,220455,1,0,0:0:0:0:
311,214,220614,5,0,0:0:0:0:
203,97,220773,2,0,B|199:68|199:68|206:17,1,70
170,296,220931,2,0,L|99:306,1,70,8|0,0:0|0:0,0:0:0:0:
311,214,221090,1,0,0:0:0:0:
409,350,221249,6,0,P|410:315|398:282,1,70
276,342,221408,1,0,0:0:0:0:
102,147,221566,2,0,P|120:176|149:195,1,70,8|0,0:0|0:0,0:0:0:0:
468,134,221725,2,0,L|393:143,1,70
264,292,221884,6,0,B|260:261|260:261|284:217|284:217|266:155|266:155|276:83,1,210
76,11,222201,2,0,P|102:111|99:166,1,140,8|0,0:0|0:0,0:0:0:0:
437,265,222519,2,0,P|435:202|475:126,1,140
102,299,222836,2,0,P|78:319|39:336,1,70,8|0,0:0|0:0,0:0:0:0:
275,193,222995,2,0,P|320:190|373:215,1,70
150,144,223154,6,0,B|190:172|190:172|172:218|172:218|194:256|194:256|188:346,1,210
55,106,223471,1,8,0:0:0:0:
306,267,223630,2,0,B|340:219|340:219|346:52,1,210
446,15,223948,1,0,0:0:0:0:
512,275,224106,6,0,P|473:193|451:233,1,167.999994873047,8|0,0:0|0:0,0:0:0:0:
210,339,224424,6,0,L|0:349,1,210
144,191,224741,1,8,0:0:0:0:
290,290,224900,2,0,L|312:356,1,70
302,129,225058,1,0,0:0:0:0:
55,265,225218,2,0,P|28:200|39:132,1,140,0|8,0:0|0:0,0:0:0:0:
484,26,225535,6,0,P|505:139|485:190,2,140
317,188,226011,2,0,L|408:180,1,70,8|0,0:0|0:0,0:0:0:0:
282,74,226170,2,0,B|151:28|151:28|202:100,1,210
399,277,226487,1,0,0:0:0:0:
207,306,226646,2,0,L|223:238,1,70,8|0,0:0|0:0,0:0:0:0:
382,91,226805,1,0,0:0:0:0:
234,189,226963,6,0,L|24:168,1,210
177,65,227281,2,0,L|165:149,1,70,8|0,0:0|0:0,0:0:0:0:
139,292,227440,1,0,0:0:0:0:
0,132,227598,1,0,0:0:0:0:
286,257,227757,2,0,L|214:275,1,70
53,320,227916,2,0,B|35:244|35:244|107:270,1,140,8|0,0:0|0:0,0:0:0:0:
378,384,228154,1,0,0:0:0:0:
461,339,228233,6,0,B|512:284|491:200|491:200|447:245,1,210
320,255,228551,2,0,B|279:274|279:274|169:258,1,140,8|0,0:0|0:0,0:0:0:0:
418,138,228868,1,0,0:0:0:0:
168,57,229027,2,0,B|117:49|117:49|-4:63,1,140,0|8,0:0|0:0,0:0:0:0:
10,362,229344,1,0,0:0:0:0:
10,362,229424,1,0,0:0:0:0:
10,362,229503,6,0,B|81:373|81:373|178:362,1,140
512,115,229821,2,0,B|462:99|462:99|370:113,1,140,8|0,0:0|0:0,0:0:0:0:
346,319,230138,1,0,0:0:0:0:
459,252,230297,2,0,L|451:173,1,70
481,371,230456,1,8,0:0:0:0:
210,370,230614,5,0,0:0:0:0:
184,336,230694,1,0,0:0:0:0:
176,294,230773,1,0,0:0:0:0:
190,254,230852,1,0,0:0:0:0:
219,224,230931,1,0,0:0:0:0:
255,203,231011,1,0,0:0:0:0:
278,168,231090,1,8,0:0:0:0:
278,125,231170,1,0,0:0:0:0:
256,89,231249,6,0,B|117:37|117:37|150:103,1,210
110,248,231567,2,0,L|87:341,1,70
269,300,231725,2,0,L|338:292,1,70,8|0,0:0|0:0,0:0:0:0:
435,171,231884,1,0,0:0:0:0:
196,147,232043,6,0,B|81:162|81:162|63:172|63:172|61:155|61:155|45:166|45:166|-10:173,1,210
115,31,232360,1,8,0:0:0:0:
328,137,232519,2,0,P|392:106|302:79,1,210
206,185,232837,2,0,L|225:342,1,140,0|8,0:0|0:0,0:0:0:0:
494,155,233154,6,0,L|512:16,1,140
323,195,233471,2,0,L|313:264,1,70
427,255,233630,2,0,L|488:289,1,70,8|0,0:0|0:0,0:0:0:0:
378,105,233789,2,0,P|293:158|187:107,1,210
53,290,234106,6,0,P|47:324|45:359,1,70
448,321,234265,2,0,P|438:287|426:254,1,70,8|0,0:0|0:0,0:0:0:0:
239,314,234424,2,0,P|238:348|240:383,1,70
347,270,234583,6,0,B|272:276|272:276|241:271|241:271|229:279|229:279|136:285,1,210
142,194,234900,1,8,0:0:0:0:
379,346,235059,2,0,L|368:126,1,210
142,194,235376,2,0,L|152:365,1,140,0|8,0:0|0:0,0:0:0:0:
469,78,235694,6,0,P|428:28|329:31,1,140
192,266,236011,2,0,L|184:335,1,70
8,228,236170,2,0,L|-1:158,1,70,8|0,0:0|0:0,0:0:0:0:
107,164,236329,2,0,P|194:127|298:187,1,210
429,266,236646,2,0,P|438:184|410:117,1,140,0|8,0:0|0:0,0:0:0:0:
231,333,236963,6,0,B|183:397|183:397|120:373|61:325|48:236|48:236|32:144|89:31|217:9|217:9|347:-10|433:84|446:179|446:179|458:272|409:344|357:366,1,1120
250,206,238392,5,0,0:0:0:0:
64,74,238551,6,0,L|31:30,1,35
415,9,238709,6,0,L|405:55,1,35,8|0,0:0|0:0,0:0:0:0:
57,369,238868,6,0,L|83:346,1,35
456,336,239027,6,0,L|477:365,1,35
223,68,239185,6,0,L|235:100,1,35
480,167,239344,6,0,L|450:185,1,35,8|0,0:0|0:0,0:0:0:0:
272,310,239503,6,0,L|275:345,1,35
55,267,239662,2,0,P|205:137|158:330,1,525.000020027161
154,223,240614,1,8,0:0:0:0:
154,223,240773,6,0,L|146:105,1,70
158,329,240931,5,0,0:0:0:0:
284,136,241090,2,0,P|301:93|291:35,1,70,8|0,0:0|0:0,0:0:0:0:
5,90,241249,2,0,P|26:128|38:174,1,70,8|0,0:0|0:0,0:0:0:0:
158,329,241408,1,0,0:0:0:0:
316,341,241566,6,0,P|357:344|412:360,1,70,8|0,0:0|0:0,0:0:0:0:
0,382,241725,1,0,0:0:0:0:
259,239,241884,2,0,P|296:226|348:211,1,70,8|0,0:0|0:0,0:0:0:0:
73,243,242043,1,8,0:0:0:0:
506,104,242201,5,0,0:0:0:0:
387,65,242360,1,0,0:0:0:0:
491,208,242519,2,0,L|485:279,1,62.9999980773926,8|0,0:0|0:0,0:0:0:0:
259,239,242678,5,0,0:0:0:0:
284,211,242757,1,0,0:0:0:0:
319,199,242836,1,0,0:0:0:0:
356,205,242916,1,0,0:0:0:0:
386,227,242995,1,0,0:0:0:0:
213,108,243154,1,8,0:0:0:0:
331,294,243312,2,0,L|341:374,1,62.9999980773926
152,349,243471,5,0,0:0:0:0:
186,210,243630,1,0,0:0:0:0:
345,167,243789,6,0,L|271:155,1,62.9999980773926,8|0,0:0|0:0,0:0:0:0:
24,238,243947,2,0,L|98:250,1,62.9999980773926
291,323,244106,2,0,L|279:259,1,62.9999980773926
82,84,244265,2,0,L|94:148,1,62.9999980773926
134,351,244424,2,0,L|181:300,1,62.9999980773926,8|0,0:0|0:0,0:0:0:0:
238,62,244582,2,0,L|191:113,1,62.9999980773926
312,231,244741,6,0,B|343:218|343:218|365:233|365:233|378:218|378:218|449:242|504:189,1,188.999994232178
413,118,245058,1,8,0:0:0:0:
298,332,245217,5,0,0:0:0:0:
261,321,245297,1,0,0:0:0:0:
234,294,245376,1,0,0:0:0:0:
216,260,245455,1,0,0:0:0:0:
214,221,245535,1,0,0:0:0:0:
115,355,245693,2,0,L|183:367,1,70,8|0,0:0|0:0,0:0:0:0:
398,311,245852,6,0,P|324:233|283:231,1,125.999996154785
42,249,246170,1,0,0:0:0:0:
36,218,246249,1,0,0:0:0:0:
31,186,246328,2,0,L|33:105,1,62.9999980773926,8|0,0:0|0:0,0:0:0:0:
354,346,246487,1,0,0:0:0:0:
164,146,246646,6,0,L|158:58,1,62.9999980773926
270,289,246805,1,0,0:0:0:0:
304,186,246963,6,0,L|305:102,1,62.9999980773926,8|0,0:0|0:0,0:0:0:0:
434,260,247122,2,0,L|438:322,1,62.9999980773926
512,164,247281,6,0,B|446:137|446:137|313:179,1,188.999994232178
205,370,247598,1,8,0:0:0:0:
90,245,247757,2,0,L|95:49,1,188.999994232178
191,191,248074,1,0,0:0:0:0:
96,336,248233,2,0,L|28:352,1,62.9999980773926,8|0,0:0|0:0,0:0:0:0:
266,273,248392,1,0,0:0:0:0:
50,140,248551,5,0,0:0:0:0:
242,82,248709,1,0,0:0:0:0:
264,97,248789,1,0,0:0:0:0:
284,110,248868,2,0,L|369:94,1,70,8|0,0:0|0:0,0:0:0:0:
455,78,249027,1,0,0:0:0:0:
372,244,249185,6,0,L|402:167,1,62.9999980773926
446,58,249344,1,0,0:0:0:0:
498,273,249503,6,0,L|487:188,1,62.9999980773926,8|0,0:0|0:0,0:0:0:0:
251,262,249662,2,0,L|248:354,1,62.9999980773926
372,244,249820,5,0,0:0:0:0:
230,142,249979,2,0,L|94:153,1,125.999996154785,0|8,0:0|0:0,0:0:0:0:
270,374,250297,2,0,L|470:352,1,188.999994232178
498,273,250614,1,0,0:0:0:0:
392,206,250773,2,0,L|372:129,1,70,8|0,0:0|0:0,0:0:0:0:
512,122,250931,1,0,0:0:0:0:
265,25,251090,5,0,0:0:0:0:
112,85,251249,1,0,0:0:0:0:
112,139,251328,1,0,0:0:0:0:
111,194,251408,6,0,L|130:343,1,125.999996154785,8|0,0:0|0:0,0:0:0:0:
35,156,251646,1,0,0:0:0:0:
119,200,251725,6,0,L|139:359,1,140
193,140,251963,1,0,0:0:0:0:
125,210,252043,6,0,L|150:383,1,154.000004699707,8|0,0:0|0:0,0:0:0:0:
495,197,252360,6,0,L|502:125,1,70
406,302,252519,2,0,L|432:384,1,70
374,162,252678,1,8,0:0:0:0:
286,264,252837,5,0,0:0:0:0:
251,268,252916,1,0,0:0:0:0:
217,258,252995,1,0,0:0:0:0:
187,238,253075,1,0,0:0:0:0:
170,207,253154,1,0,0:0:0:0:
155,330,253313,1,8,0:0:0:0:
263,171,253471,2,0,L|253:96,1,70
81,17,253630,6,0,L|76:99,1,70
34,194,253789,1,0,0:0:0:0:
158,129,253947,1,8,0:0:0:0:
263,171,254106,5,0,0:0:0:0:
303,182,254185,1,0,0:0:0:0:
341,164,254265,1,0,0:0:0:0:
382,157,254344,1,0,0:0:0:0:
422,168,254424,1,0,0:0:0:0:
109,317,254583,6,0,L|135:399,1,70,8|0,0:0|0:0,0:0:0:0:
362,333,254741,2,0,P|370:289|366:263,1,70
195,104,254900,6,0,P|170:193|240:279,1,210
295,63,255217,1,8,0:0:0:0:
68,185,255376,5,0,0:0:0:0:
23,163,255456,1,0,0:0:0:0:
3,118,255535,1,0,0:0:0:0:
11,69,255614,1,0,0:0:0:0:
37,27,255694,1,0,0:0:0:0:
43,272,255852,2,0,L|35:362,1,70,8|0,0:0|0:0,0:0:0:0:
215,218,256011,6,0,P|269:242|358:188,1,140
119,109,256329,1,0,0:0:0:0:
119,109,256408,1,0,0:0:0:0:
119,109,256487,6,0,L|127:197,1,70,8|0,0:0|0:0,0:0:0:0:
145,306,256646,1,0,0:0:0:0:
273,70,256805,6,0,L|272:140,1,70
269,260,256964,1,0,0:0:0:0:
438,98,257122,6,0,L|413:174,1,70,8|0,0:0|0:0,0:0:0:0:
415,274,257281,2,0,L|487:292,1,70
510,200,257439,5,0,0:0:0:0:
322,335,257598,1,0,0:0:0:0:
322,335,257678,1,0,0:0:0:0:
322,335,257757,1,8,0:0:0:0:
201,256,257916,2,0,B|148:272|148:272|-5:251,1,210
226,148,258233,1,0,0:0:0:0:
68,288,258392,2,0,L|86:382,1,70,8|0,0:0|0:0,0:0:0:0:
223,347,258551,1,0,0:0:0:0:
23,162,258709,5,0,0:0:0:0:
313,233,258868,1,0,0:0:0:0:
313,233,258948,1,0,0:0:0:0:
313,233,259027,2,0,L|328:135,1,70,8|0,0:0|0:0,0:0:0:0:
287,70,259186,1,0,0:0:0:0:
429,192,259344,6,0,L|400:125,1,70
269,79,259503,1,0,0:0:0:0:
495,75,259662,6,0,L|408:41,1,70,8|0,0:0|0:0,0:0:0:0:
232,183,259821,2,0,L|150:211,1,70
108,18,259979,5,0,0:0:0:0:
323,162,260138,1,0,0:0:0:0:
323,162,260217,1,0,0:0:0:0:
323,162,260297,1,8,0:0:0:0:
126,132,260455,2,0,L|108:346,1,210
0,343,260773,1,0,0:0:0:0:
208,293,260931,2,0,L|215:221,1,70,8|0,0:0|0:0,0:0:0:0:
30,170,261090,2,0,L|24:251,1,70
223,134,261249,5,0,0:0:0:0:
298,279,261408,2,0,L|396:273,1,70
358,111,261566,2,0,P|369:74|359:27,1,70,8|0,0:0|0:0,0:0:0:0:
214,223,261725,1,0,0:0:0:0:
69,129,261884,6,0,L|-3:137,1,70
213,28,262043,1,0,0:0:0:0:
104,238,262201,2,0,L|129:397,1,140,8|0,0:0|0:0,0:0:0:0:
503,290,262519,6,0,P|452:277|383:277,1,105.000004005432,0|0,1:0|0:0,0:0:0:0:
270,303,262678,1,0,0:0:0:0:
270,303,262757,1,0,0:0:0:0:
270,302,262836,2,0,P|282:251|284:199,1,105.000004005432,0|0,1:0|0:0,0:0:0:0:
257,83,262995,1,0,0:0:0:0:
257,83,263074,1,0,0:0:0:0:
257,83,263154,6,0,P|307:95|360:97,1,105.000004005432,0|0,1:0|0:0,0:0:0:0:
487,77,263312,1,0,0:0:0:0:
487,77,263391,1,0,0:0:0:0:
487,77,263471,2,0,P|474:127|474:197,1,105.000004005432,0|0,1:0|0:0,0:0:0:0:
160,120,263630,2,0,P|151:55|134:6,1,105.000004005432
71,234,263789,6,0,P|60:273|67:360,1,105.000004005432,0|0,1:0|0:0,0:0:0:0:
256,224,263947,2,0,L|195:246,1,52.5000020027161
256,240,264027,2,0,L|308:254,1,52.5000020027161
256,256,264106,2,0,L|256:368,1,105.000004005432,0|0,1:0|0:0,0:0:0:0:
441,234,264265,2,0,P|452:273|445:360,1,105.000004005432
353,120,264424,6,0,P|362:55|379:6,1,105.000004005432,0|0,1:0|0:0,0:0:0:0:
353,264,264582,2,0,P|362:329|379:378,1,105.000004005432
224,80,264741,2,0,P|178:59|97:44,1,105.000004005432,0|0,1:0|0:0,0:0:0:0:
224,304,264900,2,0,P|178:324|97:340,1,105.000004005432
41,237,265058,5,0,1:0:0:0:
34,223,265137,1,0,0:0:0:0:
31,209,265216,1,0,0:0:0:0:
34,194,265296,1,0,0:0:0:0:
41,181,265375,1,0,1:0:0:0:
52,171,265454,1,0,0:0:0:0:
65,165,265534,1,0,0:0:0:0:
80,163,265613,1,0,0:0:0:0:
90,171,265693,6,0,P|153:197|214:195,1,105.000004005432,0|0,1:0|0:0,0:0:0:0:
422,213,265852,2,0,P|358:186|298:189,1,105.000004005432
235,358,266011,6,0,P|261:294|259:234,1,105.000004005432,0|0,1:0|0:0,0:0:0:0:
277,26,266170,2,0,P|250:89|253:150,1,105.000004005432
167,287,266328,6,0,P|131:321|57:331,1,105.000004005432,0|0,1:0|0:0,0:0:0:0:
351,280,266487,5,0,0:0:0:0:
351,280,266566,1,0,0:0:0:0:
351,280,266646,2,0,P|385:316|395:390,1,105.000004005432,0|0,1:0|0:0,0:0:0:0:
160,103,266805,5,0,0:0:0:0:
160,103,266884,1,0,0:0:0:0:
160,103,266963,2,0,P|126:67|116:-6,1,105.000004005432,0|0,1:0|0:0,0:0:0:0:
344,96,267122,6,0,P|380:62|454:52,1,105.000004005432
335,232,267281,2,0,P|357:278|357:331,1,105.000004005432,0|0,1:0|0:0,0:0:0:0:
222,151,267439,2,0,P|170:145|128:115,1,105.000004005432
36,287,267598,6,0,P|23:230|-18:170,1,105.000004005432,0|0,1:0|0:0,0:0:0:0:
227,250,267757,2,0,P|230:295|256:351,1,105.000004005432
145,356,267916,2,0,P|94:362|46:384,1,105.000004005432,0|0,1:0|0:0,0:0:0:0:
109,165,268075,2,0,P|160:155|205:129,1,105.000004005432
512,122,268233,6,0,P|469:101|418:93,1,105.000004005432,0|0,1:0|0:0,0:0:0:0:
244,210,268392,2,0,P|291:232|343:238,1,105.000004005432
420,304,268551,2,0,P|439:255|449:203,1,105.000004005432,0|0,1:0|0:0,0:0:0:0:
334,33,268710,2,0,P|314:81|304:133,1,105.000004005432
178,33,268868,6,0,P|197:81|207:133,1,105.000004005432,0|0,1:0|0:0,0:0:0:0:
396,138,269027,6,0,P|443:125|497:86,1,105.000004005432
117,139,269185,6,0,P|64:126|24:97,1,105.000004005432,0|0,1:0|0:0,0:0:0:0:
354,215,269344,6,0,B|412:233|412:233|469:289,1,105.000004005432
158,215,269503,6,0,B|100:233|100:233|43:289,1,105.000004005432,0|0,1:0|0:0,0:0:0:0:
256,352,269662,6,0,L|257:247,1,105.000004005432
340,129,269820,6,0,L|456:97,1,105.000004005432,0|0,1:0|0:0,0:0:0:0:
172,129,269979,2,0,L|56:97,1,105.000004005432
153,254,270138,6,0,L|170:357,1,105.000004005432,0|0,1:0|0:0,0:0:0:0:
359,130,270297,2,0,L|341:26,1,105.000004005432
118,229,270455,6,0,L|74:348,1,105.000004005432,0|0,1:0|0:0,0:0:0:0:
394,155,270614,2,0,L|438:36,1,105.000004005432
100,198,270773,6,0,L|26:272,1,105.000004005432,0|0,1:0|0:0,0:0:0:0:
412,186,270931,2,0,L|486:112,1,105.000004005432
109,162,271090,6,0,L|6:195,1,105.000004005432,0|0,1:0|0:0,0:0:0:0:
403,222,271249,2,0,L|506:189,1,105.000004005432
132,131,271408,6,0,L|23:122,1,105.000004005432,0|0,1:0|0:0,0:0:0:0:
380,253,271567,2,0,L|489:262,1,105.000004005432
161,110,271725,6,0,L|68:50,1,105.000004005432,0|0,1:0|0:0,0:0:0:0:
351,274,271884,2,0,L|444:334,1,105.000004005432
46,346,272043,6,0,L|45:370,1,17.5
352,267,272677,6,0,P|392:304|402:358,1,112,6|0,0:0|0:0,0:0:0:0:
260,109,272835,6,0,P|248:55|247:0,1,112
242,291,272994,6,0,P|217:340|173:375,1,112,8|0,0:0|0:0,0:0:0:0:
366,145,273153,6,0,P|414:117|466:99,1,112
187,192,273311,6,0,P|131:192|77:177,1,112
16,308,273470,6,0,P|75:296|158:294,1,112,2|0,0:0|0:0,0:0:0:0:
300,187,273629,2,0,P|304:131|296:76,1,112,8|0,0:0|0:0,0:0:0:0:
289,384,273788,2,0,P|279:331|238:285,1,112
40,164,273946,6,0,P|17:114|0:34,1,112,2|0,0:0|0:0,0:0:0:0:
138,95,274105,2,0,P|187:72|267:55,1,112
220,196,274264,2,0,P|242:245|259:325,1,112,8|0,0:0|0:0,0:0:0:0:
122,265,274423,2,0,P|72:287|-7:304,1,112,2|0,0:0|0:0,0:0:0:0:
472,164,274581,6,0,P|494:114|511:34,1,112
374,95,274740,2,0,P|324:72|244:55,1,112
292,196,274899,2,0,P|269:245|252:325,1,112,8|0,0:0|0:0,0:0:0:0:
390,265,275058,2,0,P|439:287|519:304,1,112
192,240,275216,6,0,L|74:257,1,119.000002269745,2|0,0:0|0:0,0:0:0:0:
208,128,275375,6,0,L|190:10,1,119.000002269745
320,144,275534,6,0,L|437:126,1,119.000002269745,8|0,0:0|0:0,0:0:0:0:
304,256,275693,6,0,L|321:373,1,119.000002269745,2|0,0:0|0:0,0:0:0:0:
82,106,275851,6,0,L|190:154,1,119.000002269745
170,366,276010,6,0,L|218:258,1,119.000002269745
430,278,276169,6,0,L|322:230,1,119.000002269745,8|0,0:0|0:0,0:0:0:0:
342,18,276327,6,0,L|294:126,1,119.000002269745
166,198,276486,6,0,B|108:216|108:216|59:260,1,119.000002269745,2|0,0:0|0:0,0:0:0:0:
346,186,276645,6,0,B|404:168|404:168|453:124,1,119.000002269745
262,282,276803,6,0,B|280:340|280:340|324:389,1,119.000002269745,8|0,0:0|0:0,0:0:0:0:
250,102,276962,6,0,B|232:44|232:44|188:-5,1,119.000002269745,2|0,0:0|0:0,0:0:0:0:
368,144,277122,6,0,P|443:122|521:128,1,119.000002269745
144,144,277280,2,0,P|69:122|-9:128,1,119.000002269745
368,240,277438,6,0,P|443:262|521:256,1,119.000002269745,8|0,0:0|0:0,0:0:0:0:
144,240,277596,2,0,P|69:262|-9:256,1,119.000002269745
333,365,277757,6,0,P|278:297|271:240,1,125.999996154785,2|0,0:0|0:0,0:0:0:0:
179,365,277915,2,0,P|233:297|241:240,1,125.999996154785
461,227,278075,6,0,P|390:229|336:215,1,125.999996154785,8|0,0:0|0:0,0:0:0:0:
51,227,278232,2,0,P|122:229|176:215,1,125.999996154785,2|0,0:0|0:0,0:0:0:0:
332,131,278391,6,0,P|378:105|461:103,1,125.999996154785
180,131,278551,2,0,P|133:105|51:103,1,125.999996154785
359,339,278708,2,0,L|336:211,1,125.999996154785,8|0,0:0|0:0,0:0:0:0:
153,339,278868,2,0,L|176:211,1,125.999996154785
61,100,279027,6,0,P|21:149|40:226,1,125.999996154785,2|0,0:0|0:0,0:0:0:0:
332,131,279186,2,0,P|350:62|322:9,1,125.999996154785
180,131,279343,2,0,P|162:62|190:9,1,125.999996154785,8|0,0:0|0:0,0:0:0:0:
451,100,279502,2,0,P|490:149|472:226,1,125.999996154785,2|0,0:0|0:0,0:0:0:0:
183,272,279662,6,0,B|140:232|140:232|100:146,1,125.999996154785
329,272,279819,2,0,B|372:232|372:232|412:146,1,125.999996154785
58,260,279980,2,0,B|24:320|24:320|37:397,1,125.999996154785,8|0,0:0|0:0,0:0:0:0:
454,260,280137,2,0,B|488:320|488:320|475:397,1,125.999996154785
363,66,280296,6,0,P|294:54|228:21,1,125.999996154785,2|0,0:0|0:0,0:0:0:0:
101,87,280454,2,0,P|91:150|66:207,1,125.999996154785
118,336,280613,2,0,P|181:345|238:370,1,125.999996154785,8|0,0:0|0:0,0:0:0:0:
381,314,280771,2,0,P|390:251|415:194,1,125.999996154785,2|0,0:0|0:0,0:0:0:0:
161,13,280930,6,0,L|207:155,1,132.999996448517
351,371,281089,2,0,L|310:244,1,132.999996448517
435,97,281248,2,0,L|308:137,1,132.999996448517,8|0,0:0|0:0,0:0:0:0:
77,287,281407,2,0,L|219:241,1,132.999996448517,8|0,0:0|0:0,0:0:0:0:
217,0,281566,6,0,P|211:69|197:138,1,140
178,383,281724,6,0,P|221:328|272:279,1,140
441,87,281883,6,0,P|373:105|304:114,1,140,8|0,0:0|0:0,0:0:0:0:
49,175,282042,6,0,P|114:199|176:232,1,140
413,329,282200,6,0,P|373:270|343:207,1,140
256,192,282360,5,0,0:0:0:0:
256,192,282439,1,0,0:0:0:0:
256,192,282519,1,8,0:0:0:0:
256,192,282598,1,0,0:0:0:0:
256,192,282678,1,0,0:0:0:0:
256,192,282757,1,0,0:0:0:0:
144,256,282835,6,0,L|144:112,1,140,8|0,0:0|0:0,0:0:0:0:
464,192,282994,2,0,B|464:368|464:368|208:368,1,420,8|0,0:0|0:0,0:0:0:0:
368,128,283311,6,0,L|368:272,1,140,8|0,0:0|0:0,0:0:0:0:
48,192,283470,2,0,B|48:16|48:16|304:16,1,420,8|0,0:0|0:0,0:0:0:0:
464,176,283788,6,0,L|320:192,1,140,8|0,0:0|0:0,0:0:0:0:
48,208,283946,2,0,L|192:192,1,140,8|0,0:0|0:0,0:0:0:0:
361,5,284105,6,0,L|308:139,1,140,8|0,0:0|0:0,0:0:0:0:
134,381,284264,2,0,L|187:247,1,140,8|0,0:0|0:0,0:0:0:0:
113,27,284423,6,0,L|187:156,1,140,8|0,0:0|0:0,0:0:0:0:
395,361,284582,2,0,L|321:232,1,140,8|0,0:0|0:0,0:0:0:0:
