osu file format v14

[General]
AudioFilename: dddddd.mp3
AudioLeadIn: 0
PreviewTime: 95833
Countdown: 0
SampleSet: None
StackLeniency: 0.7
Mode: 3
LetterboxInBreaks: 0
SpecialStyle: 0
WidescreenStoryboard: 1

[Editor]
DistanceSpacing: 1
BeatDivisor: 4
GridSize: 4
TimelineZoom: 3

[Metadata]
Title:boku-boku SuketchP...Remix
TitleUnicode:boku-boku SuketchP...Remix
Artist:AVTechNO!
ArtistUnicode:AVTechNO!
Creator:KcHecKa
Version:SC
Source:Tachyon DIVA
Tags:
BeatmapID:996755
BeatmapSetID:465593

[Difficulty]
HPDrainRate:8
CircleSize:4
OverallDifficulty:7
ApproachRate:5
SliderMultiplier:1.4
SliderTickRate:1

[Events]
//Background and Video events
0,0,"Tachyon DIVA-bg.png",0,0
//Break Periods
//Storyboard Layer 0 (Background)
//Storyboard Layer 1 (Fail)
//Storyboard Layer 2 (Pass)
//Storyboard Layer 3 (Foreground)
//Storyboard Sound Samples

[TimingPoints]
0,333.333333333333,4,3,1,35,1,0
39999,-1000,4,3,1,35,0,0
40083,-100,4,3,1,35,0,0
40166,-1000,4,3,1,35,0,0
40249,-100,4,3,1,35,0,0
40333,-1000,4,3,1,35,0,0
40416,-100,4,3,1,35,0,0
40499,-1000,4,3,1,35,0,0
40583,-100,4,3,1,35,0,0
40666,-1000,4,3,1,35,0,0
40749,-100,4,3,1,35,0,0
40833,-1000,4,3,1,35,0,0
40916,-100,4,3,1,35,0,0
40999,-1000,4,3,1,35,0,0
41083,-100,4,3,1,35,0,0
41166,-1000,4,3,1,35,0,0
41249,-100,4,3,1,35,0,0
42333,-1000,4,3,1,35,0,0
42416,-100,4,3,1,35,0,0
65999,-133.333333333333,4,3,1,35,0,0
66499,-100,4,3,1,35,0,0
68666,-1000,4,3,1,35,0,0
68749,-100,4,3,1,35,0,0
68916,-1000,4,3,1,35,0,0
68999,-100,4,3,1,35,0,0
69166,-1000,4,3,1,35,0,0
69249,-100,4,3,1,35,0,0
71333,-1000,4,3,1,35,0,0
71416,-100,4,3,1,35,0,0
71583,-1000,4,3,1,35,0,0
71666,-100,4,3,1,35,0,0
71833,-1000,4,3,1,35,0,0
71916,-100,4,3,1,35,0,0
71999,-1000,4,3,1,35,0,0
72083,-100,4,3,1,35,0,0
72166,-1000,4,3,1,35,0,0
72249,-100,4,3,1,35,0,0
72333,-1000,4,3,1,35,0,0
72416,-100,4,3,1,35,0,0
72499,-1000,4,3,1,35,0,0
72583,-100,4,3,1,35,0,0
72666,-1000,4,3,1,35,0,0
72749,-100,4,3,1,35,0,0
72833,-1000,4,3,1,35,0,0
72916,-100,4,3,1,35,0,0
72999,-1000,4,3,1,35,0,0
73083,-100,4,3,1,35,0,0
73166,-1000,4,3,1,35,0,0
73249,-100,4,3,1,35,0,0
73333,-1000,4,3,1,35,0,0
73416,-100,4,3,1,35,0,0
73499,-1000,4,3,1,35,0,0
73583,-100,4,3,1,35,0,0
73666,-1000,4,3,1,35,0,0
73749,-100,4,3,1,35,0,0
73833,-1000,4,3,1,35,0,0
73916,-100,4,3,1,35,0,0
73999,-1000,4,3,1,35,0,0
74083,-100,4,3,1,35,0,0
74249,-1000,4,3,1,35,0,0
74333,-100,4,3,1,35,0,0
74499,-1000,4,3,1,35,0,0
74583,-100,4,3,1,35,0,0
76666,-1000,4,3,1,35,0,0
76749,-100,4,3,1,35,0,0
76833,-1000,4,3,1,35,0,0
76916,-100,4,3,1,35,0,0
76999,-1000,4,3,1,35,0,0
77083,-100,4,3,1,35,0,0
77166,-1000,4,3,1,35,0,0
77249,-100,4,3,1,35,0,0
79333,-1000,4,3,1,35,0,0
79416,-100,4,3,1,35,0,0
79583,-1000,4,3,1,35,0,0
79666,-100,4,3,1,35,0,0
79833,-1000,4,3,1,35,0,0
79916,-100,4,3,1,35,0,0
81999,-1000,4,3,1,35,0,0
82083,-100,4,3,1,35,0,0
82249,-1000,4,3,1,35,0,0
82333,-100,4,3,1,35,0,0
82499,-1000,4,3,1,35,0,0
82583,-100,4,3,1,35,0,0
85333,-1000,4,3,1,35,0,0
85666,-100,4,3,1,35,0,0
85999,-1000,4,3,1,35,0,0
86333,-100,4,3,1,35,0,0
86666,-1000,4,3,1,35,0,0
87004,-100,4,3,1,35,0,0
87333,-1000,4,3,1,35,0,0
87666,-100,4,3,1,35,0,0
87999,-1000,4,3,1,35,0,0
88333,-100,4,3,1,35,0,0
88666,-1000,4,3,1,35,0,0
88999,-100,4,3,1,35,0,0
89333,-1000,4,3,1,35,0,0
89666,-100,4,3,1,35,0,0
89999,-1000,4,3,1,35,0,0
90333,-100,4,3,1,35,0,0
90666,-1000,4,3,1,35,0,0
90999,-100,4,3,1,35,0,0
91333,-1000,4,3,1,35,0,0
91666,-100,4,3,1,35,0,0
91999,-1000,4,3,1,35,0,0
92333,-100,4,3,1,35,0,0
92666,-1000,4,3,1,35,0,0
92999,-100,4,3,1,35,0,0
93333,-1000,4,3,1,35,0,0
93416,-100,4,3,1,35,0,0
93499,-1000,4,3,1,35,0,0
93583,-100,4,3,1,35,0,0
93666,-1000,4,3,1,35,0,0
93749,-100,4,3,1,35,0,0
93833,-1000,4,3,1,35,0,0
93916,-100,4,3,1,35,0,0
93999,-1000,4,3,1,35,0,0
94083,-100,4,3,1,35,0,0
94166,-1000,4,3,1,35,0,0
94249,-100,4,3,1,35,0,0
94333,-1000,4,3,1,35,0,0
94416,-100,4,3,1,35,0,0
94499,-1000,4,3,1,35,0,0
94583,-100,4,3,1,35,0,0
95999,-100,4,3,1,35,0,1
127999,-100,4,3,1,35,0,0
133333,-100,4,3,1,35,0,1
159999,-100,4,3,1,35,0,0

[HitObjects]
448,192,10666,5,0,0:0:0:0:
320,192,10666,1,0,0:0:0:0:
64,192,10833,1,0,0:0:0:0:
192,192,10999,1,0,0:0:0:0:
448,192,10999,1,0,0:0:0:0:
320,192,11166,1,0,0:0:0:0:
64,192,11333,1,0,0:0:0:0:
192,192,11333,1,0,0:0:0:0:
448,192,11499,1,0,0:0:0:0:
320,192,11666,1,0,0:0:0:0:
64,192,11666,1,0,0:0:0:0:
192,192,11833,1,0,0:0:0:0:
448,192,11999,128,0,12333:0:0:0:0:
192,192,12166,1,0,0:0:0:0:
192,192,12333,1,0,0:0:0:0:
320,192,12499,128,0,12833:0:0:0:0:
64,192,12666,1,0,0:0:0:0:
64,192,12833,1,0,0:0:0:0:
192,192,12999,128,0,13166:0:0:0:0:
320,192,13166,128,0,13333:0:0:0:0:
64,192,13333,1,0,0:0:0:0:
448,192,13333,1,0,0:0:0:0:
192,192,13499,1,0,0:0:0:0:
448,192,13666,1,0,0:0:0:0:
320,192,13666,1,0,0:0:0:0:
64,192,13833,1,0,0:0:0:0:
192,192,13999,1,0,0:0:0:0:
448,192,13999,1,0,0:0:0:0:
320,192,14166,1,0,0:0:0:0:
64,192,14333,1,0,0:0:0:0:
192,192,14333,1,0,0:0:0:0:
448,192,14499,1,0,0:0:0:0:
64,192,14666,128,0,14999:0:0:0:0:
320,192,14833,1,0,0:0:0:0:
320,192,14999,1,0,0:0:0:0:
192,192,15166,128,0,15499:0:0:0:0:
448,192,15333,1,0,0:0:0:0:
448,192,15499,1,0,0:0:0:0:
320,192,15666,128,0,15833:0:0:0:0:
192,192,15833,128,0,15999:0:0:0:0:
64,192,15999,1,0,0:0:0:0:
448,192,15999,1,0,0:0:0:0:
320,192,16166,1,0,0:0:0:0:
64,192,16333,1,0,0:0:0:0:
192,192,16333,1,0,0:0:0:0:
448,192,16499,1,0,0:0:0:0:
320,192,16666,1,0,0:0:0:0:
64,192,16666,1,0,0:0:0:0:
192,192,16833,1,0,0:0:0:0:
320,192,16999,1,0,0:0:0:0:
448,192,16999,1,0,0:0:0:0:
192,192,17166,1,0,0:0:0:0:
448,192,17333,128,0,17666:0:0:0:0:
320,192,17333,128,0,17666:0:0:0:0:
64,192,17499,1,0,0:0:0:0:
64,192,17666,1,0,0:0:0:0:
64,192,17833,128,0,18166:0:0:0:0:
192,192,17833,128,0,18166:0:0:0:0:
448,192,17999,1,0,0:0:0:0:
448,192,18166,1,0,0:0:0:0:
320,192,18333,128,0,18499:0:0:0:0:
448,192,18499,128,0,18666:0:0:0:0:
64,192,18666,1,0,0:0:0:0:
192,192,18666,1,0,0:0:0:0:
320,192,18833,1,0,0:0:0:0:
64,192,18999,1,0,0:0:0:0:
448,192,18999,1,0,0:0:0:0:
320,192,19166,1,0,0:0:0:0:
64,192,19333,1,0,0:0:0:0:
192,192,19333,1,0,0:0:0:0:
320,192,19499,1,0,0:0:0:0:
448,192,19666,1,0,0:0:0:0:
64,192,19666,1,0,0:0:0:0:
192,192,19833,1,0,0:0:0:0:
320,192,19999,128,0,20333:0:0:0:0:
448,192,19999,128,0,20333:0:0:0:0:
192,192,20166,1,0,0:0:0:0:
64,192,20333,128,0,20499:0:0:0:0:
192,192,20333,1,0,0:0:0:0:
192,192,20499,128,0,20666:0:0:0:0:
320,192,20666,128,0,20833:0:0:0:0:
448,192,20833,128,0,21166:0:0:0:0:
192,192,21166,128,0,21666:0:0:0:0:
64,192,21166,128,0,21666:0:0:0:0:
320,192,21333,1,0,0:0:0:0:
448,192,21499,1,0,0:0:0:0:
320,192,21666,1,0,0:0:0:0:
448,192,21833,1,0,0:0:0:0:
192,192,21999,1,0,0:0:0:0:
64,192,21999,1,0,0:0:0:0:
448,192,22166,1,0,0:0:0:0:
64,192,22333,1,0,0:0:0:0:
448,192,22499,1,0,0:0:0:0:
64,192,22666,1,0,0:0:0:0:
320,192,22666,1,0,0:0:0:0:
192,192,22666,1,0,0:0:0:0:
448,192,22833,1,0,0:0:0:0:
192,192,22999,1,0,0:0:0:0:
64,192,23166,1,0,0:0:0:0:
448,192,23333,1,0,0:0:0:0:
320,192,23333,1,0,0:0:0:0:
64,192,23499,1,0,0:0:0:0:
192,192,23666,1,0,0:0:0:0:
320,192,23833,1,0,0:0:0:0:
64,192,23999,1,0,0:0:0:0:
192,192,23999,1,0,0:0:0:0:
448,192,23999,1,0,0:0:0:0:
320,192,24166,1,0,0:0:0:0:
448,192,24333,1,0,0:0:0:0:
64,192,24499,1,0,0:0:0:0:
320,192,24666,1,0,0:0:0:0:
192,192,24666,1,0,0:0:0:0:
64,192,24833,1,0,0:0:0:0:
448,192,24999,1,0,0:0:0:0:
192,192,25166,1,0,0:0:0:0:
64,192,25333,1,0,0:0:0:0:
448,192,25333,1,0,0:0:0:0:
320,192,25333,1,0,0:0:0:0:
192,192,25499,1,0,0:0:0:0:
448,192,25666,128,0,25833:0:0:0:0:
64,192,25666,1,0,0:0:0:0:
320,192,25833,128,0,25999:0:0:0:0:
192,192,25999,128,0,26166:0:0:0:0:
64,192,26166,128,0,26499:0:0:0:0:
320,192,26499,128,0,26999:0:0:0:0:
448,192,26499,128,0,26999:0:0:0:0:
192,192,26666,1,0,0:0:0:0:
64,192,26833,1,0,0:0:0:0:
192,192,26999,1,0,0:0:0:0:
320,192,27166,1,0,0:0:0:0:
64,192,27333,1,0,0:0:0:0:
448,192,27333,1,0,0:0:0:0:
192,192,27499,1,0,0:0:0:0:
448,192,27666,1,0,0:0:0:0:
320,192,27833,1,0,0:0:0:0:
192,192,27999,1,0,0:0:0:0:
448,192,27999,1,0,0:0:0:0:
64,192,27999,1,0,0:0:0:0:
320,192,28166,1,0,0:0:0:0:
64,192,28333,1,0,0:0:0:0:
192,192,28499,1,0,0:0:0:0:
320,192,28666,1,0,0:0:0:0:
448,192,28666,1,0,0:0:0:0:
192,192,28833,1,0,0:0:0:0:
64,192,28999,1,0,0:0:0:0:
448,192,29166,1,0,0:0:0:0:
320,192,29333,1,0,0:0:0:0:
192,192,29333,1,0,0:0:0:0:
64,192,29333,1,0,0:0:0:0:
448,192,29499,1,0,0:0:0:0:
320,192,29666,1,0,0:0:0:0:
64,192,29833,1,0,0:0:0:0:
320,192,29999,1,0,0:0:0:0:
192,192,29999,1,0,0:0:0:0:
448,192,30166,1,0,0:0:0:0:
192,192,30333,1,0,0:0:0:0:
64,192,30499,1,0,0:0:0:0:
320,192,30666,1,0,0:0:0:0:
448,192,30666,1,0,0:0:0:0:
192,192,30666,1,0,0:0:0:0:
64,192,30833,1,0,0:0:0:0:
192,192,30999,128,0,31166:0:0:0:0:
320,192,31166,128,0,31333:0:0:0:0:
64,192,31333,128,0,31499:0:0:0:0:
448,192,31499,128,0,31666:0:0:0:0:
320,192,31666,128,0,31833:0:0:0:0:
64,192,31833,128,0,31999:0:0:0:0:
192,192,31999,1,0,0:0:0:0:
448,192,31999,1,0,0:0:0:0:
448,192,32333,1,0,0:0:0:0:
320,192,32333,1,0,0:0:0:0:
64,192,32499,1,0,0:0:0:0:
320,192,32499,1,0,0:0:0:0:
192,192,32666,1,0,0:0:0:0:
320,192,32666,1,0,0:0:0:0:
448,192,32833,1,0,0:0:0:0:
64,192,32833,1,0,0:0:0:0:
64,192,32999,1,0,0:0:0:0:
192,192,32999,1,0,0:0:0:0:
448,192,33166,1,0,0:0:0:0:
192,192,33166,1,0,0:0:0:0:
64,192,33333,1,0,0:0:0:0:
320,192,33333,1,0,0:0:0:0:
192,192,33333,1,0,0:0:0:0:
448,192,33666,1,0,0:0:0:0:
320,192,33666,1,0,0:0:0:0:
64,192,33833,1,0,0:0:0:0:
320,192,33833,1,0,0:0:0:0:
192,192,33999,1,0,0:0:0:0:
448,192,33999,1,0,0:0:0:0:
320,192,34166,1,0,0:0:0:0:
192,192,34166,1,0,0:0:0:0:
64,192,34333,1,0,0:0:0:0:
192,192,34333,1,0,0:0:0:0:
448,192,34499,1,0,0:0:0:0:
320,192,34499,1,0,0:0:0:0:
448,192,34666,1,0,0:0:0:0:
320,192,34666,1,0,0:0:0:0:
64,192,34666,1,0,0:0:0:0:
448,192,34999,1,0,0:0:0:0:
320,192,34999,1,0,0:0:0:0:
64,192,35166,1,0,0:0:0:0:
320,192,35166,1,0,0:0:0:0:
320,192,35333,1,0,0:0:0:0:
192,192,35333,1,0,0:0:0:0:
64,192,35499,1,0,0:0:0:0:
448,192,35499,1,0,0:0:0:0:
320,192,35666,1,0,0:0:0:0:
64,192,35666,1,0,0:0:0:0:
192,192,35833,1,0,0:0:0:0:
448,192,35833,1,0,0:0:0:0:
64,192,35999,1,0,0:0:0:0:
192,192,35999,1,0,0:0:0:0:
320,192,35999,1,0,0:0:0:0:
448,192,36333,128,0,36499:0:0:0:0:
64,192,36499,128,0,36666:0:0:0:0:
192,192,36666,128,0,36833:0:0:0:0:
448,192,36833,128,0,36999:0:0:0:0:
320,192,36999,128,0,37166:0:0:0:0:
192,192,37166,128,0,37333:0:0:0:0:
64,192,37333,1,0,0:0:0:0:
448,192,37333,1,0,0:0:0:0:
448,192,37666,1,0,0:0:0:0:
64,192,37666,1,0,0:0:0:0:
64,192,37833,1,0,0:0:0:0:
192,192,37833,1,0,0:0:0:0:
448,192,37999,1,0,0:0:0:0:
320,192,37999,1,0,0:0:0:0:
64,192,38166,1,0,0:0:0:0:
320,192,38166,1,0,0:0:0:0:
192,192,38333,1,0,0:0:0:0:
448,192,38333,1,0,0:0:0:0:
448,192,38499,1,0,0:0:0:0:
320,192,38499,1,0,0:0:0:0:
64,192,38666,1,0,0:0:0:0:
192,192,38666,1,0,0:0:0:0:
320,192,38666,1,0,0:0:0:0:
448,192,38999,1,0,0:0:0:0:
320,192,38999,1,0,0:0:0:0:
64,192,39166,1,0,0:0:0:0:
192,192,39166,1,0,0:0:0:0:
448,192,39333,1,0,0:0:0:0:
192,192,39333,1,0,0:0:0:0:
448,192,39499,1,0,0:0:0:0:
320,192,39499,1,0,0:0:0:0:
192,192,39666,1,0,0:0:0:0:
64,192,39666,1,0,0:0:0:0:
192,192,39833,1,0,0:0:0:0:
320,192,39833,1,0,0:0:0:0:
448,192,39999,1,0,0:0:0:0:
64,192,40166,1,0,0:0:0:0:
320,192,40333,1,0,0:0:0:0:
192,192,40499,1,0,0:0:0:0:
448,192,40666,1,0,0:0:0:0:
320,192,40833,1,0,0:0:0:0:
192,192,40999,1,0,0:0:0:0:
64,192,41166,1,0,0:0:0:0:
320,192,41333,1,0,0:0:0:0:
448,192,41333,1,0,0:0:0:0:
192,192,41416,1,0,0:0:0:0:
64,192,41416,1,0,0:0:0:0:
320,192,41499,1,0,0:0:0:0:
448,192,41499,1,0,0:0:0:0:
192,192,41583,1,0,0:0:0:0:
64,192,41583,1,0,0:0:0:0:
320,192,41666,1,0,0:0:0:0:
448,192,41666,1,0,0:0:0:0:
192,192,41749,1,0,0:0:0:0:
64,192,41749,1,0,0:0:0:0:
320,192,41833,1,0,0:0:0:0:
448,192,41833,1,0,0:0:0:0:
192,192,41916,1,0,0:0:0:0:
64,192,41916,1,0,0:0:0:0:
320,192,41999,1,0,0:0:0:0:
448,192,41999,1,0,0:0:0:0:
192,192,42083,1,0,0:0:0:0:
64,192,42083,1,0,0:0:0:0:
320,192,42166,1,0,0:0:0:0:
448,192,42166,1,0,0:0:0:0:
192,192,42249,1,0,0:0:0:0:
64,192,42249,1,0,0:0:0:0:
320,192,42333,1,0,0:0:0:0:
448,192,42333,1,0,0:0:0:0:
64,192,42666,1,0,0:0:0:0:
192,192,42666,1,0,0:0:0:0:
320,192,42666,1,0,0:0:0:0:
448,192,42749,1,0,0:0:0:0:
64,192,42833,1,0,0:0:0:0:
320,192,42916,1,0,0:0:0:0:
64,192,42999,1,0,0:0:0:0:
192,192,42999,1,0,0:0:0:0:
320,192,43083,1,0,0:0:0:0:
448,192,43166,1,0,0:0:0:0:
192,192,43166,1,0,0:0:0:0:
64,192,43166,1,0,0:0:0:0:
64,192,43499,1,0,0:0:0:0:
192,192,43499,1,0,0:0:0:0:
320,192,43499,1,0,0:0:0:0:
448,192,43666,1,0,0:0:0:0:
320,192,43666,1,0,0:0:0:0:
192,192,43666,1,0,0:0:0:0:
64,192,43833,1,0,0:0:0:0:
192,192,43833,1,0,0:0:0:0:
320,192,43833,1,0,0:0:0:0:
448,192,43999,1,0,0:0:0:0:
320,192,43999,1,0,0:0:0:0:
192,192,43999,1,0,0:0:0:0:
64,192,44083,1,0,0:0:0:0:
448,192,44166,1,0,0:0:0:0:
192,192,44249,1,0,0:0:0:0:
64,192,44333,1,0,0:0:0:0:
320,192,44333,1,0,0:0:0:0:
320,192,44583,1,0,0:0:0:0:
448,192,44583,1,0,0:0:0:0:
64,192,44666,1,0,0:0:0:0:
192,192,44666,1,0,0:0:0:0:
448,192,44833,1,0,0:0:0:0:
320,192,44833,1,0,0:0:0:0:
64,192,44833,1,0,0:0:0:0:
192,192,44999,1,0,0:0:0:0:
320,192,44999,1,0,0:0:0:0:
448,192,44999,1,0,0:0:0:0:
64,192,44999,1,0,0:0:0:0:
192,192,45166,1,0,0:0:0:0:
320,192,45166,1,0,0:0:0:0:
64,192,45166,1,0,0:0:0:0:
448,192,45333,1,0,0:0:0:0:
192,192,45333,1,0,0:0:0:0:
64,192,45333,1,0,0:0:0:0:
320,192,45416,1,0,0:0:0:0:
64,192,45499,1,0,0:0:0:0:
192,192,45583,1,0,0:0:0:0:
320,192,45666,1,0,0:0:0:0:
448,192,45666,1,0,0:0:0:0:
64,192,45749,1,0,0:0:0:0:
192,192,45833,1,0,0:0:0:0:
320,192,45833,1,0,0:0:0:0:
448,192,45833,1,0,0:0:0:0:
448,192,46166,1,0,0:0:0:0:
192,192,46166,1,0,0:0:0:0:
64,192,46166,1,0,0:0:0:0:
448,192,46333,1,0,0:0:0:0:
320,192,46333,1,0,0:0:0:0:
64,192,46333,1,0,0:0:0:0:
64,192,46499,1,0,0:0:0:0:
192,192,46499,1,0,0:0:0:0:
448,192,46499,1,0,0:0:0:0:
320,192,46666,1,0,0:0:0:0:
64,192,46666,1,0,0:0:0:0:
448,192,46666,1,0,0:0:0:0:
192,192,46749,1,0,0:0:0:0:
448,192,46833,1,0,0:0:0:0:
64,192,46916,1,0,0:0:0:0:
192,192,46999,1,0,0:0:0:0:
448,192,46999,1,0,0:0:0:0:
320,192,47083,1,0,0:0:0:0:
64,192,47166,1,0,0:0:0:0:
192,192,47166,1,0,0:0:0:0:
448,192,47166,1,0,0:0:0:0:
448,192,47416,1,0,0:0:0:0:
192,192,47416,1,0,0:0:0:0:
64,192,47499,1,0,0:0:0:0:
320,192,47499,1,0,0:0:0:0:
64,192,47666,1,0,0:0:0:0:
192,192,47666,1,0,0:0:0:0:
448,192,47666,1,0,0:0:0:0:
320,192,47666,1,0,0:0:0:0:
448,192,47833,1,0,0:0:0:0:
192,192,47833,1,0,0:0:0:0:
64,192,47999,1,0,0:0:0:0:
192,192,47999,1,0,0:0:0:0:
320,192,47999,1,0,0:0:0:0:
448,192,48083,1,0,0:0:0:0:
320,192,48166,1,0,0:0:0:0:
64,192,48249,1,0,0:0:0:0:
192,192,48333,1,0,0:0:0:0:
448,192,48333,1,0,0:0:0:0:
64,192,48416,1,0,0:0:0:0:
192,192,48499,1,0,0:0:0:0:
448,192,48499,1,0,0:0:0:0:
320,192,48499,1,0,0:0:0:0:
448,192,48833,1,0,0:0:0:0:
320,192,48833,1,0,0:0:0:0:
192,192,48833,1,0,0:0:0:0:
64,192,48999,1,0,0:0:0:0:
192,192,48999,1,0,0:0:0:0:
448,192,48999,1,0,0:0:0:0:
320,192,48999,1,0,0:0:0:0:
64,192,49166,1,0,0:0:0:0:
192,192,49166,1,0,0:0:0:0:
320,192,49166,1,0,0:0:0:0:
448,192,49333,1,0,0:0:0:0:
320,192,49333,1,0,0:0:0:0:
64,192,49333,1,0,0:0:0:0:
192,192,49416,1,0,0:0:0:0:
448,192,49499,1,0,0:0:0:0:
320,192,49583,1,0,0:0:0:0:
64,192,49666,1,0,0:0:0:0:
192,192,49666,1,0,0:0:0:0:
320,192,49749,1,0,0:0:0:0:
448,192,49833,1,0,0:0:0:0:
192,192,49833,1,0,0:0:0:0:
64,192,49833,1,0,0:0:0:0:
448,192,50166,1,0,0:0:0:0:
320,192,50166,1,0,0:0:0:0:
192,192,50166,1,0,0:0:0:0:
64,192,50333,1,0,0:0:0:0:
192,192,50333,1,0,0:0:0:0:
320,192,50333,1,0,0:0:0:0:
448,192,50499,1,0,0:0:0:0:
320,192,50499,1,0,0:0:0:0:
192,192,50499,1,0,0:0:0:0:
64,192,50666,1,0,0:0:0:0:
192,192,50666,1,0,0:0:0:0:
320,192,50666,1,0,0:0:0:0:
448,192,50749,1,0,0:0:0:0:
320,192,50833,1,0,0:0:0:0:
64,192,50916,1,0,0:0:0:0:
192,192,50999,1,0,0:0:0:0:
448,192,50999,1,0,0:0:0:0:
320,192,51083,1,0,0:0:0:0:
64,192,51166,1,0,0:0:0:0:
192,192,51166,1,0,0:0:0:0:
448,192,51166,1,0,0:0:0:0:
448,192,51499,1,0,0:0:0:0:
192,192,51499,1,0,0:0:0:0:
320,192,51499,1,0,0:0:0:0:
64,192,51666,1,0,0:0:0:0:
192,192,51666,1,0,0:0:0:0:
320,192,51666,1,0,0:0:0:0:
448,192,51666,1,0,0:0:0:0:
192,192,51833,1,0,0:0:0:0:
64,192,51833,1,0,0:0:0:0:
320,192,51833,1,0,0:0:0:0:
64,192,51999,1,0,0:0:0:0:
192,192,51999,1,0,0:0:0:0:
448,192,51999,1,0,0:0:0:0:
320,192,52083,1,0,0:0:0:0:
64,192,52166,1,0,0:0:0:0:
192,192,52249,1,0,0:0:0:0:
320,192,52333,1,0,0:0:0:0:
448,192,52333,1,0,0:0:0:0:
192,192,52416,1,0,0:0:0:0:
64,192,52499,1,0,0:0:0:0:
320,192,52499,1,0,0:0:0:0:
448,192,52499,1,0,0:0:0:0:
448,192,52749,1,0,0:0:0:0:
320,192,52749,1,0,0:0:0:0:
192,192,52833,1,0,0:0:0:0:
64,192,52833,1,0,0:0:0:0:
448,192,52999,1,0,0:0:0:0:
320,192,52999,1,0,0:0:0:0:
192,192,53083,1,0,0:0:0:0:
64,192,53083,1,0,0:0:0:0:
320,192,53166,1,0,0:0:0:0:
448,192,53166,1,0,0:0:0:0:
192,192,53249,1,0,0:0:0:0:
64,192,53249,1,0,0:0:0:0:
320,192,53333,1,0,0:0:0:0:
448,192,53333,1,0,0:0:0:0:
192,192,53499,1,0,0:0:0:0:
448,192,53666,1,0,0:0:0:0:
320,192,53666,1,0,0:0:0:0:
64,192,53666,1,0,0:0:0:0:
192,192,53833,1,0,0:0:0:0:
320,192,53999,1,0,0:0:0:0:
192,192,54166,1,0,0:0:0:0:
64,192,54166,1,0,0:0:0:0:
448,192,54166,1,0,0:0:0:0:
192,192,54333,1,0,0:0:0:0:
320,192,54333,1,0,0:0:0:0:
448,192,54333,1,0,0:0:0:0:
64,192,54499,1,0,0:0:0:0:
448,192,54666,1,0,0:0:0:0:
320,192,54666,1,0,0:0:0:0:
192,192,54666,1,0,0:0:0:0:
448,192,54833,1,0,0:0:0:0:
320,192,54999,1,0,0:0:0:0:
192,192,54999,1,0,0:0:0:0:
64,192,54999,1,0,0:0:0:0:
320,192,55249,1,0,0:0:0:0:
448,192,55249,1,0,0:0:0:0:
192,192,55333,1,0,0:0:0:0:
64,192,55333,1,0,0:0:0:0:
448,192,55499,1,0,0:0:0:0:
320,192,55499,1,0,0:0:0:0:
64,192,55666,1,0,0:0:0:0:
320,192,55666,1,0,0:0:0:0:
448,192,55833,1,0,0:0:0:0:
448,192,55999,1,0,0:0:0:0:
320,192,55999,1,0,0:0:0:0:
64,192,55999,1,0,0:0:0:0:
192,192,56166,1,0,0:0:0:0:
448,192,56333,1,0,0:0:0:0:
192,192,56333,1,0,0:0:0:0:
64,192,56333,1,0,0:0:0:0:
320,192,56499,1,0,0:0:0:0:
64,192,56666,1,0,0:0:0:0:
448,192,56833,1,0,0:0:0:0:
320,192,56833,1,0,0:0:0:0:
192,192,56833,1,0,0:0:0:0:
64,192,56999,1,0,0:0:0:0:
192,192,56999,1,0,0:0:0:0:
320,192,56999,1,0,0:0:0:0:
448,192,57166,1,0,0:0:0:0:
320,192,57333,1,0,0:0:0:0:
448,192,57333,1,0,0:0:0:0:
192,192,57333,1,0,0:0:0:0:
192,192,57499,1,0,0:0:0:0:
64,192,57666,1,0,0:0:0:0:
320,192,57666,1,0,0:0:0:0:
448,192,57666,1,0,0:0:0:0:
192,192,57833,1,0,0:0:0:0:
448,192,57833,1,0,0:0:0:0:
64,192,57999,1,0,0:0:0:0:
192,192,57999,1,0,0:0:0:0:
320,192,58083,1,0,0:0:0:0:
448,192,58083,1,0,0:0:0:0:
64,192,58166,1,0,0:0:0:0:
192,192,58166,1,0,0:0:0:0:
448,192,58333,1,0,0:0:0:0:
192,192,58333,1,0,0:0:0:0:
320,192,58499,1,0,0:0:0:0:
64,192,58666,1,0,0:0:0:0:
448,192,58666,1,0,0:0:0:0:
192,192,58666,1,0,0:0:0:0:
320,192,58833,1,0,0:0:0:0:
64,192,58999,1,0,0:0:0:0:
192,192,58999,1,0,0:0:0:0:
320,192,58999,1,0,0:0:0:0:
448,192,59166,1,0,0:0:0:0:
64,192,59333,1,0,0:0:0:0:
448,192,59499,1,0,0:0:0:0:
320,192,59499,1,0,0:0:0:0:
192,192,59499,1,0,0:0:0:0:
64,192,59666,1,0,0:0:0:0:
192,192,59666,1,0,0:0:0:0:
320,192,59666,1,0,0:0:0:0:
448,192,59833,1,0,0:0:0:0:
448,192,59999,1,0,0:0:0:0:
320,192,59999,1,0,0:0:0:0:
192,192,59999,1,0,0:0:0:0:
320,192,60166,1,0,0:0:0:0:
64,192,60333,1,0,0:0:0:0:
192,192,60333,1,0,0:0:0:0:
448,192,60333,1,0,0:0:0:0:
320,192,60499,1,0,0:0:0:0:
192,192,60666,1,0,0:0:0:0:
64,192,60833,1,0,0:0:0:0:
320,192,60833,1,0,0:0:0:0:
448,192,60833,1,0,0:0:0:0:
320,192,60999,1,0,0:0:0:0:
192,192,60999,1,0,0:0:0:0:
64,192,60999,1,0,0:0:0:0:
448,192,61166,1,0,0:0:0:0:
320,192,61333,1,0,0:0:0:0:
192,192,61333,1,0,0:0:0:0:
64,192,61499,5,0,0:0:0:0:
448,192,61583,1,0,0:0:0:0:
64,192,61666,1,0,0:0:0:0:
192,192,61666,1,0,0:0:0:0:
320,192,61666,1,0,0:0:0:0:
448,192,61749,1,0,0:0:0:0:
320,192,61833,1,0,0:0:0:0:
192,192,61916,1,0,0:0:0:0:
448,192,61999,1,0,0:0:0:0:
320,192,61999,1,0,0:0:0:0:
64,192,62083,1,0,0:0:0:0:
192,192,62166,1,0,0:0:0:0:
320,192,62166,1,0,0:0:0:0:
448,192,62166,1,0,0:0:0:0:
64,192,62249,1,0,0:0:0:0:
192,192,62333,1,0,0:0:0:0:
320,192,62333,1,0,0:0:0:0:
448,192,62333,1,0,0:0:0:0:
64,192,62416,1,0,0:0:0:0:
192,192,62499,1,0,0:0:0:0:
320,192,62583,1,0,0:0:0:0:
64,192,62666,1,0,0:0:0:0:
192,192,62666,1,0,0:0:0:0:
448,192,62666,1,0,0:0:0:0:
320,192,62749,1,0,0:0:0:0:
192,192,62833,1,0,0:0:0:0:
64,192,62916,1,0,0:0:0:0:
448,192,62999,1,0,0:0:0:0:
320,192,62999,1,0,0:0:0:0:
192,192,62999,1,0,0:0:0:0:
64,192,63083,1,0,0:0:0:0:
448,192,63166,1,0,0:0:0:0:
320,192,63249,1,0,0:0:0:0:
192,192,63333,1,0,0:0:0:0:
64,192,63333,1,0,0:0:0:0:
320,192,63416,1,0,0:0:0:0:
448,192,63416,1,0,0:0:0:0:
192,192,63499,1,0,0:0:0:0:
64,192,63499,1,0,0:0:0:0:
448,192,63666,1,0,0:0:0:0:
320,192,63666,1,0,0:0:0:0:
192,192,63749,1,0,0:0:0:0:
64,192,63749,1,0,0:0:0:0:
448,192,63833,1,0,0:0:0:0:
320,192,63833,1,0,0:0:0:0:
64,192,63999,1,0,0:0:0:0:
192,192,63999,1,0,0:0:0:0:
320,192,63999,1,0,0:0:0:0:
448,192,63999,1,0,0:0:0:0:
192,192,64166,1,0,0:0:0:0:
64,192,64333,1,0,0:0:0:0:
448,192,64333,1,0,0:0:0:0:
320,192,64333,1,0,0:0:0:0:
320,192,64499,1,0,0:0:0:0:
64,192,64666,1,0,0:0:0:0:
448,192,64833,1,0,0:0:0:0:
320,192,64833,1,0,0:0:0:0:
192,192,64833,1,0,0:0:0:0:
192,192,64999,1,0,0:0:0:0:
64,192,64999,1,0,0:0:0:0:
448,192,64999,1,0,0:0:0:0:
320,192,65166,1,0,0:0:0:0:
64,192,65333,1,0,0:0:0:0:
192,192,65333,1,0,0:0:0:0:
320,192,65333,1,0,0:0:0:0:
192,192,65499,1,0,0:0:0:0:
448,192,65666,1,0,0:0:0:0:
320,192,65666,1,0,0:0:0:0:
64,192,65666,1,0,0:0:0:0:
448,192,65833,1,0,0:0:0:0:
64,192,65999,128,0,66499:0:0:0:0:
448,192,66499,1,0,0:0:0:0:
64,192,66666,1,0,0:0:0:0:
192,192,66666,1,0,0:0:0:0:
320,192,66666,1,0,0:0:0:0:
64,192,66833,1,0,0:0:0:0:
448,192,66999,1,0,0:0:0:0:
320,192,66999,1,0,0:0:0:0:
192,192,66999,1,0,0:0:0:0:
192,192,67166,1,0,0:0:0:0:
448,192,67333,1,0,0:0:0:0:
64,192,67499,1,0,0:0:0:0:
320,192,67499,1,0,0:0:0:0:
192,192,67499,1,0,0:0:0:0:
64,192,67666,1,0,0:0:0:0:
448,192,67666,1,0,0:0:0:0:
192,192,67666,1,0,0:0:0:0:
320,192,67833,1,0,0:0:0:0:
192,192,67999,1,0,0:0:0:0:
448,192,67999,1,0,0:0:0:0:
320,192,67999,1,0,0:0:0:0:
64,192,68166,1,0,0:0:0:0:
192,192,68333,1,0,0:0:0:0:
448,192,68333,1,0,0:0:0:0:
320,192,68499,1,0,0:0:0:0:
64,192,68666,1,0,0:0:0:0:
192,192,68666,1,0,0:0:0:0:
192,192,68916,1,0,0:0:0:0:
320,192,68916,1,0,0:0:0:0:
320,192,69166,1,0,0:0:0:0:
448,192,69166,1,0,0:0:0:0:
64,192,69333,1,0,0:0:0:0:
192,192,69333,1,0,0:0:0:0:
448,192,69499,1,0,0:0:0:0:
64,192,69666,1,0,0:0:0:0:
192,192,69666,1,0,0:0:0:0:
320,192,69666,1,0,0:0:0:0:
448,192,69833,1,0,0:0:0:0:
64,192,69999,1,0,0:0:0:0:
448,192,70166,1,0,0:0:0:0:
192,192,70166,1,0,0:0:0:0:
320,192,70166,1,0,0:0:0:0:
64,192,70333,1,0,0:0:0:0:
192,192,70333,1,0,0:0:0:0:
320,192,70333,1,0,0:0:0:0:
320,192,70499,1,0,0:0:0:0:
64,192,70666,1,0,0:0:0:0:
448,192,70666,1,0,0:0:0:0:
192,192,70666,1,0,0:0:0:0:
64,192,70833,1,0,0:0:0:0:
448,192,70999,1,0,0:0:0:0:
320,192,70999,1,0,0:0:0:0:
192,192,70999,1,0,0:0:0:0:
64,192,71166,1,0,0:0:0:0:
448,192,71333,1,0,0:0:0:0:
320,192,71333,1,0,0:0:0:0:
320,192,71583,1,0,0:0:0:0:
192,192,71583,1,0,0:0:0:0:
64,192,71833,1,0,0:0:0:0:
192,192,71833,1,0,0:0:0:0:
448,192,71999,1,0,0:0:0:0:
64,192,72166,1,0,0:0:0:0:
320,192,72333,1,0,0:0:0:0:
192,192,72499,1,0,0:0:0:0:
448,192,72666,1,0,0:0:0:0:
320,192,72833,1,0,0:0:0:0:
192,192,72999,1,0,0:0:0:0:
64,192,73166,1,0,0:0:0:0:
320,192,73333,1,0,0:0:0:0:
64,192,73499,1,0,0:0:0:0:
448,192,73666,1,0,0:0:0:0:
192,192,73833,1,0,0:0:0:0:
320,192,73999,1,0,0:0:0:0:
448,192,73999,1,0,0:0:0:0:
320,192,74249,1,0,0:0:0:0:
192,192,74249,1,0,0:0:0:0:
64,192,74499,1,0,0:0:0:0:
192,192,74499,1,0,0:0:0:0:
448,192,74666,1,0,0:0:0:0:
320,192,74666,1,0,0:0:0:0:
192,192,74833,1,0,0:0:0:0:
64,192,74999,1,0,0:0:0:0:
320,192,74999,1,0,0:0:0:0:
448,192,74999,1,0,0:0:0:0:
192,192,75166,1,0,0:0:0:0:
64,192,75333,1,0,0:0:0:0:
448,192,75499,1,0,0:0:0:0:
192,192,75499,1,0,0:0:0:0:
320,192,75499,1,0,0:0:0:0:
64,192,75666,1,0,0:0:0:0:
320,192,75666,1,0,0:0:0:0:
192,192,75666,1,0,0:0:0:0:
448,192,75833,1,0,0:0:0:0:
64,192,75999,1,0,0:0:0:0:
192,192,75999,1,0,0:0:0:0:
320,192,76166,1,0,0:0:0:0:
64,192,76333,1,0,0:0:0:0:
192,192,76333,1,0,0:0:0:0:
448,192,76333,1,0,0:0:0:0:
192,192,76499,1,0,0:0:0:0:
448,192,76666,1,0,0:0:0:0:
320,192,76833,1,0,0:0:0:0:
192,192,76999,1,0,0:0:0:0:
64,192,77166,1,0,0:0:0:0:
192,192,77333,1,0,0:0:0:0:
320,192,77333,1,0,0:0:0:0:
448,192,77333,1,0,0:0:0:0:
64,192,77499,1,0,0:0:0:0:
192,192,77666,1,0,0:0:0:0:
448,192,77666,1,0,0:0:0:0:
64,192,77666,1,0,0:0:0:0:
320,192,77833,1,0,0:0:0:0:
64,192,77999,1,0,0:0:0:0:
448,192,78166,1,0,0:0:0:0:
320,192,78166,1,0,0:0:0:0:
192,192,78166,1,0,0:0:0:0:
192,192,78333,1,0,0:0:0:0:
320,192,78333,1,0,0:0:0:0:
64,192,78333,1,0,0:0:0:0:
448,192,78499,1,0,0:0:0:0:
448,192,78666,1,0,0:0:0:0:
320,192,78666,1,0,0:0:0:0:
192,192,78666,1,0,0:0:0:0:
64,192,78833,1,0,0:0:0:0:
320,192,78999,1,0,0:0:0:0:
192,192,79166,1,0,0:0:0:0:
64,192,79333,1,0,0:0:0:0:
448,192,79333,1,0,0:0:0:0:
320,192,79583,1,0,0:0:0:0:
192,192,79583,1,0,0:0:0:0:
64,192,79833,1,0,0:0:0:0:
448,192,79833,1,0,0:0:0:0:
320,192,79999,1,0,0:0:0:0:
192,192,79999,1,0,0:0:0:0:
64,192,80166,1,0,0:0:0:0:
192,192,80333,1,0,0:0:0:0:
320,192,80333,1,0,0:0:0:0:
448,192,80333,1,0,0:0:0:0:
192,192,80499,1,0,0:0:0:0:
64,192,80666,1,0,0:0:0:0:
448,192,80833,1,0,0:0:0:0:
320,192,80833,1,0,0:0:0:0:
192,192,80833,1,0,0:0:0:0:
64,192,80999,1,0,0:0:0:0:
192,192,80999,1,0,0:0:0:0:
320,192,80999,1,0,0:0:0:0:
192,192,81166,1,0,0:0:0:0:
448,192,81333,1,0,0:0:0:0:
320,192,81333,1,0,0:0:0:0:
64,192,81333,1,0,0:0:0:0:
192,192,81499,1,0,0:0:0:0:
448,192,81666,1,0,0:0:0:0:
320,192,81666,1,0,0:0:0:0:
192,192,81666,1,0,0:0:0:0:
64,192,81833,1,0,0:0:0:0:
448,192,81999,1,0,0:0:0:0:
320,192,81999,1,0,0:0:0:0:
192,192,81999,1,0,0:0:0:0:
64,192,81999,1,0,0:0:0:0:
448,192,82249,1,0,0:0:0:0:
320,192,82249,1,0,0:0:0:0:
192,192,82249,1,0,0:0:0:0:
64,192,82249,1,0,0:0:0:0:
64,192,82499,1,0,0:0:0:0:
192,192,82499,1,0,0:0:0:0:
320,192,82499,1,0,0:0:0:0:
448,192,82499,1,0,0:0:0:0:
64,192,82666,1,0,0:0:0:0:
192,192,82666,1,0,0:0:0:0:
448,192,82833,1,0,0:0:0:0:
320,192,82999,1,0,0:0:0:0:
64,192,82999,1,0,0:0:0:0:
192,192,83166,1,0,0:0:0:0:
320,192,83333,1,0,0:0:0:0:
448,192,83333,1,0,0:0:0:0:
64,192,83499,1,0,0:0:0:0:
192,192,83666,1,0,0:0:0:0:
448,192,83666,1,0,0:0:0:0:
320,192,83833,1,0,0:0:0:0:
64,192,83999,1,0,0:0:0:0:
448,192,83999,1,0,0:0:0:0:
192,192,84083,1,0,0:0:0:0:
448,192,84166,1,0,0:0:0:0:
192,192,84249,1,0,0:0:0:0:
448,192,84333,1,0,0:0:0:0:
320,192,84333,1,0,0:0:0:0:
64,192,84416,1,0,0:0:0:0:
320,192,84499,1,0,0:0:0:0:
192,192,84583,1,0,0:0:0:0:
64,192,84583,1,0,0:0:0:0:
448,192,84666,1,0,0:0:0:0:
320,192,84666,1,0,0:0:0:0:
64,192,84749,1,0,0:0:0:0:
192,192,84749,1,0,0:0:0:0:
320,192,84833,1,0,0:0:0:0:
448,192,84833,1,0,0:0:0:0:
64,192,84999,1,0,0:0:0:0:
192,192,84999,1,0,0:0:0:0:
320,192,85083,1,0,0:0:0:0:
448,192,85083,1,0,0:0:0:0:
192,192,85166,1,0,0:0:0:0:
64,192,85166,1,0,0:0:0:0:
448,192,85333,1,0,0:0:0:0:
320,192,85333,1,0,0:0:0:0:
64,192,85999,1,0,0:0:0:0:
320,192,85999,1,0,0:0:0:0:
448,192,86666,1,0,0:0:0:0:
320,192,86666,1,0,0:0:0:0:
64,192,87333,1,0,0:0:0:0:
320,192,87333,1,0,0:0:0:0:
64,192,87999,1,0,0:0:0:0:
192,192,87999,1,0,0:0:0:0:
448,192,88666,1,0,0:0:0:0:
320,192,88666,1,0,0:0:0:0:
64,192,89333,1,0,0:0:0:0:
448,192,89333,1,0,0:0:0:0:
64,192,89999,1,0,0:0:0:0:
192,192,89999,1,0,0:0:0:0:
448,192,90666,1,0,0:0:0:0:
192,192,90666,1,0,0:0:0:0:
320,192,90666,1,0,0:0:0:0:
64,192,91333,1,0,0:0:0:0:
192,192,91333,1,0,0:0:0:0:
448,192,91333,1,0,0:0:0:0:
192,192,91999,1,0,0:0:0:0:
320,192,91999,1,0,0:0:0:0:
64,192,91999,1,0,0:0:0:0:
448,192,91999,1,0,0:0:0:0:
320,192,92666,1,0,0:0:0:0:
448,192,92666,1,0,0:0:0:0:
192,192,92666,1,0,0:0:0:0:
64,192,92666,1,0,0:0:0:0:
64,192,93333,1,0,0:0:0:0:
448,192,93499,1,0,0:0:0:0:
192,192,93666,1,0,0:0:0:0:
320,192,93833,1,0,0:0:0:0:
64,192,93999,1,0,0:0:0:0:
192,192,94166,1,0,0:0:0:0:
320,192,94333,1,0,0:0:0:0:
448,192,94499,1,0,0:0:0:0:
64,192,94666,1,0,0:0:0:0:
192,192,94666,1,0,0:0:0:0:
320,192,94749,1,0,0:0:0:0:
448,192,94749,1,0,0:0:0:0:
192,192,94833,1,0,0:0:0:0:
64,192,94833,1,0,0:0:0:0:
320,192,94916,1,0,0:0:0:0:
448,192,94916,1,0,0:0:0:0:
192,192,94999,1,0,0:0:0:0:
64,192,94999,1,0,0:0:0:0:
320,192,95083,1,0,0:0:0:0:
448,192,95083,1,0,0:0:0:0:
192,192,95166,1,0,0:0:0:0:
64,192,95166,1,0,0:0:0:0:
320,192,95249,1,0,0:0:0:0:
448,192,95249,1,0,0:0:0:0:
64,192,95333,1,0,0:0:0:0:
192,192,95333,1,0,0:0:0:0:
320,192,95416,1,0,0:0:0:0:
448,192,95416,1,0,0:0:0:0:
192,192,95499,1,0,0:0:0:0:
64,192,95499,1,0,0:0:0:0:
320,192,95583,1,0,0:0:0:0:
448,192,95583,1,0,0:0:0:0:
192,192,95666,1,0,0:0:0:0:
64,192,95666,1,0,0:0:0:0:
320,192,95833,1,0,0:0:0:0:
448,192,95833,1,0,0:0:0:0:
64,192,95999,1,0,0:0:0:0:
192,192,95999,1,0,0:0:0:0:
320,192,95999,1,0,0:0:0:0:
448,192,95999,1,0,0:0:0:0:
448,192,96166,1,0,0:0:0:0:
320,192,96249,1,0,0:0:0:0:
64,192,96333,1,0,0:0:0:0:
192,192,96333,1,0,0:0:0:0:
448,192,96333,1,0,0:0:0:0:
320,192,96416,1,0,0:0:0:0:
64,192,96499,1,0,0:0:0:0:
448,192,96583,1,0,0:0:0:0:
64,192,96666,1,0,0:0:0:0:
192,192,96666,1,0,0:0:0:0:
320,192,96749,1,0,0:0:0:0:
448,192,96833,1,0,0:0:0:0:
192,192,96833,1,0,0:0:0:0:
64,192,96916,1,0,0:0:0:0:
320,192,96999,1,0,0:0:0:0:
448,192,96999,1,0,0:0:0:0:
192,192,96999,1,0,0:0:0:0:
64,192,97083,1,0,0:0:0:0:
448,192,97166,1,0,0:0:0:0:
320,192,97249,1,0,0:0:0:0:
192,192,97333,1,0,0:0:0:0:
64,192,97333,1,0,0:0:0:0:
448,192,97333,1,0,0:0:0:0:
320,192,97416,1,0,0:0:0:0:
64,192,97499,1,0,0:0:0:0:
448,192,97583,1,0,0:0:0:0:
320,192,97666,1,0,0:0:0:0:
192,192,97666,1,0,0:0:0:0:
64,192,97666,1,0,0:0:0:0:
448,192,97749,1,0,0:0:0:0:
320,192,97833,1,0,0:0:0:0:
64,192,97916,1,0,0:0:0:0:
192,192,97916,1,0,0:0:0:0:
320,192,97999,1,0,0:0:0:0:
448,192,97999,1,0,0:0:0:0:
64,192,98083,1,0,0:0:0:0:
192,192,98166,1,0,0:0:0:0:
448,192,98166,1,0,0:0:0:0:
320,192,98166,1,0,0:0:0:0:
64,192,98249,1,0,0:0:0:0:
192,192,98333,1,0,0:0:0:0:
320,192,98333,1,0,0:0:0:0:
448,192,98333,1,0,0:0:0:0:
64,192,98416,1,0,0:0:0:0:
192,192,98499,1,0,0:0:0:0:
320,192,98583,1,0,0:0:0:0:
448,192,98666,1,0,0:0:0:0:
192,192,98666,1,0,0:0:0:0:
64,192,98666,1,0,0:0:0:0:
320,192,98749,1,0,0:0:0:0:
64,192,98833,1,0,0:0:0:0:
448,192,98916,1,0,0:0:0:0:
320,192,98999,1,0,0:0:0:0:
192,192,98999,1,0,0:0:0:0:
64,192,98999,1,0,0:0:0:0:
448,192,99083,1,0,0:0:0:0:
320,192,99166,1,0,0:0:0:0:
192,192,99249,1,0,0:0:0:0:
64,192,99333,1,0,0:0:0:0:
448,192,99333,1,0,0:0:0:0:
320,192,99416,1,0,0:0:0:0:
192,192,99499,1,0,0:0:0:0:
64,192,99499,1,0,0:0:0:0:
320,192,99583,1,0,0:0:0:0:
192,192,99666,1,0,0:0:0:0:
448,192,99666,1,0,0:0:0:0:
64,192,99666,1,0,0:0:0:0:
320,192,99749,1,0,0:0:0:0:
192,192,99833,1,0,0:0:0:0:
64,192,99916,1,0,0:0:0:0:
192,192,99999,1,0,0:0:0:0:
320,192,99999,1,0,0:0:0:0:
448,192,99999,1,0,0:0:0:0:
64,192,100083,1,0,0:0:0:0:
192,192,100166,1,0,0:0:0:0:
320,192,100249,1,0,0:0:0:0:
448,192,100333,1,0,0:0:0:0:
64,192,100333,1,0,0:0:0:0:
192,192,100333,1,0,0:0:0:0:
320,192,100416,1,0,0:0:0:0:
64,192,100499,1,0,0:0:0:0:
448,192,100499,1,0,0:0:0:0:
192,192,100583,1,0,0:0:0:0:
64,192,100666,1,0,0:0:0:0:
448,192,100749,1,0,0:0:0:0:
320,192,100749,1,0,0:0:0:0:
192,192,100833,1,0,0:0:0:0:
64,192,100833,1,0,0:0:0:0:
320,192,100916,1,0,0:0:0:0:
64,192,100999,1,0,0:0:0:0:
192,192,100999,1,0,0:0:0:0:
448,192,100999,1,0,0:0:0:0:
320,192,101083,1,0,0:0:0:0:
192,192,101166,1,0,0:0:0:0:
64,192,101249,1,0,0:0:0:0:
192,192,101333,1,0,0:0:0:0:
320,192,101333,1,0,0:0:0:0:
448,192,101333,1,0,0:0:0:0:
64,192,101416,1,0,0:0:0:0:
448,192,101499,1,0,0:0:0:0:
320,192,101583,1,0,0:0:0:0:
64,192,101666,1,0,0:0:0:0:
192,192,101666,1,0,0:0:0:0:
448,192,101666,1,0,0:0:0:0:
320,192,101749,1,0,0:0:0:0:
64,192,101833,1,0,0:0:0:0:
448,192,101916,1,0,0:0:0:0:
320,192,101999,1,0,0:0:0:0:
64,192,101999,1,0,0:0:0:0:
192,192,102083,1,0,0:0:0:0:
320,192,102166,1,0,0:0:0:0:
448,192,102166,1,0,0:0:0:0:
192,192,102249,1,0,0:0:0:0:
64,192,102333,1,0,0:0:0:0:
320,192,102333,1,0,0:0:0:0:
448,192,102333,1,0,0:0:0:0:
192,192,102416,1,0,0:0:0:0:
320,192,102499,1,0,0:0:0:0:
448,192,102583,1,0,0:0:0:0:
320,192,102666,1,0,0:0:0:0:
192,192,102666,1,0,0:0:0:0:
64,192,102666,1,0,0:0:0:0:
448,192,102749,1,0,0:0:0:0:
192,192,102833,1,0,0:0:0:0:
64,192,102916,1,0,0:0:0:0:
192,192,102999,1,0,0:0:0:0:
448,192,102999,1,0,0:0:0:0:
320,192,102999,1,0,0:0:0:0:
64,192,103083,1,0,0:0:0:0:
448,192,103166,1,0,0:0:0:0:
320,192,103249,1,0,0:0:0:0:
64,192,103333,1,0,0:0:0:0:
192,192,103333,1,0,0:0:0:0:
448,192,103416,1,0,0:0:0:0:
320,192,103499,1,0,0:0:0:0:
64,192,103499,1,0,0:0:0:0:
192,192,103583,1,0,0:0:0:0:
320,192,103666,1,0,0:0:0:0:
448,192,103666,1,0,0:0:0:0:
64,192,103666,1,0,0:0:0:0:
192,192,103749,1,0,0:0:0:0:
448,192,103833,1,0,0:0:0:0:
320,192,103916,1,0,0:0:0:0:
64,192,103999,1,0,0:0:0:0:
192,192,103999,1,0,0:0:0:0:
448,192,103999,1,0,0:0:0:0:
320,192,104083,1,0,0:0:0:0:
192,192,104166,1,0,0:0:0:0:
64,192,104249,1,0,0:0:0:0:
192,192,104333,1,0,0:0:0:0:
320,192,104333,1,0,0:0:0:0:
448,192,104333,1,0,0:0:0:0:
64,192,104416,1,0,0:0:0:0:
192,192,104499,1,0,0:0:0:0:
448,192,104583,1,0,0:0:0:0:
320,192,104666,1,0,0:0:0:0:
64,192,104666,1,0,0:0:0:0:
192,192,104749,1,0,0:0:0:0:
320,192,104833,1,0,0:0:0:0:
448,192,104833,1,0,0:0:0:0:
192,192,104916,1,0,0:0:0:0:
64,192,104999,1,0,0:0:0:0:
320,192,104999,1,0,0:0:0:0:
448,192,104999,1,0,0:0:0:0:
192,192,105083,1,0,0:0:0:0:
320,192,105166,1,0,0:0:0:0:
448,192,105249,1,0,0:0:0:0:
320,192,105333,1,0,0:0:0:0:
192,192,105333,1,0,0:0:0:0:
64,192,105333,1,0,0:0:0:0:
448,192,105416,1,0,0:0:0:0:
320,192,105499,1,0,0:0:0:0:
64,192,105583,1,0,0:0:0:0:
192,192,105666,1,0,0:0:0:0:
448,192,105666,1,0,0:0:0:0:
64,192,105749,1,0,0:0:0:0:
448,192,105833,1,0,0:0:0:0:
320,192,105833,1,0,0:0:0:0:
192,192,105916,1,0,0:0:0:0:
64,192,105916,1,0,0:0:0:0:
448,192,105999,1,0,0:0:0:0:
320,192,105999,1,0,0:0:0:0:
192,192,106083,1,0,0:0:0:0:
64,192,106083,1,0,0:0:0:0:
448,192,106166,1,0,0:0:0:0:
320,192,106166,1,0,0:0:0:0:
192,192,106333,1,0,0:0:0:0:
64,192,106333,1,0,0:0:0:0:
320,192,106416,1,0,0:0:0:0:
448,192,106416,1,0,0:0:0:0:
192,192,106499,1,0,0:0:0:0:
64,192,106499,1,0,0:0:0:0:
320,192,106583,1,0,0:0:0:0:
448,192,106583,1,0,0:0:0:0:
192,192,106666,1,0,0:0:0:0:
64,192,106666,1,0,0:0:0:0:
448,192,106749,1,0,0:0:0:0:
192,192,106833,1,0,0:0:0:0:
64,192,106916,1,0,0:0:0:0:
448,192,106999,1,0,0:0:0:0:
192,192,106999,1,0,0:0:0:0:
320,192,106999,1,0,0:0:0:0:
64,192,107083,1,0,0:0:0:0:
448,192,107166,1,0,0:0:0:0:
320,192,107249,1,0,0:0:0:0:
192,192,107333,1,0,0:0:0:0:
64,192,107333,1,0,0:0:0:0:
448,192,107416,1,0,0:0:0:0:
320,192,107499,1,0,0:0:0:0:
64,192,107499,1,0,0:0:0:0:
192,192,107583,1,0,0:0:0:0:
320,192,107666,1,0,0:0:0:0:
448,192,107666,1,0,0:0:0:0:
64,192,107666,1,0,0:0:0:0:
192,192,107749,1,0,0:0:0:0:
320,192,107833,1,0,0:0:0:0:
448,192,107916,1,0,0:0:0:0:
320,192,107999,1,0,0:0:0:0:
192,192,107999,1,0,0:0:0:0:
64,192,107999,1,0,0:0:0:0:
448,192,108083,1,0,0:0:0:0:
64,192,108166,1,0,0:0:0:0:
320,192,108249,1,0,0:0:0:0:
64,192,108333,1,0,0:0:0:0:
192,192,108333,1,0,0:0:0:0:
448,192,108333,1,0,0:0:0:0:
320,192,108416,1,0,0:0:0:0:
64,192,108499,1,0,0:0:0:0:
448,192,108583,1,0,0:0:0:0:
320,192,108583,1,0,0:0:0:0:
192,192,108666,1,0,0:0:0:0:
64,192,108666,1,0,0:0:0:0:
448,192,108749,1,0,0:0:0:0:
320,192,108833,1,0,0:0:0:0:
64,192,108833,1,0,0:0:0:0:
448,192,108916,1,0,0:0:0:0:
320,192,108999,1,0,0:0:0:0:
192,192,108999,1,0,0:0:0:0:
64,192,108999,1,0,0:0:0:0:
448,192,109083,1,0,0:0:0:0:
320,192,109166,1,0,0:0:0:0:
192,192,109249,1,0,0:0:0:0:
64,192,109333,1,0,0:0:0:0:
320,192,109333,1,0,0:0:0:0:
448,192,109333,1,0,0:0:0:0:
192,192,109416,1,0,0:0:0:0:
448,192,109499,1,0,0:0:0:0:
64,192,109583,1,0,0:0:0:0:
192,192,109666,1,0,0:0:0:0:
320,192,109666,1,0,0:0:0:0:
448,192,109666,1,0,0:0:0:0:
64,192,109749,1,0,0:0:0:0:
448,192,109833,1,0,0:0:0:0:
320,192,109916,1,0,0:0:0:0:
64,192,109999,1,0,0:0:0:0:
192,192,109999,1,0,0:0:0:0:
448,192,110083,1,0,0:0:0:0:
192,192,110166,1,0,0:0:0:0:
64,192,110166,1,0,0:0:0:0:
320,192,110249,1,0,0:0:0:0:
192,192,110333,1,0,0:0:0:0:
448,192,110333,1,0,0:0:0:0:
64,192,110333,1,0,0:0:0:0:
320,192,110416,1,0,0:0:0:0:
192,192,110499,1,0,0:0:0:0:
64,192,110583,1,0,0:0:0:0:
192,192,110666,1,0,0:0:0:0:
320,192,110666,1,0,0:0:0:0:
448,192,110666,1,0,0:0:0:0:
64,192,110749,1,0,0:0:0:0:
192,192,110833,1,0,0:0:0:0:
448,192,110916,1,0,0:0:0:0:
192,192,110999,1,0,0:0:0:0:
320,192,110999,1,0,0:0:0:0:
64,192,110999,1,0,0:0:0:0:
448,192,111083,1,0,0:0:0:0:
192,192,111166,1,0,0:0:0:0:
64,192,111166,1,0,0:0:0:0:
320,192,111249,1,0,0:0:0:0:
448,192,111249,1,0,0:0:0:0:
192,192,111333,1,0,0:0:0:0:
64,192,111333,1,0,0:0:0:0:
320,192,111416,1,0,0:0:0:0:
448,192,111416,1,0,0:0:0:0:
192,192,111499,1,0,0:0:0:0:
64,192,111499,1,0,0:0:0:0:
448,192,111666,1,0,0:0:0:0:
320,192,111666,1,0,0:0:0:0:
64,192,111749,1,0,0:0:0:0:
192,192,111749,1,0,0:0:0:0:
320,192,111833,1,0,0:0:0:0:
448,192,111833,1,0,0:0:0:0:
64,192,111916,128,0,112166:0:0:0:0:
192,192,111916,128,0,112166:0:0:0:0:
448,192,111999,1,0,0:0:0:0:
448,192,112166,1,0,0:0:0:0:
320,192,112249,1,0,0:0:0:0:
64,192,112333,1,0,0:0:0:0:
192,192,112333,1,0,0:0:0:0:
448,192,112333,1,0,0:0:0:0:
320,192,112416,1,0,0:0:0:0:
64,192,112499,1,0,0:0:0:0:
192,192,112583,1,0,0:0:0:0:
320,192,112666,1,0,0:0:0:0:
448,192,112666,1,0,0:0:0:0:
192,192,112749,1,0,0:0:0:0:
64,192,112833,1,0,0:0:0:0:
320,192,112833,1,0,0:0:0:0:
448,192,112916,1,0,0:0:0:0:
320,192,112999,1,0,0:0:0:0:
192,192,112999,1,0,0:0:0:0:
64,192,112999,1,0,0:0:0:0:
448,192,113083,1,0,0:0:0:0:
320,192,113166,1,0,0:0:0:0:
192,192,113249,1,0,0:0:0:0:
64,192,113333,1,0,0:0:0:0:
320,192,113333,1,0,0:0:0:0:
448,192,113333,1,0,0:0:0:0:
192,192,113416,1,0,0:0:0:0:
448,192,113499,1,0,0:0:0:0:
320,192,113583,1,0,0:0:0:0:
192,192,113666,1,0,0:0:0:0:
64,192,113666,1,0,0:0:0:0:
448,192,113666,1,0,0:0:0:0:
320,192,113749,1,0,0:0:0:0:
192,192,113833,1,0,0:0:0:0:
64,192,113916,1,0,0:0:0:0:
192,192,113999,1,0,0:0:0:0:
448,192,113999,1,0,0:0:0:0:
320,192,114083,1,0,0:0:0:0:
192,192,114166,1,0,0:0:0:0:
64,192,114166,1,0,0:0:0:0:
448,192,114249,1,0,0:0:0:0:
192,192,114333,1,0,0:0:0:0:
64,192,114333,1,0,0:0:0:0:
320,192,114333,1,0,0:0:0:0:
448,192,114416,1,0,0:0:0:0:
320,192,114499,1,0,0:0:0:0:
64,192,114583,1,0,0:0:0:0:
192,192,114666,1,0,0:0:0:0:
320,192,114666,1,0,0:0:0:0:
448,192,114666,1,0,0:0:0:0:
64,192,114749,1,0,0:0:0:0:
320,192,114833,1,0,0:0:0:0:
192,192,114916,1,0,0:0:0:0:
64,192,114999,1,0,0:0:0:0:
448,192,114999,1,0,0:0:0:0:
320,192,114999,1,0,0:0:0:0:
192,192,115083,1,0,0:0:0:0:
448,192,115166,1,0,0:0:0:0:
320,192,115249,1,0,0:0:0:0:
64,192,115333,1,0,0:0:0:0:
192,192,115333,1,0,0:0:0:0:
448,192,115416,1,0,0:0:0:0:
320,192,115499,1,0,0:0:0:0:
192,192,115499,1,0,0:0:0:0:
64,192,115583,1,0,0:0:0:0:
192,192,115666,1,0,0:0:0:0:
320,192,115666,1,0,0:0:0:0:
448,192,115666,1,0,0:0:0:0:
64,192,115749,1,0,0:0:0:0:
192,192,115833,1,0,0:0:0:0:
448,192,115916,1,0,0:0:0:0:
64,192,115999,1,0,0:0:0:0:
320,192,115999,1,0,0:0:0:0:
192,192,115999,1,0,0:0:0:0:
448,192,116055,1,0,0:0:0:0:
320,192,116111,1,0,0:0:0:0:
64,192,116166,1,0,0:0:0:0:
192,192,116222,1,0,0:0:0:0:
320,192,116277,1,0,0:0:0:0:
448,192,116333,1,0,0:0:0:0:
64,192,116333,1,0,0:0:0:0:
192,192,116333,1,0,0:0:0:0:
320,192,116388,1,0,0:0:0:0:
192,192,116444,1,0,0:0:0:0:
64,192,116499,1,0,0:0:0:0:
320,192,116499,1,0,0:0:0:0:
448,192,116555,1,0,0:0:0:0:
64,192,116611,1,0,0:0:0:0:
448,192,116666,1,0,0:0:0:0:
192,192,116666,1,0,0:0:0:0:
320,192,116722,1,0,0:0:0:0:
192,192,116749,1,0,0:0:0:0:
64,192,116777,1,0,0:0:0:0:
448,192,116833,1,0,0:0:0:0:
320,192,116833,1,0,0:0:0:0:
64,192,116888,1,0,0:0:0:0:
320,192,116944,1,0,0:0:0:0:
448,192,116999,1,0,0:0:0:0:
192,192,116999,1,0,0:0:0:0:
64,192,117055,1,0,0:0:0:0:
192,192,117083,1,0,0:0:0:0:
320,192,117111,1,0,0:0:0:0:
192,192,117166,1,0,0:0:0:0:
64,192,117166,1,0,0:0:0:0:
320,192,117222,1,0,0:0:0:0:
448,192,117277,1,0,0:0:0:0:
64,192,117333,1,0,0:0:0:0:
192,192,117333,1,0,0:0:0:0:
320,192,117333,1,0,0:0:0:0:
448,192,117416,1,0,0:0:0:0:
320,192,117499,1,0,0:0:0:0:
64,192,117583,1,0,0:0:0:0:
192,192,117666,1,0,0:0:0:0:
320,192,117666,1,0,0:0:0:0:
448,192,117666,1,0,0:0:0:0:
64,192,117749,1,0,0:0:0:0:
192,192,117833,1,0,0:0:0:0:
448,192,117916,1,0,0:0:0:0:
320,192,117999,1,0,0:0:0:0:
64,192,117999,1,0,0:0:0:0:
192,192,118083,1,0,0:0:0:0:
320,192,118166,1,0,0:0:0:0:
448,192,118166,1,0,0:0:0:0:
64,192,118249,1,0,0:0:0:0:
192,192,118333,1,0,0:0:0:0:
320,192,118333,1,0,0:0:0:0:
448,192,118333,1,0,0:0:0:0:
64,192,118416,1,0,0:0:0:0:
320,192,118499,1,0,0:0:0:0:
448,192,118583,1,0,0:0:0:0:
320,192,118666,1,0,0:0:0:0:
192,192,118666,1,0,0:0:0:0:
64,192,118666,1,0,0:0:0:0:
448,192,118749,1,0,0:0:0:0:
320,192,118833,1,0,0:0:0:0:
64,192,118916,1,0,0:0:0:0:
192,192,118999,1,0,0:0:0:0:
448,192,118999,1,0,0:0:0:0:
320,192,118999,1,0,0:0:0:0:
64,192,119083,1,0,0:0:0:0:
320,192,119166,1,0,0:0:0:0:
64,192,119249,1,0,0:0:0:0:
192,192,119249,1,0,0:0:0:0:
320,192,119333,1,0,0:0:0:0:
448,192,119333,1,0,0:0:0:0:
64,192,119416,1,0,0:0:0:0:
192,192,119499,1,0,0:0:0:0:
448,192,119499,1,0,0:0:0:0:
320,192,119583,1,0,0:0:0:0:
64,192,119666,1,0,0:0:0:0:
192,192,119666,1,0,0:0:0:0:
448,192,119666,1,0,0:0:0:0:
320,192,119749,1,0,0:0:0:0:
192,192,119833,1,0,0:0:0:0:
64,192,119916,1,0,0:0:0:0:
192,192,119999,1,0,0:0:0:0:
320,192,119999,1,0,0:0:0:0:
448,192,119999,1,0,0:0:0:0:
64,192,120083,1,0,0:0:0:0:
448,192,120166,1,0,0:0:0:0:
320,192,120249,1,0,0:0:0:0:
64,192,120333,1,0,0:0:0:0:
192,192,120333,1,0,0:0:0:0:
448,192,120333,1,0,0:0:0:0:
320,192,120416,1,0,0:0:0:0:
192,192,120499,1,0,0:0:0:0:
64,192,120583,1,0,0:0:0:0:
448,192,120666,1,0,0:0:0:0:
320,192,120666,1,0,0:0:0:0:
192,192,120749,1,0,0:0:0:0:
64,192,120833,1,0,0:0:0:0:
448,192,120833,1,0,0:0:0:0:
192,192,120916,1,0,0:0:0:0:
448,192,120999,1,0,0:0:0:0:
320,192,120999,1,0,0:0:0:0:
64,192,120999,1,0,0:0:0:0:
192,192,121083,1,0,0:0:0:0:
320,192,121166,1,0,0:0:0:0:
448,192,121249,1,0,0:0:0:0:
320,192,121333,1,0,0:0:0:0:
192,192,121333,1,0,0:0:0:0:
64,192,121333,1,0,0:0:0:0:
448,192,121416,1,0,0:0:0:0:
64,192,121499,1,0,0:0:0:0:
320,192,121583,1,0,0:0:0:0:
64,192,121666,1,0,0:0:0:0:
448,192,121666,1,0,0:0:0:0:
192,192,121666,1,0,0:0:0:0:
320,192,121749,1,0,0:0:0:0:
192,192,121833,1,0,0:0:0:0:
64,192,121916,1,0,0:0:0:0:
448,192,121999,1,0,0:0:0:0:
320,192,121999,1,0,0:0:0:0:
192,192,122083,1,0,0:0:0:0:
64,192,122083,1,0,0:0:0:0:
448,192,122166,1,0,0:0:0:0:
320,192,122249,1,0,0:0:0:0:
64,192,122333,1,0,0:0:0:0:
192,192,122333,1,0,0:0:0:0:
448,192,122416,1,0,0:0:0:0:
320,192,122416,1,0,0:0:0:0:
192,192,122499,1,0,0:0:0:0:
64,192,122499,1,0,0:0:0:0:
320,192,122583,1,0,0:0:0:0:
448,192,122583,1,0,0:0:0:0:
192,192,122666,1,0,0:0:0:0:
64,192,122666,1,0,0:0:0:0:
448,192,122749,1,0,0:0:0:0:
64,192,122833,1,0,0:0:0:0:
192,192,122916,1,0,0:0:0:0:
448,192,122999,1,0,0:0:0:0:
320,192,122999,1,0,0:0:0:0:
64,192,122999,1,0,0:0:0:0:
192,192,123083,1,0,0:0:0:0:
320,192,123166,1,0,0:0:0:0:
448,192,123249,1,0,0:0:0:0:
320,192,123333,1,0,0:0:0:0:
64,192,123333,1,0,0:0:0:0:
192,192,123416,1,0,0:0:0:0:
320,192,123499,1,0,0:0:0:0:
448,192,123499,1,0,0:0:0:0:
192,192,123583,1,0,0:0:0:0:
64,192,123666,1,0,0:0:0:0:
320,192,123666,1,0,0:0:0:0:
448,192,123666,1,0,0:0:0:0:
192,192,123749,1,0,0:0:0:0:
320,192,123833,1,0,0:0:0:0:
448,192,123916,1,0,0:0:0:0:
320,192,123999,1,0,0:0:0:0:
192,192,123999,1,0,0:0:0:0:
64,192,123999,1,0,0:0:0:0:
448,192,124083,1,0,0:0:0:0:
320,192,124166,1,0,0:0:0:0:
64,192,124249,1,0,0:0:0:0:
192,192,124333,1,0,0:0:0:0:
320,192,124333,1,0,0:0:0:0:
448,192,124333,1,0,0:0:0:0:
64,192,124416,1,0,0:0:0:0:
320,192,124499,1,0,0:0:0:0:
192,192,124583,1,0,0:0:0:0:
64,192,124666,1,0,0:0:0:0:
320,192,124666,1,0,0:0:0:0:
448,192,124666,1,0,0:0:0:0:
192,192,124749,1,0,0:0:0:0:
320,192,124833,1,0,0:0:0:0:
64,192,124833,1,0,0:0:0:0:
448,192,124916,1,0,0:0:0:0:
64,192,124999,1,0,0:0:0:0:
192,192,124999,1,0,0:0:0:0:
320,192,124999,1,0,0:0:0:0:
448,192,125083,1,0,0:0:0:0:
320,192,125166,1,0,0:0:0:0:
192,192,125249,1,0,0:0:0:0:
64,192,125333,1,0,0:0:0:0:
320,192,125333,1,0,0:0:0:0:
448,192,125333,1,0,0:0:0:0:
192,192,125416,1,0,0:0:0:0:
448,192,125499,1,0,0:0:0:0:
64,192,125583,1,0,0:0:0:0:
192,192,125666,1,0,0:0:0:0:
448,192,125666,1,0,0:0:0:0:
320,192,125749,1,0,0:0:0:0:
64,192,125833,1,0,0:0:0:0:
192,192,125916,1,0,0:0:0:0:
320,192,125999,1,0,0:0:0:0:
448,192,125999,1,0,0:0:0:0:
192,192,126083,1,0,0:0:0:0:
320,192,126166,1,0,0:0:0:0:
64,192,126166,1,0,0:0:0:0:
448,192,126249,1,0,0:0:0:0:
320,192,126333,1,0,0:0:0:0:
192,192,126333,1,0,0:0:0:0:
64,192,126333,1,0,0:0:0:0:
448,192,126416,1,0,0:0:0:0:
320,192,126499,1,0,0:0:0:0:
192,192,126583,1,0,0:0:0:0:
64,192,126666,1,0,0:0:0:0:
320,192,126666,1,0,0:0:0:0:
448,192,126666,1,0,0:0:0:0:
192,192,126749,1,0,0:0:0:0:
320,192,126833,1,0,0:0:0:0:
448,192,126916,1,0,0:0:0:0:
320,192,126999,1,0,0:0:0:0:
64,192,126999,1,0,0:0:0:0:
192,192,127083,1,0,0:0:0:0:
320,192,127166,1,0,0:0:0:0:
64,192,127166,1,0,0:0:0:0:
448,192,127249,1,0,0:0:0:0:
64,192,127333,1,0,0:0:0:0:
192,192,127333,1,0,0:0:0:0:
320,192,127416,1,0,0:0:0:0:
448,192,127416,1,0,0:0:0:0:
64,192,127499,1,0,0:0:0:0:
192,192,127499,1,0,0:0:0:0:
448,192,127666,1,0,0:0:0:0:
320,192,127666,1,0,0:0:0:0:
64,192,127749,1,0,0:0:0:0:
192,192,127749,1,0,0:0:0:0:
320,192,127833,1,0,0:0:0:0:
448,192,127833,1,0,0:0:0:0:
320,192,127999,1,0,0:0:0:0:
192,192,127999,1,0,0:0:0:0:
64,192,127999,1,0,0:0:0:0:
448,192,127999,1,0,0:0:0:0:
448,192,128166,1,0,0:0:0:0:
320,192,128249,1,0,0:0:0:0:
192,192,128333,1,0,0:0:0:0:
64,192,128416,1,0,0:0:0:0:
448,192,128499,1,0,0:0:0:0:
320,192,128583,1,0,0:0:0:0:
64,192,128666,1,0,0:0:0:0:
192,192,128666,1,0,0:0:0:0:
448,192,128749,1,0,0:0:0:0:
320,192,128833,1,0,0:0:0:0:
192,192,128916,1,0,0:0:0:0:
448,192,128999,1,0,0:0:0:0:
64,192,128999,1,0,0:0:0:0:
320,192,129083,1,0,0:0:0:0:
192,192,129166,1,0,0:0:0:0:
448,192,129166,1,0,0:0:0:0:
64,192,129249,1,0,0:0:0:0:
320,192,129333,1,0,0:0:0:0:
448,192,129333,1,0,0:0:0:0:
192,192,129416,1,0,0:0:0:0:
64,192,129499,1,0,0:0:0:0:
448,192,129583,1,0,0:0:0:0:
320,192,129666,1,0,0:0:0:0:
64,192,129666,1,0,0:0:0:0:
192,192,129749,1,0,0:0:0:0:
64,192,129833,1,0,0:0:0:0:
448,192,129916,1,0,0:0:0:0:
320,192,129916,1,0,0:0:0:0:
192,192,129999,1,0,0:0:0:0:
64,192,129999,1,0,0:0:0:0:
448,192,130083,1,0,0:0:0:0:
320,192,130166,1,0,0:0:0:0:
64,192,130249,1,0,0:0:0:0:
192,192,130333,1,0,0:0:0:0:
448,192,130416,1,0,0:0:0:0:
320,192,130499,1,0,0:0:0:0:
192,192,130583,1,0,0:0:0:0:
64,192,130666,1,0,0:0:0:0:
448,192,130666,1,0,0:0:0:0:
320,192,130749,1,0,0:0:0:0:
192,192,130833,1,0,0:0:0:0:
64,192,130916,1,0,0:0:0:0:
448,192,130999,1,0,0:0:0:0:
320,192,130999,1,0,0:0:0:0:
64,192,131083,1,0,0:0:0:0:
192,192,131166,1,0,0:0:0:0:
320,192,131249,1,0,0:0:0:0:
448,192,131333,1,0,0:0:0:0:
64,192,131333,1,0,0:0:0:0:
192,192,131416,1,0,0:0:0:0:
320,192,131499,1,0,0:0:0:0:
448,192,131583,1,0,0:0:0:0:
192,192,131666,1,0,0:0:0:0:
64,192,131666,1,0,0:0:0:0:
320,192,131749,1,0,0:0:0:0:
448,192,131833,1,0,0:0:0:0:
64,192,131833,1,0,0:0:0:0:
192,192,131916,1,0,0:0:0:0:
320,192,131999,1,0,0:0:0:0:
448,192,131999,1,0,0:0:0:0:
64,192,132083,1,0,0:0:0:0:
192,192,132166,1,0,0:0:0:0:
320,192,132249,1,0,0:0:0:0:
448,192,132333,1,0,0:0:0:0:
64,192,132333,1,0,0:0:0:0:
192,192,132416,1,0,0:0:0:0:
320,192,132499,1,0,0:0:0:0:
448,192,132499,1,0,0:0:0:0:
64,192,132583,1,0,0:0:0:0:
192,192,132666,1,0,0:0:0:0:
448,192,132666,1,0,0:0:0:0:
320,192,132749,1,0,0:0:0:0:
64,192,132833,1,0,0:0:0:0:
448,192,132999,1,0,0:0:0:0:
320,192,132999,1,0,0:0:0:0:
192,192,133083,1,0,0:0:0:0:
64,192,133083,1,0,0:0:0:0:
320,192,133166,1,0,0:0:0:0:
448,192,133166,1,0,0:0:0:0:
64,192,133333,1,0,0:0:0:0:
192,192,133333,1,0,0:0:0:0:
448,192,133333,1,0,0:0:0:0:
320,192,133416,1,0,0:0:0:0:
192,192,133499,1,0,0:0:0:0:
64,192,133583,1,0,0:0:0:0:
448,192,133666,1,0,0:0:0:0:
320,192,133666,1,0,0:0:0:0:
192,192,133666,1,0,0:0:0:0:
64,192,133749,1,0,0:0:0:0:
320,192,133833,1,0,0:0:0:0:
192,192,133916,1,0,0:0:0:0:
64,192,133999,1,0,0:0:0:0:
320,192,133999,1,0,0:0:0:0:
448,192,133999,1,0,0:0:0:0:
192,192,134083,1,0,0:0:0:0:
320,192,134166,1,0,0:0:0:0:
448,192,134166,1,0,0:0:0:0:
192,192,134249,1,0,0:0:0:0:
320,192,134333,1,0,0:0:0:0:
64,192,134333,1,0,0:0:0:0:
192,192,134416,1,0,0:0:0:0:
320,192,134499,1,0,0:0:0:0:
448,192,134583,1,0,0:0:0:0:
320,192,134666,1,0,0:0:0:0:
192,192,134666,1,0,0:0:0:0:
64,192,134666,1,0,0:0:0:0:
448,192,134749,1,0,0:0:0:0:
64,192,134833,1,0,0:0:0:0:
320,192,134916,1,0,0:0:0:0:
192,192,134999,1,0,0:0:0:0:
448,192,134999,1,0,0:0:0:0:
64,192,134999,1,0,0:0:0:0:
320,192,135083,1,0,0:0:0:0:
192,192,135166,1,0,0:0:0:0:
64,192,135249,1,0,0:0:0:0:
448,192,135333,1,0,0:0:0:0:
320,192,135333,1,0,0:0:0:0:
192,192,135333,1,0,0:0:0:0:
64,192,135416,1,0,0:0:0:0:
192,192,135499,1,0,0:0:0:0:
448,192,135499,1,0,0:0:0:0:
320,192,135583,1,0,0:0:0:0:
192,192,135666,1,0,0:0:0:0:
64,192,135666,1,0,0:0:0:0:
448,192,135749,1,0,0:0:0:0:
320,192,135833,1,0,0:0:0:0:
192,192,135916,1,0,0:0:0:0:
64,192,135999,1,0,0:0:0:0:
320,192,135999,1,0,0:0:0:0:
448,192,135999,1,0,0:0:0:0:
192,192,136083,1,0,0:0:0:0:
320,192,136166,1,0,0:0:0:0:
64,192,136249,1,0,0:0:0:0:
192,192,136333,1,0,0:0:0:0:
448,192,136333,1,0,0:0:0:0:
320,192,136333,1,0,0:0:0:0:
64,192,136416,1,0,0:0:0:0:
192,192,136499,1,0,0:0:0:0:
448,192,136583,1,0,0:0:0:0:
320,192,136666,1,0,0:0:0:0:
192,192,136666,1,0,0:0:0:0:
64,192,136666,1,0,0:0:0:0:
448,192,136749,1,0,0:0:0:0:
320,192,136833,1,0,0:0:0:0:
64,192,136833,1,0,0:0:0:0:
192,192,136916,1,0,0:0:0:0:
320,192,136999,1,0,0:0:0:0:
448,192,136999,1,0,0:0:0:0:
64,192,137083,1,0,0:0:0:0:
192,192,137166,1,0,0:0:0:0:
64,192,137249,1,0,0:0:0:0:
320,192,137333,1,0,0:0:0:0:
448,192,137333,1,0,0:0:0:0:
192,192,137333,1,0,0:0:0:0:
64,192,137388,1,0,0:0:0:0:
192,192,137444,1,0,0:0:0:0:
448,192,137499,1,0,0:0:0:0:
320,192,137555,1,0,0:0:0:0:
192,192,137611,1,0,0:0:0:0:
320,192,137666,1,0,0:0:0:0:
64,192,137666,1,0,0:0:0:0:
448,192,137666,1,0,0:0:0:0:
192,192,137722,1,0,0:0:0:0:
320,192,137777,1,0,0:0:0:0:
448,192,137833,1,0,0:0:0:0:
192,192,137833,1,0,0:0:0:0:
64,192,137888,1,0,0:0:0:0:
192,192,137944,1,0,0:0:0:0:
64,192,137999,1,0,0:0:0:0:
320,192,137999,1,0,0:0:0:0:
448,192,137999,1,0,0:0:0:0:
192,192,138055,1,0,0:0:0:0:
320,192,138083,1,0,0:0:0:0:
448,192,138111,1,0,0:0:0:0:
192,192,138166,1,0,0:0:0:0:
64,192,138166,1,0,0:0:0:0:
448,192,138222,1,0,0:0:0:0:
192,192,138277,1,0,0:0:0:0:
320,192,138333,1,0,0:0:0:0:
64,192,138333,1,0,0:0:0:0:
448,192,138388,1,0,0:0:0:0:
320,192,138416,1,0,0:0:0:0:
192,192,138444,1,0,0:0:0:0:
320,192,138499,1,0,0:0:0:0:
448,192,138499,1,0,0:0:0:0:
192,192,138555,1,0,0:0:0:0:
64,192,138611,1,0,0:0:0:0:
192,192,138666,1,0,0:0:0:0:
320,192,138666,1,0,0:0:0:0:
448,192,138666,1,0,0:0:0:0:
64,192,138749,1,0,0:0:0:0:
448,192,138833,1,0,0:0:0:0:
320,192,138916,1,0,0:0:0:0:
192,192,138999,1,0,0:0:0:0:
64,192,138999,1,0,0:0:0:0:
448,192,138999,1,0,0:0:0:0:
320,192,139083,1,0,0:0:0:0:
192,192,139166,1,0,0:0:0:0:
64,192,139249,1,0,0:0:0:0:
448,192,139333,1,0,0:0:0:0:
320,192,139333,1,0,0:0:0:0:
192,192,139416,1,0,0:0:0:0:
64,192,139499,1,0,0:0:0:0:
448,192,139499,1,0,0:0:0:0:
320,192,139583,1,0,0:0:0:0:
64,192,139666,1,0,0:0:0:0:
448,192,139666,1,0,0:0:0:0:
192,192,139666,1,0,0:0:0:0:
320,192,139749,1,0,0:0:0:0:
192,192,139833,1,0,0:0:0:0:
64,192,139916,1,0,0:0:0:0:
192,192,139999,1,0,0:0:0:0:
320,192,139999,1,0,0:0:0:0:
448,192,139999,1,0,0:0:0:0:
64,192,140083,1,0,0:0:0:0:
192,192,140166,1,0,0:0:0:0:
448,192,140249,1,0,0:0:0:0:
320,192,140333,1,0,0:0:0:0:
192,192,140333,1,0,0:0:0:0:
64,192,140333,1,0,0:0:0:0:
448,192,140416,1,0,0:0:0:0:
320,192,140499,1,0,0:0:0:0:
64,192,140583,1,0,0:0:0:0:
192,192,140583,1,0,0:0:0:0:
320,192,140666,1,0,0:0:0:0:
448,192,140666,1,0,0:0:0:0:
64,192,140749,1,0,0:0:0:0:
192,192,140833,1,0,0:0:0:0:
448,192,140833,1,0,0:0:0:0:
320,192,140916,1,0,0:0:0:0:
192,192,140999,1,0,0:0:0:0:
64,192,140999,1,0,0:0:0:0:
448,192,140999,1,0,0:0:0:0:
320,192,141083,1,0,0:0:0:0:
192,192,141166,1,0,0:0:0:0:
64,192,141249,1,0,0:0:0:0:
192,192,141333,1,0,0:0:0:0:
320,192,141333,1,0,0:0:0:0:
448,192,141333,1,0,0:0:0:0:
64,192,141416,1,0,0:0:0:0:
192,192,141499,1,0,0:0:0:0:
448,192,141583,1,0,0:0:0:0:
320,192,141666,1,0,0:0:0:0:
64,192,141666,1,0,0:0:0:0:
192,192,141666,1,0,0:0:0:0:
448,192,141749,1,0,0:0:0:0:
320,192,141833,1,0,0:0:0:0:
64,192,141916,1,0,0:0:0:0:
192,192,141999,1,0,0:0:0:0:
448,192,141999,1,0,0:0:0:0:
320,192,141999,1,0,0:0:0:0:
64,192,142083,1,0,0:0:0:0:
192,192,142166,1,0,0:0:0:0:
448,192,142166,1,0,0:0:0:0:
320,192,142249,1,0,0:0:0:0:
192,192,142333,1,0,0:0:0:0:
64,192,142333,1,0,0:0:0:0:
448,192,142416,1,0,0:0:0:0:
320,192,142499,1,0,0:0:0:0:
192,192,142583,1,0,0:0:0:0:
64,192,142666,1,0,0:0:0:0:
320,192,142666,1,0,0:0:0:0:
448,192,142666,1,0,0:0:0:0:
192,192,142749,1,0,0:0:0:0:
320,192,142833,1,0,0:0:0:0:
448,192,142916,1,0,0:0:0:0:
320,192,142999,1,0,0:0:0:0:
192,192,142999,1,0,0:0:0:0:
64,192,142999,1,0,0:0:0:0:
448,192,143083,1,0,0:0:0:0:
64,192,143166,1,0,0:0:0:0:
192,192,143166,1,0,0:0:0:0:
320,192,143249,1,0,0:0:0:0:
448,192,143333,1,0,0:0:0:0:
192,192,143416,1,0,0:0:0:0:
64,192,143416,1,0,0:0:0:0:
320,192,143499,1,0,0:0:0:0:
448,192,143499,1,0,0:0:0:0:
192,192,143583,1,0,0:0:0:0:
64,192,143666,1,0,0:0:0:0:
448,192,143666,1,0,0:0:0:0:
320,192,143666,1,0,0:0:0:0:
192,192,143749,1,0,0:0:0:0:
320,192,143833,1,0,0:0:0:0:
448,192,143916,1,0,0:0:0:0:
64,192,143999,128,0,144333:0:0:0:0:
192,192,143999,128,0,144333:0:0:0:0:
320,192,144333,1,0,0:0:0:0:
448,192,144333,1,0,0:0:0:0:
64,192,144416,1,0,0:0:0:0:
192,192,144499,1,0,0:0:0:0:
320,192,144583,1,0,0:0:0:0:
192,192,144666,1,0,0:0:0:0:
64,192,144666,1,0,0:0:0:0:
448,192,144666,1,0,0:0:0:0:
320,192,144749,1,0,0:0:0:0:
192,192,144833,1,0,0:0:0:0:
64,192,144833,1,0,0:0:0:0:
448,192,144916,1,0,0:0:0:0:
192,192,144999,1,0,0:0:0:0:
64,192,144999,1,0,0:0:0:0:
320,192,144999,1,0,0:0:0:0:
448,192,145083,1,0,0:0:0:0:
320,192,145166,1,0,0:0:0:0:
64,192,145249,1,0,0:0:0:0:
192,192,145333,1,0,0:0:0:0:
320,192,145333,1,0,0:0:0:0:
448,192,145333,1,0,0:0:0:0:
64,192,145416,1,0,0:0:0:0:
320,192,145499,1,0,0:0:0:0:
192,192,145583,1,0,0:0:0:0:
64,192,145666,1,0,0:0:0:0:
320,192,145666,1,0,0:0:0:0:
448,192,145666,1,0,0:0:0:0:
192,192,145749,1,0,0:0:0:0:
320,192,145833,1,0,0:0:0:0:
448,192,145916,1,0,0:0:0:0:
320,192,145999,1,0,0:0:0:0:
64,192,145999,1,0,0:0:0:0:
192,192,146083,1,0,0:0:0:0:
320,192,146166,1,0,0:0:0:0:
448,192,146166,1,0,0:0:0:0:
64,192,146249,1,0,0:0:0:0:
192,192,146333,1,0,0:0:0:0:
448,192,146333,1,0,0:0:0:0:
320,192,146416,1,0,0:0:0:0:
64,192,146499,1,0,0:0:0:0:
192,192,146583,1,0,0:0:0:0:
64,192,146666,1,0,0:0:0:0:
320,192,146666,1,0,0:0:0:0:
448,192,146666,1,0,0:0:0:0:
192,192,146749,1,0,0:0:0:0:
320,192,146833,1,0,0:0:0:0:
448,192,146916,1,0,0:0:0:0:
320,192,146999,1,0,0:0:0:0:
192,192,146999,1,0,0:0:0:0:
64,192,146999,1,0,0:0:0:0:
448,192,147083,1,0,0:0:0:0:
320,192,147166,1,0,0:0:0:0:
192,192,147249,1,0,0:0:0:0:
64,192,147333,1,0,0:0:0:0:
320,192,147333,1,0,0:0:0:0:
448,192,147333,1,0,0:0:0:0:
192,192,147416,1,0,0:0:0:0:
320,192,147499,1,0,0:0:0:0:
448,192,147499,1,0,0:0:0:0:
64,192,147583,1,0,0:0:0:0:
192,192,147666,1,0,0:0:0:0:
320,192,147666,1,0,0:0:0:0:
448,192,147666,1,0,0:0:0:0:
64,192,147749,1,0,0:0:0:0:
448,192,147833,1,0,0:0:0:0:
320,192,147916,1,0,0:0:0:0:
192,192,147999,1,0,0:0:0:0:
64,192,147999,1,0,0:0:0:0:
448,192,147999,1,0,0:0:0:0:
320,192,148083,1,0,0:0:0:0:
192,192,148166,1,0,0:0:0:0:
64,192,148249,1,0,0:0:0:0:
448,192,148333,1,0,0:0:0:0:
320,192,148333,1,0,0:0:0:0:
192,192,148333,1,0,0:0:0:0:
64,192,148416,1,0,0:0:0:0:
192,192,148499,1,0,0:0:0:0:
448,192,148499,1,0,0:0:0:0:
320,192,148583,1,0,0:0:0:0:
192,192,148666,1,0,0:0:0:0:
64,192,148666,1,0,0:0:0:0:
320,192,148749,1,0,0:0:0:0:
448,192,148749,1,0,0:0:0:0:
192,192,148833,1,0,0:0:0:0:
64,192,148833,1,0,0:0:0:0:
448,192,148999,1,0,0:0:0:0:
320,192,148999,1,0,0:0:0:0:
192,192,149083,1,0,0:0:0:0:
64,192,149083,1,0,0:0:0:0:
320,192,149166,1,0,0:0:0:0:
448,192,149166,1,0,0:0:0:0:
192,192,149249,1,0,0:0:0:0:
64,192,149333,1,0,0:0:0:0:
320,192,149333,1,0,0:0:0:0:
448,192,149333,1,0,0:0:0:0:
192,192,149416,1,0,0:0:0:0:
320,192,149499,1,0,0:0:0:0:
448,192,149583,1,0,0:0:0:0:
320,192,149666,1,0,0:0:0:0:
192,192,149666,1,0,0:0:0:0:
64,192,149666,1,0,0:0:0:0:
448,192,149749,1,0,0:0:0:0:
320,192,149833,1,0,0:0:0:0:
64,192,149916,1,0,0:0:0:0:
320,192,149999,1,0,0:0:0:0:
448,192,149999,1,0,0:0:0:0:
192,192,150083,1,0,0:0:0:0:
64,192,150166,1,0,0:0:0:0:
448,192,150166,1,0,0:0:0:0:
320,192,150249,1,0,0:0:0:0:
192,192,150333,1,0,0:0:0:0:
64,192,150333,1,0,0:0:0:0:
448,192,150333,1,0,0:0:0:0:
320,192,150416,1,0,0:0:0:0:
192,192,150499,1,0,0:0:0:0:
64,192,150583,1,0,0:0:0:0:
192,192,150666,1,0,0:0:0:0:
320,192,150666,1,0,0:0:0:0:
448,192,150666,1,0,0:0:0:0:
64,192,150749,1,0,0:0:0:0:
192,192,150833,1,0,0:0:0:0:
448,192,150916,1,0,0:0:0:0:
320,192,150999,1,0,0:0:0:0:
192,192,150999,1,0,0:0:0:0:
64,192,150999,1,0,0:0:0:0:
448,192,151083,1,0,0:0:0:0:
320,192,151166,1,0,0:0:0:0:
64,192,151249,1,0,0:0:0:0:
192,192,151249,1,0,0:0:0:0:
320,192,151333,1,0,0:0:0:0:
448,192,151333,1,0,0:0:0:0:
192,192,151416,1,0,0:0:0:0:
64,192,151499,1,0,0:0:0:0:
448,192,151499,1,0,0:0:0:0:
320,192,151583,1,0,0:0:0:0:
192,192,151666,1,0,0:0:0:0:
64,192,151666,1,0,0:0:0:0:
320,192,151749,1,0,0:0:0:0:
192,192,151833,1,0,0:0:0:0:
64,192,151916,1,0,0:0:0:0:
192,192,151999,1,0,0:0:0:0:
320,192,151999,1,0,0:0:0:0:
448,192,151999,1,0,0:0:0:0:
64,192,152083,1,0,0:0:0:0:
448,192,152166,1,0,0:0:0:0:
192,192,152249,1,0,0:0:0:0:
320,192,152333,1,0,0:0:0:0:
448,192,152333,1,0,0:0:0:0:
64,192,152333,1,0,0:0:0:0:
192,192,152416,1,0,0:0:0:0:
64,192,152499,1,0,0:0:0:0:
448,192,152583,1,0,0:0:0:0:
320,192,152666,1,0,0:0:0:0:
192,192,152666,1,0,0:0:0:0:
64,192,152666,1,0,0:0:0:0:
448,192,152749,1,0,0:0:0:0:
192,192,152833,1,0,0:0:0:0:
64,192,152833,1,0,0:0:0:0:
320,192,152916,1,0,0:0:0:0:
64,192,152999,1,0,0:0:0:0:
448,192,152999,1,0,0:0:0:0:
192,192,152999,1,0,0:0:0:0:
320,192,153083,1,0,0:0:0:0:
192,192,153166,1,0,0:0:0:0:
448,192,153249,1,0,0:0:0:0:
320,192,153333,1,0,0:0:0:0:
192,192,153333,1,0,0:0:0:0:
64,192,153333,1,0,0:0:0:0:
448,192,153416,1,0,0:0:0:0:
192,192,153499,1,0,0:0:0:0:
64,192,153583,1,0,0:0:0:0:
192,192,153666,1,0,0:0:0:0:
320,192,153666,1,0,0:0:0:0:
448,192,153666,1,0,0:0:0:0:
64,192,153749,1,0,0:0:0:0:
192,192,153833,1,0,0:0:0:0:
448,192,153833,1,0,0:0:0:0:
320,192,153916,1,0,0:0:0:0:
192,192,153999,1,0,0:0:0:0:
64,192,153999,1,0,0:0:0:0:
448,192,154083,1,0,0:0:0:0:
320,192,154083,1,0,0:0:0:0:
64,192,154166,1,0,0:0:0:0:
192,192,154166,1,0,0:0:0:0:
320,192,154249,1,0,0:0:0:0:
192,192,154333,1,0,0:0:0:0:
448,192,154333,1,0,0:0:0:0:
64,192,154333,1,0,0:0:0:0:
320,192,154416,1,0,0:0:0:0:
64,192,154499,1,0,0:0:0:0:
448,192,154499,1,0,0:0:0:0:
192,192,154583,1,0,0:0:0:0:
448,192,154666,1,0,0:0:0:0:
320,192,154666,1,0,0:0:0:0:
64,192,154749,1,0,0:0:0:0:
448,192,154833,1,0,0:0:0:0:
320,192,154916,1,0,0:0:0:0:
192,192,154999,1,0,0:0:0:0:
64,192,154999,1,0,0:0:0:0:
448,192,155083,1,0,0:0:0:0:
320,192,155166,1,0,0:0:0:0:
192,192,155249,1,0,0:0:0:0:
64,192,155333,1,0,0:0:0:0:
320,192,155333,1,0,0:0:0:0:
448,192,155333,1,0,0:0:0:0:
192,192,155416,1,0,0:0:0:0:
448,192,155499,1,0,0:0:0:0:
64,192,155499,1,0,0:0:0:0:
320,192,155583,1,0,0:0:0:0:
192,192,155666,1,0,0:0:0:0:
64,192,155666,1,0,0:0:0:0:
448,192,155666,1,0,0:0:0:0:
320,192,155749,1,0,0:0:0:0:
192,192,155833,1,0,0:0:0:0:
64,192,155916,1,0,0:0:0:0:
192,192,155999,1,0,0:0:0:0:
320,192,155999,1,0,0:0:0:0:
448,192,155999,1,0,0:0:0:0:
64,192,156083,1,0,0:0:0:0:
448,192,156166,1,0,0:0:0:0:
320,192,156249,1,0,0:0:0:0:
64,192,156333,1,0,0:0:0:0:
192,192,156333,1,0,0:0:0:0:
448,192,156333,1,0,0:0:0:0:
320,192,156416,1,0,0:0:0:0:
192,192,156499,1,0,0:0:0:0:
64,192,156583,1,0,0:0:0:0:
448,192,156666,1,0,0:0:0:0:
320,192,156749,1,0,0:0:0:0:
192,192,156833,1,0,0:0:0:0:
64,192,156916,1,0,0:0:0:0:
320,192,156999,1,0,0:0:0:0:
448,192,156999,1,0,0:0:0:0:
64,192,157083,1,0,0:0:0:0:
192,192,157166,128,0,157333:0:0:0:0:
64,192,157333,1,0,0:0:0:0:
320,192,157333,1,0,0:0:0:0:
448,192,157333,1,0,0:0:0:0:
192,192,157416,1,0,0:0:0:0:
320,192,157499,1,0,0:0:0:0:
448,192,157583,1,0,0:0:0:0:
64,192,157666,1,0,0:0:0:0:
192,192,157749,1,0,0:0:0:0:
320,192,157833,1,0,0:0:0:0:
448,192,157916,1,0,0:0:0:0:
64,192,157999,1,0,0:0:0:0:
192,192,157999,1,0,0:0:0:0:
320,192,158083,1,0,0:0:0:0:
448,192,158166,1,0,0:0:0:0:
64,192,158249,1,0,0:0:0:0:
192,192,158333,1,0,0:0:0:0:
320,192,158416,1,0,0:0:0:0:
448,192,158499,1,0,0:0:0:0:
64,192,158583,1,0,0:0:0:0:
192,192,158666,1,0,0:0:0:0:
448,192,158666,1,0,0:0:0:0:
320,192,158749,1,0,0:0:0:0:
192,192,158833,1,0,0:0:0:0:
64,192,158916,1,0,0:0:0:0:
448,192,158999,1,0,0:0:0:0:
320,192,158999,1,0,0:0:0:0:
192,192,159083,1,0,0:0:0:0:
64,192,159166,1,0,0:0:0:0:
448,192,159249,1,0,0:0:0:0:
192,192,159333,1,0,0:0:0:0:
64,192,159333,1,0,0:0:0:0:
448,192,159416,1,0,0:0:0:0:
320,192,159416,1,0,0:0:0:0:
64,192,159499,1,0,0:0:0:0:
192,192,159499,1,0,0:0:0:0:
448,192,159666,1,0,0:0:0:0:
320,192,159666,1,0,0:0:0:0:
192,192,159749,1,0,0:0:0:0:
320,192,159833,1,0,0:0:0:0:
448,192,159833,1,0,0:0:0:0:
192,192,159916,1,0,0:0:0:0:
64,192,159999,128,0,161333:0:0:0:0:
320,192,159999,128,0,161333:0:0:0:0:
448,192,159999,128,0,161333:0:0:0:0:
