osu file format v14

[General]
AudioFilename: audio.mp3
AudioLeadIn: 0
PreviewTime: 62486
Countdown: 0
SampleSet: Normal
StackLeniency: 0.7
Mode: 3
LetterboxInBreaks: 0
SpecialStyle: 0
WidescreenStoryboard: 0

[Editor]
Bookmarks: 8904,26765,44625,53556,62486,80346,89277,98207,116067,133928,142858,151788,169649,178579,187509,205370,223230
DistanceSpacing: 0.8
BeatDivisor: 4
GridSize: 4
TimelineZoom: 2.799999

[Metadata]
Title:PURE FURY
TitleUnicode:PURE FURY
Artist:AUTUMN+GHOST feat. Akira Complex
ArtistUnicode:AUTUMN+GHOST feat. Akira Complex
Creator:Anwul_
Version:TOTAL FRENZY
Source:東方紺珠伝 ~ Legacy of Lunatic Kingdom.
Tags:electronic instrumental hardcore charlatan's endgame pure furies whereabouts of the heart sephid 東方project touhou 2hu toho video game 上海アリス幻楽団 team shanghai alice zun 太田順也 jun'ya ota lolk 15 純狐 junko stage 6 theme ピュアヒューリーズ ~ 心の在処 ヒレ軍団 fillet corps comicup 25 chordjack chord jack fa featured artist
BeatmapID:4207411
BeatmapSetID:2020285

[Difficulty]
HPDrainRate:9.1
CircleSize:4
OverallDifficulty:8.6
ApproachRate:5
SliderMultiplier:1.4
SliderTickRate:1

[Events]
//Background and Video events
0,0,"bg.jpg",0,0
//Break Periods
//Storyboard Layer 0 (Background)
//Storyboard Layer 1 (Fail)
//Storyboard Layer 2 (Pass)
//Storyboard Layer 3 (Foreground)
//Storyboard Layer 4 (Overlay)
//Storyboard Sound Samples

[TimingPoints]
1091,279.06976744186,4,1,1,30,1,0
62486,-100,4,1,1,30,0,1
79230,-100,4,1,1,30,0,0
98207,-100,4,1,1,30,0,1
114951,-100,4,1,1,30,0,0
151788,-100,4,1,1,30,0,1
168532,-100,4,1,1,30,0,0
187509,-100,4,1,1,30,0,1
204253,-100,4,1,1,30,0,0

[HitObjects]
448,192,811,5,0,2:0:0:0:
192,192,951,1,0,2:0:0:0:
320,192,1091,1,0,2:0:0:0:
64,192,1230,1,0,2:0:0:0:
448,192,1649,1,0,2:0:0:0:
192,192,1788,1,0,2:0:0:0:
320,192,1928,1,0,2:0:0:0:
64,192,2067,1,0,2:0:0:0:
448,192,2207,1,0,2:0:0:0:
192,192,2346,1,0,2:0:0:0:
320,192,2486,1,0,2:0:0:0:
64,192,2625,1,0,2:0:0:0:
448,192,3044,1,0,2:0:0:0:
192,192,3184,1,0,2:0:0:0:
320,192,3323,1,0,2:0:0:0:
64,192,3463,1,0,2:0:0:0:
448,192,3881,1,0,2:0:0:0:
320,192,4021,1,0,2:0:0:0:
192,192,4160,1,0,2:0:0:0:
64,192,4300,1,0,2:0:0:0:
448,192,4439,1,0,2:0:0:0:
192,192,4579,1,0,2:0:0:0:
320,192,4718,1,0,2:0:0:0:
64,192,4858,1,0,2:0:0:0:
448,192,5277,1,0,2:0:0:0:
192,192,5416,1,0,2:0:0:0:
320,192,5556,1,0,2:0:0:0:
64,192,5695,1,0,2:0:0:0:
448,192,6114,1,0,2:0:0:0:
192,192,6253,1,0,2:0:0:0:
320,192,6393,1,0,2:0:0:0:
64,192,6532,1,0,2:0:0:0:
448,192,6672,1,0,2:0:0:0:
192,192,6811,1,0,2:0:0:0:
320,192,6951,1,0,2:0:0:0:
64,192,7090,1,0,2:0:0:0:
448,192,7509,1,0,2:0:0:0:
192,192,7649,1,0,2:0:0:0:
320,192,7788,1,0,2:0:0:0:
64,192,7928,1,0,2:0:0:0:
448,192,8346,1,0,2:0:0:0:
320,192,8486,1,0,2:0:0:0:
192,192,8625,1,0,2:0:0:0:
64,192,8765,1,0,2:0:0:0:
192,192,8904,1,0,2:0:0:0:
448,192,8904,128,0,10021:0:0:0:0:
320,192,8904,1,4,0:0:0:0:
64,192,9044,1,0,2:0:0:0:
320,192,9184,1,0,2:0:0:0:
192,192,9323,1,0,2:0:0:0:
64,192,9742,1,0,2:0:0:0:
320,192,9881,1,0,2:0:0:0:
64,192,10021,128,0,11137:0:0:0:0:
192,192,10021,1,0,2:0:0:0:
448,192,10160,1,0,2:0:0:0:
448,192,10579,1,0,2:0:0:0:
192,192,10718,1,0,2:0:0:0:
320,192,10858,1,0,2:0:0:0:
192,192,10997,1,0,2:0:0:0:
320,192,11137,128,0,12253:0:0:0:0:
448,192,11137,1,0,2:0:0:0:
192,192,11277,1,0,2:0:0:0:
448,192,11416,1,0,2:0:0:0:
64,192,11556,1,0,2:0:0:0:
192,192,11974,1,0,2:0:0:0:
448,192,12114,1,0,2:0:0:0:
192,192,12253,128,0,13370:0:0:0:0:
64,192,12253,1,0,2:0:0:0:
320,192,12393,1,0,2:0:0:0:
448,192,12811,1,0,2:0:0:0:
320,192,12951,1,0,2:0:0:0:
64,192,13090,1,0,2:0:0:0:
320,192,13230,1,0,2:0:0:0:
448,192,13370,128,0,14486:0:0:0:0:
64,192,13370,1,0,2:0:0:0:
320,192,13509,1,0,2:0:0:0:
192,192,13649,1,0,2:0:0:0:
64,192,13788,1,0,2:0:0:0:
64,192,14207,1,0,2:0:0:0:
320,192,14346,1,0,2:0:0:0:
64,192,14486,128,0,15602:0:0:0:0:
192,192,14486,1,0,2:0:0:0:
448,192,14625,1,0,2:0:0:0:
192,192,15044,1,0,2:0:0:0:
320,192,15184,1,0,2:0:0:0:
192,192,15323,1,0,2:0:0:0:
448,192,15463,1,0,2:0:0:0:
192,192,15602,128,0,16718:0:0:0:0:
320,192,15602,1,0,2:0:0:0:
448,192,15742,1,0,2:0:0:0:
64,192,15881,1,0,2:0:0:0:
320,192,16021,1,0,2:0:0:0:
448,192,16439,1,0,2:0:0:0:
64,192,16579,1,0,2:0:0:0:
320,192,16718,128,0,17835:0:0:0:0:
448,192,16718,1,0,2:0:0:0:
192,192,16858,1,0,2:0:0:0:
64,192,17277,1,0,2:0:0:0:
192,192,17416,1,0,2:0:0:0:
448,192,17556,1,0,2:0:0:0:
192,192,17695,1,0,2:0:0:0:
64,192,17835,1,0,2:0:0:0:
448,192,17835,128,0,18951:0:0:0:0:
192,192,17835,1,4,0:0:0:0:
320,192,17974,1,0,2:0:0:0:
64,192,18114,1,0,2:0:0:0:
192,192,18253,1,0,2:0:0:0:
64,192,18672,1,0,2:0:0:0:
320,192,18811,1,0,2:0:0:0:
64,192,18951,128,0,20067:0:0:0:0:
192,192,18951,1,0,2:0:0:0:
448,192,19090,1,0,2:0:0:0:
192,192,19509,1,0,2:0:0:0:
320,192,19649,1,0,2:0:0:0:
192,192,19788,1,0,2:0:0:0:
448,192,19928,1,0,2:0:0:0:
320,192,20067,128,0,21184:0:0:0:0:
192,192,20067,1,0,2:0:0:0:
448,192,20207,1,0,2:0:0:0:
64,192,20346,1,0,2:0:0:0:
448,192,20486,1,0,2:0:0:0:
192,192,20904,1,0,2:0:0:0:
448,192,21044,1,0,2:0:0:0:
192,192,21184,128,0,22300:0:0:0:0:
64,192,21184,1,0,2:0:0:0:
320,192,21323,1,0,2:0:0:0:
320,192,21742,1,0,2:0:0:0:
448,192,21881,1,0,2:0:0:0:
64,192,22021,1,0,2:0:0:0:
320,192,22160,1,0,2:0:0:0:
448,192,22300,128,0,23416:0:0:0:0:
64,192,22300,1,0,2:0:0:0:
320,192,22439,1,0,2:0:0:0:
192,192,22579,1,0,2:0:0:0:
320,192,22718,1,0,2:0:0:0:
64,192,23137,1,0,2:0:0:0:
320,192,23277,1,0,2:0:0:0:
64,192,23416,128,0,24532:0:0:0:0:
192,192,23416,1,0,2:0:0:0:
448,192,23556,1,0,2:0:0:0:
192,192,23974,1,0,2:0:0:0:
448,192,24114,1,0,2:0:0:0:
192,192,24253,1,0,2:0:0:0:
320,192,24393,1,0,2:0:0:0:
192,192,24532,128,0,25649:0:0:0:0:
448,192,24532,1,0,2:0:0:0:
320,192,24672,1,0,2:0:0:0:
64,192,24811,1,0,2:0:0:0:
448,192,24951,1,0,2:0:0:0:
320,192,25370,1,0,2:0:0:0:
64,192,25509,1,0,2:0:0:0:
320,192,25649,128,0,26765:0:0:0:0:
448,192,25649,1,0,2:0:0:0:
192,192,25788,1,0,2:0:0:0:
448,192,26207,1,0,2:0:0:0:
192,192,26346,1,0,2:0:0:0:
64,192,26486,1,0,2:0:0:0:
448,192,26625,1,0,2:0:0:0:
192,192,26765,1,0,2:0:0:0:
64,192,26765,128,0,27463:0:0:0:0:
448,192,26765,1,4,0:0:0:0:
192,192,27602,128,0,27742:2:0:0:0:
320,192,27742,128,0,27881:2:0:0:0:
448,192,27881,128,0,28579:0:0:0:0:
64,192,28718,128,0,28858:2:0:0:0:
320,192,28858,128,0,28997:2:0:0:0:
192,192,28997,128,0,29695:0:0:0:0:
64,192,29835,128,0,29974:2:0:0:0:
448,192,29974,128,0,30114:2:0:0:0:
320,192,30114,128,0,30532:0:0:0:0:
64,192,30672,128,0,31090:2:0:0:0:
192,192,30951,128,0,31230:2:0:0:0:
448,192,31230,128,0,31788:0:0:0:0:
320,192,31718,128,0,31858:2:0:0:0:
64,192,31788,128,0,32207:2:0:0:0:
192,192,32032,128,0,32486:2:0:0:0:
448,192,32346,128,0,32800:0:0:0:0:
320,192,32625,128,0,32730:2:0:0:0:
192,192,32660,128,0,32904:2:0:0:0:
64,192,32904,128,0,33323:2:0:0:0:
448,192,33184,128,0,33602:2:0:0:0:
64,192,33463,128,0,33881:0:0:0:0:
448,192,33742,128,0,34160:2:0:0:0:
192,192,34021,128,0,34300:2:0:0:0:
320,192,34300,128,0,34370:2:0:0:0:
320,192,34439,128,0,35695:2:0:0:0:
64,192,34579,1,0,0:0:0:0:
192,192,34997,128,0,35695:0:0:0:70:blank.wav
64,192,35695,128,0,36393:0:0:0:0:
192,192,36532,128,0,36672:2:0:0:0:
320,192,36672,128,0,36811:2:0:0:0:
448,192,36811,128,0,37509:0:0:0:0:
64,192,37649,128,0,37788:2:0:0:0:
192,192,37788,128,0,37928:2:0:0:0:
320,192,37928,128,0,38625:0:0:0:0:
448,192,38765,128,0,38904:2:0:0:0:
64,192,38904,128,0,39044:2:0:0:0:
192,192,39044,128,0,39463:0:0:0:0:
320,192,39602,128,0,39881:2:0:0:0:
448,192,39881,128,0,40160:2:0:0:0:
192,192,40160,128,0,40718:0:0:0:0:
448,192,40579,128,0,40718:0:0:0:70:blank.wav
64,192,40718,128,0,40997:2:0:0:0:
320,192,40997,128,0,41277:2:0:0:0:
448,192,41277,128,0,41556:0:0:0:0:
192,192,41556,128,0,41835:2:0:0:0:
320,192,41835,128,0,42114:2:0:0:0:
64,192,42114,128,0,42393:2:0:0:0:
448,192,42393,128,0,44277:0:0:0:0:
64,192,43230,128,0,44277:0:0:0:70:blank.wav
64,192,44625,1,0,2:0:0:0:
320,192,44625,128,2,44765:0:0:0:0:
448,192,44625,128,4,44765:0:0:0:0:
320,192,44904,1,0,2:0:0:0:
192,192,45044,128,0,45184:2:0:0:0:
64,192,45044,128,0,45184:2:0:0:0:
64,192,45323,128,0,45463:2:0:0:0:
320,192,45323,128,0,45463:2:0:0:0:
192,192,45602,1,0,2:0:0:0:
320,192,45742,128,0,45881:2:0:0:0:
448,192,45742,128,0,45881:2:0:0:0:
320,192,46021,1,0,2:0:0:0:
64,192,46160,128,0,46300:2:0:0:0:
192,192,46160,128,0,46300:2:0:0:0:
64,192,46439,128,0,46579:2:0:0:0:
320,192,46439,128,0,46579:2:0:0:0:
448,192,46718,1,0,2:0:0:0:
320,192,46858,128,0,46997:2:0:0:0:
192,192,46858,128,0,46997:2:0:0:0:
192,192,47137,1,0,2:0:0:0:
320,192,47277,128,0,47416:2:0:0:0:
448,192,47277,128,0,47416:2:0:0:0:
64,192,47556,128,0,47695:2:0:0:0:
192,192,47556,128,0,47695:2:0:0:0:
64,192,47835,1,0,2:0:0:0:
320,192,47974,128,0,48114:2:0:0:0:
192,192,47974,128,0,48114:2:0:0:0:
192,192,48253,1,0,2:0:0:0:
448,192,48393,128,0,48532:2:0:0:0:
320,192,48393,128,0,48532:2:0:0:0:
64,192,48672,128,0,48811:2:0:0:0:
448,192,48672,128,0,48742:2:0:0:0:
192,192,48811,1,2,0:0:0:0:
448,192,48811,128,0,48951:0:0:0:0:
320,192,48811,128,0,48951:2:0:0:0:
64,192,48951,1,0,2:0:0:0:
320,192,49090,128,2,49230:0:0:0:0:
448,192,49090,128,0,49230:0:0:0:0:
64,192,49090,1,0,2:0:0:0:
320,192,49370,1,0,2:0:0:0:
64,192,49509,128,0,49649:2:0:0:0:
192,192,49509,128,0,49649:2:0:0:0:
320,192,49788,128,0,49928:2:0:0:0:
64,192,49788,128,0,49928:2:0:0:0:
320,192,50067,1,0,2:0:0:0:
448,192,50207,128,0,50346:0:0:0:0:
64,192,50207,128,0,50346:2:0:0:0:
192,192,50207,1,2,0:0:0:0:
448,192,50486,128,0,50625:2:0:0:0:
192,192,50486,128,0,50625:2:0:0:0:
64,192,50765,128,0,50904:2:0:0:0:
320,192,50765,128,0,50904:2:0:0:0:
448,192,51044,128,0,51184:2:0:0:0:
192,192,51044,128,0,51184:2:0:0:0:
64,192,51184,128,0,51253:2:0:0:0:
320,192,51184,128,0,51323:2:0:0:0:
192,192,51323,128,2,51463:0:0:0:0:
448,192,51323,128,0,51463:2:0:0:0:
64,192,51323,1,0,0:0:0:0:
192,192,51602,1,0,2:0:0:0:
448,192,51742,128,0,51811:2:0:0:0:
64,192,51742,128,0,51881:2:0:0:0:
192,192,51881,1,0,0:0:0:0:
320,192,51881,1,2,0:0:0:0:
448,192,51881,1,0,2:0:0:0:
192,192,52021,128,0,52160:2:0:0:0:
64,192,52021,128,0,52160:2:0:0:0:
64,192,52300,1,0,2:0:0:0:
192,192,52439,128,0,52579:2:0:0:0:
320,192,52439,128,2,52579:0:0:0:0:
448,192,52439,1,0,0:0:0:0:
64,192,52718,1,0,0:0:0:0:
192,192,52718,1,2,0:0:0:0:
320,192,52718,1,0,2:0:0:0:
448,192,52858,128,0,52997:2:0:0:0:
448,192,53137,1,0,0:0:0:0:
64,192,53137,128,0,53277:2:0:0:0:
192,192,53137,1,2,0:0:0:0:
320,192,53416,1,0,2:0:0:0:
448,192,53416,1,2,0:0:0:0:
64,192,53556,1,4,0:0:0:0:
192,192,53556,1,8,0:0:0:0:
320,192,53556,1,0,0:0:0:70:pwom.wav
64,192,53835,1,0,0:0:0:0:
192,192,53835,1,8,0:0:0:0:
64,192,54114,1,0,0:0:0:0:
192,192,54114,1,8,0:0:0:0:
192,192,54393,1,8,0:0:0:0:
64,192,54393,1,0,0:0:0:0:
64,192,54672,1,0,0:0:0:0:
192,192,54672,1,8,0:0:0:0:
192,192,54951,1,8,0:0:0:0:
64,192,54951,1,0,0:0:0:0:
64,192,55230,1,0,0:0:0:0:
192,192,55230,1,8,0:0:0:0:
192,192,55509,1,8,0:0:0:0:
64,192,55509,1,0,0:0:0:0:
192,192,55649,1,8,0:0:0:0:
320,192,55649,1,0,0:0:0:0:
320,192,55788,1,8,0:0:0:0:
448,192,55788,1,0,0:0:0:0:
64,192,55788,128,0,56067:0:0:0:70:pwom.wav
448,192,56067,1,0,0:0:0:0:
320,192,56067,1,8,0:0:0:0:
320,192,56346,1,8,0:0:0:0:
448,192,56346,1,0,0:0:0:0:
448,192,56625,1,0,0:0:0:0:
320,192,56625,1,8,0:0:0:0:
320,192,56904,1,8,0:0:0:0:
448,192,56904,1,0,0:0:0:0:
64,192,57044,1,0,0:0:0:0:
192,192,57044,1,8,0:0:0:0:
448,192,57184,1,0,0:0:0:0:
320,192,57184,1,8,0:0:0:0:
320,192,57463,1,8,0:0:0:0:
448,192,57463,1,0,0:0:0:0:
192,192,57602,1,8,0:0:0:0:
320,192,57672,1,8,0:0:0:0:
192,192,57742,1,8,0:0:0:0:
64,192,57742,1,0,0:0:0:0:
320,192,57881,1,8,0:0:0:0:
448,192,57881,1,0,0:0:0:0:
192,192,58021,1,2,0:0:0:0:
64,192,58021,1,0,0:0:0:0:
320,192,58021,1,8,0:0:0:0:
320,192,58230,1,8,0:0:0:0:
192,192,58300,1,8,0:0:0:0:
64,192,58300,1,0,0:0:0:0:
448,192,58439,1,8,0:0:0:0:
192,192,58579,1,8,0:0:0:0:
320,192,58579,1,2,0:0:0:0:
64,192,58579,1,0,0:0:0:0:
192,192,58788,1,8,0:0:0:0:
320,192,58858,1,8,0:0:0:0:
448,192,58858,1,0,0:0:0:0:
64,192,58997,1,8,0:0:0:0:
192,192,59137,1,2,0:0:0:0:
320,192,59137,1,8,0:0:0:0:
448,192,59137,1,0,0:0:0:0:
320,192,59346,1,8,0:0:0:0:
64,192,59416,1,0,0:0:0:0:
192,192,59416,1,8,0:0:0:0:
448,192,59556,1,8,0:0:0:0:
320,192,59695,1,2,0:0:0:0:
192,192,59695,1,8,0:0:0:0:
64,192,59695,1,0,0:0:0:0:
192,192,59904,1,8,0:0:0:0:
448,192,59974,1,0,0:0:0:0:
320,192,59974,1,8,0:0:0:0:
64,192,60114,1,8,0:0:0:0:
320,192,60253,1,2,0:0:0:0:
192,192,60253,1,0,0:0:0:0:
448,192,60253,1,0,0:0:0:0:
320,192,60393,1,0,0:0:0:0:
64,192,60532,1,0,0:0:0:0:
448,192,60532,1,0,0:0:0:0:
192,192,60532,1,2,0:0:0:0:
64,192,60672,1,0,0:0:0:0:
192,192,60811,1,0,0:0:0:0:
448,192,60811,1,0,0:0:0:0:
320,192,60811,1,2,0:0:0:0:
448,192,60951,1,0,0:0:0:0:
320,192,61090,1,0,0:0:0:0:
192,192,61090,1,2,0:0:0:0:
64,192,61090,1,0,0:0:0:0:
192,192,61230,1,0,0:0:0:0:
64,192,61370,1,0,2:0:0:0:
448,192,61370,1,2,0:0:0:0:
192,192,61439,1,0,2:0:0:0:
448,192,61509,1,0,2:0:0:0:
320,192,61579,1,0,2:0:0:0:
64,192,61649,1,0,2:0:0:0:
192,192,61649,1,2,0:0:0:0:
448,192,61718,1,0,2:0:0:0:
64,192,61788,1,0,2:0:0:0:
192,192,61858,1,0,2:0:0:0:
448,192,61928,1,2,0:0:0:0:
320,192,61928,128,0,62067:0:0:0:0:
64,192,61997,1,0,2:0:0:0:
448,192,62067,128,0,62207:0:0:0:0:
192,192,62137,1,0,2:0:0:0:
320,192,62207,128,0,62346:0:0:0:0:
64,192,62346,128,0,62486:0:0:0:0:
320,192,62486,1,2,0:0:0:0:
448,192,62486,1,4,0:0:0:0:
192,192,62486,128,0,62672:0:0:0:0:
64,192,62765,1,0,0:0:0:0:
320,192,62765,1,2,0:0:0:0:
448,192,62765,1,0,0:0:0:0:
192,192,62904,1,0,0:0:0:0:
64,192,62904,1,0,0:0:0:0:
64,192,63044,1,0,0:0:0:0:
192,192,63044,1,2,0:0:0:0:
448,192,63044,1,0,0:0:0:0:
448,192,63184,1,0,0:0:0:0:
320,192,63184,1,0,0:0:0:0:
64,192,63323,1,0,0:0:0:0:
320,192,63323,1,0,0:0:0:0:
192,192,63323,1,2,0:0:0:0:
64,192,63463,1,0,0:0:0:0:
448,192,63463,1,0,0:0:0:0:
192,192,63602,1,2,0:0:0:0:
448,192,63602,1,0,0:0:0:0:
320,192,63602,128,0,63788:0:0:0:0:
64,192,63881,1,0,0:0:0:0:
192,192,63881,1,2,0:0:0:0:
448,192,63881,1,0,0:0:0:0:
320,192,64021,1,0,0:0:0:0:
448,192,64021,1,0,0:0:0:0:
448,192,64160,1,0,0:0:0:0:
192,192,64160,1,0,0:0:0:0:
320,192,64160,1,2,0:0:0:0:
64,192,64300,1,0,0:0:0:0:
192,192,64300,1,0,0:0:0:0:
320,192,64439,1,2,0:0:0:0:
448,192,64439,1,0,0:0:0:0:
64,192,64439,1,0,0:0:0:0:
320,192,64579,1,0,0:0:0:0:
192,192,64579,1,0,0:0:0:0:
192,192,64718,1,2,0:0:0:0:
64,192,64718,1,0,0:0:0:0:
448,192,64718,128,0,64904:0:0:0:0:
192,192,64997,1,2,0:0:0:0:
320,192,64997,1,0,0:0:0:0:
64,192,64997,1,0,0:0:0:0:
320,192,65137,1,0,0:0:0:0:
448,192,65137,1,0,0:0:0:0:
64,192,65277,1,0,0:0:0:0:
448,192,65277,1,0,0:0:0:0:
192,192,65277,1,2,0:0:0:0:
64,192,65416,1,0,0:0:0:0:
192,192,65416,1,0,0:0:0:0:
64,192,65556,1,0,0:0:0:0:
320,192,65556,1,2,0:0:0:0:
448,192,65556,1,0,0:0:0:0:
192,192,65695,1,0,0:0:0:0:
448,192,65695,1,0,0:0:0:0:
320,192,65835,1,2,0:0:0:0:
64,192,65835,1,0,0:0:0:0:
192,192,65835,128,0,66021:0:0:0:0:
64,192,66114,1,0,0:0:0:0:
320,192,66114,1,2,0:0:0:0:
448,192,66114,1,0,0:0:0:0:
320,192,66253,1,0,0:0:0:0:
448,192,66253,1,0,0:0:0:0:
64,192,66393,1,0,0:0:0:0:
192,192,66393,1,2,0:0:0:0:
320,192,66393,1,0,0:0:0:0:
448,192,66463,1,0,0:0:0:0:
64,192,66532,1,0,0:0:0:0:
192,192,66532,1,2,0:0:0:0:
192,192,66672,1,0,0:0:0:0:
320,192,66672,1,0,0:0:0:0:
64,192,66672,1,2,0:0:0:0:
448,192,66811,1,0,0:0:0:0:
320,192,66811,1,0,0:0:0:0:
448,192,66951,128,0,67137:0:0:0:0:
64,192,66951,1,0,0:0:0:0:
192,192,66951,1,2,0:0:0:0:
64,192,67230,1,0,0:0:0:0:
192,192,67230,1,0,0:0:0:0:
320,192,67230,1,2,0:0:0:0:
64,192,67370,1,0,0:0:0:0:
192,192,67370,1,0,0:0:0:0:
448,192,67509,1,0,0:0:0:0:
320,192,67509,1,0,0:0:0:0:
192,192,67509,1,2,0:0:0:0:
320,192,67649,1,0,0:0:0:0:
448,192,67649,1,0,0:0:0:0:
320,192,67788,1,2,0:0:0:0:
192,192,67788,1,0,0:0:0:0:
64,192,67788,1,0,0:0:0:0:
448,192,67928,1,0,0:0:0:0:
64,192,67928,1,0,0:0:0:0:
448,192,68067,128,0,68346:0:0:0:0:
320,192,68067,1,0,0:0:0:0:
192,192,68067,1,2,0:0:0:0:
64,192,68346,1,0,0:0:0:0:
192,192,68346,1,2,0:0:0:0:
320,192,68346,128,0,68625:0:0:0:0:
64,192,68625,1,0,0:0:0:0:
192,192,68625,128,2,68904:0:0:0:0:
448,192,68625,1,0,0:0:0:0:
64,192,68904,1,0,0:0:0:0:
320,192,68904,1,2,0:0:0:0:
448,192,68904,1,0,0:0:0:0:
448,192,69044,1,0,0:0:0:0:
64,192,69044,1,0,0:0:0:0:
448,192,69184,1,0,0:0:0:0:
192,192,69184,1,2,0:0:0:0:
320,192,69184,128,0,69370:0:0:0:0:
64,192,69463,1,0,0:0:0:0:
192,192,69463,1,2,0:0:0:0:
448,192,69463,1,0,0:0:0:0:
64,192,69602,1,0,0:0:0:0:
192,192,69602,1,0,0:0:0:0:
64,192,69742,1,0,0:0:0:0:
320,192,69742,1,2,0:0:0:0:
448,192,69742,1,0,0:0:0:0:
320,192,69881,1,0,0:0:0:0:
448,192,69881,1,0,0:0:0:0:
64,192,70021,1,0,0:0:0:0:
192,192,70021,1,2,0:0:0:0:
448,192,70021,1,0,0:0:0:0:
192,192,70160,1,0,0:0:0:0:
320,192,70160,1,0,0:0:0:0:
64,192,70300,128,0,70486:0:0:0:0:
320,192,70300,1,2,0:0:0:0:
448,192,70300,1,0,0:0:0:0:
320,192,70439,1,2,0:0:0:0:
448,192,70439,1,0,0:0:0:0:
192,192,70579,1,0,0:0:0:0:
448,192,70579,1,0,0:0:0:0:
320,192,70579,1,2,0:0:0:0:
64,192,70718,1,0,0:0:0:0:
192,192,70718,1,0,0:0:0:0:
448,192,70858,1,0,0:0:0:0:
64,192,70858,1,0,0:0:0:0:
320,192,70858,1,2,0:0:0:0:
192,192,70928,1,0,0:0:0:0:
448,192,70997,1,0,0:0:0:0:
320,192,70997,1,2,0:0:0:0:
320,192,71137,1,0,0:0:0:0:
192,192,71137,1,2,0:0:0:0:
64,192,71137,1,0,0:0:0:0:
192,192,71277,1,2,0:0:0:0:
64,192,71277,1,0,0:0:0:0:
448,192,71277,1,0,0:0:0:0:
192,192,71416,1,4,0:0:0:0:
320,192,71416,1,2,0:0:0:0:
448,192,71416,128,0,71602:0:0:0:0:
64,192,71695,1,0,0:0:0:0:
192,192,71695,1,2,0:0:0:0:
320,192,71695,1,0,0:0:0:0:
192,192,71835,1,0,0:0:0:0:
64,192,71835,1,0,0:0:0:0:
64,192,71974,1,0,0:0:0:0:
320,192,71974,1,2,0:0:0:0:
448,192,71974,1,0,0:0:0:0:
320,192,72114,1,0,0:0:0:0:
448,192,72114,1,0,0:0:0:0:
64,192,72253,1,0,0:0:0:0:
192,192,72253,1,2,0:0:0:0:
448,192,72253,1,0,0:0:0:0:
64,192,72393,1,0,0:0:0:0:
320,192,72393,1,0,0:0:0:0:
448,192,72532,1,0,0:0:0:0:
192,192,72532,1,2,0:0:0:0:
320,192,72532,128,0,72811:0:0:0:0:
192,192,72811,128,2,73090:0:0:0:0:
64,192,72811,1,0,0:0:0:0:
448,192,72811,1,0,0:0:0:0:
64,192,73090,128,0,73370:0:0:0:0:
320,192,73090,1,2,0:0:0:0:
448,192,73090,1,0,0:0:0:0:
320,192,73370,1,0,0:0:0:0:
448,192,73370,1,0,0:0:0:0:
192,192,73370,1,2,0:0:0:0:
192,192,73509,1,0,0:0:0:0:
448,192,73509,1,0,0:0:0:0:
64,192,73649,1,0,0:0:0:0:
320,192,73649,1,2,0:0:0:0:
192,192,73649,128,0,73835:0:0:0:0:
64,192,73928,1,0,0:0:0:0:
320,192,73928,1,2,0:0:0:0:
448,192,73928,1,0,0:0:0:0:
320,192,74067,1,0,0:0:0:0:
448,192,74067,1,0,0:0:0:0:
64,192,74207,1,0,0:0:0:0:
192,192,74207,1,2,0:0:0:0:
320,192,74207,1,0,0:0:0:0:
64,192,74346,1,0,0:0:0:0:
192,192,74346,1,0,0:0:0:0:
192,192,74486,1,0,0:0:0:0:
320,192,74486,1,2,0:0:0:0:
448,192,74486,1,0,0:0:0:0:
64,192,74625,1,0,0:0:0:0:
448,192,74625,1,0,0:0:0:0:
192,192,74765,1,2,0:0:0:0:
320,192,74765,1,0,0:0:0:0:
64,192,74765,128,0,74951:0:0:0:0:
192,192,75044,1,0,0:0:0:0:
448,192,75044,1,0,0:0:0:0:
320,192,75044,1,2,0:0:0:0:
320,192,75184,1,0,0:0:0:0:
448,192,75184,1,0,0:0:0:0:
64,192,75323,1,0,0:0:0:0:
320,192,75323,1,2,0:0:0:0:
448,192,75323,1,0,0:0:0:0:
64,192,75463,1,0,0:0:0:0:
192,192,75463,1,2,0:0:0:0:
320,192,75463,1,0,0:0:0:0:
64,192,75602,1,0,0:0:0:0:
192,192,75602,1,2,0:0:0:0:
448,192,75602,1,0,0:0:0:0:
192,192,75742,1,0,0:0:0:0:
320,192,75742,1,0,0:0:0:0:
64,192,75881,1,0,0:0:0:0:
448,192,75881,1,0,0:0:0:0:
320,192,75881,128,2,76067:0:0:0:0:
64,192,76160,1,0,0:0:0:0:
192,192,76160,1,2,0:0:0:0:
448,192,76160,1,0,0:0:0:0:
320,192,76300,1,0,0:0:0:0:
448,192,76300,1,0,0:0:0:0:
320,192,76439,1,2,0:0:0:0:
448,192,76439,1,0,0:0:0:0:
64,192,76439,1,0,0:0:0:0:
192,192,76579,1,0,0:0:0:0:
320,192,76579,1,0,0:0:0:0:
64,192,76718,1,0,0:0:0:0:
192,192,76718,1,2,0:0:0:0:
448,192,76718,1,0,0:0:0:0:
64,192,76858,1,0,0:0:0:0:
320,192,76858,1,0,0:0:0:0:
320,192,76997,1,2,0:0:0:0:
448,192,76997,1,0,0:0:0:0:
64,192,76997,128,0,77277:0:0:0:0:
192,192,77277,128,0,77556:0:0:0:0:
320,192,77277,1,2,0:0:0:0:
448,192,77277,1,0,0:0:0:0:
320,192,77556,128,2,77835:0:0:0:0:
64,192,77556,1,0,0:0:0:0:
448,192,77556,1,0,0:0:0:0:
64,192,77835,1,0,0:0:0:0:
192,192,77835,1,2,0:0:0:0:
448,192,77835,1,0,0:0:0:0:
64,192,77974,1,0,0:0:0:0:
448,192,77974,1,0,0:0:0:0:
64,192,78114,1,0,0:0:0:0:
192,192,78114,1,0,0:0:0:0:
320,192,78114,128,2,78323:0:0:0:0:
64,192,78323,1,0,0:0:0:0:
448,192,78323,1,0,0:0:0:0:
192,192,78323,128,2,78463:0:0:0:0:
320,192,78532,1,2,0:0:0:0:
448,192,78532,1,0,0:0:0:0:
64,192,78532,128,0,78602:0:0:0:0:
192,192,78672,1,0,0:0:0:0:
320,192,78672,1,2,0:0:0:0:
448,192,78672,128,0,78881:0:0:0:0:
64,192,78881,1,0,0:0:0:0:
320,192,78881,1,2,0:0:0:0:
192,192,78881,128,0,79021:0:0:0:0:
64,192,79090,1,0,0:0:0:0:
448,192,79090,1,0,0:0:0:0:
320,192,79090,128,2,79160:0:0:0:0:
64,192,79230,1,0,0:0:0:0:
192,192,79230,1,2,0:0:0:0:
320,192,79300,1,2,0:0:0:0:
448,192,79300,1,0,0:0:0:0:
192,192,79370,1,2,0:0:0:0:
64,192,79370,1,0,0:0:0:0:
320,192,79439,1,2,0:0:0:0:
448,192,79439,1,0,0:0:0:0:
192,192,79509,1,2,0:0:0:0:
64,192,79509,1,0,0:0:0:0:
320,192,79579,1,2,0:0:0:0:
448,192,79579,1,0,0:0:0:0:
64,192,79649,1,0,0:0:0:0:
192,192,79649,1,2,0:0:0:0:
320,192,79718,1,2,0:0:0:0:
64,192,79788,1,0,0:0:0:0:
192,192,79788,1,2,0:0:0:0:
448,192,79788,1,0,0:0:0:0:
448,192,79928,1,0,0:0:0:0:
320,192,79928,1,0,0:0:0:0:
192,192,80067,128,0,80137:2:0:0:0:
320,192,80207,1,0,0:0:0:0:
192,192,80346,1,2,0:0:0:0:
448,192,80346,1,4,0:0:0:0:
64,192,80346,128,0,81044:0:0:0:0:
192,192,81184,128,0,81323:2:0:0:0:
320,192,81323,128,0,81463:2:0:0:0:
448,192,81463,128,0,82160:0:0:0:0:
64,192,82300,128,0,82439:2:0:0:0:
320,192,82439,128,0,82579:2:0:0:0:
192,192,82579,128,0,83277:0:0:0:0:
64,192,83416,128,0,83556:2:0:0:0:
448,192,83556,128,0,83695:2:0:0:0:
320,192,83695,128,0,84114:0:0:0:0:
64,192,84253,128,0,84672:2:0:0:0:
192,192,84532,128,0,84811:2:0:0:0:
448,192,84811,128,0,85370:0:0:0:0:
320,192,85300,128,0,85439:2:0:0:0:
64,192,85370,128,0,85788:2:0:0:0:
192,192,85614,128,0,86067:2:0:0:0:
448,192,85928,128,0,86381:0:0:0:0:
320,192,86207,128,0,86311:2:0:0:0:
192,192,86242,128,0,86486:2:0:0:0:
64,192,86486,128,0,86904:2:0:0:0:
448,192,86765,128,0,87184:2:0:0:0:
64,192,87044,128,0,87463:0:0:0:0:
448,192,87323,128,0,87742:2:0:0:0:
192,192,87602,128,0,87881:2:0:0:0:
320,192,87881,128,0,87951:2:0:0:0:
320,192,88021,128,0,89137:2:0:0:0:
64,192,88160,1,0,0:0:0:0:
192,192,88579,128,0,89277:2:0:0:70:blank.wav
448,192,89277,1,0,0:0:0:70:pwom.wav
64,192,89277,128,8,89835:0:0:0:0:
320,192,89277,1,4,0:0:0:0:
192,192,89556,1,0,0:0:0:0:
448,192,89556,1,8,0:0:0:0:
192,192,89835,1,0,0:0:0:0:
320,192,89835,1,8,0:0:0:0:
448,192,90114,1,8,0:0:0:0:
192,192,90114,128,0,90253:2:0:0:0:
320,192,90253,128,0,90393:2:0:0:0:
192,192,90393,1,8,0:0:0:0:
448,192,90393,128,0,91090:0:0:0:0:
64,192,90672,1,0,0:0:0:0:
320,192,90672,1,8,0:0:0:0:
64,192,90951,1,0,0:0:0:0:
192,192,90951,1,8,0:0:0:0:
320,192,91230,1,8,0:0:0:0:
64,192,91230,128,0,91370:2:0:0:0:
448,192,91370,1,8,0:0:0:0:
192,192,91370,128,0,91509:2:0:0:0:
64,192,91509,128,0,91788:0:0:0:70:pwom.wav
448,192,91509,1,8,0:0:0:0:
320,192,91509,128,0,92207:0:0:0:0:
192,192,91788,1,8,0:0:0:0:
448,192,91788,1,0,0:0:0:0:
64,192,92067,1,0,0:0:0:0:
192,192,92067,1,8,0:0:0:0:
192,192,92346,1,8,0:0:0:0:
448,192,92346,128,0,92486:2:0:0:0:
64,192,92486,128,0,92625:2:0:0:0:
320,192,92625,1,8,0:0:0:0:
192,192,92625,128,0,93044:0:0:0:0:
64,192,92765,1,0,0:0:0:0:
448,192,92765,1,8,0:0:0:0:
320,192,92904,1,8,0:0:0:0:
64,192,92904,1,0,0:0:0:0:
448,192,93184,1,8,0:0:0:0:
320,192,93184,128,0,93463:2:0:0:0:
64,192,93323,1,8,0:0:0:0:
192,192,93393,1,8,0:0:0:0:
64,192,93463,1,8,0:0:0:0:
448,192,93463,128,0,93742:2:0:0:0:
192,192,93602,1,0,0:0:0:0:
320,192,93602,1,8,0:0:0:0:
64,192,93742,1,8,0:0:0:0:
320,192,93742,1,2,0:0:0:0:
192,192,93742,128,0,94300:0:0:0:0:
320,192,93951,1,8,0:0:0:0:
448,192,94021,1,8,0:0:0:0:
64,192,94021,1,0,0:0:0:0:
320,192,94160,1,8,0:0:0:0:
320,192,94300,1,2,0:0:0:0:
448,192,94300,1,8,0:0:0:0:
64,192,94300,128,0,94579:2:0:0:0:
192,192,94509,1,8,0:0:0:0:
448,192,94579,1,8,0:0:0:0:
320,192,94579,128,0,94858:2:0:0:0:
192,192,94718,1,8,0:0:0:0:
192,192,94858,1,2,0:0:0:0:
64,192,94858,1,8,0:0:0:0:
448,192,94858,128,0,95137:0:0:0:0:
320,192,95067,1,8,0:0:0:0:
64,192,95137,1,8,0:0:0:0:
192,192,95137,128,0,95416:2:0:0:0:
320,192,95277,1,8,0:0:0:0:
64,192,95416,1,8,0:0:0:0:
448,192,95416,1,2,0:0:0:0:
320,192,95416,128,0,95695:2:0:0:0:
192,192,95625,1,8,0:0:0:0:
448,192,95695,1,8,0:0:0:0:
64,192,95695,128,0,95974:2:0:0:0:
192,192,95835,1,8,0:0:0:0:
192,192,95974,1,0,0:0:0:0:
320,192,95974,1,2,0:0:0:0:
448,192,95974,128,0,97090:0:0:0:0:
320,192,96114,1,0,0:0:0:0:
64,192,96253,1,0,0:0:0:0:
192,192,96253,1,0,0:0:0:0:
320,192,96253,1,2,0:0:0:0:
64,192,96393,1,0,0:0:0:0:
64,192,96532,1,0,0:0:0:0:
192,192,96532,1,0,0:0:0:0:
320,192,96532,1,2,0:0:0:0:
320,192,96672,1,0,0:0:0:0:
320,192,96811,1,2,0:0:0:0:
192,192,96811,1,0,0:0:0:0:
64,192,96811,1,0,0:0:0:0:
192,192,96951,1,0,0:0:0:0:
64,192,97090,1,0,2:0:0:0:
192,192,97090,1,2,0:0:0:0:
320,192,97160,1,0,2:0:0:0:
448,192,97230,1,0,2:0:0:0:
192,192,97300,1,0,2:0:0:0:
64,192,97370,1,0,2:0:0:0:
320,192,97370,1,2,0:0:0:0:
448,192,97439,1,0,2:0:0:0:
192,192,97509,1,0,2:0:0:0:
320,192,97579,1,0,2:0:0:0:
448,192,97649,1,2,0:0:0:0:
64,192,97649,128,0,97788:0:0:0:0:
192,192,97718,1,0,2:0:0:0:
320,192,97788,128,0,97928:0:0:0:0:
448,192,97858,1,0,2:0:0:0:
192,192,97928,128,0,98067:0:0:0:0:
64,192,98067,128,0,98207:0:0:0:0:
448,192,98207,128,0,98393:0:0:0:0:
192,192,98207,1,4,0:0:0:0:
320,192,98207,1,2,0:0:0:0:
64,192,98486,1,0,0:0:0:0:
192,192,98486,1,0,0:0:0:0:
320,192,98486,1,2,0:0:0:0:
64,192,98625,1,0,0:0:0:0:
192,192,98625,1,0,0:0:0:0:
64,192,98765,1,0,0:0:0:0:
320,192,98765,1,2,0:0:0:0:
448,192,98765,1,0,0:0:0:0:
320,192,98904,1,0,0:0:0:0:
448,192,98904,1,0,0:0:0:0:
64,192,99044,1,0,0:0:0:0:
192,192,99044,1,2,0:0:0:0:
448,192,99044,1,0,0:0:0:0:
192,192,99184,1,0,0:0:0:0:
320,192,99184,1,0,0:0:0:0:
64,192,99323,1,0,0:0:0:0:
448,192,99323,1,0,0:0:0:0:
192,192,99323,128,2,99509:0:0:0:0:
64,192,99602,1,0,0:0:0:0:
320,192,99602,1,2,0:0:0:0:
448,192,99602,1,0,0:0:0:0:
448,192,99742,1,0,0:0:0:0:
320,192,99742,1,0,0:0:0:0:
64,192,99881,1,0,0:0:0:0:
192,192,99881,1,2,0:0:0:0:
320,192,99881,1,0,0:0:0:0:
64,192,100021,1,0,0:0:0:0:
192,192,100021,1,0,0:0:0:0:
64,192,100160,1,0,0:0:0:0:
320,192,100160,1,2,0:0:0:0:
448,192,100160,1,0,0:0:0:0:
192,192,100300,1,0,0:0:0:0:
448,192,100300,1,0,0:0:0:0:
64,192,100439,1,0,0:0:0:0:
192,192,100439,1,0,0:0:0:0:
320,192,100439,128,2,100625:0:0:0:0:
192,192,100718,1,2,0:0:0:0:
64,192,100718,1,0,0:0:0:0:
448,192,100718,1,0,0:0:0:0:
320,192,100858,1,0,0:0:0:0:
448,192,100858,1,0,0:0:0:0:
64,192,100997,1,0,0:0:0:0:
320,192,100997,1,2,0:0:0:0:
448,192,100997,1,0,0:0:0:0:
64,192,101137,1,0,0:0:0:0:
192,192,101137,1,0,0:0:0:0:
192,192,101277,1,0,0:0:0:0:
320,192,101277,1,2,0:0:0:0:
448,192,101277,1,0,0:0:0:0:
64,192,101416,1,0,0:0:0:0:
448,192,101416,1,0,0:0:0:0:
192,192,101556,1,2,0:0:0:0:
320,192,101556,1,0,0:0:0:0:
64,192,101556,128,0,101742:0:0:0:0:
192,192,101835,1,0,0:0:0:0:
320,192,101835,1,2,0:0:0:0:
448,192,101835,1,0,0:0:0:0:
192,192,101974,1,0,0:0:0:0:
64,192,101974,1,0,0:0:0:0:
448,192,102114,1,0,0:0:0:0:
320,192,102114,1,2,0:0:0:0:
64,192,102114,1,0,0:0:0:0:
192,192,102184,1,0,0:0:0:0:
448,192,102253,1,0,0:0:0:0:
320,192,102253,1,2,0:0:0:0:
320,192,102393,1,0,0:0:0:0:
448,192,102393,1,0,0:0:0:0:
64,192,102393,1,2,0:0:0:0:
192,192,102532,1,0,0:0:0:0:
64,192,102532,1,0,0:0:0:0:
192,192,102672,1,0,0:0:0:0:
448,192,102672,128,0,102858:0:0:0:0:
320,192,102672,1,2,0:0:0:0:
320,192,102951,1,0,0:0:0:0:
192,192,102951,1,2,0:0:0:0:
64,192,102951,1,0,0:0:0:0:
64,192,103090,1,0,0:0:0:0:
448,192,103090,1,0,0:0:0:0:
192,192,103230,1,0,0:0:0:0:
320,192,103230,1,2,0:0:0:0:
448,192,103230,1,0,0:0:0:0:
64,192,103370,1,0,0:0:0:0:
192,192,103370,1,0,0:0:0:0:
64,192,103509,1,0,0:0:0:0:
320,192,103509,1,2,0:0:0:0:
448,192,103509,1,0,0:0:0:0:
320,192,103649,1,0,0:0:0:0:
448,192,103649,1,0,0:0:0:0:
64,192,103788,1,0,0:0:0:0:
192,192,103788,1,2,0:0:0:0:
320,192,103788,128,0,104067:0:0:0:0:
448,192,104067,1,0,0:0:0:0:
64,192,104067,1,0,0:0:0:0:
192,192,104067,128,2,104346:0:0:0:0:
320,192,104346,1,2,0:0:0:0:
448,192,104346,1,0,0:0:0:0:
64,192,104346,128,0,104625:0:0:0:0:
192,192,104625,1,0,0:0:0:0:
320,192,104625,1,2,0:0:0:0:
448,192,104625,1,0,0:0:0:0:
64,192,104765,1,0,0:0:0:0:
448,192,104765,1,0,0:0:0:0:
192,192,104904,1,2,0:0:0:0:
64,192,104904,1,0,0:0:0:0:
320,192,104904,128,0,105090:0:0:0:0:
192,192,105184,1,2,0:0:0:0:
64,192,105184,1,0,0:0:0:0:
448,192,105184,1,0,0:0:0:0:
64,192,105323,1,0,0:0:0:0:
320,192,105323,1,0,0:0:0:0:
192,192,105463,1,0,0:0:0:0:
320,192,105463,1,2,0:0:0:0:
448,192,105463,1,0,0:0:0:0:
64,192,105602,1,0,0:0:0:0:
192,192,105602,1,0,0:0:0:0:
64,192,105742,1,0,0:0:0:0:
320,192,105742,1,2,0:0:0:0:
448,192,105742,1,0,0:0:0:0:
192,192,105881,1,0,0:0:0:0:
448,192,105881,1,0,0:0:0:0:
64,192,106021,1,0,0:0:0:0:
320,192,106021,1,2,0:0:0:0:
192,192,106021,128,0,106207:0:0:0:0:
320,192,106160,1,0,0:0:0:0:
448,192,106160,1,2,0:0:0:0:
64,192,106300,1,0,0:0:0:0:
320,192,106300,1,2,0:0:0:0:
448,192,106300,1,0,0:0:0:0:
448,192,106439,1,0,0:0:0:0:
192,192,106439,1,0,0:0:0:0:
64,192,106579,1,0,0:0:0:0:
320,192,106579,1,0,0:0:0:0:
192,192,106579,1,2,0:0:0:0:
448,192,106649,1,0,0:0:0:0:
192,192,106718,1,2,0:0:0:0:
64,192,106718,1,0,0:0:0:0:
448,192,106858,1,0,0:0:0:0:
64,192,106858,1,0,0:0:0:0:
320,192,106858,1,2,0:0:0:0:
192,192,106997,1,2,0:0:0:0:
448,192,106997,1,0,0:0:0:0:
320,192,106997,1,0,0:0:0:0:
64,192,107137,128,0,107323:0:0:0:0:
448,192,107137,1,4,0:0:0:0:
192,192,107137,1,2,0:0:0:0:
192,192,107416,1,2,0:0:0:0:
320,192,107416,1,0,0:0:0:0:
448,192,107416,1,0,0:0:0:0:
64,192,107556,1,0,0:0:0:0:
320,192,107556,1,0,0:0:0:0:
192,192,107695,1,2,0:0:0:0:
448,192,107695,1,0,0:0:0:0:
64,192,107695,1,0,0:0:0:0:
320,192,107835,1,0,0:0:0:0:
448,192,107835,1,0,0:0:0:0:
64,192,107974,1,0,0:0:0:0:
320,192,107974,1,0,0:0:0:0:
192,192,107974,1,2,0:0:0:0:
64,192,108114,1,0,0:0:0:0:
192,192,108114,1,0,0:0:0:0:
192,192,108253,128,0,108532:0:0:0:0:
320,192,108253,1,2,0:0:0:0:
448,192,108253,1,0,0:0:0:0:
320,192,108532,128,2,108811:0:0:0:0:
64,192,108532,1,0,0:0:0:0:
448,192,108532,1,0,0:0:0:0:
448,192,108811,128,0,109090:0:0:0:0:
192,192,108811,1,2,0:0:0:0:
64,192,108811,1,0,0:0:0:0:
320,192,109090,1,0,0:0:0:0:
64,192,109090,1,0,0:0:0:0:
192,192,109090,1,2,0:0:0:0:
320,192,109230,1,0,0:0:0:0:
64,192,109230,1,0,0:0:0:0:
320,192,109370,1,2,0:0:0:0:
448,192,109370,1,0,0:0:0:0:
192,192,109370,128,0,109556:0:0:0:0:
64,192,109649,1,0,0:0:0:0:
320,192,109649,1,2,0:0:0:0:
448,192,109649,1,0,0:0:0:0:
64,192,109788,1,0,0:0:0:0:
192,192,109788,1,0,0:0:0:0:
192,192,109928,1,0,0:0:0:0:
320,192,109928,1,2,0:0:0:0:
448,192,109928,1,0,0:0:0:0:
64,192,110067,1,0,0:0:0:0:
320,192,110067,1,0,0:0:0:0:
64,192,110207,1,0,0:0:0:0:
192,192,110207,1,2,0:0:0:0:
448,192,110207,1,0,0:0:0:0:
320,192,110346,1,0,0:0:0:0:
448,192,110346,1,0,0:0:0:0:
320,192,110486,128,2,110672:0:0:0:0:
192,192,110486,1,0,0:0:0:0:
64,192,110486,1,0,0:0:0:0:
64,192,110765,1,0,0:0:0:0:
192,192,110765,1,2,0:0:0:0:
448,192,110765,1,0,0:0:0:0:
320,192,110904,1,0,0:0:0:0:
448,192,110904,1,0,0:0:0:0:
64,192,111044,1,0,0:0:0:0:
192,192,111044,1,0,0:0:0:0:
320,192,111044,1,2,0:0:0:0:
192,192,111184,1,2,0:0:0:0:
64,192,111184,1,0,0:0:0:0:
448,192,111184,1,0,0:0:0:0:
64,192,111323,1,0,0:0:0:0:
448,192,111323,1,0,0:0:0:0:
320,192,111323,1,2,0:0:0:0:
192,192,111463,1,0,0:0:0:0:
320,192,111463,1,0,0:0:0:0:
448,192,111602,128,0,111788:0:0:0:0:
64,192,111602,1,0,0:0:0:0:
192,192,111602,1,2,0:0:0:0:
64,192,111881,1,0,0:0:0:0:
192,192,111881,1,2,0:0:0:0:
320,192,111881,1,0,0:0:0:0:
320,192,112021,1,0,0:0:0:0:
448,192,112021,1,0,0:0:0:0:
64,192,112160,1,0,0:0:0:0:
192,192,112160,1,2,0:0:0:0:
448,192,112160,1,0,0:0:0:0:
64,192,112300,1,0,0:0:0:0:
192,192,112300,1,0,0:0:0:0:
64,192,112439,1,0,0:0:0:0:
320,192,112439,1,2,0:0:0:0:
448,192,112439,1,0,0:0:0:0:
192,192,112579,1,0,0:0:0:0:
320,192,112579,1,0,0:0:0:0:
448,192,112718,128,0,112997:0:0:0:0:
64,192,112718,1,0,0:0:0:0:
320,192,112718,1,2,0:0:0:0:
320,192,112997,128,0,113277:0:0:0:0:
64,192,112997,1,0,0:0:0:0:
192,192,112997,1,2,0:0:0:0:
192,192,113277,128,2,113556:0:0:0:0:
448,192,113277,1,0,0:0:0:0:
64,192,113277,1,0,0:0:0:0:
64,192,113556,1,0,0:0:0:0:
320,192,113556,1,2,0:0:0:0:
448,192,113556,1,0,0:0:0:0:
192,192,113695,1,0,0:0:0:0:
448,192,113695,1,0,0:0:0:0:
64,192,113835,1,0,0:0:0:0:
192,192,113835,1,0,0:0:0:0:
320,192,113835,128,2,114044:0:0:0:0:
64,192,114044,1,0,0:0:0:0:
448,192,114044,1,0,0:0:0:0:
192,192,114044,128,2,114184:0:0:0:0:
320,192,114253,1,2,0:0:0:0:
448,192,114253,1,0,0:0:0:0:
64,192,114253,128,0,114323:0:0:0:0:
192,192,114393,1,2,0:0:0:0:
448,192,114393,1,0,0:0:0:0:
320,192,114393,128,0,114602:0:0:0:0:
64,192,114602,1,0,0:0:0:0:
192,192,114602,1,2,0:0:0:0:
448,192,114602,128,0,114742:0:0:0:0:
192,192,114811,1,2,0:0:0:0:
320,192,114811,1,0,0:0:0:0:
64,192,114811,128,0,114881:0:0:0:0:
320,192,114951,1,2,0:0:0:0:
448,192,114951,1,0,0:0:0:0:
192,192,115021,1,2,0:0:0:0:
64,192,115021,1,0,0:0:0:0:
320,192,115090,1,2,0:0:0:0:
448,192,115090,1,0,0:0:0:0:
192,192,115160,1,2,0:0:0:0:
64,192,115160,1,0,0:0:0:0:
320,192,115230,1,2,0:0:0:0:
448,192,115230,1,0,0:0:0:0:
192,192,115300,1,2,0:0:0:0:
64,192,115300,1,0,0:0:0:0:
448,192,115370,1,0,0:0:0:0:
320,192,115370,1,2,0:0:0:0:
192,192,115439,1,2,0:0:0:0:
448,192,115509,1,0,0:0:0:0:
320,192,115509,1,2,0:0:0:0:
64,192,115509,1,0,0:0:0:0:
64,192,115649,1,0,0:0:0:0:
192,192,115649,1,0,0:0:0:0:
320,192,115788,128,0,115858:2:0:0:0:
192,192,115788,128,0,116067:0:0:0:0:
448,192,115928,1,0,0:0:0:0:
320,192,116067,128,0,116253:2:0:0:0:
64,192,116067,128,0,116765:0:0:0:0:
448,192,116067,1,4,0:0:0:0:
320,192,116625,128,0,117323:2:0:0:0:
448,192,117184,128,0,117742:2:0:0:0:
192,192,117742,128,0,117951:2:0:0:0:
320,192,117951,128,0,118160:2:0:0:0:
192,192,118160,128,0,118300:2:0:0:0:
64,192,118300,128,0,120184:2:0:0:0:
192,192,120253,128,0,120532:2:0:0:0:
320,192,120393,128,0,120532:2:0:0:0:
64,192,120532,128,0,121230:2:0:0:0:
320,192,121090,128,0,121788:2:0:0:0:
448,192,121649,128,0,122207:2:0:0:0:
192,192,122207,128,0,122416:2:0:0:0:
448,192,122416,128,0,122625:2:0:0:0:
320,192,122625,128,0,122765:2:0:0:0:
64,192,122765,128,0,124858:2:0:0:0:
64,192,124997,128,0,125695:0:0:0:0:
320,192,124997,1,4,0:0:0:0:
448,192,124997,1,0,0:0:0:0:
320,192,125556,128,0,126253:2:0:0:0:
448,192,126114,128,0,126672:2:0:0:0:
192,192,126672,128,0,126881:2:0:0:0:
320,192,126881,128,0,127090:2:0:0:0:
192,192,127090,128,0,127230:2:0:0:0:
64,192,127230,128,0,129114:2:0:0:0:
192,192,129184,128,0,129463:2:0:0:0:
320,192,129323,128,0,129463:2:0:0:0:
64,192,129463,128,0,130160:2:0:0:0:
320,192,130021,128,0,130718:2:0:0:0:
448,192,130579,128,0,131137:2:0:0:0:
192,192,131137,128,0,131346:2:0:0:0:
448,192,131346,128,0,131556:2:0:0:0:
320,192,131556,128,0,131695:2:0:0:0:
64,192,131695,128,0,133788:2:0:0:0:
320,192,133928,1,2,0:0:0:0:
448,192,133928,128,4,134067:0:0:0:0:
192,192,133928,128,0,134067:2:0:0:0:
64,192,134207,1,0,2:0:0:0:
192,192,134346,128,0,134486:2:0:0:0:
320,192,134346,128,0,134486:2:0:0:0:
64,192,134625,128,0,134765:2:0:0:0:
448,192,134625,128,0,134765:2:0:0:0:
320,192,134904,1,0,2:0:0:0:
448,192,135044,128,0,135184:2:0:0:0:
192,192,135044,128,0,135184:2:0:0:0:
64,192,135323,1,0,2:0:0:0:
192,192,135463,128,0,135602:2:0:0:0:
320,192,135463,128,0,135602:2:0:0:0:
64,192,135742,128,0,135881:2:0:0:0:
448,192,135742,128,0,135881:2:0:0:0:
320,192,136021,1,0,2:0:0:0:
64,192,136160,128,0,136300:2:0:0:0:
192,192,136160,128,0,136300:2:0:0:0:
320,192,136439,1,0,2:0:0:0:
192,192,136579,128,0,136718:2:0:0:0:
448,192,136579,128,0,136718:2:0:0:0:
320,192,136858,128,0,136997:2:0:0:0:
64,192,136858,128,0,136997:2:0:0:0:
448,192,137137,1,0,2:0:0:0:
192,192,137277,128,0,137416:2:0:0:0:
64,192,137277,128,0,137416:2:0:0:0:
320,192,137556,1,0,2:0:0:0:
192,192,137695,128,0,137835:2:0:0:0:
448,192,137695,128,0,137835:2:0:0:0:
64,192,137974,128,0,138044:2:0:0:0:
320,192,137974,128,0,138114:2:0:0:0:
448,192,138114,1,0,0:0:0:0:
192,192,138114,128,2,138253:0:0:0:0:
64,192,138114,128,0,138253:2:0:0:0:
320,192,138253,1,0,2:0:0:0:
320,192,138393,1,2,0:0:0:0:
64,192,138393,128,0,138532:2:0:0:0:
448,192,138393,128,0,138532:0:0:0:0:
64,192,138672,1,0,2:0:0:0:
320,192,138811,128,0,138951:2:0:0:0:
192,192,138811,128,0,138951:2:0:0:0:
192,192,139090,128,0,139230:2:0:0:0:
448,192,139090,128,0,139230:2:0:0:0:
64,192,139370,1,0,2:0:0:0:
192,192,139509,1,2,0:0:0:0:
320,192,139509,128,0,139649:0:0:0:0:
448,192,139509,128,0,139649:2:0:0:0:
192,192,139788,128,0,139928:2:0:0:0:
448,192,139788,128,0,139928:2:0:0:0:
320,192,140067,128,0,140207:2:0:0:0:
64,192,140067,128,0,140207:2:0:0:0:
64,192,140346,128,0,140486:2:0:0:0:
448,192,140346,128,0,140486:2:0:0:0:
320,192,140486,128,0,140625:2:0:0:0:
192,192,140486,128,0,140556:2:0:0:0:
448,192,140625,1,2,0:0:0:0:
64,192,140625,128,0,140765:0:0:0:0:
192,192,140625,128,0,140765:2:0:0:0:
320,192,140904,1,0,2:0:0:0:
448,192,141044,128,0,141184:2:0:0:0:
192,192,141044,128,0,141114:2:0:0:0:
320,192,141184,1,2,0:0:0:0:
192,192,141184,1,0,0:0:0:0:
64,192,141184,1,0,2:0:0:0:
64,192,141323,128,0,141463:2:0:0:0:
320,192,141323,128,0,141463:0:0:0:0:
192,192,141602,1,0,2:0:0:0:
64,192,141742,1,0,2:0:0:0:
320,192,141742,128,2,141881:0:0:0:0:
448,192,141742,128,0,141881:0:0:0:0:
448,192,142021,1,0,0:0:0:0:
192,192,142021,1,2,0:0:0:0:
64,192,142021,1,0,2:0:0:0:
320,192,142160,128,0,142300:2:0:0:0:
320,192,142439,1,2,0:0:0:0:
64,192,142439,128,0,142579:2:0:0:0:
448,192,142439,1,0,0:0:0:0:
64,192,142718,1,2,0:0:0:0:
192,192,142718,1,0,2:0:0:0:
192,192,142858,1,0,0:0:0:70:pwom.wav
320,192,142858,1,8,0:0:0:0:
448,192,142858,1,4,0:0:0:0:
320,192,143137,1,8,0:0:0:0:
448,192,143137,1,0,0:0:0:0:
320,192,143416,1,8,0:0:0:0:
448,192,143416,1,0,0:0:0:0:
320,192,143695,1,8,0:0:0:0:
448,192,143695,1,0,0:0:0:0:
320,192,143974,1,8,0:0:0:0:
448,192,143974,1,0,0:0:0:0:
320,192,144253,1,8,0:0:0:0:
448,192,144253,1,0,0:0:0:0:
320,192,144532,1,8,0:0:0:0:
448,192,144532,1,0,0:0:0:0:
320,192,144811,1,8,0:0:0:0:
448,192,144811,1,0,0:0:0:0:
448,192,144951,1,8,0:0:0:0:
64,192,144951,1,0,0:0:0:0:
64,192,145090,1,0,0:0:0:0:
192,192,145090,1,8,0:0:0:0:
320,192,145090,128,0,145370:0:0:0:70:pwom.wav
64,192,145370,1,0,0:0:0:0:
192,192,145370,1,8,0:0:0:0:
64,192,145649,1,0,0:0:0:0:
192,192,145649,1,8,0:0:0:0:
64,192,145928,1,0,0:0:0:0:
192,192,145928,1,8,0:0:0:0:
64,192,146207,1,0,0:0:0:0:
192,192,146207,1,8,0:0:0:0:
320,192,146346,1,8,0:0:0:0:
448,192,146346,1,0,0:0:0:0:
192,192,146486,1,8,0:0:0:0:
64,192,146486,1,0,0:0:0:0:
64,192,146765,1,0,0:0:0:0:
192,192,146765,1,8,0:0:0:0:
320,192,146904,1,8,0:0:0:0:
192,192,146974,1,8,0:0:0:0:
320,192,147044,1,8,0:0:0:0:
448,192,147044,1,0,0:0:0:0:
192,192,147184,1,8,0:0:0:0:
64,192,147184,1,0,0:0:0:0:
320,192,147323,1,2,0:0:0:0:
448,192,147323,1,0,0:0:0:0:
192,192,147323,1,8,0:0:0:0:
192,192,147532,1,8,0:0:0:0:
320,192,147602,1,8,0:0:0:0:
448,192,147602,1,0,0:0:0:0:
64,192,147742,1,8,0:0:0:0:
320,192,147881,1,8,0:0:0:0:
192,192,147881,1,2,0:0:0:0:
448,192,147881,1,0,0:0:0:0:
320,192,148090,1,8,0:0:0:0:
192,192,148160,1,8,0:0:0:0:
64,192,148160,1,0,0:0:0:0:
448,192,148300,1,8,0:0:0:0:
320,192,148439,1,2,0:0:0:0:
192,192,148439,1,8,0:0:0:0:
64,192,148439,1,0,0:0:0:0:
192,192,148649,1,8,0:0:0:0:
448,192,148718,1,0,0:0:0:0:
320,192,148718,1,8,0:0:0:0:
64,192,148858,1,8,0:0:0:0:
192,192,148997,1,2,0:0:0:0:
320,192,148997,1,8,0:0:0:0:
448,192,148997,1,0,0:0:0:0:
320,192,149207,1,8,0:0:0:0:
64,192,149277,1,0,0:0:0:0:
192,192,149277,1,8,0:0:0:0:
448,192,149416,1,8,0:0:0:0:
64,192,149556,1,0,0:0:0:0:
320,192,149556,1,2,0:0:0:0:
192,192,149556,1,0,0:0:0:0:
64,192,149695,1,0,0:0:0:0:
192,192,149835,1,2,0:0:0:0:
320,192,149835,1,0,0:0:0:0:
448,192,149835,1,0,0:0:0:0:
448,192,149974,1,0,0:0:0:0:
64,192,150114,1,0,0:0:0:0:
192,192,150114,1,0,0:0:0:0:
320,192,150114,1,2,0:0:0:0:
192,192,150253,1,0,0:0:0:0:
64,192,150393,1,0,0:0:0:0:
320,192,150393,1,2,0:0:0:0:
448,192,150393,1,0,0:0:0:0:
320,192,150532,1,0,0:0:0:0:
64,192,150672,1,0,2:0:0:0:
192,192,150672,1,2,0:0:0:0:
320,192,150742,1,0,2:0:0:0:
448,192,150811,1,0,2:0:0:0:
64,192,150881,1,0,2:0:0:0:
192,192,150951,1,2,0:0:0:0:
320,192,150951,1,0,2:0:0:0:
448,192,151021,1,0,2:0:0:0:
64,192,151090,1,0,2:0:0:0:
192,192,151160,1,0,2:0:0:0:
320,192,151230,1,2,0:0:0:0:
448,192,151230,128,0,151370:0:0:0:0:
64,192,151300,1,0,2:0:0:0:
320,192,151370,128,0,151509:0:0:0:0:
192,192,151439,1,0,2:0:0:0:
64,192,151509,128,0,151649:0:0:0:0:
192,192,151649,128,0,151788:0:0:0:0:
64,192,151788,1,4,0:0:0:0:
320,192,151788,1,2,0:0:0:0:
448,192,151788,128,0,151974:0:0:0:0:
64,192,152067,1,0,0:0:0:0:
192,192,152067,1,0,0:0:0:0:
320,192,152067,1,2,0:0:0:0:
64,192,152207,1,0,0:0:0:0:
192,192,152207,1,0,0:0:0:0:
64,192,152346,1,0,0:0:0:0:
320,192,152346,1,2,0:0:0:0:
448,192,152346,1,0,0:0:0:0:
448,192,152486,1,0,0:0:0:0:
320,192,152486,1,0,0:0:0:0:
64,192,152625,1,0,0:0:0:0:
192,192,152625,1,2,0:0:0:0:
320,192,152625,1,0,0:0:0:0:
448,192,152765,1,0,0:0:0:0:
64,192,152765,1,0,0:0:0:0:
192,192,152904,1,2,0:0:0:0:
448,192,152904,1,0,0:0:0:0:
320,192,152904,128,0,153090:0:0:0:0:
64,192,153184,1,0,0:0:0:0:
192,192,153184,1,2,0:0:0:0:
448,192,153184,1,0,0:0:0:0:
320,192,153323,1,0,0:0:0:0:
448,192,153323,1,0,0:0:0:0:
64,192,153463,1,0,0:0:0:0:
192,192,153463,1,0,0:0:0:0:
320,192,153463,1,2,0:0:0:0:
64,192,153602,1,0,0:0:0:0:
192,192,153602,1,0,0:0:0:0:
64,192,153742,1,0,0:0:0:0:
320,192,153742,1,2,0:0:0:0:
448,192,153742,1,0,0:0:0:0:
192,192,153881,1,0,0:0:0:0:
448,192,153881,1,0,0:0:0:0:
64,192,154021,1,0,0:0:0:0:
320,192,154021,1,2,0:0:0:0:
192,192,154021,128,0,154207:0:0:0:0:
64,192,154300,1,0,0:0:0:0:
320,192,154300,1,2,0:0:0:0:
448,192,154300,1,0,0:0:0:0:
64,192,154439,1,0,0:0:0:0:
192,192,154439,1,0,0:0:0:0:
192,192,154579,1,2,0:0:0:0:
320,192,154579,1,0,0:0:0:0:
448,192,154579,1,0,0:0:0:0:
320,192,154718,1,0,0:0:0:0:
448,192,154718,1,0,0:0:0:0:
64,192,154858,1,0,0:0:0:0:
192,192,154858,1,2,0:0:0:0:
448,192,154858,1,0,0:0:0:0:
192,192,154997,1,0,0:0:0:0:
320,192,154997,1,0,0:0:0:0:
320,192,155137,1,2,0:0:0:0:
448,192,155137,1,0,0:0:0:0:
64,192,155137,128,0,155323:0:0:0:0:
192,192,155416,1,0,0:0:0:0:
320,192,155416,1,2,0:0:0:0:
448,192,155416,1,0,0:0:0:0:
320,192,155556,1,0,0:0:0:0:
448,192,155556,1,0,0:0:0:0:
64,192,155695,1,0,0:0:0:0:
192,192,155695,1,2,0:0:0:0:
448,192,155695,1,0,0:0:0:0:
320,192,155765,1,0,0:0:0:0:
64,192,155835,1,0,0:0:0:0:
192,192,155835,1,2,0:0:0:0:
64,192,155974,1,0,0:0:0:0:
192,192,155974,1,2,0:0:0:0:
448,192,155974,1,0,0:0:0:0:
448,192,156114,1,0,0:0:0:0:
320,192,156114,1,0,0:0:0:0:
64,192,156253,1,0,0:0:0:0:
192,192,156253,1,2,0:0:0:0:
448,192,156253,128,0,156439:0:0:0:0:
64,192,156532,1,0,0:0:0:0:
192,192,156532,1,2,0:0:0:0:
320,192,156532,1,0,0:0:0:0:
320,192,156672,1,0,0:0:0:0:
448,192,156672,1,0,0:0:0:0:
64,192,156811,1,0,0:0:0:0:
192,192,156811,1,2,0:0:0:0:
448,192,156811,1,0,0:0:0:0:
64,192,156951,1,0,0:0:0:0:
192,192,156951,1,0,0:0:0:0:
320,192,157090,1,2,0:0:0:0:
448,192,157090,1,0,0:0:0:0:
192,192,157090,1,0,0:0:0:0:
448,192,157230,1,0,0:0:0:0:
64,192,157230,1,0,0:0:0:0:
64,192,157370,128,0,157649:0:0:0:0:
192,192,157370,1,0,0:0:0:0:
320,192,157370,1,2,0:0:0:0:
192,192,157649,128,0,157928:0:0:0:0:
320,192,157649,1,2,0:0:0:0:
448,192,157649,1,0,0:0:0:0:
320,192,157928,128,2,158207:0:0:0:0:
64,192,157928,1,0,0:0:0:0:
448,192,157928,1,0,0:0:0:0:
64,192,158207,1,0,0:0:0:0:
192,192,158207,1,2,0:0:0:0:
448,192,158207,1,0,0:0:0:0:
192,192,158346,1,0,0:0:0:0:
320,192,158346,1,0,0:0:0:0:
64,192,158486,1,0,0:0:0:0:
320,192,158486,1,2,0:0:0:0:
448,192,158486,128,0,158672:0:0:0:0:
64,192,158765,1,0,0:0:0:0:
192,192,158765,1,0,0:0:0:0:
320,192,158765,1,2,0:0:0:0:
64,192,158904,1,0,0:0:0:0:
448,192,158904,1,0,0:0:0:0:
448,192,159044,1,0,0:0:0:0:
192,192,159044,1,2,0:0:0:0:
320,192,159044,1,0,0:0:0:0:
192,192,159184,1,0,0:0:0:0:
64,192,159184,1,0,0:0:0:0:
320,192,159323,1,2,0:0:0:0:
448,192,159323,1,0,0:0:0:0:
64,192,159323,1,0,0:0:0:0:
192,192,159463,1,0,0:0:0:0:
448,192,159463,1,0,0:0:0:0:
64,192,159602,1,0,0:0:0:0:
448,192,159602,1,0,0:0:0:0:
320,192,159602,128,2,159788:0:0:0:0:
64,192,159742,1,0,0:0:0:0:
192,192,159742,1,2,0:0:0:0:
64,192,159881,1,0,0:0:0:0:
192,192,159881,1,2,0:0:0:0:
448,192,159881,1,0,0:0:0:0:
320,192,160021,1,0,0:0:0:0:
448,192,160021,1,0,0:0:0:0:
192,192,160160,1,0,0:0:0:0:
320,192,160160,1,2,0:0:0:0:
64,192,160160,1,0,0:0:0:0:
448,192,160230,1,0,0:0:0:0:
192,192,160300,1,2,0:0:0:0:
64,192,160300,1,0,0:0:0:0:
448,192,160439,1,0,0:0:0:0:
192,192,160439,1,0,0:0:0:0:
320,192,160439,1,2,0:0:0:0:
448,192,160579,1,0,0:0:0:0:
320,192,160579,1,2,0:0:0:0:
64,192,160579,1,0,0:0:0:0:
64,192,160718,1,4,0:0:0:0:
192,192,160718,1,2,0:0:0:0:
320,192,160718,128,0,160904:0:0:0:0:
64,192,160997,1,0,0:0:0:0:
192,192,160997,1,2,0:0:0:0:
448,192,160997,1,0,0:0:0:0:
192,192,161137,1,0,0:0:0:0:
320,192,161137,1,0,0:0:0:0:
64,192,161277,1,0,0:0:0:0:
448,192,161277,1,0,0:0:0:0:
320,192,161277,1,2,0:0:0:0:
64,192,161416,1,0,0:0:0:0:
192,192,161416,1,0,0:0:0:0:
192,192,161556,1,0,0:0:0:0:
320,192,161556,1,2,0:0:0:0:
448,192,161556,1,0,0:0:0:0:
320,192,161695,1,0,0:0:0:0:
448,192,161695,1,0,0:0:0:0:
192,192,161835,128,0,162114:0:0:0:0:
64,192,161835,1,0,0:0:0:0:
320,192,161835,1,2,0:0:0:0:
320,192,162114,128,2,162393:0:0:0:0:
64,192,162114,1,0,0:0:0:0:
448,192,162114,1,0,0:0:0:0:
448,192,162393,128,0,162672:0:0:0:0:
192,192,162393,1,2,0:0:0:0:
64,192,162393,1,0,0:0:0:0:
64,192,162672,1,0,0:0:0:0:
192,192,162672,1,0,0:0:0:0:
320,192,162672,1,2,0:0:0:0:
192,192,162811,1,0,0:0:0:0:
448,192,162811,1,0,0:0:0:0:
320,192,162951,1,2,0:0:0:0:
448,192,162951,1,0,0:0:0:0:
64,192,162951,128,0,163137:0:0:0:0:
192,192,163230,1,0,0:0:0:0:
320,192,163230,1,2,0:0:0:0:
448,192,163230,1,0,0:0:0:0:
64,192,163370,1,0,0:0:0:0:
192,192,163370,1,0,0:0:0:0:
64,192,163509,1,0,0:0:0:0:
192,192,163509,1,2,0:0:0:0:
448,192,163509,1,0,0:0:0:0:
320,192,163649,1,0,0:0:0:0:
448,192,163649,1,0,0:0:0:0:
320,192,163788,1,2,0:0:0:0:
448,192,163788,1,0,0:0:0:0:
192,192,163788,1,0,0:0:0:0:
64,192,163928,1,0,0:0:0:0:
320,192,163928,1,0,0:0:0:0:
64,192,164067,1,0,0:0:0:0:
448,192,164067,1,0,0:0:0:0:
192,192,164067,128,2,164253:0:0:0:0:
64,192,164346,1,0,0:0:0:0:
320,192,164346,1,2,0:0:0:0:
448,192,164346,1,0,0:0:0:0:
320,192,164486,1,0,0:0:0:0:
448,192,164486,1,0,0:0:0:0:
64,192,164625,1,0,0:0:0:0:
192,192,164625,1,2,0:0:0:0:
448,192,164625,1,0,0:0:0:0:
64,192,164765,1,0,0:0:0:0:
320,192,164765,1,0,0:0:0:0:
192,192,164765,1,2,0:0:0:0:
192,192,164904,1,2,0:0:0:0:
320,192,164904,1,0,0:0:0:0:
448,192,164904,1,0,0:0:0:0:
64,192,165044,1,0,0:0:0:0:
320,192,165044,1,0,0:0:0:0:
192,192,165184,1,2,0:0:0:0:
448,192,165184,128,0,165370:0:0:0:0:
64,192,165184,1,0,0:0:0:0:
64,192,165463,1,0,0:0:0:0:
192,192,165463,1,2,0:0:0:0:
320,192,165463,1,0,0:0:0:0:
448,192,165602,1,0,0:0:0:0:
64,192,165602,1,0,0:0:0:0:
448,192,165742,1,0,0:0:0:0:
192,192,165742,1,0,0:0:0:0:
320,192,165742,1,2,0:0:0:0:
64,192,165881,1,0,0:0:0:0:
320,192,165881,1,0,0:0:0:0:
64,192,166021,1,0,0:0:0:0:
192,192,166021,1,2,0:0:0:0:
448,192,166021,1,0,0:0:0:0:
448,192,166160,1,0,0:0:0:0:
192,192,166160,1,0,0:0:0:0:
320,192,166300,128,2,166579:0:0:0:0:
64,192,166300,1,0,0:0:0:0:
448,192,166300,1,0,0:0:0:0:
192,192,166579,128,2,166858:0:0:0:0:
64,192,166579,1,0,0:0:0:0:
448,192,166579,1,0,0:0:0:0:
64,192,166858,128,0,167137:0:0:0:0:
320,192,166858,1,2,0:0:0:0:
448,192,166858,1,0,0:0:0:0:
192,192,167137,1,2,0:0:0:0:
448,192,167137,1,0,0:0:0:0:
320,192,167137,1,0,0:0:0:0:
192,192,167277,1,0,0:0:0:0:
448,192,167277,1,0,0:0:0:0:
64,192,167416,1,0,0:0:0:0:
320,192,167416,1,2,0:0:0:0:
192,192,167416,128,0,167625:0:0:0:0:
64,192,167625,1,0,0:0:0:0:
320,192,167625,1,2,0:0:0:0:
448,192,167625,128,0,167765:0:0:0:0:
192,192,167835,1,0,0:0:0:0:
320,192,167835,1,2,0:0:0:0:
64,192,167835,128,0,167904:0:0:0:0:
192,192,167974,1,0,0:0:0:0:
448,192,167974,1,0,0:0:0:0:
320,192,167974,128,2,168184:0:0:0:0:
64,192,168184,1,0,0:0:0:0:
192,192,168184,1,2,0:0:0:0:
448,192,168184,128,0,168323:0:0:0:0:
64,192,168393,1,0,0:0:0:0:
320,192,168393,1,0,0:0:0:0:
192,192,168393,128,2,168463:0:0:0:0:
448,192,168532,1,0,0:0:0:0:
320,192,168532,1,2,0:0:0:0:
192,192,168602,1,2,0:0:0:0:
64,192,168602,1,0,0:0:0:0:
448,192,168672,1,0,0:0:0:0:
320,192,168672,1,2,0:0:0:0:
192,192,168742,1,2,0:0:0:0:
64,192,168742,1,0,0:0:0:0:
320,192,168811,1,2,0:0:0:0:
448,192,168811,1,0,0:0:0:0:
192,192,168881,1,2,0:0:0:0:
64,192,168881,1,0,0:0:0:0:
448,192,168951,1,0,0:0:0:0:
320,192,168951,1,2,0:0:0:0:
64,192,169021,1,2,0:0:0:0:
192,192,169090,1,0,0:0:0:0:
320,192,169090,1,2,0:0:0:0:
448,192,169090,1,0,0:0:0:0:
64,192,169230,1,0,0:0:0:0:
192,192,169230,1,0,0:0:0:0:
448,192,169370,128,0,169439:2:0:0:0:
192,192,169509,1,0,0:0:0:0:
320,192,169649,1,2,0:0:0:0:
448,192,169649,1,4,0:0:0:0:
64,192,169649,128,0,170346:0:0:0:0:
192,192,170486,128,0,170625:2:0:0:0:
320,192,170625,128,0,170765:2:0:0:0:
448,192,170765,128,0,171463:0:0:0:0:
64,192,171602,128,0,171742:2:0:0:0:
320,192,171742,128,0,171881:2:0:0:0:
192,192,171881,128,0,172579:0:0:0:0:
64,192,172718,128,0,172858:2:0:0:0:
448,192,172858,128,0,172997:2:0:0:0:
320,192,172997,128,0,173416:0:0:0:0:
64,192,173556,128,0,173974:2:0:0:0:
192,192,173835,128,0,174114:2:0:0:0:
448,192,174114,128,0,174672:0:0:0:0:
320,192,174602,128,0,174742:2:0:0:0:
64,192,174672,128,0,175090:2:0:0:0:
192,192,174916,128,0,175370:2:0:0:0:
448,192,175230,128,0,175684:0:0:0:0:
320,192,175509,128,0,175614:2:0:0:0:
192,192,175544,128,0,175788:2:0:0:0:
64,192,175788,128,0,176207:2:0:0:0:
448,192,176067,128,0,176486:2:0:0:0:
64,192,176346,128,0,176765:0:0:0:0:
448,192,176625,128,0,177044:2:0:0:0:
192,192,176904,128,0,177184:2:0:0:0:
320,192,177184,128,0,177253:2:0:0:0:
320,192,177323,128,0,178579:2:0:0:0:
64,192,177463,1,0,0:0:0:0:
192,192,177881,128,0,178579:2:0:0:70:blank.wav
448,192,178579,1,8,0:0:0:0:
64,192,178579,128,4,179277:0:0:0:0:
448,192,178858,1,8,0:0:0:0:
192,192,178858,1,0,0:0:0:0:
320,192,179137,1,8,0:0:0:0:
192,192,179137,1,0,0:0:0:0:
448,192,179416,1,8,0:0:0:0:
192,192,179416,128,0,179556:2:0:0:0:
320,192,179556,128,0,179695:2:0:0:0:
192,192,179695,1,8,0:0:0:0:
448,192,179695,128,0,180393:0:0:0:0:
320,192,179974,1,0,0:0:0:0:
64,192,179974,1,8,0:0:0:0:
192,192,180253,1,0,0:0:0:0:
64,192,180253,1,8,0:0:0:0:
320,192,180532,1,8,0:0:0:0:
64,192,180532,128,0,180672:2:0:0:0:
192,192,180672,128,0,180811:2:0:0:0:
448,192,180672,1,8,0:0:0:0:
448,192,180811,1,8,0:0:0:0:
320,192,180811,128,0,181509:0:0:0:0:
448,192,181090,1,0,0:0:0:0:
64,192,181090,1,8,0:0:0:0:
192,192,181370,1,0,0:0:0:0:
64,192,181370,1,8,0:0:0:0:
192,192,181649,1,8,0:0:0:0:
448,192,181649,128,0,181788:2:0:0:0:
64,192,181788,128,0,181928:2:0:0:0:
320,192,181928,1,8,0:0:0:0:
192,192,181928,128,0,182346:0:0:0:0:
448,192,182067,1,8,0:0:0:0:
64,192,182067,1,0,0:0:0:0:
64,192,182207,1,0,0:0:0:0:
320,192,182207,1,8,0:0:0:0:
448,192,182486,1,8,0:0:0:0:
320,192,182486,128,0,182765:2:0:0:0:
64,192,182625,1,8,0:0:0:0:
192,192,182695,1,8,0:0:0:0:
64,192,182765,1,8,0:0:0:0:
448,192,182765,128,0,183044:2:0:0:0:
192,192,182904,1,0,0:0:0:0:
320,192,182904,1,8,0:0:0:0:
64,192,183044,1,8,0:0:0:0:
192,192,183044,128,0,183602:0:0:0:0:
448,192,183253,1,8,0:0:0:0:
64,192,183323,1,0,0:0:0:0:
320,192,183323,1,8,0:0:0:0:
448,192,183463,128,8,183602:0:0:0:0:
320,192,183602,1,8,0:0:0:0:
64,192,183602,128,0,183881:2:0:0:0:
192,192,183811,1,8,0:0:0:0:
448,192,183881,1,8,0:0:0:0:
320,192,183881,128,0,184160:2:0:0:0:
192,192,184021,1,8,0:0:0:0:
64,192,184160,1,8,0:0:0:0:
448,192,184160,128,0,184439:0:0:0:0:
320,192,184370,1,8,0:0:0:0:
64,192,184439,1,8,0:0:0:0:
192,192,184439,128,0,184718:2:0:0:0:
320,192,184579,1,8,0:0:0:0:
64,192,184718,1,8,0:0:0:0:
320,192,184718,128,0,184997:2:0:0:0:
192,192,184928,1,8,0:0:0:0:
448,192,184997,1,8,0:0:0:0:
64,192,184997,128,0,185277:2:0:0:0:
192,192,185137,1,8,0:0:0:0:
192,192,185277,1,0,0:0:0:0:
320,192,185277,1,0,2:0:0:0:
448,192,185277,128,0,186393:0:0:0:0:
192,192,185416,1,0,2:0:0:0:
320,192,185416,1,0,0:0:0:0:
64,192,185486,1,0,2:0:0:0:
320,192,185556,1,0,2:0:0:0:
192,192,185556,1,0,0:0:0:0:
192,192,185695,1,0,2:0:0:0:
64,192,185695,1,0,0:0:0:0:
320,192,185835,1,0,0:0:0:0:
64,192,185835,1,0,2:0:0:0:
64,192,185974,1,0,0:0:0:0:
192,192,185974,1,0,2:0:0:0:
320,192,186044,1,0,2:0:0:0:
192,192,186114,1,0,0:0:0:0:
64,192,186114,1,0,2:0:0:0:
320,192,186253,1,0,2:0:0:0:
64,192,186253,1,0,0:0:0:0:
320,192,186393,1,0,2:0:0:0:
192,192,186393,1,0,0:0:0:0:
64,192,186463,1,0,2:0:0:0:
448,192,186532,1,0,2:0:0:0:
320,192,186602,1,0,2:0:0:0:
192,192,186672,1,0,2:0:0:0:
64,192,186672,1,0,0:0:0:0:
448,192,186742,1,0,2:0:0:0:
320,192,186811,1,0,2:0:0:0:
192,192,186881,1,0,2:0:0:0:
64,192,186951,1,0,2:0:0:0:
448,192,186951,128,0,187090:0:0:0:0:
320,192,187021,1,0,2:0:0:0:
192,192,187090,128,0,187230:0:0:0:0:
320,192,187160,1,0,2:0:0:0:
64,192,187230,128,0,187300:2:0:0:0:
448,192,187230,128,0,187370:0:0:0:0:
320,192,187370,128,0,187509:0:0:0:0:
192,192,187509,1,2,0:0:0:0:
448,192,187509,1,4,0:0:0:0:
64,192,187509,128,0,187695:0:0:0:0:
192,192,187788,1,0,0:0:0:0:
320,192,187788,1,2,0:0:0:0:
448,192,187788,1,0,0:0:0:0:
64,192,187928,1,0,0:0:0:0:
192,192,187928,1,0,0:0:0:0:
64,192,188067,1,0,0:0:0:0:
320,192,188067,1,2,0:0:0:0:
448,192,188067,1,0,0:0:0:0:
320,192,188207,1,0,0:0:0:0:
448,192,188207,1,0,0:0:0:0:
64,192,188346,1,0,0:0:0:0:
192,192,188346,1,2,0:0:0:0:
448,192,188346,1,0,0:0:0:0:
192,192,188486,1,0,0:0:0:0:
320,192,188486,1,0,0:0:0:0:
64,192,188625,1,0,0:0:0:0:
448,192,188625,1,2,0:0:0:0:
192,192,188625,128,0,188811:0:0:0:0:
448,192,188904,1,0,0:0:0:0:
320,192,188904,1,2,0:0:0:0:
64,192,188904,1,0,0:0:0:0:
320,192,189044,1,0,0:0:0:0:
192,192,189044,1,0,0:0:0:0:
448,192,189184,1,0,0:0:0:0:
64,192,189184,1,0,0:0:0:0:
192,192,189184,1,2,0:0:0:0:
320,192,189323,1,0,0:0:0:0:
64,192,189323,1,0,0:0:0:0:
192,192,189463,1,2,0:0:0:0:
320,192,189463,1,0,0:0:0:0:
448,192,189463,1,0,0:0:0:0:
320,192,189602,1,0,0:0:0:0:
448,192,189602,1,0,0:0:0:0:
320,192,189742,1,0,0:0:0:0:
192,192,189742,128,2,189928:0:0:0:0:
64,192,189742,1,0,0:0:0:0:
320,192,190021,1,2,0:0:0:0:
448,192,190021,1,0,0:0:0:0:
64,192,190021,1,0,0:0:0:0:
64,192,190160,1,0,0:0:0:0:
192,192,190160,1,0,0:0:0:0:
64,192,190300,1,0,0:0:0:0:
320,192,190300,1,2,0:0:0:0:
448,192,190300,1,0,0:0:0:0:
192,192,190439,1,0,0:0:0:0:
320,192,190439,1,0,0:0:0:0:
64,192,190579,1,0,0:0:0:0:
192,192,190579,1,2,0:0:0:0:
448,192,190579,1,0,0:0:0:0:
64,192,190718,1,0,0:0:0:0:
448,192,190718,1,0,0:0:0:0:
448,192,190858,1,0,0:0:0:0:
192,192,190858,1,2,0:0:0:0:
320,192,190858,128,0,191044:0:0:0:0:
64,192,191137,1,0,0:0:0:0:
192,192,191137,1,2,0:0:0:0:
448,192,191137,1,0,0:0:0:0:
192,192,191277,1,0,0:0:0:0:
320,192,191277,1,0,0:0:0:0:
448,192,191416,1,0,0:0:0:0:
192,192,191416,1,0,0:0:0:0:
320,192,191416,1,2,0:0:0:0:
64,192,191486,1,0,0:0:0:0:
448,192,191556,1,0,0:0:0:0:
320,192,191556,1,2,0:0:0:0:
448,192,191695,1,0,0:0:0:0:
192,192,191695,1,2,0:0:0:0:
64,192,191695,1,0,0:0:0:0:
64,192,191835,1,0,0:0:0:0:
192,192,191835,1,0,0:0:0:0:
64,192,191974,1,0,0:0:0:0:
320,192,191974,1,2,0:0:0:0:
448,192,191974,128,0,192160:0:0:0:0:
64,192,192253,1,0,0:0:0:0:
192,192,192253,1,2,0:0:0:0:
320,192,192253,1,0,0:0:0:0:
192,192,192393,1,0,0:0:0:0:
320,192,192393,1,0,0:0:0:0:
64,192,192532,1,0,0:0:0:0:
320,192,192532,1,2,0:0:0:0:
448,192,192532,1,0,0:0:0:0:
64,192,192672,1,0,0:0:0:0:
192,192,192672,1,0,0:0:0:0:
192,192,192811,1,2,0:0:0:0:
320,192,192811,1,0,0:0:0:0:
448,192,192811,1,0,0:0:0:0:
320,192,192951,1,0,0:0:0:0:
448,192,192951,1,0,0:0:0:0:
64,192,193090,128,0,193370:0:0:0:0:
192,192,193090,1,2,0:0:0:0:
320,192,193090,1,0,0:0:0:0:
192,192,193370,128,0,193649:0:0:0:0:
320,192,193370,1,2,0:0:0:0:
448,192,193370,1,0,0:0:0:0:
320,192,193649,128,2,193928:0:0:0:0:
64,192,193649,1,0,0:0:0:0:
448,192,193649,1,0,0:0:0:0:
64,192,193928,1,0,0:0:0:0:
192,192,193928,1,2,0:0:0:0:
448,192,193928,1,0,0:0:0:0:
448,192,194067,1,0,0:0:0:0:
64,192,194067,1,0,0:0:0:0:
64,192,194207,1,0,0:0:0:0:
320,192,194207,1,0,0:0:0:0:
192,192,194207,128,2,194393:0:0:0:0:
64,192,194486,1,0,0:0:0:0:
448,192,194486,1,0,0:0:0:0:
320,192,194486,1,2,0:0:0:0:
192,192,194625,1,0,0:0:0:0:
64,192,194625,1,0,0:0:0:0:
448,192,194765,1,0,0:0:0:0:
320,192,194765,1,2,0:0:0:0:
192,192,194765,1,0,0:0:0:0:
448,192,194904,1,0,0:0:0:0:
64,192,194904,1,0,0:0:0:0:
320,192,195044,1,0,0:0:0:0:
64,192,195044,1,0,0:0:0:0:
192,192,195044,1,2,0:0:0:0:
320,192,195184,1,0,0:0:0:0:
448,192,195184,1,0,0:0:0:0:
320,192,195323,1,2,0:0:0:0:
64,192,195323,1,0,0:0:0:0:
448,192,195323,128,0,195509:0:0:0:0:
64,192,195463,1,0,0:0:0:0:
192,192,195463,1,2,0:0:0:0:
320,192,195602,1,0,0:0:0:0:
192,192,195602,1,2,0:0:0:0:
64,192,195602,1,0,0:0:0:0:
448,192,195742,1,0,0:0:0:0:
192,192,195742,1,0,0:0:0:0:
320,192,195881,1,0,0:0:0:0:
64,192,195881,1,2,0:0:0:0:
448,192,195881,1,0,0:0:0:0:
192,192,195951,1,0,0:0:0:0:
320,192,196021,1,2,0:0:0:0:
448,192,196021,1,0,0:0:0:0:
64,192,196160,1,0,0:0:0:0:
192,192,196160,1,2,0:0:0:0:
320,192,196160,1,0,0:0:0:0:
448,192,196300,1,0,0:0:0:0:
192,192,196300,1,2,0:0:0:0:
64,192,196300,1,0,0:0:0:0:
320,192,196439,128,0,196625:0:0:0:0:
448,192,196439,1,4,0:0:0:0:
192,192,196439,1,2,0:0:0:0:
64,192,196718,1,0,0:0:0:0:
192,192,196718,1,2,0:0:0:0:
448,192,196718,1,0,0:0:0:0:
192,192,196858,1,0,0:0:0:0:
320,192,196858,1,0,0:0:0:0:
64,192,196997,1,0,0:0:0:0:
448,192,196997,1,0,0:0:0:0:
320,192,196997,1,2,0:0:0:0:
64,192,197137,1,0,0:0:0:0:
192,192,197137,1,0,0:0:0:0:
192,192,197277,1,0,0:0:0:0:
320,192,197277,1,2,0:0:0:0:
448,192,197277,1,0,0:0:0:0:
320,192,197416,1,0,0:0:0:0:
64,192,197416,1,0,0:0:0:0:
448,192,197556,128,0,197835:0:0:0:0:
320,192,197556,1,2,0:0:0:0:
64,192,197556,1,0,0:0:0:0:
320,192,197835,128,2,198114:0:0:0:0:
64,192,197835,1,0,0:0:0:0:
192,192,197835,1,0,0:0:0:0:
192,192,198114,128,2,198393:0:0:0:0:
64,192,198114,1,0,0:0:0:0:
448,192,198114,1,0,0:0:0:0:
64,192,198393,1,0,0:0:0:0:
320,192,198393,1,2,0:0:0:0:
448,192,198393,1,0,0:0:0:0:
64,192,198532,1,0,0:0:0:0:
320,192,198532,1,0,0:0:0:0:
64,192,198672,1,0,0:0:0:0:
192,192,198672,1,2,0:0:0:0:
448,192,198672,128,0,198858:0:0:0:0:
64,192,198951,1,0,0:0:0:0:
192,192,198951,1,0,0:0:0:0:
320,192,198951,1,2,0:0:0:0:
192,192,199090,1,0,0:0:0:0:
448,192,199090,1,0,0:0:0:0:
64,192,199230,1,0,0:0:0:0:
320,192,199230,1,2,0:0:0:0:
448,192,199230,1,0,0:0:0:0:
192,192,199370,1,0,0:0:0:0:
64,192,199370,1,0,0:0:0:0:
192,192,199509,1,2,0:0:0:0:
448,192,199509,1,0,0:0:0:0:
320,192,199509,1,0,0:0:0:0:
320,192,199649,1,0,0:0:0:0:
64,192,199649,1,0,0:0:0:0:
64,192,199788,128,0,199974:0:0:0:0:
320,192,199788,1,2,0:0:0:0:
448,192,199788,1,0,0:0:0:0:
192,192,200067,1,2,0:0:0:0:
448,192,200067,1,0,0:0:0:0:
320,192,200067,1,0,0:0:0:0:
64,192,200207,1,0,0:0:0:0:
192,192,200207,1,0,0:0:0:0:
64,192,200346,1,0,0:0:0:0:
320,192,200346,1,2,0:0:0:0:
448,192,200346,1,0,0:0:0:0:
320,192,200486,1,0,0:0:0:0:
448,192,200486,1,0,0:0:0:0:
192,192,200486,1,2,0:0:0:0:
64,192,200625,1,0,0:0:0:0:
192,192,200625,1,2,0:0:0:0:
448,192,200625,1,0,0:0:0:0:
64,192,200765,1,0,0:0:0:0:
320,192,200765,1,0,0:0:0:0:
320,192,200904,128,2,201090:0:0:0:0:
64,192,200904,1,0,0:0:0:0:
448,192,200904,1,0,0:0:0:0:
192,192,201184,1,2,0:0:0:0:
64,192,201184,1,0,0:0:0:0:
448,192,201184,1,0,0:0:0:0:
320,192,201323,1,0,0:0:0:0:
448,192,201323,1,0,0:0:0:0:
64,192,201463,1,0,0:0:0:0:
320,192,201463,1,0,0:0:0:0:
192,192,201463,1,2,0:0:0:0:
192,192,201602,1,0,0:0:0:0:
448,192,201602,1,0,0:0:0:0:
64,192,201742,1,0,0:0:0:0:
448,192,201742,1,0,0:0:0:0:
320,192,201742,1,2,0:0:0:0:
64,192,201881,1,0,0:0:0:0:
320,192,201881,1,0,0:0:0:0:
192,192,202021,128,2,202300:0:0:0:0:
448,192,202021,1,0,0:0:0:0:
64,192,202021,1,0,0:0:0:0:
320,192,202300,128,2,202579:0:0:0:0:
64,192,202300,1,0,0:0:0:0:
448,192,202300,1,0,0:0:0:0:
448,192,202579,128,0,202858:0:0:0:0:
192,192,202579,1,2,0:0:0:0:
64,192,202579,1,0,0:0:0:0:
192,192,202858,1,0,0:0:0:0:
64,192,202858,1,0,0:0:0:0:
320,192,202858,1,2,0:0:0:0:
192,192,202997,1,0,0:0:0:0:
448,192,202997,1,0,0:0:0:0:
448,192,203137,1,0,0:0:0:0:
192,192,203137,1,0,0:0:0:0:
320,192,203137,128,2,203346:0:0:0:0:
64,192,203346,1,0,0:0:0:0:
192,192,203346,1,2,0:0:0:0:
448,192,203346,128,0,203486:0:0:0:0:
192,192,203556,1,2,0:0:0:0:
320,192,203556,1,0,0:0:0:0:
64,192,203556,128,0,203625:0:0:0:0:
192,192,203695,1,0,0:0:0:0:
448,192,203695,1,0,0:0:0:0:
320,192,203695,128,2,203904:0:0:0:0:
64,192,203904,1,0,0:0:0:0:
448,192,203904,1,0,0:0:0:0:
192,192,203904,128,2,204044:0:0:0:0:
320,192,204114,1,2,0:0:0:0:
64,192,204114,1,0,0:0:0:0:
448,192,204114,128,0,204184:0:0:0:0:
64,192,204253,1,0,0:0:0:0:
192,192,204253,1,2,0:0:0:0:
448,192,204323,1,0,0:0:0:0:
320,192,204323,1,2,0:0:0:0:
192,192,204393,1,2,0:0:0:0:
64,192,204393,1,0,0:0:0:0:
320,192,204463,1,2,0:0:0:0:
448,192,204463,1,0,0:0:0:0:
192,192,204532,1,2,0:0:0:0:
64,192,204532,1,0,0:0:0:0:
320,192,204602,1,2,0:0:0:0:
448,192,204602,1,0,0:0:0:0:
192,192,204672,1,2,0:0:0:0:
64,192,204672,1,0,0:0:0:0:
448,192,204742,1,2,0:0:0:0:
320,192,204811,1,0,0:0:0:0:
192,192,204811,1,2,0:0:0:0:
64,192,204811,1,0,0:0:0:0:
320,192,204951,1,0,0:0:0:0:
448,192,204951,1,0,0:0:0:0:
64,192,205090,128,0,205160:2:0:0:0:
192,192,205090,128,0,205370:0:0:0:0:
320,192,205230,1,0,0:0:0:0:
64,192,205370,128,0,206067:2:0:0:0:
448,192,205370,128,0,205556:0:0:0:0:
320,192,205928,128,0,206625:2:0:0:0:
448,192,206486,128,0,207044:2:0:0:0:
192,192,207044,128,0,207253:2:0:0:0:
320,192,207253,128,0,207463:2:0:0:0:
192,192,207463,128,0,207602:2:0:0:0:
64,192,207602,128,0,209486:2:0:0:0:
192,192,209556,128,0,209835:2:0:0:0:
320,192,209695,128,0,209835:2:0:0:0:
64,192,209835,128,0,210532:2:0:0:0:
320,192,210393,128,0,211090:2:0:0:0:
448,192,210951,128,0,211509:2:0:0:0:
192,192,211509,128,0,211718:2:0:0:0:
448,192,211718,128,0,211928:2:0:0:0:
320,192,211928,128,0,212067:2:0:0:0:
64,192,212067,128,0,214160:2:0:0:0:
64,192,214300,128,0,214997:2:0:0:0:
320,192,214858,128,0,215556:2:0:0:0:
448,192,215416,128,0,215974:2:0:0:0:
192,192,215974,128,0,216184:2:0:0:0:
320,192,216184,128,0,216393:2:0:0:0:
192,192,216393,128,0,216532:2:0:0:0:
64,192,216532,128,0,218416:2:0:0:0:
192,192,218486,128,0,218765:2:0:0:0:
320,192,218625,128,0,218765:2:0:0:0:
64,192,218765,128,0,219463:2:0:0:0:
320,192,219323,128,0,220021:2:0:0:0:
448,192,219881,128,0,220439:2:0:0:0:
192,192,220439,128,0,220649:2:0:0:0:
448,192,220649,128,0,220858:2:0:0:0:
320,192,220858,128,0,220997:2:0:0:0:
64,192,220997,128,0,223090:2:0:0:0:
